<?xml version="1.0" standalone="no"?>
<!DOCTYPE svg PUBLIC "-//W3C//DTD SVG 1.1//EN" "http://www.w3.org/Graphics/SVG/1.1/DTD/svg11.dtd" >
<svg xmlns="http://www.w3.org/2000/svg">
<metadata></metadata>
<defs>
<font id="interstateblackblack" horiz-adv-x="1691" >
<font-face units-per-em="2048" ascent="1638" descent="-410" />
<missing-glyph horiz-adv-x="675" />
<glyph unicode="&#xfb01;" horiz-adv-x="1392" d="M74 786v289h114v105q0 166 73 236.5t231 70.5q72 0 133 -12.5t100 -32.5v-238q-49 23 -107 23q-41 0 -57 -15.5t-16 -52.5v-84h166v-289h-160v-786h-363v786h-114zM872 1335q0 78 59.5 128t151.5 50q96 0 155.5 -50t59.5 -128q0 -86 -59 -134t-156 -48q-92 0 -151.5 48 t-59.5 134zM899 0v1075h369v-1075h-369z" />
<glyph unicode="&#xfb02;" horiz-adv-x="1392" d="M74 786v289h114v105q0 166 73 236.5t231 70.5q72 0 133 -12.5t100 -32.5v-238q-49 23 -107 23q-41 0 -57 -15.5t-16 -52.5v-84h166v-289h-160v-786h-363v786h-114zM899 0v1346l369 147v-1493h-369z" />
<glyph horiz-adv-x="0" />
<glyph unicode="&#xd;" horiz-adv-x="675" />
<glyph unicode=" "  horiz-adv-x="675" />
<glyph unicode="&#x09;" horiz-adv-x="675" />
<glyph unicode="&#xa0;" horiz-adv-x="675" />
<glyph unicode="!" horiz-adv-x="716" d="M145 190q0 92 60.5 150.5t152.5 58.5t152.5 -58.5t60.5 -150.5q0 -45 -16 -83.5t-44 -67.5t-68 -45.5t-85 -16.5q-47 0 -86 16.5t-66.5 45.5t-44 67.5t-16.5 83.5zM156 922v512h405v-512l-67 -410h-271z" />
<glyph unicode="&#x22;" horiz-adv-x="1269" d="M117 1434h436l-80 -670h-276zM717 1434h436l-80 -670h-276z" />
<glyph unicode="#" horiz-adv-x="1638" d="M102 250v313h215v307h-215v314h215v250h373v-250h258v250h373v-250h215v-314h-215v-307h215v-313h-215v-250h-373v250h-258v-250h-373v250h-215zM668 537h303v360h-303v-360z" />
<glyph unicode="$" horiz-adv-x="1353" d="M70 162l192 301q39 -27 91.5 -52.5t108.5 -46t113.5 -33t106.5 -12.5q106 0 146 20.5t40 72.5q0 20 -11 36.5t-38.5 32t-75 30.5t-118.5 32q-129 31 -225.5 65.5t-160 87t-95 126t-31.5 182.5q0 166 100 275.5t281 147.5v211h385v-208q111 -16 200.5 -54.5t169.5 -95.5 l-192 -301q-96 66 -192.5 100.5t-207.5 34.5q-90 0 -118.5 -24.5t-28.5 -63.5q0 -20 11 -35.5t38 -29t72 -26.5t114 -30q135 -33 233.5 -71.5t162 -92t94.5 -127.5t31 -174q0 -96 -28 -169.5t-79 -127t-121.5 -87t-158.5 -50.5v-211h-385v207q-123 20 -231.5 63.5 t-192.5 96.5z" />
<glyph unicode="%" horiz-adv-x="2211" d="M61 1008q0 111 33 194.5t90.5 140t135 85t167.5 28.5t168 -27.5t134.5 -83t88 -139t31.5 -194.5t-32.5 -195t-90 -140t-135.5 -85t-168 -29t-167.5 27.5t-134 83t-88.5 139.5t-32 195zM362 1012q0 -129 31 -177.5t94 -48.5t92 46.5t29 175.5t-30.5 177t-92.5 48 q-66 0 -94.5 -46t-28.5 -175zM510 0l879 1434h313l-879 -1434h-313zM1303 422q0 111 32.5 194.5t90 140t135 85t168.5 28.5q90 0 167.5 -27.5t134 -82.5t88 -139t31.5 -195t-32.5 -195t-90 -140t-135 -85t-168.5 -29q-90 0 -167.5 28t-134 83t-88 139t-31.5 195zM1604 426 q0 -129 30.5 -177t94.5 -48q63 0 91.5 46t28.5 175t-30.5 177t-92.5 48q-66 0 -94 -46t-28 -175z" />
<glyph unicode="&#x26;" horiz-adv-x="1478" d="M53 365q0 70 25.5 131t66.5 112t95.5 93t111.5 75l-12 15q-53 61 -91 128.5t-38 151.5q0 96 37 169t103.5 121t156.5 71.5t197 23.5q154 0 265 -36t214 -95l-162 -295q-80 45 -154.5 70.5t-167.5 25.5q-47 0 -73.5 -17t-26.5 -44q0 -29 11.5 -50.5t35.5 -49.5l307 -357 q29 47 61 103.5t66 122.5l299 -156q-53 -92 -104 -171t-105 -149l312 -358h-449l-102 117q-98 -70 -207 -105t-240 -35q-92 0 -170.5 21.5t-137 69t-91.5 121t-33 176.5zM428 414q0 -53 33 -87t123 -34q80 0 151 47l-200 227q-106 -74 -107 -153z" />
<glyph unicode="'" horiz-adv-x="702" d="M127 1434h448l-79 -670h-289z" />
<glyph unicode="(" horiz-adv-x="880" d="M119 621q0 131 30.5 248.5t84 224t122 203t146.5 182.5l264 -158q-57 -90 -100 -171t-71 -162t-42 -169t-14 -188q0 -104 14 -193.5t42 -172.5t71 -164t100 -169l-264 -157q-78 86 -146.5 182t-122 201.5t-84 221.5t-30.5 241z" />
<glyph unicode=")" horiz-adv-x="880" d="M115 -68q57 88 100 170t70.5 163t42 168t14.5 190q0 104 -14.5 193t-42 172t-70.5 163t-100 170l264 158q76 -86 145.5 -182.5t122.5 -202t84 -221t31 -240.5q0 -131 -31 -249t-84 -224.5t-122.5 -202.5t-145.5 -182z" />
<glyph unicode="*" horiz-adv-x="1126" d="M61 815l349 123l-349 125l144 248l272 -226l-55 349h283l-58 -347l273 226l145 -246l-354 -127l354 -127l-145 -248l-273 223l58 -346h-283l55 351l-272 -222z" />
<glyph unicode="+" horiz-adv-x="1323" d="M113 528v353h362v379h373v-379h362v-353h-362v-378h-373v378h-362z" />
<glyph unicode="," horiz-adv-x="643" d="M117 -254l28 682h420l-196 -682h-252z" />
<glyph unicode="-" horiz-adv-x="991" d="M139 541v385h713v-385h-713z" />
<glyph unicode="." horiz-adv-x="643" d="M86 213q0 102 66.5 166.5t169.5 64.5q102 0 168.5 -64.5t66.5 -166.5t-66.5 -169t-168.5 -67t-169 67t-67 169z" />
<glyph unicode="/" horiz-adv-x="1044" d="M-33 -184l721 1802h389l-721 -1802h-389z" />
<glyph unicode="0" horiz-adv-x="1466" d="M84 715q0 178 49 316t136 232.5t207 143.5t259 49t258 -48t205 -141t135 -231.5t49 -316.5t-49 -316.5t-136 -232.5t-207 -143.5t-259 -49.5t-258 48.5t-205 141.5t-135 231.5t-49 316.5zM492 719q0 -199 63 -299.5t180 -100.5t178.5 98.5t61.5 297.5t-63.5 299 t-180.5 100t-178 -98t-61 -297z" />
<glyph unicode="1" horiz-adv-x="862" d="M82 987v252q70 4 119 16.5t83.5 35t57.5 58t39 85.5h332v-1434h-389v987h-242z" />
<glyph unicode="2" horiz-adv-x="1433" d="M109 0q4 180 48 317.5t120.5 242t185 181t244.5 136.5q57 25 90.5 43t52 34.5t25 31.5t6.5 38q0 47 -37 72.5t-123 25.5q-109 0 -213.5 -36.5t-212.5 -108.5l-182 293q137 88 283.5 137t330.5 49q268 0 405.5 -103.5t137.5 -299.5q0 -72 -14.5 -129.5t-52.5 -108.5 t-104.5 -98t-168.5 -94q-109 -49 -179.5 -90t-115.5 -77t-67.5 -68t-35.5 -64h748v-324h-1171z" />
<glyph unicode="3" horiz-adv-x="1402" d="M78 197l205 258q88 -68 188 -109t219 -41q125 0 180.5 36t55.5 110q0 76 -46 106.5t-157 30.5h-207v309h184q94 0 130 24.5t36 96.5q0 57 -46 87t-152 30q-104 0 -188.5 -32t-168.5 -91l-188 258q49 39 107.5 72.5t126 59t147.5 40t174 14.5q129 0 234.5 -21.5t181 -70.5 t116.5 -128t41 -192q0 -59 -16 -103t-42 -78t-60.5 -57.5t-71.5 -41.5q49 -12 95 -35.5t80 -61.5t54.5 -91t20.5 -121q0 -125 -44 -215t-125 -148.5t-198 -86.5t-262 -28q-184 0 -335.5 58.5t-268.5 161.5z" />
<glyph unicode="4" horiz-adv-x="1517" d="M84 256v291l772 887h393v-852h185v-336h-185v-246h-356v256h-809zM518 575q53 4 124 5.5t144 1.5h107v141v74t1 87t2 83.5t3 64.5q-14 -23 -29.5 -44t-36 -47t-46 -57.5t-60.5 -74.5l-20 -25q-57 -70 -102.5 -120t-86.5 -89z" />
<glyph unicode="5" horiz-adv-x="1456" d="M92 152l162 297q104 -61 224 -101.5t237 -40.5q139 0 195.5 48t56.5 134q0 84 -50.5 126t-142.5 42t-151.5 -21.5t-112.5 -60.5l-340 115l49 744h1045v-324h-723l-13 -199q59 29 130 46.5t180 17.5q117 0 211 -30t160.5 -88t103.5 -148t37 -209q0 -252 -169 -387.5 t-476 -135.5q-186 0 -333 47.5t-280 127.5z" />
<glyph unicode="6" horiz-adv-x="1425" d="M82 571q0 94 22.5 196.5t72.5 201t132 187.5t201 155.5t277.5 105.5t363.5 39v-326q-141 0 -249.5 -19t-190.5 -56t-140.5 -88.5t-99.5 -112.5q70 39 155 61.5t214 22.5q111 0 204 -26.5t160.5 -82t104.5 -139t37 -196.5q0 -121 -45.5 -217.5t-130.5 -163t-205.5 -101.5 t-272.5 -35q-135 0 -247.5 37t-192.5 112t-125 186.5t-45 258.5zM461 465q0 -78 60.5 -126t191.5 -48q113 0 181.5 45t68.5 131q0 84 -63.5 131t-178.5 47q-133 0 -196.5 -47t-63.5 -133z" />
<glyph unicode="7" horiz-adv-x="1417" d="M100 1110v324h1186v-287q-158 -145 -255 -276.5t-151.5 -266.5t-74 -282.5t-19.5 -321.5h-389q2 184 28 341t78 292t129 253t181 224h-713z" />
<glyph unicode="8" horiz-adv-x="1495" d="M94 446q0 70 21.5 122.5t55.5 91t73 63.5t73 39q-66 39 -113.5 104.5t-47.5 163.5q0 102 44 182t122.5 134.5t188.5 82t239 27.5t237.5 -27.5t187 -82t121.5 -134t43 -182.5q0 -98 -47 -159.5t-114 -104.5q35 -14 73.5 -40t72.5 -64.5t55.5 -92t21.5 -123.5 q0 -109 -46 -195.5t-131 -147t-207 -93.5t-272 -33q-152 0 -271.5 33t-204.5 93.5t-130 147.5t-45 195zM475 451q0 -74 69.5 -123t205.5 -49q135 0 202.5 49t67.5 123t-69.5 122t-205.5 48q-137 0 -203.5 -48.5t-66.5 -121.5zM537 1024q0 -53 48 -95t165 -42t162.5 42 t45.5 95q0 27 -11 52.5t-36.5 46t-66.5 32.5t-99 12q-59 0 -99 -12t-64.5 -32.5t-34.5 -46t-10 -52.5z" />
<glyph unicode="9" horiz-adv-x="1425" d="M80 940q0 121 45 217t129 162.5t206 101.5t273 35q135 0 248 -37t192.5 -111.5t124.5 -186.5t45 -259q0 -94 -22.5 -196.5t-72.5 -200.5t-132 -187.5t-200.5 -156t-277.5 -105.5t-364 -39v326q141 0 250 19.5t191 56.5t140 88t99 113q-70 -39 -154.5 -61.5t-213.5 -22.5 q-111 0 -204 26.5t-160.5 81.5t-104.5 138t-37 198zM463 967q0 -84 63.5 -131.5t178.5 -47.5q133 0 196.5 47.5t63.5 133.5q0 78 -60.5 126t-191.5 48q-113 0 -181.5 -45t-68.5 -131z" />
<glyph unicode=":" horiz-adv-x="643" d="M92 207q0 98 65.5 161.5t164.5 63.5q98 0 163.5 -63.5t65.5 -161.5q0 -49 -17.5 -91t-48 -73t-72.5 -48.5t-91 -17.5q-98 0 -164 66t-66 164zM92 872q0 98 65.5 162t164.5 64q98 0 163.5 -64t65.5 -162q0 -49 -17.5 -91t-48 -72.5t-72.5 -48t-91 -17.5t-91.5 17.5t-73 48 t-48 72.5t-17.5 91z" />
<glyph unicode=";" horiz-adv-x="643" d="M92 872q0 100 64.5 163t165.5 63q98 0 163.5 -63t65.5 -163q0 -49 -17.5 -91t-48 -72.5t-72.5 -48t-91 -17.5q-100 0 -165 65.5t-65 163.5zM96 -248l27 666h409l-192 -666h-244z" />
<glyph unicode="&#x3c;" horiz-adv-x="1054" d="M117 582v270l813 604v-479l-400 -256l400 -256v-488z" />
<glyph unicode="=" horiz-adv-x="1323" d="M164 238v372h995v-372h-995zM164 799v372h995v-372h-995z" />
<glyph unicode="&#x3e;" horiz-adv-x="1054" d="M125 -23v480l399 256l-399 256v487l813 -604v-270z" />
<glyph unicode="?" horiz-adv-x="1232" d="M43 1280q129 82 270.5 129t313.5 47q125 0 225 -24.5t171 -73.5t108.5 -123t37.5 -172q0 -123 -61 -199t-193 -139q-88 -43 -124.5 -91t-36.5 -122h-367q0 66 12.5 120t43 101t81.5 87t129 77q66 31 96.5 57.5t30.5 69.5q0 47 -37.5 72.5t-121.5 25.5 q-111 0 -208.5 -37.5t-187.5 -97.5zM354 190q0 92 60.5 150.5t152.5 58.5t152.5 -58.5t60.5 -150.5q0 -45 -16 -83.5t-44 -67.5t-68 -45.5t-85 -16.5q-47 0 -86 16.5t-66.5 45.5t-44 67.5t-16.5 83.5z" />
<glyph unicode="@" horiz-adv-x="1712" d="M117 717q0 154 55 289t153.5 234t234.5 157.5t296 58.5t296 -58.5t234.5 -156.5t153.5 -229.5t55 -274.5q0 -221 -79.5 -322.5t-221.5 -101.5q-88 0 -142 30t-89 71q-72 -47 -146.5 -72t-171.5 -25q-115 0 -184 69t-69 202q0 127 78.5 191.5t203.5 64.5q121 0 195 -39v55 q0 51 -33 71.5t-98 20.5q-113 0 -232 -53l-67 164q72 35 153.5 53.5t184.5 18.5q166 0 240.5 -77t74.5 -214v-256q0 -66 25.5 -100.5t87.5 -34.5q78 0 108.5 69.5t30.5 216.5q0 123 -44 227.5t-123 181.5t-186.5 120t-234.5 43q-135 0 -243.5 -46t-185.5 -126t-118 -188.5 t-41 -231.5q0 -135 45 -244.5t123 -187.5t185.5 -121t234.5 -43q70 0 136.5 13.5t123.5 41.5l58 -133q-160 -68 -318 -68q-154 0 -289 55.5t-234.5 154t-157.5 234.5t-58 296zM709 592q0 -41 27.5 -68.5t86.5 -27.5q35 0 77 12t69 27v122q-63 29 -146 29q-115 0 -114 -94z " />
<glyph unicode="A" horiz-adv-x="1560" d="M59 0l521 1434h401l520 -1434h-430l-78 252h-430l-78 -252h-426zM659 567h238l-27 95q-18 70 -32.5 121t-25.5 91.5t-19.5 74.5t-14.5 71q-6 -37 -14 -72t-19.5 -76t-25.5 -92t-33 -118z" />
<glyph unicode="B" horiz-adv-x="1468" d="M145 0v1434h693q266 0 383.5 -96.5t117.5 -276.5q0 -117 -50 -178.5t-122 -102.5q98 -41 151.5 -117.5t53.5 -199.5q0 -221 -133 -342t-405 -121h-689zM526 313h314q74 0 108.5 40.5t34.5 101.5q0 63 -35 100t-106 37h-316v-279zM526 895h299q70 0 97.5 31t27.5 82 q0 47 -26.5 79.5t-98.5 32.5h-299v-225z" />
<glyph unicode="C" horiz-adv-x="1404" d="M86 717q0 172 48 309t135 232.5t207 146.5t265 51q131 0 226.5 -27.5t164 -82t115.5 -133t84 -179.5l-360 -141q-18 49 -39 90t-47.5 68.5t-61.5 43t-84 15.5q-61 0 -106 -29.5t-75 -82t-43 -124t-13 -157.5q0 -82 13 -153.5t43 -125t75 -84t110 -30.5q47 0 82 12 t64 37.5t55.5 63.5t54.5 89l336 -178q-37 -72 -86 -138.5t-119.5 -117.5t-167 -83t-223.5 -32q-160 0 -281.5 56.5t-204.5 155t-125 233.5t-42 295z" />
<glyph unicode="D" horiz-adv-x="1478" d="M145 0v1434h502q168 0 305.5 -35t232.5 -118t147 -218t52 -338t-49 -341t-147 -223t-242.5 -123t-335.5 -38h-465zM547 340h86q92 0 157.5 19.5t107.5 63.5t60.5 117t18.5 179q0 98 -17.5 170t-56.5 117t-102.5 66.5t-155.5 21.5h-98v-754z" />
<glyph unicode="E" horiz-adv-x="1366" d="M145 0v1434h1098v-334h-704v-191h424v-329h-424v-246h718v-334h-1112z" />
<glyph unicode="F" horiz-adv-x="1347" d="M145 0v1434h1135v-338h-739v-199h448v-336h-448v-561h-396z" />
<glyph unicode="G" horiz-adv-x="1476" d="M86 717q0 160 43 295t128 233t209 154.5t288 56.5q135 0 231 -24.5t165 -74.5t117 -126t87 -176l-361 -142q-35 92 -87 144.5t-154 52.5q-70 0 -118 -29.5t-77 -82t-42 -124t-13 -157.5q0 -215 68.5 -309.5t207.5 -94.5q63 0 106.5 13.5t71 38t42 56.5t20.5 68h-260v297 h631v-174q0 -309 -164 -472t-477 -163q-147 0 -269.5 49.5t-209.5 144.5t-135 232.5t-48 313.5z" />
<glyph unicode="H" horiz-adv-x="1548" d="M145 0v1434h406v-523h446v523h406v-1434h-406v565h-446v-565h-406z" />
<glyph unicode="I" horiz-adv-x="716" d="M156 0v1434h405v-1434h-405z" />
<glyph unicode="J" horiz-adv-x="1413" d="M47 473l389 102q37 -123 88 -185t154 -62q96 0 143 60.5t47 164.5v881h406v-850q0 -141 -37 -253t-111.5 -191t-188.5 -121t-265 -42q-143 0 -248 35t-179.5 99.5t-122.5 156.5t-75 205z" />
<glyph unicode="K" horiz-adv-x="1503" d="M145 0v1434h406v-168q0 -92 -1 -184.5t-5 -170.5q23 35 55.5 82t70.5 98.5t76.5 102.5t73.5 94l115 146h483l-432 -506l481 -928h-471l-299 610l-147 -178v-432h-406z" />
<glyph unicode="L" horiz-adv-x="1259" d="M145 0v1434h402v-1088h635v-346h-1037z" />
<glyph unicode="M" horiz-adv-x="1728" d="M145 0v1434h365l176 -383q31 -70 60.5 -134.5t53 -121t41 -101.5t25.5 -76q18 61 65.5 173t115.5 260l176 383h360v-1434h-373v342q0 106 2 201.5t7 179.5q-16 -41 -37 -90t-43.5 -99.5t-45 -98.5t-40.5 -87l-189 -397l-188 397q-18 39 -41 87t-45.5 98.5t-43 99.5 t-36.5 90q4 -84 6 -179t2 -202v-342h-373z" />
<glyph unicode="N" horiz-adv-x="1548" d="M145 0v1434h351l315 -424q25 -33 58.5 -82t66.5 -98.5t59.5 -92.5t38.5 -65q-4 25 -6 68.5t-4 96t-2 107.5v98v392h381v-1434h-324l-342 473q-25 33 -57.5 81t-64 96t-59.5 91t-42 68q4 -25 6 -69t4 -96t2 -107.5v-98.5v-438h-381z" />
<glyph unicode="O" horiz-adv-x="1499" d="M86 715q0 178 49 316t137 232.5t211 143.5t269 49q145 0 267 -48t209 -141t136 -231.5t49 -316.5t-49 -316.5t-137 -232.5t-211 -143.5t-268 -49.5t-267.5 48.5t-210.5 141.5t-136 231.5t-48 316.5zM498 719q0 -195 66.5 -295t187.5 -100t185 98t64 293t-66.5 295 t-186.5 100q-121 0 -185.5 -98.5t-64.5 -292.5z" />
<glyph unicode="P" horiz-adv-x="1390" d="M145 0v1434h617q125 0 228.5 -26t177 -82t113.5 -147.5t40 -220.5q0 -137 -43 -231t-121 -152.5t-185.5 -84t-236.5 -25.5h-198v-465h-392zM537 788h208q98 0 139.5 41t41.5 123q0 72 -39 115t-135 43h-215v-322z" />
<glyph unicode="Q" horiz-adv-x="1499" d="M86 715q0 178 49 316t137 232.5t211 143.5t269 49q145 0 267 -48t209 -141t136 -231.5t49 -316.5q0 -162 -49 -292t-135 -228l117 -152l-269 -176l-104 147q-111 -41 -225 -41q-145 0 -267.5 48.5t-210.5 141.5t-136 231.5t-48 316.5zM498 719q0 -205 65.5 -310.5 t188.5 -105.5h18l-123 162l264 172l88 -127q19 82 19 205q0 195 -75 295t-195 100q-121 0 -185.5 -98.5t-64.5 -292.5z" />
<glyph unicode="R" horiz-adv-x="1466" d="M145 0v1434h641q125 0 228.5 -26t177.5 -81t114 -144t40 -216q0 -162 -70 -264.5t-189 -155.5l287 -547h-444l-234 483h-159v-483h-392zM537 797h233q98 0 139 40.5t41 118.5q0 68 -40 111t-134 43h-239v-313z" />
<glyph unicode="S" horiz-adv-x="1390" d="M90 152l193 311q39 -27 91 -52.5t108.5 -46t113.5 -33t106 -12.5q106 0 146.5 20.5t40.5 72.5q0 20 -11.5 36.5t-39 32t-74.5 30.5t-119 32q-129 31 -225 65.5t-159.5 87t-95.5 126t-32 182.5q0 100 40 184t113.5 143.5t178 92t233.5 32.5q184 0 320.5 -43t251.5 -123 l-193 -311q-96 66 -192.5 100.5t-206.5 34.5q-90 0 -119 -24.5t-29 -63.5q0 -20 11.5 -35.5t38 -29t71.5 -26.5t115 -30q135 -33 233.5 -71.5t162 -92t94 -127.5t30.5 -174q0 -123 -44 -211t-123 -143t-187.5 -82t-237.5 -27q-174 0 -332.5 50.5t-271.5 124.5z" />
<glyph unicode="T" horiz-adv-x="1372" d="M86 1087v347h1200v-347h-401v-1087h-398v1087h-401z" />
<glyph unicode="U" horiz-adv-x="1531" d="M137 612v822h406v-822q0 -133 54 -208.5t171 -75.5t169 75.5t52 208.5v822h406v-822q0 -170 -48.5 -290.5t-133.5 -197.5t-200.5 -112t-250.5 -35t-250 35t-198 112t-130 197.5t-47 290.5z" />
<glyph unicode="V" horiz-adv-x="1507" d="M59 1434h447l104 -385q18 -68 40 -151t41.5 -168t36.5 -160.5t28 -127.5q10 51 27.5 127t37 160t41 168t39.5 152l105 385h442l-494 -1434h-401z" />
<glyph unicode="W" horiz-adv-x="1896" d="M78 1434h409l39 -240q12 -76 25.5 -159t25 -165t20.5 -158.5t15 -140.5q6 63 17.5 139t27 157t30.5 164t32 161l49 242h365l49 -242q14 -78 30.5 -161t32 -164t26.5 -156.5t17 -139.5q6 63 15.5 140t20.5 159t24.5 165t25.5 159l39 240h406l-342 -1434h-367l-66 311 q-18 82 -34.5 171t-29.5 170t-22.5 147.5t-11.5 105.5q-4 -39 -12 -105.5t-21.5 -147.5t-30 -170t-34.5 -171l-66 -311h-362z" />
<glyph unicode="X" horiz-adv-x="1499" d="M59 0l469 725l-452 709h461l79 -140q39 -68 77 -136t61 -126q25 57 62.5 126t76.5 136l80 140h450l-452 -701l469 -733h-461l-96 166q-39 68 -75 136.5t-63 127.5q-25 -57 -61.5 -127t-77.5 -137l-96 -166h-451z" />
<glyph unicode="Y" horiz-adv-x="1527" d="M33 1434h459l110 -217q57 -113 100 -210.5t64 -160.5q20 63 63 160.5t101 210.5l110 217h455l-530 -899v-535h-402v528z" />
<glyph unicode="Z" horiz-adv-x="1454" d="M135 0v285l420 512q33 41 73 86t77.5 88t72.5 81t60 64q-41 -2 -94.5 -3t-109.5 -2t-113.5 -1h-108.5h-236v324h1131v-285l-420 -512q-35 -41 -74 -86t-77 -88t-72.5 -81t-59.5 -65q41 2 94.5 3.5t109.5 2.5t113.5 1h108.5h281v-324h-1176z" />
<glyph unicode="[" horiz-adv-x="948" d="M162 -225v1659h624v-301h-254v-1057h254v-301h-624z" />
<glyph unicode="\" horiz-adv-x="1044" d="M-33 1618h389l721 -1802h-389z" />
<glyph unicode="]" horiz-adv-x="948" d="M162 76h254v1057h-254v301h624v-1659h-624v301z" />
<glyph unicode="^" horiz-adv-x="1269" d="M51 741l420 693h328l420 -693h-385l-201 375l-201 -375h-381z" />
<glyph unicode="_" horiz-adv-x="1024" d="M0 -125h1024v-281h-1024v281z" />
<glyph unicode="`" horiz-adv-x="1024" d="M186 1546h437l147 -327h-262z" />
<glyph unicode="a" horiz-adv-x="1142" d="M78 348q0 86 28.5 151.5t80 109.5t122 66.5t156.5 22.5q74 0 126 -12t97 -33v54q0 72 -38 99.5t-113 27.5q-84 0 -153 -17.5t-146 -60.5l-97 243q98 47 210 73t253 26q225 0 328.5 -106.5t103.5 -293.5v-698h-348v72q-53 -41 -120.5 -68t-141.5 -27q-158 0 -253 94.5 t-95 276.5zM443.5 270.5q27.5 -32.5 86.5 -32.5q47 0 89.5 15t68.5 38v147q-31 14 -67.5 22.5t-90.5 8.5q-114 0 -114 -113q0 -53 27.5 -85.5z" />
<glyph unicode="b" horiz-adv-x="1171" d="M115 0v1346l368 147v-494q55 43 111.5 71t142.5 28q76 0 141.5 -31t113.5 -98.5t76 -172.5t28 -255q0 -289 -98.5 -426.5t-274.5 -137.5q-80 0 -137.5 30t-102.5 65v-72h-368zM483 332q29 -23 59.5 -37t73.5 -14q29 0 50.5 10t36 37.5t21.5 75.5t7 124q0 80 -7 132.5 t-21.5 82t-37 41t-51.5 11.5q-41 0 -71.5 -14.5t-59.5 -37.5v-411z" />
<glyph unicode="c" horiz-adv-x="1064" d="M72 541q0 123 31.5 225t95 176t160 115t225.5 41q76 0 137 -17.5t110.5 -49.5t90.5 -77t75 -102l-254 -193q-39 72 -72.5 106t-92.5 34q-72 0 -107 -67.5t-35 -196.5q0 -258 152 -259q53 0 94 32t92 108l234 -183q-47 -70 -93.5 -117.5t-98.5 -78.5t-110.5 -45.5 t-130.5 -14.5q-238 0 -370.5 144.5t-132.5 419.5z" />
<glyph unicode="d" horiz-adv-x="1171" d="M76 535q0 291 97 427t273 136q82 0 138.5 -30t101.5 -64v342l371 147v-1493h-371v76q-53 -43 -110.5 -71t-143.5 -28q-76 0 -140.5 31t-112.5 98.5t-75.5 173t-27.5 255.5zM438 547q0 -80 7.5 -132.5t22.5 -82t37.5 -40.5t51.5 -11q41 0 70.5 14t58.5 37v411 q-29 23 -58.5 37.5t-72.5 14.5q-29 0 -50.5 -10.5t-36.5 -38t-22.5 -75.5t-7.5 -124z" />
<glyph unicode="e" horiz-adv-x="1114" d="M72 537q0 139 36.5 243.5t102 175t156 106.5t196.5 36q221 0 350 -147.5t129 -446.5v-40.5t-2 -31.5h-630q10 -90 58 -131t124 -41q72 0 135.5 17.5t142.5 58.5l142 -236q-100 -59 -206 -91t-233 -32q-121 0 -215 41t-157.5 115t-96 177.5t-32.5 226.5zM410 662h307 q-14 82 -48 122.5t-116 40.5q-125 0 -143 -163z" />
<glyph unicode="f" horiz-adv-x="784" d="M74 786v289h114v105q0 166 73 236.5t231 70.5q72 0 133 -12.5t100 -32.5v-238q-49 23 -107 23q-41 0 -57 -15.5t-16 -52.5v-84h166v-289h-160v-786h-363v786h-114z" />
<glyph unicode="g" horiz-adv-x="1171" d="M76 535q0 291 97 427t273 136q82 0 138.5 -30t101.5 -64v71h371v-913q0 -139 -33 -235.5t-101.5 -161t-175 -102.5t-251.5 -58l-136 213q98 16 162 33.5t99.5 43t50 62.5t14.5 92v37q-53 -43 -110.5 -70.5t-143.5 -27.5q-76 0 -140.5 29.5t-112.5 94t-75.5 169 t-27.5 254.5zM438 547q0 -80 7.5 -132.5t22.5 -82t37.5 -40.5t51.5 -11q41 0 70.5 14t58.5 37v411q-29 23 -58.5 37.5t-72.5 14.5q-29 0 -50.5 -10.5t-36.5 -38t-22.5 -75.5t-7.5 -124z" />
<glyph unicode="h" horiz-adv-x="1208" d="M115 0v1346l368 147v-489q51 39 112.5 66.5t158.5 27.5q178 0 263 -114t85 -327v-657h-371v610q0 104 -32.5 140t-90.5 36q-59 0 -92 -34.5t-33 -137.5v-614h-368z" />
<glyph unicode="i" horiz-adv-x="618" d="M98 1335q0 78 59.5 128t151.5 50q96 0 155.5 -50t59.5 -128q0 -86 -59 -134t-156 -48q-92 0 -151.5 48t-59.5 134zM125 0v1075h369v-1075h-369z" />
<glyph unicode="j" horiz-adv-x="618" d="M-113 -141q68 8 114 24.5t73.5 42t39 63.5t11.5 93v993h369v-973q0 -127 -28 -214t-86 -145t-150.5 -91t-219.5 -47zM98 1335q0 78 59.5 128t151.5 50q96 0 155.5 -50t59.5 -128q0 -86 -59 -134t-156 -48q-92 0 -151.5 48t-59.5 134z" />
<glyph unicode="k" horiz-adv-x="1175" d="M115 0v1346l368 147v-438q0 -27 -1 -69t-2 -86t-2 -85t-1 -65q10 18 30.5 48.5t44 64.5t47.5 66t40 54l72 92h419l-278 -323l287 -752h-398l-161 449l-97 -123v-326h-368z" />
<glyph unicode="l" horiz-adv-x="618" d="M125 0v1346l369 147v-1493h-369z" />
<glyph unicode="m" horiz-adv-x="1802" d="M115 0v1075h368v-71q45 37 106.5 65.5t149.5 28.5q111 0 178.5 -33t118.5 -88q57 47 130 84t184 37q182 0 264 -114t82 -327v-657h-371v610q0 104 -30.5 140t-86.5 36q-57 0 -87.5 -34.5t-30.5 -137.5v-614h-369v610q0 104 -32 140t-87 36q-57 0 -88 -34.5t-31 -137.5 v-614h-368z" />
<glyph unicode="n" horiz-adv-x="1208" d="M115 0v1075h368v-71q51 39 112.5 66.5t158.5 27.5q178 0 263 -114t85 -327v-657h-371v610q0 104 -32.5 140t-90.5 36q-59 0 -92 -34.5t-33 -137.5v-614h-368z" />
<glyph unicode="o" horiz-adv-x="1165" d="M72 539q0 141 37.5 245.5t105.5 174t162 104.5t205 35t205 -35t162.5 -104.5t106.5 -174t38 -245.5q0 -139 -38 -244t-106.5 -175.5t-163 -106.5t-204.5 -36q-111 0 -205 36t-162 106.5t-105.5 175t-37.5 244.5zM436 539q0 -262 146 -263q145 1 145 263q0 137 -37 198.5 t-108 61.5q-72 0 -109 -61.5t-37 -198.5z" />
<glyph unicode="p" horiz-adv-x="1171" d="M115 -395v1470h368v-76q55 43 111.5 71t142.5 28q76 0 141.5 -31t113.5 -98.5t76 -172.5t28 -255q0 -289 -98.5 -426.5t-274.5 -137.5q-80 0 -137.5 30t-102.5 65v-320zM483 332q29 -23 59.5 -37t73.5 -14q29 0 50.5 10t36 37.5t21.5 75.5t7 124q0 80 -7 132.5t-21.5 82 t-37 41t-51.5 11.5q-41 0 -71.5 -14.5t-59.5 -37.5v-411z" />
<glyph unicode="q" horiz-adv-x="1171" d="M76 535q0 291 97 427t273 136q82 0 138.5 -30t101.5 -64v71h371v-1323l-371 -147v471q-53 -43 -110.5 -71t-143.5 -28q-76 0 -140.5 31t-112.5 98.5t-75.5 173t-27.5 255.5zM438 547q0 -80 7.5 -132.5t22.5 -82t37.5 -40.5t51.5 -11q41 0 70.5 14t58.5 37v411 q-29 23 -58.5 37.5t-72.5 14.5q-29 0 -50.5 -10.5t-36.5 -38t-22.5 -75.5t-7.5 -124z" />
<glyph unicode="r" horiz-adv-x="917" d="M115 0v1075h368v-78q47 47 102.5 74t127.5 27q59 0 100 -12.5t74 -32.5l-86 -383q-35 39 -77 64.5t-95 25.5q-68 0 -107 -38t-39 -136v-586h-368z" />
<glyph unicode="s" horiz-adv-x="1071" d="M88 66l86 278q98 -43 198.5 -68.5t172.5 -25.5q53 0 75.5 12t22.5 37q0 27 -16.5 40t-69.5 28q-125 33 -210 64.5t-137 73.5t-75.5 99.5t-23.5 140.5q0 166 108.5 259.5t329.5 93.5q61 0 112.5 -5.5t100.5 -14.5t98 -24.5t103 -33.5l-82 -285q-106 47 -188.5 68.5 t-153.5 21.5q-53 0 -71.5 -11t-18.5 -36q0 -12 3 -21t14 -17.5t32.5 -16.5t56.5 -18q113 -31 193.5 -62t133 -72t76 -96t23.5 -135q0 -186 -119 -274.5t-325 -88.5q-119 0 -231.5 24t-217.5 65z" />
<glyph unicode="t" horiz-adv-x="921" d="M59 786v289h164v273l359 145v-418h233v-289h-233v-389q0 -61 22.5 -83.5t69.5 -22.5q37 0 70.5 14t76.5 43l-47 -313q-53 -27 -120.5 -42.5t-145.5 -15.5q-147 0 -216 79t-69 263v467h-164z" />
<glyph unicode="u" horiz-adv-x="1208" d="M106 418v657h371v-610q0 -104 33 -140t90 -36t90 34.5t33 137.5v614h371v-1075h-371v72q-49 -39 -111.5 -67t-156.5 -28q-178 0 -263.5 114t-85.5 327z" />
<glyph unicode="v" horiz-adv-x="1169" d="M31 1075h391l96 -395q16 -68 35.5 -156t30.5 -166q10 78 30.5 166t36.5 156l99 395h389l-373 -1075h-363z" />
<glyph unicode="w" horiz-adv-x="1517" d="M35 1075h356l31 -160q8 -47 19.5 -109.5t20.5 -126t17 -118.5t13 -84q6 29 15 84t21.5 118.5t24.5 127t22 113.5l35 155h303l33 -155q10 -49 22.5 -113t25 -127.5t21.5 -118.5t15 -84q4 29 13.5 84t19.5 118.5t20.5 126t18.5 109.5l28 160h353l-303 -1075h-299l-45 219 q-10 45 -21.5 108.5l-23 127t-21.5 119t-14 83.5q-6 -29 -15.5 -84t-20.5 -118.5t-23.5 -127t-22.5 -112.5l-45 -215h-291z" />
<glyph unicode="x" horiz-adv-x="1175" d="M31 0l366 561l-325 514h401l12 -24q25 -49 59 -117t52 -125q23 59 56.5 125.5t58.5 116.5l12 24h383l-330 -497l371 -578h-402l-53 98q-27 47 -57.5 107.5t-54.5 118.5q-27 -57 -56.5 -118t-56.5 -108l-55 -98h-381z" />
<glyph unicode="y" horiz-adv-x="1208" d="M31 1075h391l102 -383q8 -35 20.5 -84t25 -103t22.5 -105.5t14 -90.5q6 39 16.5 91.5t22.5 105.5t23.5 104.5t21.5 85.5l101 379h387l-521 -1454h-352l135 334z" />
<glyph unicode="z" horiz-adv-x="1157" d="M106 0v256l236 256q33 37 71 76t73.5 75.5t66.5 68.5t53 52q-51 -2 -130 -5t-146 -3h-199v299h909v-256l-235 -256q-33 -37 -71 -75.5t-73.5 -75.5t-67.5 -69l-52 -52q51 2 130 5t146 3h223v-299h-934z" />
<glyph unicode="{" horiz-adv-x="1044" d="M96 457v307h70q49 0 85 21.5t36 78.5v152q0 211 153.5 319.5t493.5 108.5v-238q-74 -8 -121 -25.5t-72.5 -47t-36 -72.5t-10.5 -100v-50q0 -90 -17.5 -144t-51 -86t-80.5 -46t-109 -25q61 -10 108.5 -25.5t81 -46t51 -86t17.5 -145.5v-49q0 -59 10.5 -101t36 -72 t72.5 -47.5t121 -25.5v-237q-340 0 -493.5 108.5t-153.5 319.5v153q0 57 -36 79t-85 22h-70z" />
<glyph unicode="|" horiz-adv-x="663" d="M150 -379v2017h364v-2017h-364z" />
<glyph unicode="}" horiz-adv-x="1044" d="M111 12q74 8 121 25.5t72.5 47.5t35.5 72t10 101v49q0 90 17.5 144.5t51.5 86t81 46t108 24.5q-61 10 -108 25.5t-81 46.5t-51.5 86t-17.5 145v50q0 57 -10 100t-35.5 72.5t-73 47t-120.5 25.5v238q340 0 493.5 -108.5t153.5 -319.5v-154q0 -57 35.5 -78.5t85.5 -21.5h69 v-307h-69q-49 0 -85 -21.5t-36 -79.5v-151q0 -211 -153.5 -319.5t-493.5 -108.5v237z" />
<glyph unicode="~" horiz-adv-x="1191" d="M92 625q41 98 79 166.5t76 111.5t80 61.5t91 18.5q31 0 53.5 -4t41.5 -12.5t39.5 -20.5t49.5 -28q70 -41 99.5 -56.5t50.5 -15.5q14 0 26.5 4t25.5 19.5t30.5 45t42.5 78.5l223 -98q-41 -98 -79 -167t-76 -112t-80 -61t-91 -18q-31 0 -53.5 4t-42 12t-40 20.5t-48.5 28.5 q-70 41 -99.5 56.5t-50.5 15.5q-16 0 -27.5 -5t-24.5 -20.5t-30.5 -44.5t-42.5 -78z" />
<glyph unicode="&#xa1;" horiz-adv-x="716" d="M145 1243q0 45 16.5 84t44 67.5t66.5 45t86 16.5q45 0 85 -16.5t68 -45t44 -67.5t16 -84q0 -92 -60 -150.5t-153 -58.5q-92 0 -152.5 58.5t-60.5 150.5zM156 0v512l67 410h271l67 -410v-512h-405z" />
<glyph unicode="&#xa2;" horiz-adv-x="1064" d="M72 731q0 193 75.5 331t231.5 193v201h356v-188q86 -29 148.5 -86.5t113.5 -139.5l-254 -192q-39 72 -72.5 105.5t-92.5 33.5q-72 0 -107 -67.5t-35 -196.5q0 -258 152 -258q53 0 94 31.5t92 107.5l234 -182q-66 -96 -130.5 -152.5t-142.5 -81.5v-213h-356v222 q-147 53 -227 187t-80 345z" />
<glyph unicode="&#xa3;" horiz-adv-x="1421" d="M166 0v240q78 55 125 121.5t63 168.5h-188v277h156q-10 20 -20.5 38.5t-22.5 41.5q-27 45 -44.5 95t-17.5 108q0 172 138.5 269t416.5 97q152 0 293 -39t264 -119l-168 -288q-98 66 -193.5 94.5t-199.5 28.5q-86 0 -124 -31t-38 -78q0 -27 7.5 -48.5t23.5 -45.5 q18 -31 34.5 -61.5t28.5 -61.5h314v-277h-295q-14 -72 -42 -127t-65 -100h684v-303h-1130z" />
<glyph unicode="&#xa4;" d="M31 725l325 281q47 39 82 14q20 -14 24.5 -33.5t-3.5 -54.5l-17 -74h271v215l-74 -16q-35 -8 -54.5 -4t-33.5 24q-25 35 14 82l281 326l280 -326q39 -47 15 -82q-14 -20 -34 -24t-54 4l-74 16v-215h270l-16 74q-8 35 -4 54.5t24 33.5q35 25 82 -14l326 -281l-326 -281 q-47 -39 -82 -14q-20 14 -24 33.5t4 54.5l16 74h-270v-232l74 17q35 8 54 4t34 -25q25 -35 -15 -82l-280 -325l-281 325q-39 47 -14 82q14 20 33.5 24.5t54.5 -3.5l74 -17v232h-271l17 -74q8 -35 4 -54.5t-25 -33.5q-35 -25 -82 14z" />
<glyph unicode="&#xa5;" horiz-adv-x="1486" d="M33 1434h459l102 -217q53 -117 92 -212.5t59 -158.5q20 66 59.5 163t92.5 208l102 217h455l-520 -910v-35h328v-296h-328v-193h-381v193h-328v296h328v29z" />
<glyph unicode="&#xa6;" d="M31 725l325 281q47 39 82 14q20 -14 24.5 -33.5t-3.5 -54.5l-17 -74h271v215l-74 -16q-35 -8 -54.5 -4t-33.5 24q-25 35 14 82l281 326l280 -326q39 -47 15 -82q-14 -20 -34 -24t-54 4l-74 16v-215h270l-16 74q-8 35 -4 54.5t24 33.5q35 25 82 -14l326 -281l-326 -281 q-47 -39 -82 -14q-20 14 -24 33.5t4 54.5l16 74h-270v-232l74 17q35 8 54 4t34 -25q25 -35 -15 -82l-280 -325l-281 325q-39 47 -14 82q14 20 33.5 24.5t54.5 -3.5l74 -17v232h-271l17 -74q8 -35 4 -54.5t-25 -33.5q-35 -25 -82 14z" />
<glyph unicode="&#xa7;" horiz-adv-x="1478" d="M113 586q0 117 56 200.5t150 149.5q-16 37 -23 78t-7 88q0 74 27.5 139.5t84 112.5t142.5 74.5t205 27.5q66 0 134 -10t131.5 -26.5t119 -39t96.5 -49.5l-121 -278q-82 47 -180.5 76.5t-198.5 29.5q-59 0 -78.5 -12t-19.5 -33q0 -14 4 -25.5t21.5 -23.5t50 -27.5 t92.5 -33.5q174 -57 284.5 -102.5t174 -96.5t86 -114.5t22.5 -155.5q0 -117 -56.5 -201t-152.5 -150q18 -37 25.5 -77.5t7.5 -88.5q0 -74 -27.5 -139t-84 -112.5t-142.5 -75t-205 -27.5q-66 0 -134.5 9.5t-132 26.5t-118.5 39.5t-96 49.5l121 279q82 -47 180 -77t199 -30 q59 0 78.5 12.5t19.5 32.5q0 14 -4 25.5t-21.5 24t-51.5 27.5t-91 34q-176 57 -285.5 102t-173 96.5t-86 115t-22.5 155.5zM475 616q0 -27 9.5 -47t39 -39.5t82.5 -41t139 -48.5q53 -16 99.5 -33.5t85.5 -35.5q37 29 55.5 59.5t18.5 73.5q0 27 -9.5 47t-39 39.5t-83 40 t-139.5 49.5q-53 16 -99 33.5t-85 36.5q-37 -29 -55.5 -60t-18.5 -74z" />
<glyph unicode="&#xa8;" horiz-adv-x="1024" d="M86 1405q0 37 15.5 69.5t40 57t57 39t69.5 14.5t70 -14.5t57.5 -39t40 -57t15.5 -69.5q0 -35 -15.5 -66.5t-40 -56.5t-57.5 -39t-70 -14t-69.5 14t-57 39t-40 56.5t-15.5 66.5zM573 1405q0 37 15.5 69.5t40 57t58.5 39t71 14.5q35 0 67.5 -14.5t57 -39t40 -57t15.5 -69.5 q0 -35 -15.5 -66.5t-40 -56.5t-57 -39t-67.5 -14q-37 0 -71 14t-58.5 39t-40 56.5t-15.5 66.5z" />
<glyph unicode="&#xa9;" horiz-adv-x="1712" d="M117 717q0 158 56 293t155.5 234t234.5 155.5t293 56.5t293 -56.5t234.5 -155.5t155.5 -234t56 -293t-56 -293t-155.5 -234.5t-234.5 -156t-293 -56.5t-293 56.5t-234.5 156t-155.5 234.5t-56 293zM268 717q0 -133 45 -242.5t123 -187.5t185.5 -121t234.5 -43 q125 0 233.5 43t186.5 121t123 187.5t45 242.5t-45 242.5t-123 187.5t-186.5 121t-233.5 43q-127 0 -234.5 -43t-185.5 -121t-123 -187.5t-45 -242.5zM492 725q0 96 26.5 173t75.5 130t116.5 82t147.5 29q74 0 127 -15.5t92 -45t65.5 -73.5t47.5 -102l-203 -80 q-23 57 -48.5 90t-80.5 33q-72 0 -102.5 -62.5t-30.5 -158.5q0 -92 31.5 -155.5t103.5 -63.5q53 0 82 27.5t62 84.5l188 -100q-20 -39 -48 -75.5t-68 -66.5t-93 -47.5t-125 -17.5q-90 0 -158.5 31t-114.5 86t-69.5 131t-23.5 166z" />
<glyph unicode="&#xaa;" horiz-adv-x="1024" d="M111 848q0 141 87 213t226 72q59 0 102 -10.5t78 -26.5v43q0 57 -30.5 79.5t-92.5 22.5q-66 0 -121 -14.5t-120 -48.5l-78 198q80 39 170 59.5t205 20.5q184 0 267 -86t83 -237v-568h-283v60q-41 -33 -96 -54.5t-115 -21.5q-129 0 -205.5 75.5t-76.5 223.5zM385 854 q0 -41 21.5 -68.5t70.5 -27.5q37 0 72 13t55 30v121q-25 10 -54.5 17t-72.5 7q-92 0 -92 -92z" />
<glyph unicode="&#xab;" horiz-adv-x="1421" d="M61 537l261 538h399l-268 -536l268 -539h-399zM678 537l260 538h399l-268 -536l268 -539h-399z" />
<glyph unicode="&#xac;" horiz-adv-x="1351" d="M92 561v328h735l-18 94q-8 43 -3 64.5t28 37.5q16 12 40.5 10.5t53.5 -26.5l393 -344l-393 -344q-29 -25 -53.5 -27t-40.5 11q-23 16 -28 38.5t3 63.5l18 94h-735z" />
<glyph unicode="&#xad;" horiz-adv-x="991" d="M139 541v385h713v-385h-713z" />
<glyph unicode="&#xae;" horiz-adv-x="1712" d="M117 717q0 158 56 293t155.5 234t234.5 155.5t293 56.5t293 -56.5t234.5 -155.5t155.5 -234t56 -293t-56 -293t-155.5 -234.5t-234.5 -156t-293 -56.5t-293 56.5t-234.5 156t-155.5 234.5t-56 293zM268 717q0 -133 45 -242.5t123 -187.5t185.5 -121t234.5 -43 q125 0 233.5 43t186.5 121t123 187.5t45 242.5t-45 242.5t-123 187.5t-186.5 121t-233.5 43q-127 0 -234.5 -43t-185.5 -121t-123 -187.5t-45 -242.5zM547 334v803h360q141 0 227.5 -59.5t86.5 -203.5q0 -92 -40 -148t-106 -87l160 -305h-248l-131 270h-90v-270h-219z M766 780h131q55 0 78.5 22.5t23.5 65.5q0 39 -22.5 62.5t-75.5 23.5h-135v-174z" />
<glyph unicode="&#xaf;" horiz-adv-x="1024" d="M178 1249v236h668v-236h-668z" />
<glyph unicode="&#xb0;" horiz-adv-x="1077" d="M92 1012q0 96 35 177t95.5 140.5t141 93t175.5 33.5q94 0 176 -33.5t141 -93t94 -140.5t35 -177q0 -98 -35 -180t-94 -142.5t-141 -93.5t-176 -33t-175 33t-141.5 93.5t-95.5 142t-35 180.5zM354 1012q0 -96 52.5 -148.5t132.5 -52.5q82 0 133 52.5t51 148.5 q0 92 -51 144t-133 52q-80 0 -132.5 -52t-52.5 -144z" />
<glyph unicode="&#xb1;" d="M31 725l325 281q47 39 82 14q20 -14 24.5 -33.5t-3.5 -54.5l-17 -74h271v215l-74 -16q-35 -8 -54.5 -4t-33.5 24q-25 35 14 82l281 326l280 -326q39 -47 15 -82q-14 -20 -34 -24t-54 4l-74 16v-215h270l-16 74q-8 35 -4 54.5t24 33.5q35 25 82 -14l326 -281l-326 -281 q-47 -39 -82 -14q-20 14 -24 33.5t4 54.5l16 74h-270v-232l74 17q35 8 54 4t34 -25q25 -35 -15 -82l-280 -325l-281 325q-39 47 -14 82q14 20 33.5 24.5t54.5 -3.5l74 -17v232h-271l17 -74q8 -35 4 -54.5t-25 -33.5q-35 -25 -82 14z" />
<glyph unicode="&#xb2;" d="M31 725l325 281q47 39 82 14q20 -14 24.5 -33.5t-3.5 -54.5l-17 -74h271v215l-74 -16q-35 -8 -54.5 -4t-33.5 24q-25 35 14 82l281 326l280 -326q39 -47 15 -82q-14 -20 -34 -24t-54 4l-74 16v-215h270l-16 74q-8 35 -4 54.5t24 33.5q35 25 82 -14l326 -281l-326 -281 q-47 -39 -82 -14q-20 14 -24 33.5t4 54.5l16 74h-270v-232l74 17q35 8 54 4t34 -25q25 -35 -15 -82l-280 -325l-281 325q-39 47 -14 82q14 20 33.5 24.5t54.5 -3.5l74 -17v232h-271l17 -74q8 -35 4 -54.5t-25 -33.5q-35 -25 -82 14z" />
<glyph unicode="&#xb3;" d="M31 725l325 281q47 39 82 14q20 -14 24.5 -33.5t-3.5 -54.5l-17 -74h271v215l-74 -16q-35 -8 -54.5 -4t-33.5 24q-25 35 14 82l281 326l280 -326q39 -47 15 -82q-14 -20 -34 -24t-54 4l-74 16v-215h270l-16 74q-8 35 -4 54.5t24 33.5q35 25 82 -14l326 -281l-326 -281 q-47 -39 -82 -14q-20 14 -24 33.5t4 54.5l16 74h-270v-232l74 17q35 8 54 4t34 -25q25 -35 -15 -82l-280 -325l-281 325q-39 47 -14 82q14 20 33.5 24.5t54.5 -3.5l74 -17v232h-271l17 -74q8 -35 4 -54.5t-25 -33.5q-35 -25 -82 14z" />
<glyph unicode="&#xb4;" horiz-adv-x="1024" d="M254 1219l147 327h437l-322 -327h-262z" />
<glyph unicode="&#xb6;" horiz-adv-x="1482" d="M76 985q0 106 38 190.5t101.5 141.5t147 87t178.5 30h780v-1813h-285v1573h-121v-1573h-284v914h-90q-94 0 -179.5 29.5t-148.5 87t-100 141.5t-37 192z" />
<glyph unicode="&#xb7;" horiz-adv-x="643" d="M86 752q0 102 66.5 166.5t169.5 64.5q102 0 168.5 -64.5t66.5 -166.5t-66.5 -169t-168.5 -67t-169 66.5t-67 169.5z" />
<glyph unicode="&#xb8;" horiz-adv-x="1024" d="M229 -322l39 95q57 -27 109.5 -38t97.5 -11q43 0 68.5 13t25.5 42q0 47 -45 47q-23 0 -40 -8t-35 -21l-78 53l41 150h125l-25 -86q16 8 38.5 13t47.5 5q78 0 119 -40.5t41 -108.5q0 -84 -58.5 -131t-169.5 -47q-88 0 -162.5 21.5t-138.5 51.5z" />
<glyph unicode="&#xb9;" d="M31 725l325 281q47 39 82 14q20 -14 24.5 -33.5t-3.5 -54.5l-17 -74h271v215l-74 -16q-35 -8 -54.5 -4t-33.5 24q-25 35 14 82l281 326l280 -326q39 -47 15 -82q-14 -20 -34 -24t-54 4l-74 16v-215h270l-16 74q-8 35 -4 54.5t24 33.5q35 25 82 -14l326 -281l-326 -281 q-47 -39 -82 -14q-20 14 -24 33.5t4 54.5l16 74h-270v-232l74 17q35 8 54 4t34 -25q25 -35 -15 -82l-280 -325l-281 325q-39 47 -14 82q14 20 33.5 24.5t54.5 -3.5l74 -17v232h-271l17 -74q8 -35 4 -54.5t-25 -33.5q-35 -25 -82 14z" />
<glyph unicode="&#xba;" horiz-adv-x="1028" d="M100 1004q0 113 31 197.5t86 142t131 85t166 27.5t166 -27.5t131 -85t86 -142t31 -197.5t-31 -198t-86 -142.5t-131 -86t-166 -28.5t-166 28.5t-131 86t-86 142.5t-31 198zM395 1004q0 -213 119 -213t119 213q0 111 -30 160.5t-89 49.5t-89 -50t-30 -160z" />
<glyph unicode="&#xbb;" horiz-adv-x="1421" d="M84 0l268 537l-268 538h399l260 -536l-260 -539h-399zM700 0l269 537l-269 538h400l260 -536l-260 -539h-400z" />
<glyph unicode="&#xbc;" d="M31 725l325 281q47 39 82 14q20 -14 24.5 -33.5t-3.5 -54.5l-17 -74h271v215l-74 -16q-35 -8 -54.5 -4t-33.5 24q-25 35 14 82l281 326l280 -326q39 -47 15 -82q-14 -20 -34 -24t-54 4l-74 16v-215h270l-16 74q-8 35 -4 54.5t24 33.5q35 25 82 -14l326 -281l-326 -281 q-47 -39 -82 -14q-20 14 -24 33.5t4 54.5l16 74h-270v-232l74 17q35 8 54 4t34 -25q25 -35 -15 -82l-280 -325l-281 325q-39 47 -14 82q14 20 33.5 24.5t54.5 -3.5l74 -17v232h-271l17 -74q8 -35 4 -54.5t-25 -33.5q-35 -25 -82 14z" />
<glyph unicode="&#xbd;" d="M31 725l325 281q47 39 82 14q20 -14 24.5 -33.5t-3.5 -54.5l-17 -74h271v215l-74 -16q-35 -8 -54.5 -4t-33.5 24q-25 35 14 82l281 326l280 -326q39 -47 15 -82q-14 -20 -34 -24t-54 4l-74 16v-215h270l-16 74q-8 35 -4 54.5t24 33.5q35 25 82 -14l326 -281l-326 -281 q-47 -39 -82 -14q-20 14 -24 33.5t4 54.5l16 74h-270v-232l74 17q35 8 54 4t34 -25q25 -35 -15 -82l-280 -325l-281 325q-39 47 -14 82q14 20 33.5 24.5t54.5 -3.5l74 -17v232h-271l17 -74q8 -35 4 -54.5t-25 -33.5q-35 -25 -82 14z" />
<glyph unicode="&#xbe;" d="M31 725l325 281q47 39 82 14q20 -14 24.5 -33.5t-3.5 -54.5l-17 -74h271v215l-74 -16q-35 -8 -54.5 -4t-33.5 24q-25 35 14 82l281 326l280 -326q39 -47 15 -82q-14 -20 -34 -24t-54 4l-74 16v-215h270l-16 74q-8 35 -4 54.5t24 33.5q35 25 82 -14l326 -281l-326 -281 q-47 -39 -82 -14q-20 14 -24 33.5t4 54.5l16 74h-270v-232l74 17q35 8 54 4t34 -25q25 -35 -15 -82l-280 -325l-281 325q-39 47 -14 82q14 20 33.5 24.5t54.5 -3.5l74 -17v232h-271l17 -74q8 -35 4 -54.5t-25 -33.5q-35 -25 -82 14z" />
<glyph unicode="&#xbf;" horiz-adv-x="1232" d="M63 371q0 61 15.5 109t46.5 88t79 74t113 67q88 43 125 91t37 122h367q0 -66 -12.5 -120t-43 -101.5t-82 -87.5t-128.5 -76q-66 -31 -96.5 -57.5t-30.5 -69.5q0 -47 37.5 -73t121.5 -26q111 0 208.5 38t187.5 97l182 -292q-129 -82 -270.5 -129.5t-313.5 -47.5 q-125 0 -225 25t-171 74t-109 122.5t-38 172.5zM453 1243q0 45 16 84t44 67.5t66.5 45t86.5 16.5q45 0 85 -16.5t67.5 -45t44 -67.5t16.5 -84q0 -92 -60.5 -150.5t-152.5 -58.5t-152.5 58.5t-60.5 150.5z" />
<glyph unicode="&#xc0;" horiz-adv-x="1560" d="M59 0l521 1434h401l520 -1434h-430l-78 252h-430l-78 -252h-426zM346 1853h437l147 -327h-262zM659 567h238l-27 95q-18 70 -32.5 121t-25.5 91.5t-19.5 74.5t-14.5 71q-6 -37 -14 -72t-19.5 -76t-25.5 -92t-33 -118z" />
<glyph unicode="&#xc1;" horiz-adv-x="1560" d="M59 0l521 1434h401l520 -1434h-430l-78 252h-430l-78 -252h-426zM629 1526l147 327h437l-322 -327h-262zM659 567h238l-27 95q-18 70 -32.5 121t-25.5 91.5t-19.5 74.5t-14.5 71q-6 -37 -14 -72t-19.5 -76t-25.5 -92t-33 -118z" />
<glyph unicode="&#xc2;" horiz-adv-x="1560" d="M59 0l521 1434h401l520 -1434h-430l-78 252h-430l-78 -252h-426zM366 1563l269 327h290l269 -327h-246l-170 131l-170 -131h-242zM659 567h238l-27 95q-18 70 -32.5 121t-25.5 91.5t-19.5 74.5t-14.5 71q-6 -37 -14 -72t-19.5 -76t-25.5 -92t-33 -118z" />
<glyph unicode="&#xc3;" horiz-adv-x="1560" d="M59 0l521 1434h401l520 -1434h-430l-78 252h-430l-78 -252h-426zM350 1526q0 68 18.5 127t53 102t85 67.5t111.5 24.5q57 0 96 -11t87 -40q45 -27 73.5 -43t50.5 -16q63 0 76 104h211q0 -68 -18.5 -127t-53 -102t-85 -68t-111.5 -25q-57 0 -96 11.5t-86 40.5 q-45 27 -74 43t-51 16q-35 0 -51.5 -25.5t-24.5 -78.5h-211zM659 567h238l-27 95q-18 70 -32.5 121t-25.5 91.5t-19.5 74.5t-14.5 71q-6 -37 -14 -72t-19.5 -76t-25.5 -92t-33 -118z" />
<glyph unicode="&#xc4;" horiz-adv-x="1560" d="M59 0l521 1434h401l520 -1434h-430l-78 252h-430l-78 -252h-426zM356 1712q0 37 15.5 69.5t40 57t57 39t69.5 14.5t70 -14.5t57.5 -39t40 -57t15.5 -69.5q0 -35 -15.5 -66.5t-40 -56.5t-57.5 -39t-70 -14t-69.5 14t-57 39t-40 56.5t-15.5 66.5zM659 567h238l-27 95 q-18 70 -32.5 121t-25.5 91.5t-19.5 74.5t-14.5 71q-6 -37 -14 -72t-19.5 -76t-25.5 -92t-33 -118zM843 1712q0 37 15.5 69.5t40 57t58.5 39t71 14.5q35 0 67.5 -14.5t57 -39t40 -57t15.5 -69.5q0 -35 -15.5 -66.5t-40 -56.5t-57 -39t-67.5 -14q-37 0 -71 14t-58.5 39 t-40 56.5t-15.5 66.5z" />
<glyph unicode="&#xc5;" horiz-adv-x="1560" d="M59 0l488 1346q-27 35 -42.5 78.5t-15.5 93.5q0 61 23 112t62.5 90t92 60.5t113.5 21.5t113.5 -21.5t92.5 -60.5t62.5 -90t22.5 -112q0 -98 -57 -172l487 -1346h-430l-78 252h-430l-78 -252h-426zM659 567h238l-27 95q-18 70 -32.5 121t-25.5 91.5t-19.5 74.5t-14.5 71 q-6 -37 -14 -72t-19.5 -76t-25.5 -92t-33 -118zM668 1518q0 -55 29.5 -88t82.5 -33t83 33t30 88t-29.5 88.5t-83.5 33.5q-53 0 -82.5 -33.5t-29.5 -88.5z" />
<glyph unicode="&#xc6;" horiz-adv-x="2193" d="M29 0l962 1434h1080v-334h-664v-191h383v-329h-383v-246h678v-334h-1036v156h-496l-96 -156h-428zM739 455h310v235q0 31 1 77t1 92t1 86t1 63q-31 -70 -80 -158t-94 -162z" />
<glyph unicode="&#xc7;" horiz-adv-x="1404" d="M86 717q0 172 48 309t135 232.5t207 146.5t265 51q131 0 226.5 -27.5t164 -82t115.5 -133t84 -179.5l-360 -141q-18 49 -39 90t-47.5 68.5t-61.5 43t-84 15.5q-61 0 -106 -29.5t-75 -82t-43 -124t-13 -157.5q0 -82 13 -153.5t43 -125t75 -84t110 -30.5q47 0 82 12 t64 37.5t55.5 63.5t54.5 89l336 -178q-35 -68 -83 -133t-115.5 -116.5t-158.5 -84t-210 -37.5l-18 -63q16 8 38.5 13t47.5 5q78 0 118.5 -41t40.5 -108q0 -84 -58 -131t-169 -47q-88 0 -163 21.5t-138 51.5l39 95q57 -27 109.5 -38t97.5 -11q43 0 68.5 13t25.5 42 q0 47 -45 47q-23 0 -40 -8t-36 -21l-78 53l37 134q-137 16 -241.5 77.5t-175 157.5t-106.5 223t-36 275z" />
<glyph unicode="&#xc8;" horiz-adv-x="1366" d="M145 0v1434h1098v-334h-704v-191h424v-329h-424v-246h718v-334h-1112zM274 1853h437l147 -327h-262z" />
<glyph unicode="&#xc9;" horiz-adv-x="1366" d="M145 0v1434h1098v-334h-704v-191h424v-329h-424v-246h718v-334h-1112zM520 1526l147 327h437l-322 -327h-262z" />
<glyph unicode="&#xca;" horiz-adv-x="1366" d="M145 0v1434h1098v-334h-704v-191h424v-329h-424v-246h718v-334h-1112zM286 1526l269 327h290l269 -327h-246l-170 131l-170 -131h-242z" />
<glyph unicode="&#xcb;" horiz-adv-x="1366" d="M145 0v1434h1098v-334h-704v-191h424v-329h-424v-246h718v-334h-1112zM272 1712q0 37 15.5 69.5t40 57t57 39t69.5 14.5t70 -14.5t57.5 -39t40 -57t15.5 -69.5q0 -35 -15.5 -66.5t-40 -56.5t-57.5 -39t-70 -14t-69.5 14t-57 39t-40 56.5t-15.5 66.5zM759 1712 q0 37 15.5 69.5t40 57t58.5 39t71 14.5q35 0 67.5 -14.5t57 -39t40 -57t15.5 -69.5q0 -35 -15.5 -66.5t-40 -56.5t-57 -39t-67.5 -14q-37 0 -71 14t-58.5 39t-40 56.5t-15.5 66.5z" />
<glyph unicode="&#xcc;" horiz-adv-x="716" d="M-74 1853h437l147 -327h-262zM156 0v1434h405v-1434h-405z" />
<glyph unicode="&#xcd;" horiz-adv-x="716" d="M156 0v1434h405v-1434h-405zM219 1526l147 327h437l-322 -327h-262z" />
<glyph unicode="&#xce;" horiz-adv-x="716" d="M-54 1495l269 327h290l269 -327h-246l-170 131l-170 -131h-242zM156 0v1434h405v-1434h-405z" />
<glyph unicode="&#xcf;" horiz-adv-x="716" d="M-66 1686q0 37 15.5 69.5t40 57t57 39t69.5 14.5t70 -14.5t57.5 -39t40 -57t15.5 -69.5q0 -35 -15.5 -66.5t-40 -56.5t-57.5 -39t-70 -14t-69.5 14t-57 39t-40 56.5t-15.5 66.5zM156 0v1434h405v-1434h-405zM421 1686q0 37 15.5 69.5t40 57t58.5 39t71 14.5 q35 0 67.5 -14.5t57 -39t40 -57t15.5 -69.5q0 -35 -15.5 -66.5t-40 -56.5t-57 -39t-67.5 -14q-37 0 -71 14t-58.5 39t-40 56.5t-15.5 66.5z" />
<glyph unicode="&#xd0;" horiz-adv-x="1519" d="M61 584v307h125v543h502q168 0 305 -35t232.5 -118t147.5 -218t52 -338t-49 -341t-147.5 -223t-242.5 -123t-335 -38h-465v584h-125zM567 340h107q92 0 157.5 19.5t107.5 63.5t60.5 117t18.5 179q0 98 -17.5 170t-56.5 117t-102.5 66.5t-155.5 21.5h-119v-203h181v-307 h-181v-244z" />
<glyph unicode="&#xd1;" horiz-adv-x="1548" d="M145 0v1434h351l315 -424q25 -33 58.5 -82t66.5 -98.5t59.5 -92.5t38.5 -65q-4 25 -6 68.5t-4 96t-2 107.5v98v392h381v-1434h-324l-342 473q-25 33 -57.5 81t-64 96t-59.5 91t-42 68q4 -25 6 -69t4 -96t2 -107.5v-98.5v-438h-381zM350 1520q0 68 18.5 127t53 102 t85 67.5t111.5 24.5q57 0 96 -11t87 -40q45 -27 73.5 -43t50.5 -16q63 0 76 104h211q0 -68 -18.5 -127t-53 -102t-85 -68t-111.5 -25q-57 0 -96 11.5t-86 40.5q-45 27 -74 43t-51 16q-35 0 -51.5 -25.5t-24.5 -78.5h-211z" />
<glyph unicode="&#xd2;" horiz-adv-x="1499" d="M86 715q0 178 49 316t137 232.5t211 143.5t269 49q145 0 267 -48t209 -141t136 -231.5t49 -316.5t-49 -316.5t-137 -232.5t-211 -143.5t-268 -49.5t-267.5 48.5t-210.5 141.5t-136 231.5t-48 316.5zM301 1853h437l147 -327h-262zM498 719q0 -195 66.5 -295t187.5 -100 t185 98t64 293t-66.5 295t-186.5 100q-121 0 -185.5 -98.5t-64.5 -292.5z" />
<glyph unicode="&#xd3;" horiz-adv-x="1499" d="M86 715q0 178 49 316t137 232.5t211 143.5t269 49q145 0 267 -48t209 -141t136 -231.5t49 -316.5t-49 -316.5t-137 -232.5t-211 -143.5t-268 -49.5t-267.5 48.5t-210.5 141.5t-136 231.5t-48 316.5zM498 719q0 -195 66.5 -295t187.5 -100t185 98t64 293t-66.5 295 t-186.5 100q-121 0 -185.5 -98.5t-64.5 -292.5zM594 1526l147 327h437l-322 -327h-262z" />
<glyph unicode="&#xd4;" horiz-adv-x="1499" d="M86 715q0 178 49 316t137 232.5t211 143.5t269 49q145 0 267 -48t209 -141t136 -231.5t49 -316.5t-49 -316.5t-137 -232.5t-211 -143.5t-268 -49.5t-267.5 48.5t-210.5 141.5t-136 231.5t-48 316.5zM336 1516l269 327h290l269 -327h-246l-170 131l-170 -131h-242z M498 719q0 -195 66.5 -295t187.5 -100t185 98t64 293t-66.5 295t-186.5 100q-121 0 -185.5 -98.5t-64.5 -292.5z" />
<glyph unicode="&#xd5;" horiz-adv-x="1499" d="M86 715q0 178 49 316t137 232.5t211 143.5t269 49q145 0 267 -48t209 -141t136 -231.5t49 -316.5t-49 -316.5t-137 -232.5t-211 -143.5t-268 -49.5t-267.5 48.5t-210.5 141.5t-136 231.5t-48 316.5zM307 1526q0 68 18.5 127t53 102t85 67.5t111.5 24.5q57 0 96 -11 t87 -40q45 -27 73.5 -43t50.5 -16q63 0 76 104h211q0 -68 -18.5 -127t-53 -102t-85 -68t-111.5 -25q-57 0 -96 11.5t-86 40.5q-45 27 -74 43t-51 16q-35 0 -51.5 -25.5t-24.5 -78.5h-211zM498 719q0 -195 66.5 -295t187.5 -100t185 98t64 293t-66.5 295t-186.5 100 q-121 0 -185.5 -98.5t-64.5 -292.5z" />
<glyph unicode="&#xd6;" horiz-adv-x="1499" d="M86 715q0 178 49 316t137 232.5t211 143.5t269 49q145 0 267 -48t209 -141t136 -231.5t49 -316.5t-49 -316.5t-137 -232.5t-211 -143.5t-268 -49.5t-267.5 48.5t-210.5 141.5t-136 231.5t-48 316.5zM324 1712q0 37 15.5 69.5t40 57t57 39t69.5 14.5t70 -14.5t57.5 -39 t40 -57t15.5 -69.5q0 -35 -15.5 -66.5t-40 -56.5t-57.5 -39t-70 -14t-69.5 14t-57 39t-40 56.5t-15.5 66.5zM498 719q0 -195 66.5 -295t187.5 -100t185 98t64 293t-66.5 295t-186.5 100q-121 0 -185.5 -98.5t-64.5 -292.5zM811 1712q0 37 15.5 69.5t40 57t58.5 39t71 14.5 q35 0 67.5 -14.5t57 -39t40 -57t15.5 -69.5q0 -35 -15.5 -66.5t-40 -56.5t-57 -39t-67.5 -14q-37 0 -71 14t-58.5 39t-40 56.5t-15.5 66.5z" />
<glyph unicode="&#xd7;" d="M31 725l325 281q47 39 82 14q20 -14 24.5 -33.5t-3.5 -54.5l-17 -74h271v215l-74 -16q-35 -8 -54.5 -4t-33.5 24q-25 35 14 82l281 326l280 -326q39 -47 15 -82q-14 -20 -34 -24t-54 4l-74 16v-215h270l-16 74q-8 35 -4 54.5t24 33.5q35 25 82 -14l326 -281l-326 -281 q-47 -39 -82 -14q-20 14 -24 33.5t4 54.5l16 74h-270v-232l74 17q35 8 54 4t34 -25q25 -35 -15 -82l-280 -325l-281 325q-39 47 -14 82q14 20 33.5 24.5t54.5 -3.5l74 -17v232h-271l17 -74q8 -35 4 -54.5t-25 -33.5q-35 -25 -82 14z" />
<glyph unicode="&#xd8;" horiz-adv-x="1499" d="M49 -102l184 313q-72 92 -109.5 218t-37.5 286q0 178 49 316t137 232.5t211 143.5t269 49q111 0 202 -26l64 106h426l-182 -307q72 -92 111.5 -220t39.5 -290q0 -178 -49 -316.5t-137 -232.5t-211 -143.5t-268 -49.5q-106 0 -209 29l-64 -108h-426zM498 719 q0 -195 66.5 -295t187.5 -100t185 98t64 293t-66.5 295t-186.5 100q-121 0 -185.5 -98.5t-64.5 -292.5z" />
<glyph unicode="&#xd9;" horiz-adv-x="1531" d="M137 612v822h406v-822q0 -133 54 -208.5t171 -75.5t169 75.5t52 208.5v822h406v-822q0 -170 -48.5 -290.5t-133.5 -197.5t-200.5 -112t-250.5 -35t-250 35t-198 112t-130 197.5t-47 290.5zM333 1822h437l147 -327h-262z" />
<glyph unicode="&#xda;" horiz-adv-x="1531" d="M137 612v822h406v-822q0 -133 54 -208.5t171 -75.5t169 75.5t52 208.5v822h406v-822q0 -170 -48.5 -290.5t-133.5 -197.5t-200.5 -112t-250.5 -35t-250 35t-198 112t-130 197.5t-47 290.5zM616 1495l147 327h437l-322 -327h-262z" />
<glyph unicode="&#xdb;" horiz-adv-x="1531" d="M137 612v822h406v-822q0 -133 54 -208.5t171 -75.5t169 75.5t52 208.5v822h406v-822q0 -170 -48.5 -290.5t-133.5 -197.5t-200.5 -112t-250.5 -35t-250 35t-198 112t-130 197.5t-47 290.5zM352 1526l269 327h290l269 -327h-246l-170 131l-170 -131h-242z" />
<glyph unicode="&#xdc;" horiz-adv-x="1531" d="M137 612v822h406v-822q0 -133 54 -208.5t171 -75.5t169 75.5t52 208.5v822h406v-822q0 -170 -48.5 -290.5t-133.5 -197.5t-200.5 -112t-250.5 -35t-250 35t-198 112t-130 197.5t-47 290.5zM340 1712q0 37 15.5 69.5t40 57t57 39t69.5 14.5t70 -14.5t57.5 -39t40 -57 t15.5 -69.5q0 -35 -15.5 -66.5t-40 -56.5t-57.5 -39t-70 -14t-69.5 14t-57 39t-40 56.5t-15.5 66.5zM827 1712q0 37 15.5 69.5t40 57t58.5 39t71 14.5q35 0 67.5 -14.5t57 -39t40 -57t15.5 -69.5q0 -35 -15.5 -66.5t-40 -56.5t-57 -39t-67.5 -14q-37 0 -71 14t-58.5 39 t-40 56.5t-15.5 66.5z" />
<glyph unicode="&#xdd;" horiz-adv-x="1527" d="M33 1434h459l110 -217q57 -113 100 -210.5t64 -160.5q20 63 63 160.5t101 210.5l110 217h455l-530 -899v-535h-402v528zM627 1522l147 327h437l-322 -327h-262z" />
<glyph unicode="&#xde;" horiz-adv-x="1390" d="M145 0v1434h392v-213h225q125 0 228.5 -26t177 -82t113.5 -147.5t40 -220.5q0 -137 -43 -231t-121 -152.5t-185.5 -84t-236.5 -25.5h-198v-252h-392zM537 575h208q98 0 139.5 41t41.5 123q0 72 -39 115t-135 43h-215v-322z" />
<glyph unicode="&#xdf;" horiz-adv-x="1230" d="M115 -395v1401q0 125 33.5 216t96 149.5t149.5 87t196 28.5q96 0 180 -22.5t145.5 -68.5t97.5 -118t36 -170q0 -61 -14.5 -105.5t-38 -78t-54.5 -58t-65 -43.5q51 -12 102 -35.5t91 -65.5t64.5 -101.5t24.5 -141.5q0 -238 -134 -358.5t-400 -120.5h-31v289h31 q172 0 172 184q0 102 -49.5 143t-141.5 41h-12v279h12q53 0 74.5 28.5t21.5 82.5q0 74 -26.5 107.5t-85.5 33.5t-83 -42t-24 -130v-1264z" />
<glyph unicode="&#xe0;" horiz-adv-x="1142" d="M78 348q0 86 28.5 151.5t80 109.5t122 66.5t156.5 22.5q74 0 126 -12t97 -33v54q0 72 -38 99.5t-113 27.5q-84 0 -153 -17.5t-146 -60.5l-97 243q98 47 210 73t253 26q225 0 328.5 -106.5t103.5 -293.5v-698h-348v72q-53 -41 -120.5 -68t-141.5 -27q-158 0 -253 94.5 t-95 276.5zM188 1546h437l147 -327h-262zM416 354q0 -51 27.5 -83.5t86.5 -32.5q47 0 89.5 15t68.5 38v147q-31 14 -67.5 22.5t-90.5 8.5q-115 0 -114 -115z" />
<glyph unicode="&#xe1;" horiz-adv-x="1142" d="M78 348q0 86 28.5 151.5t80 109.5t122 66.5t156.5 22.5q74 0 126 -12t97 -33v54q0 72 -38 99.5t-113 27.5q-84 0 -153 -17.5t-146 -60.5l-97 243q98 47 210 73t253 26q225 0 328.5 -106.5t103.5 -293.5v-698h-348v72q-53 -41 -120.5 -68t-141.5 -27q-158 0 -253 94.5 t-95 276.5zM389 1219l147 327h437l-322 -327h-262zM416 354q0 -51 27.5 -83.5t86.5 -32.5q47 0 89.5 15t68.5 38v147q-31 14 -67.5 22.5t-90.5 8.5q-115 0 -114 -115z" />
<glyph unicode="&#xe2;" horiz-adv-x="1142" d="M78 348q0 86 28.5 151.5t80 109.5t122 66.5t156.5 22.5q74 0 126 -12t97 -33v54q0 72 -38 99.5t-113 27.5q-84 0 -153 -17.5t-146 -60.5l-97 243q98 47 210 73t253 26q225 0 328.5 -106.5t103.5 -293.5v-698h-348v72q-53 -41 -120.5 -68t-141.5 -27q-158 0 -253 94.5 t-95 276.5zM159 1211l269 327h290l269 -327h-246l-170 131l-170 -131h-242zM416 354q0 -51 27.5 -83.5t86.5 -32.5q47 0 89.5 15t68.5 38v147q-31 14 -67.5 22.5t-90.5 8.5q-115 0 -114 -115z" />
<glyph unicode="&#xe3;" horiz-adv-x="1142" d="M78 348q0 86 28.5 151.5t80 109.5t122 66.5t156.5 22.5q74 0 126 -12t97 -33v54q0 72 -38 99.5t-113 27.5q-84 0 -153 -17.5t-146 -60.5l-97 243q98 47 210 73t253 26q225 0 328.5 -106.5t103.5 -293.5v-698h-348v72q-53 -41 -120.5 -68t-141.5 -27q-158 0 -253 94.5 t-95 276.5zM150 1219q0 68 18.5 127t53 102t85 67.5t111.5 24.5q57 0 96 -11t87 -40q45 -27 73.5 -43t50.5 -16q63 0 76 104h211q0 -68 -18.5 -127t-53 -102t-85 -68t-111.5 -25q-57 0 -96 11.5t-86 40.5q-45 27 -74 43t-51 16q-35 0 -51.5 -25.5t-24.5 -78.5h-211zM416 354 q0 -51 27.5 -83.5t86.5 -32.5q47 0 89.5 15t68.5 38v147q-31 14 -67.5 22.5t-90.5 8.5q-115 0 -114 -115z" />
<glyph unicode="&#xe4;" horiz-adv-x="1142" d="M78 348q0 86 28.5 151.5t80 109.5t122 66.5t156.5 22.5q74 0 126 -12t97 -33v54q0 72 -38 99.5t-113 27.5q-84 0 -153 -17.5t-146 -60.5l-97 243q98 47 210 73t253 26q225 0 328.5 -106.5t103.5 -293.5v-698h-348v72q-53 -41 -120.5 -68t-141.5 -27q-158 0 -253 94.5 t-95 276.5zM143 1397q0 37 15.5 69.5t40 57t57 39t69.5 14.5t70 -14.5t57.5 -39t40 -57t15.5 -69.5q0 -35 -15.5 -66.5t-40 -56.5t-57.5 -39t-70 -14t-69.5 14t-57 39t-40 56.5t-15.5 66.5zM416 354q0 -51 27.5 -83.5t86.5 -32.5q47 0 89.5 15t68.5 38v147 q-31 14 -67.5 22.5t-90.5 8.5q-115 0 -114 -115zM630 1397q0 37 15.5 69.5t40 57t58.5 39t71 14.5q35 0 67.5 -14.5t57 -39t40 -57t15.5 -69.5q0 -35 -15.5 -66.5t-40 -56.5t-57 -39t-67.5 -14q-37 0 -71 14t-58.5 39t-40 56.5t-15.5 66.5z" />
<glyph unicode="&#xe5;" horiz-adv-x="1142" d="M78 348q0 86 28.5 151.5t80 109.5t122 66.5t156.5 22.5q74 0 126 -12t97 -33v54q0 72 -38 99.5t-113 27.5q-84 0 -153 -17.5t-146 -60.5l-97 243q98 47 210 73t253 26q225 0 328.5 -106.5t103.5 -293.5v-698h-348v72q-53 -41 -120.5 -68t-141.5 -27q-158 0 -253 94.5 t-95 276.5zM284 1501q0 61 22.5 112.5t62.5 90.5t92.5 60.5t113.5 21.5t113.5 -21.5t92.5 -60.5t62.5 -90.5t22.5 -112.5t-22.5 -112.5t-62.5 -89t-92.5 -59t-113.5 -21.5t-113.5 21.5t-92.5 59t-62.5 89t-22.5 112.5zM416 354q0 -51 27.5 -83.5t86.5 -32.5q47 0 89.5 15 t68.5 38v147q-31 14 -67.5 22.5t-90.5 8.5q-115 0 -114 -115zM462 1501q0 -55 30 -88t83 -33t83 33t30 88t-30 89t-83 34t-83 -34t-30 -89z" />
<glyph unicode="&#xe6;" horiz-adv-x="1734" d="M78 348q0 86 28.5 151.5t80 109.5t122 66.5t156.5 22.5q74 0 126 -12t97 -33v54q0 72 -38 99.5t-113 27.5q-84 0 -153 -17.5t-146 -60.5l-97 243q98 47 210 73t243 26q117 0 187.5 -34t111.5 -97q51 63 125 97t176 34q106 0 192.5 -37t147.5 -110.5t95 -185t34 -261.5 v-40.5t-2 -31.5h-631q10 -90 58.5 -131t123.5 -41q72 0 135.5 17.5t143.5 58.5l141 -236q-100 -59 -205.5 -91t-232.5 -32q-125 0 -205 44.5t-127 109.5q-70 -72 -168 -113t-227 -41q-199 0 -294 94.5t-95 276.5zM416 354q0 -51 27.5 -83.5t86.5 -32.5q47 0 89.5 15t68.5 38 v147q-31 14 -67.5 22.5t-90.5 8.5q-115 0 -114 -115zM1030 662h307q-14 82 -48 122.5t-115 40.5q-125 0 -144 -163z" />
<glyph unicode="&#xe7;" horiz-adv-x="1064" d="M72 541q0 123 31.5 225t95 176t160 115t225.5 41q76 0 137 -17.5t110.5 -49.5t90.5 -77t75 -102l-254 -193q-39 72 -72.5 106t-92.5 34q-72 0 -107 -67.5t-35 -196.5q0 -258 152 -259q53 0 94 32t92 108l234 -183q-90 -135 -185.5 -194t-232.5 -62l-19 -63q16 8 39 13 t47 5q78 0 119 -41t41 -108q0 -84 -58.5 -131t-168.5 -47q-88 0 -163 21.5t-138 51.5l39 95q57 -27 109 -38t98 -11q43 0 68.5 13t25.5 42q0 47 -45 47q-23 0 -40.5 -8t-35.5 -21l-78 53l37 136q-188 33 -291.5 173t-103.5 382z" />
<glyph unicode="&#xe8;" horiz-adv-x="1114" d="M72 537q0 139 36.5 243.5t102 175t156 106.5t196.5 36q221 0 350 -147.5t129 -446.5v-40.5t-2 -31.5h-630q10 -90 58 -131t124 -41q72 0 135.5 17.5t142.5 58.5l142 -236q-100 -59 -206 -91t-233 -32q-121 0 -215 41t-157.5 115t-96 177.5t-32.5 226.5zM139 1546h437 l147 -327h-262zM410 662h307q-14 82 -48 122.5t-116 40.5q-125 0 -143 -163z" />
<glyph unicode="&#xe9;" horiz-adv-x="1114" d="M72 537q0 139 36.5 243.5t102 175t156 106.5t196.5 36q221 0 350 -147.5t129 -446.5v-40.5t-2 -31.5h-630q10 -90 58 -131t124 -41q72 0 135.5 17.5t142.5 58.5l142 -236q-100 -59 -206 -91t-233 -32q-121 0 -215 41t-157.5 115t-96 177.5t-32.5 226.5zM410 662h307 q-14 82 -48 122.5t-116 40.5q-125 0 -143 -163zM410 1219l147 327h437l-322 -327h-262z" />
<glyph unicode="&#xea;" horiz-adv-x="1114" d="M72 537q0 139 36.5 243.5t102 175t156 106.5t196.5 36q221 0 350 -147.5t129 -446.5v-40.5t-2 -31.5h-630q10 -90 58 -131t124 -41q72 0 135.5 17.5t142.5 58.5l142 -236q-100 -59 -206 -91t-233 -32q-121 0 -215 41t-157.5 115t-96 177.5t-32.5 226.5zM151 1201l269 327 h290l269 -327h-246l-170 131l-170 -131h-242zM410 662h307q-14 82 -48 122.5t-116 40.5q-125 0 -143 -163z" />
<glyph unicode="&#xeb;" horiz-adv-x="1114" d="M72 537q0 139 36.5 243.5t102 175t156 106.5t196.5 36q221 0 350 -147.5t129 -446.5v-40.5t-2 -31.5h-630q10 -90 58 -131t124 -41q72 0 135.5 17.5t142.5 58.5l142 -236q-100 -59 -206 -91t-233 -32q-121 0 -215 41t-157.5 115t-96 177.5t-32.5 226.5zM141 1397 q0 37 15.5 69.5t40 57t57 39t69.5 14.5t70 -14.5t57.5 -39t40 -57t15.5 -69.5q0 -35 -15.5 -66.5t-40 -56.5t-57.5 -39t-70 -14t-69.5 14t-57 39t-40 56.5t-15.5 66.5zM410 662h307q-14 82 -48 122.5t-116 40.5q-125 0 -143 -163zM628 1397q0 37 15.5 69.5t40 57t58.5 39 t71 14.5q35 0 67.5 -14.5t57 -39t40 -57t15.5 -69.5q0 -35 -15.5 -66.5t-40 -56.5t-57 -39t-67.5 -14q-37 0 -71 14t-58.5 39t-40 56.5t-15.5 66.5z" />
<glyph unicode="&#xec;" horiz-adv-x="618" d="M-105 1546h437l147 -327h-262zM125 0v1075h369v-1075h-369z" />
<glyph unicode="&#xed;" horiz-adv-x="618" d="M125 0v1075h369v-1075h-369zM152 1219l147 327h437l-322 -327h-262z" />
<glyph unicode="&#xee;" horiz-adv-x="618" d="M-103 1190l269 327h290l269 -327h-246l-170 131l-170 -131h-242zM125 0v1075h369v-1075h-369z" />
<glyph unicode="&#xef;" horiz-adv-x="618" d="M-115 1387q0 37 15.5 69.5t40 57t57 39t69.5 14.5t70 -14.5t57.5 -39t40 -57t15.5 -69.5q0 -35 -15.5 -66.5t-40 -56.5t-57.5 -39t-70 -14t-69.5 14t-57 39t-40 56.5t-15.5 66.5zM125 0v1075h369v-1075h-369zM372 1387q0 37 15.5 69.5t40 57t58.5 39t71 14.5 q35 0 67.5 -14.5t57 -39t40 -57t15.5 -69.5q0 -35 -15.5 -66.5t-40 -56.5t-57 -39t-67.5 -14q-37 0 -71 14t-58.5 39t-40 56.5t-15.5 66.5z" />
<glyph unicode="&#xf0;" horiz-adv-x="1165" d="M72 467q0 121 40 210t102 148.5t138 89t148 29.5q100 0 165.5 -20.5t114.5 -67.5q-12 59 -42.5 111.5t-75.5 95.5l-82 -86l-148 121l66 67q-88 37 -197 43v248q225 0 391 -88l86 88l148 -121l-78 -80q123 -119 184.5 -299t61.5 -409q0 -156 -43 -264.5t-114 -176 t-163 -98.5t-192 -31t-192.5 32t-163 94.5t-112.5 153.5t-42 210zM436 467q0 -98 40 -144.5t106 -46.5t105.5 46.5t39.5 144.5q0 100 -40 144t-105 44q-66 0 -106 -44t-40 -144z" />
<glyph unicode="&#xf1;" horiz-adv-x="1208" d="M115 0v1075h368v-71q51 39 112.5 66.5t158.5 27.5q178 0 263 -114t85 -327v-657h-371v610q0 104 -32.5 140t-90.5 36q-59 0 -92 -34.5t-33 -137.5v-614h-368zM193 1219q0 68 18.5 127t53 102t85 67.5t111.5 24.5q57 0 96 -11t87 -40q45 -27 73.5 -43t50.5 -16 q63 0 76 104h211q0 -68 -18.5 -127t-53 -102t-85 -68t-111.5 -25q-57 0 -96 11.5t-86 40.5q-45 27 -74 43t-51 16q-35 0 -51.5 -25.5t-24.5 -78.5h-211z" />
<glyph unicode="&#xf2;" horiz-adv-x="1165" d="M72 539q0 141 37.5 245.5t105.5 174t162 104.5t205 35t205 -35t162.5 -104.5t106.5 -174t38 -245.5q0 -139 -38 -244t-106.5 -175.5t-163 -106.5t-204.5 -36q-111 0 -205 36t-162 106.5t-105.5 175t-37.5 244.5zM141 1546h437l147 -327h-262zM436 539q0 -262 146 -263 q145 1 145 263q0 137 -37 198.5t-108 61.5q-72 0 -109 -61.5t-37 -198.5z" />
<glyph unicode="&#xf3;" horiz-adv-x="1165" d="M72 539q0 141 37.5 245.5t105.5 174t162 104.5t205 35t205 -35t162.5 -104.5t106.5 -174t38 -245.5q0 -139 -38 -244t-106.5 -175.5t-163 -106.5t-204.5 -36q-111 0 -205 36t-162 106.5t-105.5 175t-37.5 244.5zM432 1219l147 327h437l-322 -327h-262zM436 539 q0 -262 146 -263q145 1 145 263q0 137 -37 198.5t-108 61.5q-72 0 -109 -61.5t-37 -198.5z" />
<glyph unicode="&#xf4;" horiz-adv-x="1165" d="M72 539q0 141 37.5 245.5t105.5 174t162 104.5t205 35t205 -35t162.5 -104.5t106.5 -174t38 -245.5q0 -139 -38 -244t-106.5 -175.5t-163 -106.5t-204.5 -36q-111 0 -205 36t-162 106.5t-105.5 175t-37.5 244.5zM168 1201l269 327h290l269 -327h-246l-170 131l-170 -131 h-242zM436 539q0 -262 146 -263q145 1 145 263q0 137 -37 198.5t-108 61.5q-72 0 -109 -61.5t-37 -198.5z" />
<glyph unicode="&#xf5;" horiz-adv-x="1165" d="M72 539q0 141 37.5 245.5t105.5 174t162 104.5t205 35t205 -35t162.5 -104.5t106.5 -174t38 -245.5q0 -139 -38 -244t-106.5 -175.5t-163 -106.5t-204.5 -36q-111 0 -205 36t-162 106.5t-105.5 175t-37.5 244.5zM152 1219q0 68 18.5 127t53 102t85 67.5t111.5 24.5 q57 0 96 -11t87 -40q45 -27 73.5 -43t50.5 -16q63 0 76 104h211q0 -68 -18.5 -127t-53 -102t-85 -68t-111.5 -25q-57 0 -96 11.5t-86 40.5q-45 27 -74 43t-51 16q-35 0 -51.5 -25.5t-24.5 -78.5h-211zM436 539q0 -262 146 -263q145 1 145 263q0 137 -37 198.5t-108 61.5 q-72 0 -109 -61.5t-37 -198.5z" />
<glyph unicode="&#xf6;" horiz-adv-x="1165" d="M72 539q0 141 37.5 245.5t105.5 174t162 104.5t205 35t205 -35t162.5 -104.5t106.5 -174t38 -245.5q0 -139 -38 -244t-106.5 -175.5t-163 -106.5t-204.5 -36q-111 0 -205 36t-162 106.5t-105.5 175t-37.5 244.5zM156 1387q0 37 15.5 69.5t40 57t57 39t69.5 14.5t70 -14.5 t57.5 -39t40 -57t15.5 -69.5q0 -35 -15.5 -66.5t-40 -56.5t-57.5 -39t-70 -14t-69.5 14t-57 39t-40 56.5t-15.5 66.5zM436 539q0 -262 146 -263q145 1 145 263q0 137 -37 198.5t-108 61.5q-72 0 -109 -61.5t-37 -198.5zM643 1387q0 37 15.5 69.5t40 57t58.5 39t71 14.5 q35 0 67.5 -14.5t57 -39t40 -57t15.5 -69.5q0 -35 -15.5 -66.5t-40 -56.5t-57 -39t-67.5 -14q-37 0 -71 14t-58.5 39t-40 56.5t-15.5 66.5z" />
<glyph unicode="&#xf7;" d="M31 725l325 281q47 39 82 14q20 -14 24.5 -33.5t-3.5 -54.5l-17 -74h271v215l-74 -16q-35 -8 -54.5 -4t-33.5 24q-25 35 14 82l281 326l280 -326q39 -47 15 -82q-14 -20 -34 -24t-54 4l-74 16v-215h270l-16 74q-8 35 -4 54.5t24 33.5q35 25 82 -14l326 -281l-326 -281 q-47 -39 -82 -14q-20 14 -24 33.5t4 54.5l16 74h-270v-232l74 17q35 8 54 4t34 -25q25 -35 -15 -82l-280 -325l-281 325q-39 47 -14 82q14 20 33.5 24.5t54.5 -3.5l74 -17v232h-271l17 -74q8 -35 4 -54.5t-25 -33.5q-35 -25 -82 14z" />
<glyph unicode="&#xf8;" horiz-adv-x="1165" d="M33 -102l151 256q-53 72 -82.5 167t-29.5 218q0 141 37.5 245.5t105.5 174t162 104.5t205 35q80 0 151 -19l60 99h333l-149 -252q55 -70 86 -166t31 -221q0 -139 -38 -244t-106.5 -175.5t-163 -106.5t-204.5 -36q-88 0 -156 21l-59 -100h-334zM436 539q0 -262 146 -263 q145 1 145 263q0 137 -37 198.5t-108 61.5q-72 0 -109 -61.5t-37 -198.5z" />
<glyph unicode="&#xf9;" horiz-adv-x="1208" d="M106 418v657h371v-610q0 -104 33 -140t90 -36t90 34.5t33 137.5v614h371v-1075h-371v72q-49 -39 -111.5 -67t-156.5 -28q-178 0 -263.5 114t-85.5 327zM176 1546h437l147 -327h-262z" />
<glyph unicode="&#xfa;" horiz-adv-x="1208" d="M106 418v657h371v-610q0 -104 33 -140t90 -36t90 34.5t33 137.5v614h371v-1075h-371v72q-49 -39 -111.5 -67t-156.5 -28q-178 0 -263.5 114t-85.5 327zM447 1219l147 327h437l-322 -327h-262z" />
<glyph unicode="&#xfb;" horiz-adv-x="1208" d="M106 418v657h371v-610q0 -104 33 -140t90 -36t90 34.5t33 137.5v614h371v-1075h-371v72q-49 -39 -111.5 -67t-156.5 -28q-178 0 -263.5 114t-85.5 327zM192 1219l269 327h290l269 -327h-246l-170 131l-170 -131h-242z" />
<glyph unicode="&#xfc;" horiz-adv-x="1208" d="M106 418v657h371v-610q0 -104 33 -140t90 -36t90 34.5t33 137.5v614h371v-1075h-371v72q-49 -39 -111.5 -67t-156.5 -28q-178 0 -263.5 114t-85.5 327zM180 1405q0 37 15.5 69.5t40 57t57 39t69.5 14.5t70 -14.5t57.5 -39t40 -57t15.5 -69.5q0 -35 -15.5 -66.5t-40 -56.5 t-57.5 -39t-70 -14t-69.5 14t-57 39t-40 56.5t-15.5 66.5zM667 1405q0 37 15.5 69.5t40 57t58.5 39t71 14.5q35 0 67.5 -14.5t57 -39t40 -57t15.5 -69.5q0 -35 -15.5 -66.5t-40 -56.5t-57 -39t-67.5 -14q-37 0 -71 14t-58.5 39t-40 56.5t-15.5 66.5z" />
<glyph unicode="&#xfd;" horiz-adv-x="1208" d="M31 1075h391l102 -383q8 -35 20.5 -84t25 -103t22.5 -105.5t14 -90.5q6 39 16.5 91.5t22.5 105.5t23.5 104.5t21.5 85.5l101 379h387l-521 -1454h-352l135 334zM479 1201l147 327h437l-322 -327h-262z" />
<glyph unicode="&#xfe;" horiz-adv-x="1171" d="M115 -395v1741l368 147v-494q55 43 111.5 71t142.5 28q76 0 141.5 -31t113.5 -98.5t76 -172.5t28 -255q0 -289 -98.5 -426.5t-274.5 -137.5q-80 0 -137.5 30t-102.5 65v-320zM483 332q29 -23 59.5 -37t73.5 -14q29 0 50.5 10t36 37.5t21.5 75.5t7 124q0 80 -7 132.5 t-21.5 82t-37 41t-51.5 11.5q-41 0 -71.5 -14.5t-59.5 -37.5v-411z" />
<glyph unicode="&#xff;" horiz-adv-x="1208" d="M31 1075h391l102 -383q8 -35 20.5 -84t25 -103t22.5 -105.5t14 -90.5q6 39 16.5 91.5t22.5 105.5t23.5 104.5t21.5 85.5l101 379h387l-521 -1454h-352l135 334zM178 1387q0 37 15.5 69.5t40 57t57 39t69.5 14.5t70 -14.5t57.5 -39t40 -57t15.5 -69.5q0 -35 -15.5 -66.5 t-40 -56.5t-57.5 -39t-70 -14t-69.5 14t-57 39t-40 56.5t-15.5 66.5zM665 1387q0 37 15.5 69.5t40 57t58.5 39t71 14.5q35 0 67.5 -14.5t57 -39t40 -57t15.5 -69.5q0 -35 -15.5 -66.5t-40 -56.5t-57 -39t-67.5 -14q-37 0 -71 14t-58.5 39t-40 56.5t-15.5 66.5z" />
<glyph unicode="&#x152;" horiz-adv-x="2177" d="M86 715q0 178 50 316t137 232.5t205 143.5t253 49q119 0 210 -39t149 -117v134h964v-334h-684v-191h404v-329h-404v-246h698v-334h-978v133q-57 -78 -151.5 -117t-211.5 -39q-135 0 -253 48.5t-204 141.5t-135 231.5t-49 316.5zM498 719q0 -195 66.5 -295t187.5 -100 t185 98t64 293t-66.5 295t-186.5 100q-121 0 -185.5 -98.5t-64.5 -292.5z" />
<glyph unicode="&#x153;" horiz-adv-x="1765" d="M72 539q0 141 37.5 245.5t105.5 174t159 104.5t197 35q229 0 334 -152q115 152 320 152q104 0 191 -37t148.5 -110.5t95.5 -185t34 -261.5v-40.5t-2 -31.5h-631q10 -90 58 -131t124 -41q72 0 135.5 17.5t143.5 58.5l141 -236q-100 -59 -205.5 -91t-222.5 -32 q-72 0 -123 12.5t-90 33t-68.5 49t-54.5 61.5q-59 -70 -134 -113t-194 -43q-106 0 -197 36t-159 106.5t-105.5 175t-37.5 244.5zM436 539q0 -262 146 -263q145 1 145 263q0 137 -37 198.5t-108 61.5q-72 0 -109 -61.5t-37 -198.5zM1061 662h307q-14 82 -48 122.5t-116 40.5 q-125 0 -143 -163z" />
<glyph unicode="&#x178;" horiz-adv-x="1527" d="M33 1434h459l110 -217q57 -113 100 -210.5t64 -160.5q20 63 63 160.5t101 210.5l110 217h455l-530 -899v-535h-402v528zM338 1702q0 37 15.5 69.5t40 57t57 39t69.5 14.5t70 -14.5t57.5 -39t40 -57t15.5 -69.5q0 -35 -15.5 -66.5t-40 -56.5t-57.5 -39t-70 -14t-69.5 14 t-57 39t-40 56.5t-15.5 66.5zM825 1702q0 37 15.5 69.5t40 57t58.5 39t71 14.5q35 0 67.5 -14.5t57 -39t40 -57t15.5 -69.5q0 -35 -15.5 -66.5t-40 -56.5t-57 -39t-67.5 -14q-37 0 -71 14t-58.5 39t-40 56.5t-15.5 66.5z" />
<glyph unicode="&#x2c6;" horiz-adv-x="1024" d="M98 1219l269 327h290l269 -327h-246l-170 131l-170 -131h-242z" />
<glyph unicode="&#x2dc;" horiz-adv-x="1024" d="M84 1219q0 68 18.5 127t53 102t85 67.5t111.5 24.5q57 0 96 -11t87 -40q45 -27 73.5 -43t50.5 -16q63 0 76 104h211q0 -68 -18.5 -127t-53 -102t-85 -68t-111.5 -25q-57 0 -96 11.5t-86 40.5q-45 27 -74 43t-51 16q-35 0 -51.5 -25.5t-24.5 -78.5h-211z" />
<glyph unicode="&#x2000;" horiz-adv-x="946" />
<glyph unicode="&#x2001;" horiz-adv-x="1892" />
<glyph unicode="&#x2002;" horiz-adv-x="946" />
<glyph unicode="&#x2003;" horiz-adv-x="1892" />
<glyph unicode="&#x2004;" horiz-adv-x="630" />
<glyph unicode="&#x2005;" horiz-adv-x="473" />
<glyph unicode="&#x2006;" horiz-adv-x="315" />
<glyph unicode="&#x2007;" horiz-adv-x="315" />
<glyph unicode="&#x2008;" horiz-adv-x="236" />
<glyph unicode="&#x2009;" horiz-adv-x="378" />
<glyph unicode="&#x200a;" horiz-adv-x="105" />
<glyph unicode="&#x2010;" horiz-adv-x="991" d="M139 541v385h713v-385h-713z" />
<glyph unicode="&#x2011;" horiz-adv-x="991" d="M139 541v385h713v-385h-713z" />
<glyph unicode="&#x2012;" horiz-adv-x="991" d="M139 541v385h713v-385h-713z" />
<glyph unicode="&#x2013;" horiz-adv-x="1138" d="M139 549v369h860v-369h-860z" />
<glyph unicode="&#x2014;" horiz-adv-x="1343" d="M139 549v369h1065v-369h-1065z" />
<glyph unicode="&#x2018;" horiz-adv-x="663" d="M84 782l197 652h251l-28 -652h-420z" />
<glyph unicode="&#x2019;" horiz-adv-x="663" d="M131 782l29 652h420l-197 -652h-252z" />
<glyph unicode="&#x201a;" horiz-adv-x="663" d="M125 -223l29 651h419l-196 -651h-252z" />
<glyph unicode="&#x201c;" horiz-adv-x="1245" d="M84 782l197 652h251l-28 -652h-420zM666 782l196 652h252l-29 -652h-419z" />
<glyph unicode="&#x201d;" horiz-adv-x="1245" d="M131 782l29 652h420l-197 -652h-252zM713 782l28 652h420l-196 -652h-252z" />
<glyph unicode="&#x201e;" horiz-adv-x="1245" d="M125 -223l29 651h419l-196 -651h-252zM707 -223l28 651h420l-197 -651h-251z" />
<glyph unicode="&#x2022;" horiz-adv-x="1206" d="M133 750q0 98 36 185t99.5 150.5t149.5 100.5t184 37q100 0 186 -37t149.5 -100.5t99.5 -150.5t36 -185t-36 -184.5t-99.5 -150t-149.5 -99t-186 -35.5q-98 0 -184 35.5t-149.5 99t-99.5 149.5t-36 185z" />
<glyph unicode="&#x2026;" horiz-adv-x="1929" d="M86 213q0 102 66.5 166.5t169.5 64.5q102 0 168.5 -64.5t66.5 -166.5t-66.5 -169t-168.5 -67t-169 67t-67 169zM729 213q0 102 66.5 166.5t169.5 64.5q102 0 168.5 -64.5t66.5 -166.5t-66.5 -169t-168.5 -67t-169 67t-67 169zM1372 213q0 102 66.5 166.5t169.5 64.5 q102 0 168.5 -64.5t66.5 -166.5t-66.5 -169t-168.5 -67t-169 67t-67 169z" />
<glyph unicode="&#x202f;" horiz-adv-x="378" />
<glyph unicode="&#x2039;" horiz-adv-x="804" d="M61 537l261 538h399l-268 -536l268 -539h-399z" />
<glyph unicode="&#x203a;" horiz-adv-x="804" d="M84 0l268 537l-268 538h399l260 -536l-260 -539h-399z" />
<glyph unicode="&#x205f;" horiz-adv-x="473" />
<glyph unicode="&#x2122;" horiz-adv-x="1718" d="M49 1241v193h672v-193h-223v-610h-224v610h-225zM848 631v803h203l98 -213q37 -78 64.5 -143.5t37.5 -100.5q10 35 36 97.5t65 146.5l98 213h203v-803h-209v192v112.5t4 100.5q-18 -45 -45 -106.5t-47 -104.5l-107 -221l-104 221q-20 43 -48 104.5t-46 106.5 q4 -47 4 -100v-113v-192h-207z" />
<glyph unicode="&#x25fc;" horiz-adv-x="1075" d="M0 0v1075h1075v-1075h-1075z" />
</font>
</defs>
</svg>
