<?xml version="1.0" standalone="no"?>
<!DOCTYPE svg PUBLIC "-//W3C//DTD SVG 1.1//EN" "http://www.w3.org/Graphics/SVG/1.1/DTD/svg11.dtd" >
<svg xmlns="http://www.w3.org/2000/svg" xmlns:xlink="http://www.w3.org/1999/xlink" version="1.1">
<metadata>
Created by FontForge 20141024 at Mon Jan 19 17:56:15 2015
 By System Administrator
A FlavourFont by Woodrow Phoenix 1996
</metadata>
<defs>
<font id="PhoenixChunky" horiz-adv-x="320" >
  <font-face 
    font-family="PhoenixChunky"
    font-weight="400"
    font-stretch="normal"
    units-per-em="1000"
    panose-1="0 0 4 0 0 0 0 0 0 0"
    ascent="800"
    descent="-200"
    x-height="470"
    cap-height="783"
    bbox="-208 -314 1218 992"
    underline-thickness="20"
    underline-position="-123"
    unicode-range="U+0020-F002"
  />
<missing-glyph horiz-adv-x="500" 
d="M63 0v800h375v-800h-375zM125 63h250v675h-250v-675z" />
    <glyph glyph-name=".notdef" horiz-adv-x="500" 
d="M63 0v800h375v-800h-375zM125 63h250v675h-250v-675z" />
    <glyph glyph-name=".null" horiz-adv-x="0" 
 />
    <glyph glyph-name="nonmarkingreturn" 
 />
    <glyph glyph-name="space" unicode=" " 
 />
    <glyph glyph-name="exclam" unicode="!" horiz-adv-x="374" 
d="M357 904q-2 -47 -9 -142q-3 -29 -15 -71q-17 -64 -18 -71q-34 -152 -40 -182q-21 -105 -25 -185l-136 6q-6 187 -19 378q-3 55 -7 111q-5 64 -18 109l18 32zM286 136l-21 -177l-222 6v198q90 0 153 -11q30 -7 90 -16z" />
    <glyph glyph-name="quotedbl" unicode="&#x22;" horiz-adv-x="551" 
d="M470 775l-80 -290l-85 -5l-15 295h180zM210 775l-50 -280l-70 -35l-70 315h190z" />
    <glyph glyph-name="numbersign" unicode="#" horiz-adv-x="894" 
d="M842 494q0 1 -23 -67l-219 -26l-55 -96l216 4l-36 -85l-237 -9l-90 -171q-18 5 -35 11q-21 6 -36 5q-1 10 -1 16q0 22 23.5 61.5t23.5 62.5l-98 -9q-20 -44 -68 -128l-103 6q23 71 62 112l-114 3q3 19 3 39q0 10 -5 30.5t-5 30.5l3 11l159 2l45 88l-95 -3q-24 0 -108 12
q17 66 24 108q120 -6 179 -6q33 0 45.5 2t60.5 75q29 47 58 93h80l-57 -160h103q3 7 72 173q4 2 23 1q27 -2 25 -2q23 0 46 6v-4q0 -42 -70 -174q20 -1 51 0q43 1 51 1q72 0 94 -7q8 -3 8 -6zM495 402l-107 -3l-49 -93h109z" />
    <glyph glyph-name="dollar" unicode="$" horiz-adv-x="777" 
d="M714 311q0 -94 -55 -151q-44 -45 -142 -82q10 -42 26 -127q-36 -13 -148 -30q-9 38 -31 114q-51 -1 -58 -1q-215 0 -228 169l184 40q9 -49 75 -64q-5 44 -23 105q-132 5 -175 24q-80 35 -80 145q0 72 49 132q48 57 119 78q-10 48 -31 143q26 4 78.5 20t80.5 20
q18 -48 34 -139q16 2 45 2q72 0 146 -35q89 -41 99 -102q-32 -9 -96.5 -37t-100.5 -37q-3 24 -20 42t-41 20q17 -55 22 -112q123 -9 169 -24q102 -32 102 -113zM552 255q0 12 -30 16q-21 2 -41 4q4 -28 16 -66q17 -1 36 14t19 32zM277 459q-3 22 -13 66q-16 0 -29.5 -15
t-13.5 -31q0 -8 24 -14z" />
    <glyph glyph-name="percent" unicode="%" horiz-adv-x="711" 
d="M321 546q0 -67 -48.5 -114.5t-115.5 -47.5t-115 48.5t-48 115.5t48.5 114.5t115.5 47.5t115 -48.5t48 -115.5zM635 690l-515 -730l-75 75l465 720zM650 166q0 -65 -46.5 -102t-112.5 -37q-141 0 -141 125q0 68 40.5 113.5t107.5 45.5q63 0 107.5 -41t44.5 -104zM226 546
q0 33 -17 62q-20 33 -51 33q-32 0 -51 -29q-17 -25 -17 -59q0 -36 17 -64q19 -34 53 -34q29 0 49 32q17 28 17 59zM552 180q0 65 -43 65q-27 0 -43 -36q-13 -28 -13 -59q0 -65 43 -65q27 0 43 36q13 28 13 59z" />
    <glyph glyph-name="ampersand" unicode="&#x26;" horiz-adv-x="779" 
d="M722 246q-21 -27 -43 -55q-29 -35 -47 -47q28 -25 80 -78q-51 -39 -104 -97q-16 14 -43.5 45t-43.5 45q-118 -81 -190 -81q-64 0 -119 46q-58 48 -58 111q0 66 24 126q28 68 77 101l-42 42q-32 34 -32 48q0 3 1 5q-7 10 -7 27q0 70 62 120q58 47 130 47q68 0 112 -50
t44 -119q0 -22 -8 -35l2 -7q0 -30 -74 -100q54 -62 84 -90q30 33 89 102zM390 504q0 11 -11.5 19t-23.5 8q-15 0 -29 -9q-17 -9 -17 -23q0 -16 47 -63l28 28q6 7 6 40zM424 174q-19 12 -43 40q-35 41 -39 45q-20 -14 -37 -41t-17 -49q0 -39 40 -39t96 44z" />
    <glyph glyph-name="quotesingle" unicode="'" horiz-adv-x="363" 
d="M279 762q-35 -201 -113 -289q-17 -15 -37 -44l-56 5q16 75 16 144q0 134 -46 199z" />
    <glyph glyph-name="parenleft" unicode="(" horiz-adv-x="363" 
d="M307 732q-83 -54 -127 -179q-38 -105 -38 -221q0 -59 44 -158q49 -109 97 -121l-28 -66q-96 12 -170 167q-65 134 -65 245q0 87 42.5 184t107.5 150q33 20 95 67z" />
    <glyph glyph-name="parenright" unicode=")" horiz-adv-x="366" 
d="M288 393q0 -108 -65 -239q-75 -150 -170 -161l-28 66q48 12 97 121q44 99 44 158q0 116 -37 221q-45 124 -128 178l42 69q15 -16 46 -35q37 -22 49 -32q68 -56 110 -157q40 -95 40 -189z" />
    <glyph glyph-name="asterisk" unicode="*" horiz-adv-x="475" 
d="M400 676q-84 -50 -127 -87q56 -37 123 -72q-14 -21 -43 -61q-48 5 -111 54q-1 -31 -1 -37q0 -25 4 -56l-83 -17q-1 3 -9 105q-28 -22 -77 -73q-15 13 -30 27q-18 16 -21 33q36 32 107 96q-18 15 -59.5 38.5t-59.5 38.5l28 63q28 -13 108 -64v102l94 -1q3 -17 2 -43
l-2 -43q0 -12 1 -19q16 8 48 42q27 31 51 36z" />
    <glyph glyph-name="plus" unicode="+" horiz-adv-x="726" 
d="M650 455l-2 -186q-30 -3 -105 -3q-67 1 -105 -6q-1 -7 -1 -20q0 -22 2 -66t2 -66q0 -8 -1 -57q-23 -1 -87 -9q-54 -7 -87 -7q-10 39 -11 113q-1 79 -7 113l-224 -10l-2 200q9 0 112 6q68 3 113 1q1 9 1 26q0 33 -2 98t-2 97q85 5 103 5q55 0 95 -9l-4 -220q24 3 72 3
q17 0 70 -2q44 -2 70 -1z" />
    <glyph glyph-name="comma" unicode="," horiz-adv-x="444" 
d="M321 26q-34 -67 -138 -187q-115 -134 -165 -146q36 94 72 189q39 103 51 204z" />
    <glyph glyph-name="hyphen" unicode="-" horiz-adv-x="523" 
d="M419 266l-350 -1l-1 162l349 -1z" />
    <glyph glyph-name="hyphen" unicode="&#x2010;" horiz-adv-x="523" 
d="M419 266l-350 -1l-1 162l349 -1z" />
    <glyph glyph-name="period" unicode="." horiz-adv-x="375" 
d="M275 0h-214l-1 200h214z" />
    <glyph glyph-name="slash" unicode="/" horiz-adv-x="466" 
d="M410 730l-365 -810l-65 30l320 825z" />
    <glyph glyph-name="zero" unicode="0" horiz-adv-x="915" 
d="M849 417q0 -206 -109.5 -319t-314.5 -113q-181 0 -291 105q-113 107 -113 287q0 425 434 425q154 0 274 -115.5t120 -269.5zM600 440q0 87 -41 139q-45 58 -130 58q-91 0 -141 -81q-41 -69 -41 -166q0 -94 42 -168q50 -89 137 -89q77 0 130 120q44 98 44 187z" />
    <glyph glyph-name="one" unicode="1" horiz-adv-x="349" 
d="M245 -5l-200 5l5 775l195 10v-790z" />
    <glyph glyph-name="two" unicode="2" horiz-adv-x="725" 
d="M649 11q-125 -22 -412 -22h-66q-41 0 -120 2q-9 27 -8 76q28 49 129 156q121 128 159 177q78 101 78 166q0 34 -30 55q-26 18 -61 18q-62 0 -94 -61q-26 -49 -26 -121q0 -19 2 -37l-187 3q-6 146 -6 152q0 111 106 186q96 69 211 69q122 0 206 -70q90 -74 90 -194
q0 -82 -67 -203q-31 -57 -119 -185h17q44 0 190 7q0 -117 8 -174z" />
    <glyph glyph-name="three" unicode="3" horiz-adv-x="634" 
d="M550 246q0 -121 -108 -195q-95 -65 -222 -65q-86 0 -144 56.5t-62 142.5l78 32q45 17 82 22q6 -38 26 -62q23 -28 59 -28q39 0 61.5 27.5t22.5 66.5q0 82 -145 82q-27 0 -56 -3q-14 54 -16 156q35 -1 40 -1q74 0 128 28q69 35 69 102q0 23 -27 45t-51 22q-39 0 -73 -46
q-27 -35 -41 -81q-37 10 -74 21q-44 13 -67 35q6 70 87.5 140.5t154.5 70.5q108 0 186 -52q88 -60 88 -163q0 -61 -19 -93q-11 -20 -44 -41t-47 -40q75 -50 89 -69q25 -33 25 -110z" />
    <glyph glyph-name="four" unicode="4" horiz-adv-x="745" 
d="M662 242l-112 -11l-18 -216l-180 -6v209q-25 -9 -129 -9q-93 0 -131 1q-41 34 -81 150q44 57 107 182.5t104 180.5q15 1 40 1q41 0 123 -6q-4 -53 -63.5 -161t-64.5 -154l115 -5l35 255l169 -15l-15 -251l101 2v-147z" />
    <glyph glyph-name="five" unicode="5" horiz-adv-x="645" 
d="M573 268q0 -131 -73 -213q-75 -85 -205 -85q-123 0 -243 69l5 180q42 -24 120 -42q72 -16 126 -16q105 0 105 63q0 108 -165 108q-100 0 -200 -30q-9 104 -9 243q0 180 19 238q11 -1 31 -1q224 0 469 11l-3 -145q-112 0 -213 -9q-123 -11 -136 -11q-5 -48 -5 -87
q0 -29 4 -45q27 5 64 5q128 0 210 -51q99 -62 99 -182z" />
    <glyph glyph-name="six" unicode="6" horiz-adv-x="723" 
d="M654 254q0 -302 -311 -302q-189 0 -263 98q-64 85 -64 280q0 478 430 478q41 0 90 -5l95 -184q-73 10 -132 10q-118 0 -178 -35q-74 -44 -89 -152q77 30 162 30q114 0 183 -51q77 -57 77 -167zM449 223q0 79 -86 79q-61 0 -117 -44q-6 -21 -6 -43q0 -90 92 -90
q38 0 77.5 30.5t39.5 67.5z" />
    <glyph glyph-name="seven" unicode="7" horiz-adv-x="733" 
d="M685 586q-95 -81 -247 -277q-166 -214 -191 -306q-56 -5 -103 -5q-61 0 -115 7q17 108 151 290q38 53 213 264q-6 1 -14 1q-184 0 -338 -25q-2 34 -2 97q0 86 4 131q106 0 319.5 -4.5t319.5 -4.5z" />
    <glyph glyph-name="eight" unicode="8" horiz-adv-x="786" 
d="M704 277q0 -144 -121 -235q-110 -82 -259 -82q-109 0 -198 67q-97 72 -97 178q0 119 138 193q-108 41 -108 147q0 116 107 201q100 80 219 80t198 -54q92 -63 92 -176q0 -96 -63 -148q92 -46 92 -171zM472 577q0 49 -13 71q-17 29 -64 29q-55 0 -95 -32t-40 -86
q0 -35 20.5 -55.5t55.5 -20.5q46 0 87 24q49 28 49 70zM507 240q0 58 -37 80q-29 17 -91 17q-60 0 -100 -32q-44 -35 -44 -93q0 -42 38 -64q32 -19 77 -19q61 0 104 25q53 30 53 86z" />
    <glyph glyph-name="nine" unicode="9" horiz-adv-x="769" 
d="M693 407q0 -184 -88 -298q-98 -127 -276 -127q-130 0 -285 108q38 42 112 129q22 -31 73 -53q48 -21 89 -21q128 0 152 178q-105 -77 -203 -77q-79 0 -146 55q-70 59 -70 136q0 165 93 259t258 94q291 0 291 -383zM456 476q0 57 -26 99q-31 49 -85 49q-44 0 -72.5 -36.5
t-28.5 -81.5q0 -85 66 -85q33 0 75 19q36 18 71 36z" />
    <glyph glyph-name="colon" unicode=":" horiz-adv-x="313" 
d="M225 395l-190 -5v180l190 -5v-170zM235 75q-116 -9 -118 -9q-41 0 -75 7l-2 177q26 4 71 4q17 0 124 -4v-175z" />
    <glyph glyph-name="semicolon" unicode=";" horiz-adv-x="343" 
d="M264 370l-5 -177q-103 -3 -201 -36l-5 198zM264 5q-23 -94 -68 -161q-34 -52 -115 -131q-3 21 -3 41q0 27 6 80t6 80q0 51 -12 116z" />
    <glyph glyph-name="less" unicode="&#x3c;" horiz-adv-x="566" 
d="M483 580q-23 0 -79 -4q-50 -2 -79 -2q-159 0 -217 33q-25 14 -46 42q-24 31 -24 56q0 40 32 67t73 27q69 0 92 -40q28 -10 136 -86q112 -79 112 -93zM523 418q-8 -2 -63 -7q-47 -4 -55 -13q-70 -10 -184 -74q-107 -60 -141 -60q-20 0 -40 8q-23 30 -23 63q0 57 66 110
q63 50 122 50q20 0 60 -6t61 -6q16 0 45.5 -8.5t44.5 -9.5q9 -8 52 -22.5t55 -24.5zM454 236q-89 -51 -114 -71q-50 -39 -88 -105l-24 -40q-27 -39 -84 -39q-69 0 -69 79q0 58 124 127q116 63 188 63q37 0 67 -14z" />
    <glyph glyph-name="equal" unicode="=" horiz-adv-x="717" 
d="M645 365h-560v130h560v-130zM640 120h-545v135h545v-135z" />
    <glyph glyph-name="greater" unicode="&#x3e;" horiz-adv-x="541" 
d="M0 525q57 78 133 132q91 65 172 65q31 0 59 -19q31 -22 31 -51q0 -48 -77 -61q-27 -4 -112 -4t-206 -62zM397 299q-43 0 -136 38t-158 38q-13 0 -22 2q134 80 249 80q147 0 147 -93q0 -65 -80 -65zM408 101q0 -34 -22.5 -62t-55.5 -28q-32 0 -56 16q-14 9 -37 35.5
t-39 37.5q-4 15 -36 39q-38 28 -45 38q-23 15 -44 28t-56 21q44 12 100 12q81 0 173 -32q118 -41 118 -105z" />
    <glyph glyph-name="question" unicode="?" horiz-adv-x="683" 
d="M630 627q0 -64 -57 -124q-36 -37 -107 -83q-62 -38 -65 -47q16 -55 52 -165q-57 -15 -166 -57q-11 36 -17 135q-3 72 -7 144q18 20 65.5 55t65.5 57q29 35 29 79q0 40 -32 80q-7 1 -19 1q-88 0 -88 -87q0 -32 12 -69l-227 -36v93q0 117 124 178q96 47 227 47
q78 0 144 -61.5t66 -139.5zM515 -70q-41 0 -110 -19q-77 -20 -110 -23l-27 149q47 17 95 34q57 18 98 18q8 0 27 -1z" />
    <glyph glyph-name="at" unicode="@" horiz-adv-x="895" 
d="M871 458q0 -142 -144 -231q-125 -76 -276 -76q-75 0 -136 43q-68 49 -68 121q0 206 208 206q49 0 66 -27l28 68l96 -60l-19 -173q3 0 11 -1t13 -1q36 0 64 44q24 39 24 78q0 120 -89 185q-80 59 -204 59q-117 0 -200 -112q-76 -102 -76 -224q0 -166 112 -254
q102 -80 272 -80l-32 -95q-37 -6 -73 -6q-179 0 -304 123.5t-125 301.5q0 208 128 340t336 132q170 0 276 -94q112 -99 112 -267zM494 396q0 9 -10 19.5t-19 10.5q-49 0 -67 -35q-12 -25 -12 -79q0 -53 41 -53q18 0 41 23q26 111 26 114z" />
    <glyph glyph-name="A" unicode="A" horiz-adv-x="799" 
d="M782 1q-200 -9 -201 -9q-52 0 -78 3q-4 29 -9 58q-6 33 -16 56q-57 4 -171 4q-51 0 -78 -1q-7 -11 -12 -54q-6 -49 -10 -61q-14 -1 -31 -1q-15 0 -46 1.5t-47 1.5q-37 0 -67 -8l121 322q31 83 73 219q55 176 70 220q29 0 97 4q63 4 97 4q37 0 48.5 -7t127.5 -350
q108 -317 132 -402zM449 251q-26 30 -59 136q-34 113 -57 146q-22 -98 -33 -143q-20 -80 -43 -141z" />
    <glyph glyph-name="B" unicode="B" horiz-adv-x="768" 
d="M720 263q0 -231 -495 -272q-56 -1 -166 -14q-13 178 -36 801q127 25 278 25q152 0 219 -22q121 -40 121 -159q0 -96 -89 -178q8 -5 62 -14q48 -8 72 -35q34 -40 34 -132zM421 583q0 60 -75 60q-31 0 -89 -12q-2 -15 -2 -38q0 -111 0 -107h23q143 0 143 97zM466 260
q0 46 -45 62q-26 9 -83 9q-13 0 -42 -2t-44 -2q0 -18 -1 -54t-1 -53v-24q0 -47 8 -55q-5 0 61 6q72 7 102 24q45 26 45 89z" />
    <glyph glyph-name="C" unicode="C" horiz-adv-x="706" 
d="M677 460l-247 -7q1 22 1 25q0 50 -23 93q-28 53 -73 53q-70 0 -105 -110q-25 -77 -25 -168q0 -70 19 -129q25 -77 76 -98q86 -1 112 38q18 27 22 120l233 -2l-45 -125q-29 -81 -116 -131q-79 -46 -171 -46q-168 0 -254 114q-77 101 -77 275q0 183 90 295q99 122 277 122
q91 0 160 -52q50 -38 113 -128z" />
    <glyph glyph-name="D" unicode="D" horiz-adv-x="716" 
d="M678 380q0 -208 -170 -306q-136 -77 -361 -77q-50 0 -91 4l3 826q40 6 96 6q232 0 371 -108q152 -119 152 -345zM462 387q0 103 -42 186q-51 103 -143 107l6 -555q84 29 131.5 100.5t47.5 161.5z" />
    <glyph glyph-name="E" unicode="E" horiz-adv-x="650" 
d="M629 661q-51 0 -154 -9t-154 -9v-126q34 5 100.5 8t97.5 7l-3 -196q-72 -6 -206 -14q3 -23 3 -50q0 3 -5 -111q23 10 122 12q107 3 136 10l-2 -183h-527q7 36 9 87q0 43 1 87q7 222 7 402q0 140 -4 210q120 13 286 20q144 6 287 11z" />
    <glyph glyph-name="F" unicode="F" horiz-adv-x="601" 
d="M548 636l-309 -33l3 -106q33 7 85 7h51q33 -1 50 -1l-3 -144q-63 -2 -189 -15l6 -348l-233 -3q0 102 5.5 307.5t5.5 308.5q0 79 -8 169l533 30z" />
    <glyph glyph-name="G" unicode="G" horiz-adv-x="815" 
d="M795 370q0 -201 -130 -307q-119 -97 -325 -97q-153 0 -243 101q-86 96 -86 251q0 184 110 330q119 158 298 158q275 0 325 -234q-67 -9 -133 -19q-80 -11 -134 -11q-3 43 -24 74q-25 36 -65 36q-74 0 -106 -110q-21 -71 -21 -170q0 -87 27 -150q37 -85 112 -85
q36 0 74 46.5t38 83.5q0 9 -5 14q-31 -5 -177 -15l15 167l442 27q8 -40 8 -90z" />
    <glyph glyph-name="H" unicode="H" horiz-adv-x="783" 
d="M729 808l-9 -824l-262 -3l-3 347q-22 0 -68 -2t-68 -2q-38 0 -67 4q-12 -109 -12 -356l-222 -7q1 114 10 403q8 257 8 404q0 25 -3 41q73 -8 141 -8q47 0 89 4q0 -43 -7 -128t-7 -128q0 -34 3 -67l195 1q7 27 7 221q0 56 -6 92z" />
    <glyph glyph-name="I" unicode="I" horiz-adv-x="407" 
d="M349 -52q-34 0 -104.5 -2t-105.5 -2q-34 0 -96 4q37 245 37 730q0 69 -2 105h271v-835z" />
    <glyph glyph-name="J" unicode="J" horiz-adv-x="559" 
d="M532 755q0 -322 -53 -562q-87 -393 -295 -393q-49 0 -94.5 26.5t-88.5 51.5l6 209q95 -49 127 -49q113 0 147 336q13 128 13 430l237 8q1 -21 1 -57z" />
    <glyph glyph-name="K" unicode="K" horiz-adv-x="670" 
d="M668 776q-47 -69 -127 -164q-131 -155 -134 -159v0v0v0q7 -45 210 -453q-41 -7 -123 -5.5t-122 -4.5q-6 13 -75 181q-57 140 -73 157l-34 -51l-3 -290l-176 -2v800l173 -4l4 -313q69 106 209 319z" />
    <glyph glyph-name="L" unicode="L" horiz-adv-x="598" 
d="M547 9l-506 -36l-33 846l254 15q0 -46 -1 -141t-1 -143q0 -265 23 -393l264 27v-175z" />
    <glyph glyph-name="M" unicode="M" horiz-adv-x="1003" 
d="M954 845q0 -118 -4.5 -355.5t-4.5 -356.5q0 -108 4 -164h-226v550q-35 -110 -76 -269q-35 -135 -69 -271l-231 -5q-33 118 -65 236q-46 154 -86 223l10 -449l-171 -15v843l322 10q43 -171 78 -319q8 -39 17 -77q10 -45 24 -75q30 45 73 224q47 194 74 250z" />
    <glyph glyph-name="N" unicode="N" horiz-adv-x="865" 
d="M802 -9l-256 -10q-117 142 -347 430l15 -413l-177 -5q0 101 2 302q3 206 3 302v86q0 72 -5 125l157 -5q30 -28 127 -151q81 -106 247 -315l10 461l224 -5q7 -27 7 -120q0 -102 -4.5 -306t-4.5 -306q0 -54 2 -70z" />
    <glyph glyph-name="O" unicode="O" horiz-adv-x="798" 
d="M777 415q0 -199 -114 -328q-119 -134 -316 -134q-151 0 -253 139q-94 128 -94 284q0 64 34 148q51 124 145 198q102 80 230 80q155 0 263 -117q105 -114 105 -270zM533 493q0 56 -21 100q-26 56 -76 56q-112 0 -165 -120q-39 -89 -39 -217q0 -72 9 -110q15 -61 59 -89
q26 -17 37 -17q95 0 140 106q18 44 43 188q13 74 13 103z" />
    <glyph glyph-name="P" unicode="P" horiz-adv-x="695" 
d="M674 525q0 -158 -127 -233q-104 -61 -273 -59q-1 -14 -1 -38q0 -37 2 -111.5t2 -110.5h-242v833q70 8 139 16q83 9 140 9q140 0 246 -81q114 -89 114 -225zM450 521q0 81 -27 121q-32 48 -109 48q-9 0 -35 -1v-333q91 4 129 38q42 37 42 127z" />
    <glyph glyph-name="Q" unicode="Q" horiz-adv-x="841" 
d="M767 0q-41 -62 -158 -183q-15 20 -77 91q-49 55 -73 94q-24 -16 -98 -16q-157 0 -249 69q-102 77 -102 229q0 203 92 332q104 148 299 148q145 0 244.5 -99.5t99.5 -244.5q0 -78 -39 -172q-39 -97 -95 -147q36 -37 156 -101zM481 386q0 75 -17 135q-25 87 -79 97
q-77 -16 -115 -97q-29 -64 -29 -154q0 -65 19 -139q27 -103 73 -103q6 0 12 2q10 -4 23 -4q61 0 92 106q21 74 21 157z" />
    <glyph glyph-name="R" unicode="R" horiz-adv-x="799" 
d="M747 415q-30 -66 -85 -115q-60 -53 -126 -62q81 -37 117 -75q29 -33 45 -90l32 -132h-289q-13 102 -22 143q-21 107 -47 125q-20 14 -52 14q-18 0 -48 -2q1 -42 1 -126t1 -126l-245 -7l3 840q72 10 188 10q267 0 377 -63q150 -87 150 -334zM479 499q0 72 -56 110
q-47 32 -123 32q-12 0 -20 -1l3 -273q73 2 127 30q69 36 69 102z" />
    <glyph glyph-name="S" unicode="S" horiz-adv-x="789" 
d="M740 613q-45 -20 -113 -42l-114 -36q-26 45 -60 79q-46 46 -84 46q-26 0 -54 -28t-28 -54q0 -40 117 -69q171 -42 217 -64q117 -56 117 -162q0 -147 -132 -242q-119 -86 -272 -86q-234 0 -310 268l210 19q29 -39 70 -68q48 -33 90 -33q36 0 64.5 22.5t28.5 57.5
q0 47 -111 63q-165 24 -205 41q-111 45 -111 164q0 155 107 246q101 85 259 85q93 0 192 -58q112 -64 122 -149z" />
    <glyph glyph-name="T" unicode="T" horiz-adv-x="818" 
d="M767 671l-232 -15l40 -662l-269 -15q0 109 -15 327t-15 327q-7 -1 -131 -8q-93 -4 -120 -17l-5 197l742 40z" />
    <glyph glyph-name="U" unicode="U" horiz-adv-x="773" 
d="M728 438q0 -5 -15 -138q-21 -184 -74 -249q-66 -82 -241 -82q-127 0 -215.5 65t-127.5 185q-22 69 -22 111v471l271 5q-2 -38 -14 -185q-9 -115 -9 -186q0 -282 121 -282q104 0 104 383q0 46 -1.5 106t-1.5 68q0 56 4 86h221v-358z" />
    <glyph glyph-name="V" unicode="V" horiz-adv-x="907" 
d="M896 810q-35 -124 -133 -412q-89 -263 -128 -413h-398q-39 148 -120 443q-22 63 -59 190q-11 49 -40 197l374 -5v-5q0 -147 27 -317.5t73 -311.5l74 165q12 26 21 68q7 34 14 69q29 110 81 332h214z" />
    <glyph glyph-name="W" unicode="W" horiz-adv-x="1245" 
d="M1188 775q-6 -22 -125 -494q-19 -70 -37 -140q-22 -83 -30 -142l-336 3q-19 87 -97 328q-27 -57 -52 -163q-29 -119 -47 -165h-272q-24 53 -41 132q-13 68 -25 136q-31 171 -99 512q48 9 143.5 16.5t141.5 15.5q15 -106 51 -347q8 -65 32 -195q30 103 71 260
q64 248 67 261h178q18 -95 60 -254q49 -187 64 -253q34 56 87 247q35 135 70 269z" />
    <glyph glyph-name="X" unicode="X" horiz-adv-x="1001" 
d="M952 756l-346 -365l316 -406l-333 6q-37 80 -147 217l-194 -217l-235 3q24 49 178 201q144 144 152 178l-190 264q-24 35 -49 70q-29 40 -55 64l315 3q27 -34 71.5 -111t73.5 -113q38 29 107 115q66 82 102 107l17 1q68 4 217 -17z" />
    <glyph glyph-name="Y" unicode="Y" horiz-adv-x="854" 
d="M807 782q-16 -30 -145 -235q-116 -184 -121 -207q-6 -26 -6 -69q0 -46 2.5 -139t2.5 -139h-247q5 56 5 137q0 148 -2 187q-8 13 -103 152q-117 170 -189 292q31 13 139 26q98 12 146 12q4 0 14 -17.5t62 -129.5q37 -80 73 -123q40 32 95 134q41 76 81 152z" />
    <glyph glyph-name="Z" unicode="Z" horiz-adv-x="816" 
d="M804 655l-457 -521l400 15l-9 -153l-696 -21l-15 114q200 250 231 287q135 160 254 267q-74 -10 -205 -12q-146 -3 -205 -9l-12 165l702 12z" />
    <glyph glyph-name="bracketleft" unicode="[" horiz-adv-x="315" 
d="M243 -132h-193v945h190v-94h-121l3 -778h121v-73z" />
    <glyph glyph-name="backslash" unicode="\" horiz-adv-x="448" 
d="M388 27l-57 -27l-331 775l74 25z" />
    <glyph glyph-name="bracketright" unicode="]" 
d="M217 -138h-193v73h121l3 788h-121v94h190v-955z" />
    <glyph glyph-name="asciicircum" unicode="^" horiz-adv-x="524" 
d="M463 668l-114 6l-95 69l-131 -100l-100 -3l226 198z" />
    <glyph glyph-name="underscore" unicode="_" horiz-adv-x="859" 
d="M920 -105h-915l-5 40h920v-40z" />
    <glyph glyph-name="grave" unicode="`" horiz-adv-x="491" 
d="M420 595l-5 -45l-325 205l125 95z" />
    <glyph glyph-name="a" unicode="a" horiz-adv-x="468" 
d="M442 343q0 -170 -39 -331q-113 -19 -164 -19l-1 7q-46 -6 -93 -6q-76 0 -112 26q-43 31 -43 104q0 109 89 150q41 19 183 38q2 10 2 29q0 38 -16.5 51t-55.5 13q-86 0 -148 -71l-30 146q48 46 171 46q119 0 178 -31q79 -43 79 -152zM264 214l-2 4v-2q-19 8 -38 8
q-35 0 -70 -22q-38 -25 -38 -58q0 -26 27 -43q24 -15 51 -15q9 0 26 3t26 3v-4q5 14 12 62q6 45 6 64z" />
    <glyph glyph-name="b" unicode="b" horiz-adv-x="592" 
d="M537 277q0 -115 -42 -192q-52 -98 -157 -98q-62 0 -94 29l-11 -36q-67 1 -202 -1q2 41 22 361q14 219 14 361q0 20 -1 31l182 -6q0 -41 -5 -132q-4 -85 -4 -132q0 -14 1 -22q44 37 128 37q87 0 130 -58q39 -52 39 -142zM371 257q0 31 -11 55q-15 30 -43 30q-18 0 -43 -7
q-30 -9 -37 -21q2 -62 0 -188q42 -10 71 -10q63 0 63 141z" />
    <glyph glyph-name="c" unicode="c" horiz-adv-x="540" 
d="M515 351l-145 -39q-2 41 -22 70q-23 34 -61 34q-55 0 -83 -64q-21 -48 -21 -111q0 -48 14 -84q18 -51 58 -51q33 0 73 33t49 65l129 -24q-70 -198 -279 -198q-105 0 -163 66q-55 63 -55 170q0 141 73 228q78 92 217 92q57 0 118 -28q73 -32 83 -80z" />
    <glyph glyph-name="d" unicode="d" horiz-adv-x="559" 
d="M528 347q0 -206 -18 -341q-77 -12 -201 -19l1 21q0 9 -2 28q-53 -48 -120 -48q-93 0 -137 103q-33 76 -33 183q0 94 65.5 158.5t159.5 64.5q47 0 71 -21l12 256l199 -3q3 -132 3 -251v-131zM317 334v20q-1 13 -1 20h-1q-20 9 -42 9q-45 0 -74 -35t-29 -80q0 -61 15 -104
q23 -62 72 -62q42 0 60 27v-1v206z" />
    <glyph glyph-name="e" unicode="e" horiz-adv-x="563" 
d="M548 256q0 -28 -2 -44q-132 8 -314 8q-14 0 -24 -1q7 -64 21 -84q21 -30 79 -30q54 0 96 43q29 -15 85 -47q-53 -71 -105.5 -95.5t-144.5 -24.5q-93 0 -159 78q-63 75 -63 169q0 112 85 210q89 101 199 101q122 0 187 -82q60 -76 60 -201zM393 370q0 79 -90 79
q-36 0 -68 -37t-32 -74q0 -8 3 -14h-2q6 1 19 1h162q8 19 8 45z" />
    <glyph glyph-name="f" unicode="f" horiz-adv-x="539" 
d="M524 719l-39 -97q-17 11 -34 21q-20 12 -37 12q-28 0 -48 -37q-17 -31 -17 -62q0 -15 3 -27q27 -7 138 -3l-3 -149h-141l6 -392l-231 -6q0 58 9 173t9 173q0 47 -35 47q-33 0 -91 -16l-13 139q25 11 139 19q5 116 63 185q63 76 176 76q91 0 146 -56z" />
    <glyph glyph-name="g" unicode="g" horiz-adv-x="595" 
d="M588 576q0 -28 -52 -60q-36 -23 -78 -37q24 -11 38 -43q12 -27 12 -57q0 -93 -106 -136q-76 -31 -185 -31l1 -3q-14 -7 -34 -23l2 -3q92 6 137 6q107 0 160 -25q75 -36 75 -131q0 -200 -315 -200q-11 0 -42 1q-26 2 -42 1q-1 51 -4 152q60 -5 109 -5q158 0 158 40
q0 36 -91 36q-35 0 -105 -7.5t-105 -7.5q-21 0 -23 8q-30 5 -57.5 32.5t-27.5 56.5q0 37 29 69q26 29 64 42q-50 36 -50 112q0 83 63 138.5t147 55.5q64 0 115 -21q75 27 103 113l103 -57q1 -6 1 -16zM342 374q0 33 -15 63q-18 37 -48 37q-36 0 -57 -38q-18 -31 -18 -70
q0 -33 16.5 -55t48.5 -22q73 0 73 85z" />
    <glyph glyph-name="h" unicode="h" horiz-adv-x="668" 
d="M601 -29l-193 -3q-4 103 -8 207q-11 160 -40 178q-37 23 -69 23q-53 0 -53 -77q0 -41 4 -121.5t4 -120.5q0 -46 -4 -83l-203 -6v832h224v-320q67 31 125 31q118 0 186 -140q9 -133 27 -400z" />
    <glyph glyph-name="i" unicode="i" horiz-adv-x="321" 
d="M277 622l-223 -15q-2 33 -2 77v37q0 31 2 54l214 15zM268 -15l-208 -15l-5 540l209 2z" />
    <glyph glyph-name="j" unicode="j" horiz-adv-x="458" 
d="M441 762l-6 -163h-234v157zM421 431q0 -144 -17 -269q-26 -186 -83 -241q-53 -51 -305 -92l-18 107q97 34 155 85q44 39 44 355q0 76 -8 119l231 4q1 -24 1 -68z" />
    <glyph glyph-name="k" unicode="k" horiz-adv-x="683" 
d="M639 559q-13 -21 -114 -107q-95 -80 -95 -93q0 -5 34 -59q121 -194 166 -307l-201 -9q-50 81 -142 248l-56 -63l3 -173l-191 -3q7 288 30 865q21 1 57 1q25 0 69 -3q49 -4 69 -4q0 -70 -13.5 -210.5t-13.5 -211.5q0 -13 1 -65q62 66 191 194h206z" />
    <glyph glyph-name="l" unicode="l" horiz-adv-x="336" 
d="M299 885q-2 -99 -19 -321q-16 -208 -16 -322q0 -128 10 -242l-239 -10q2 72 16 347q11 215 11 348q0 114 -12 205z" />
    <glyph glyph-name="m" unicode="m" horiz-adv-x="801" 
d="M781 220q0 -33 -7.5 -101t-7.5 -102q0 -19 2 -37q-61 0 -181 12q19 124 19 252q0 132 -60 132q-14 0 -30.5 -15t-16.5 -29l-9 -349l-174 9q-2 50 -2 75q0 33 3.5 98.5t3.5 98.5q0 44 -8 61q-13 27 -52 27q-14 0 -26 -8.5t-12 -21.5l2 -333l-191 6l9 548q36 5 98 4
q73 -1 98 1q1 -10 -0.5 -28t-1.5 -25l6 -4q19 0 56 12.5t58 12.5q66 0 118 -52q18 33 56 52t78 19q172 0 172 -315z" />
    <glyph glyph-name="n" unicode="n" horiz-adv-x="579" 
d="M552 -20l-194 -15q0 17 1 53.5t1 54.5q0 123 -12 180q-23 121 -97 121q-31 0 -52 -14l-15 -371l-170 -6l6 550q61 -4 182 -12q-2 -18 -2 -29q0 -14 3 -27q34 38 118 38q102 0 166 -69q61 -67 62 -170z" />
    <glyph glyph-name="o" unicode="o" horiz-adv-x="605" 
d="M582 273q0 -106 -106 -194q-102 -85 -210 -85q-110 0 -178 78q-65 75 -65 187q0 129 89 203q83 69 215 69q112 0 183.5 -73t71.5 -185zM402 270q0 49 -19 101q-24 66 -64 66q-53 0 -80 -53q-21 -42 -21 -101q0 -47 20 -101q25 -69 63 -69t72 61q29 54 29 96z" />
    <glyph glyph-name="p" unicode="p" horiz-adv-x="614" 
d="M586 253q0 -122 -83 -196q-79 -69 -199 -69q-24 0 -49 3l1 -86q0 -43 -3 -112h-216l-3 765l196 9l1 -69q57 25 108 25q107 0 178 -83q69 -79 69 -187zM402 260q0 78 -40 111q-35 28 -116 33l-1 4q-4 -10 -4 -74q0 -78 4 -238v4q58 21 115 42q42 25 42 118z" />
    <glyph glyph-name="q" unicode="q" horiz-adv-x="633" 
d="M542 -183l-215 15l-1 171q-42 -4 -65 -4q-126 0 -193.5 64t-67.5 189q0 117 52 195q60 91 172 91q38 0 77 -11l5 40l224 2zM316 163v221q-37 29 -64 29q-61 0 -61 -115q0 -50 16 -100q22 -67 60 -67q24 0 49 32z" />
    <glyph glyph-name="r" unicode="r" horiz-adv-x="437" 
d="M417 573l-6 -191q-4 -4 -45 -4q-72 0 -131 -33q-3 -20 -6 -131q-3 -142 -8 -230l-189 -3l9 616q64 1 190 -8q4 -8 4 -58q0 -31 8 -36q28 35 80 54q17 6 94 24z" />
    <glyph glyph-name="s" unicode="s" horiz-adv-x="539" 
d="M495 512l-31 -128q-131 67 -214 67q-37 0 -52 -6q-25 -10 -25 -41q0 -30 75 -51q105 -30 138 -50q75 -45 75 -136q0 -87 -64 -162q-67 -78 -152 -78q-44 0 -119 34q-57 29 -114 57l44 122q114 -73 193 -73q27 0 46 14.5t19 41.5q0 33 -72 50q-101 25 -133 44
q-72 45 -72 143q0 75 50 147q53 77 124 88q23 3 52 3q127 0 232 -86z" />
    <glyph glyph-name="t" unicode="t" horiz-adv-x="535" 
d="M532 510l-3 -116h-180l6 -250q13 -28 42 -45t60 -15v-93q-40 -14 -81 -14q-72 0 -156 50q-62 37 -62 221v47q1 29 1 39q0 31 -4 43l8 7l-14 3q-15 0 -45.5 -2.5t-45.5 -2.5q-18 0 -27 3q-2 18 -2 54q0 49 6 69q20 3 44 4q16 0 46.5 -1t42.5 -1l3 206l199 -6l-9 -196z" />
    <glyph glyph-name="u" unicode="u" horiz-adv-x="550" 
d="M508 487q0 -81 -4.5 -244.5t-4.5 -245.5q-25 0 -75 -2t-75 -2q-8 0 -8 9.5t-6 11.5q-55 -42 -118 -42q-48 0 -94 19q-103 43 -103 327q0 93 10 177h159q0 -42 -1 -127t-1 -127q0 -155 88 -155q15 0 29 6q19 7 19 20q0 4 -2 8v-4q12 30 16 183q4 123 1 196z" />
    <glyph glyph-name="v" unicode="v" horiz-adv-x="505" 
d="M501 495q-111 -316 -162 -511l-160 3q-52 127 -105 253q-64 158 -91 255l150 19q49 -114 147 -344l114 336q19 -6 53 -7q40 -2 54 -4z" />
    <glyph glyph-name="w" unicode="w" horiz-adv-x="802" 
d="M778 476l-159 -495q-22 -2 -52 -2h-108q-17 0 -57 106q-25 65 -49 131q-15 -45 -43 -115q-38 -93 -46 -114l-128 3q-63 217 -77 262q-46 148 -94 256l156 -3q27 -45 56.5 -146t56.5 -147q29 23 63 140q36 122 52 139q6 6 26 6q14 0 37 -2q28 -3 37 -4q17 -22 69 -155
q48 -126 57 -130q27 43 48 143t48 142z" />
    <glyph glyph-name="x" unicode="x" horiz-adv-x="668" 
d="M647 480q-27 -53 -109 -122q-122 -103 -129 -110q5 -7 94 -125q57 -76 101 -120q-28 -9 -220 -9v-2q-74 152 -87 160l-1 -7q-18 2 -72 -69q-37 -49 -64 -92l-162 -3l15 35l231 217l2 -3q-24 54 -98 151.5t-118 128.5l234 -15q8 -12 46 -78q27 -49 52 -74l141 137h144z
" />
    <glyph glyph-name="y" unicode="y" horiz-adv-x="575" 
d="M598 456q-62 -143 -124.5 -284.5t-139.5 -216.5q-99 -95 -280 -153l-54 175q135 12 182 38q18 12 54 34q-90 152 -184 412h201q39 -120 42 -126q26 -71 60 -118q20 21 48 128q27 104 47 121q5 4 23 4q17 0 125 -14z" />
    <glyph glyph-name="z" unicode="z" horiz-adv-x="633" 
d="M562 487l-6 -134l-247 -227l225 -6q7 -20 11 -54q4 -39 8 -55l-519 -15l3 103l292 272q-97 7 -179 7q-50 0 -68 -7l-3 124z" />
    <glyph glyph-name="braceleft" unicode="{" horiz-adv-x="433" 
d="M367 -161h-108q-53 0 -96 35q-46 38 -46 89v208q0 59 -105 55v84h18q87 -2 87 45v207q0 51 45 87.5t97 36.5h108v-88q-7 0 -22 1h-23q-60 0 -60 -49v-194q0 -79 -123 -88v-2q123 -6 123 -96v-195q0 -49 60 -49h23q15 1 22 1v-88z" />
    <glyph glyph-name="bar" unicode="|" horiz-adv-x="258" 
d="M155 0h-115v775h115v-775z" />
    <glyph glyph-name="braceright" unicode="}" horiz-adv-x="452" 
d="M367 226h-14q-91 2 -91 -55v-208q0 -51 -44.5 -87.5t-97.5 -36.5h-108v88q7 0 22 -1h23q60 0 60 49v195q0 90 123 96v2q-123 9 -123 88v194q0 49 -60 49h-23q-15 -1 -22 -1v88h108q52 0 97 -36.5t45 -87.5v-207q0 -50 105 -45v-84z" />
    <glyph glyph-name="asciitilde" unicode="~" horiz-adv-x="500" 
d="M481 698q-12 -43 -62 -92q-54 -51 -96 -51q-41 0 -100 52.5t-71 52.5q-18 0 -49 -39.5t-37 -60.5q-10 7 -22 36.5t-23 34.5q9 51 46 99q41 54 88 54q32 0 67 -26q19 -13 53 -47q25 -26 33 -26q32 0 69.5 28.5t48.5 59.5z" />
    <glyph glyph-name="Adieresis" unicode="&#xc4;" horiz-adv-x="845" 
d="M636 708q0 -28 -38 -45q-30 -12 -63 -12t-63 12q-38 17 -38 45t38 45q30 12 63 12t63 -12q38 -17 38 -45zM363 712q0 -31 -39 -49q-31 -14 -67 -14q-35 0 -66 14q-40 17 -40 48t39 49q31 14 67 14q35 0 66 -14q40 -17 40 -48zM782 1q-178 -8 -201 -8q-39 0 -78 3
q-6 34 -25 91q-57 4 -171 4q-51 0 -78 -1q-6 -8 -12 -43q-6 -39 -10 -49q-24 -2 -62 -1q-55 2 -62 2q-40 0 -67 -6l121 257q32 67 74 175q57 148 69 177q30 0 92 3t93 3q47 0 56 -5q13 -7 129 -280q109 -256 132 -322zM449 201q-25 23 -58 109q-36 90 -58 116
q-29 -99 -34 -115q-20 -65 -42 -112z" />
    <glyph glyph-name="Aring" unicode="&#xc5;" horiz-adv-x="845" 
d="M485 706q0 -36 -27 -63t-63 -27t-63 27t-27 63t27 63t63 27t63 -27t27 -63zM782 1q-178 -8 -201 -8q-39 0 -78 3q-6 34 -25 91q-57 4 -171 4q-51 0 -78 -1q-6 -8 -12 -43q-6 -39 -10 -49q-24 -2 -62 -1q-55 2 -62 2q-40 0 -67 -6l121 257q32 67 74 175q57 148 69 177
q30 0 92 3t93 3q47 0 56 -5q13 -7 129 -280q109 -256 132 -322zM432 705q0 15 -11.5 26.5t-26.5 11.5t-26 -11.5t-11 -26.5t11 -26t26 -11t26.5 11t11.5 26zM449 201q-25 23 -58 109q-36 90 -58 116q-29 -99 -34 -115q-20 -65 -42 -112z" />
    <glyph glyph-name="Ccedilla" unicode="&#xc7;" horiz-adv-x="736" 
d="M677 460l-247 -7q1 22 1 25q0 50 -23 94q-28 52 -73 52q-70 0 -105 -110q-25 -77 -25 -168q0 -70 19 -129q25 -78 76 -98q87 0 112 38q17 26 22 120l233 -2q-41 -116 -54 -143q-32 -69 -77 -103q-55 -40 -144 -46l-16 -53l15 1q34 2 54 -19t20 -56q0 -38 -30.5 -60.5
t-69.5 -22.5q-50 0 -111 34l18 41q43 -22 72 -22q39 0 39 29q0 39 -93 41l21 80q-307 0 -307 386q0 183 90 295q99 122 277 122q91 0 160 -52q50 -37 113 -128z" />
    <glyph glyph-name="Eacute" unicode="&#xc9;" horiz-adv-x="662" 
d="M422 718l-124 -27l-194 94l206 94zM597 529q-51 0 -154 -7.5t-154 -7.5v-100q66 2 198 12l-3 -157q-71 -5 -206 -11q3 -18 3 -41q0 -2 -5 -88q36 12 106 12h37.5h36.5q49 0 78 5l-3 -133l-528 -24q17 68 20 204q-1 -30 -1 209q0 170 -4 227q118 10 286 16q144 4 287 9z
" />
    <glyph glyph-name="Ntilde" unicode="&#xd1;" horiz-adv-x="891" 
d="M628 761q0 -60 -40 -104q-41 -47 -100 -47q-46 0 -92 37q-3 3 -69 68q-36 37 -62 37q-54 0 -68 -61l-41 18q13 72 30 93q24 31 94 31q51 0 104 -34q28 -18 76 -62q37 -34 49 -34q19 0 41 25q18 21 25 43l52 -9l1 1v-2zM802 -7l-256 -8q-117 113 -347 344l15 -331l-177 -4
q0 81 2 242q3 165 3 242v69q0 57 -5 99l157 -4q29 -22 121 -114q83 -87 253 -258l7 342l227 22q7 -21 7 -95q0 -82 -4.5 -245t-4.5 -245q0 -43 2 -56z" />
    <glyph glyph-name="Odieresis" unicode="&#xd6;" horiz-adv-x="849" 
d="M670 741q0 -29 -50 -45q-36 -11 -74 -11t-74 11q-50 16 -50 44q0 29 50 45q36 11 74 11t74 -11q50 -16 50 -44zM356 744q0 -30 -48 -47q-36 -12 -74 -12q-37 0 -73 12q-49 17 -49 46q0 30 48 47q36 12 74 12q37 0 73 -12q49 -17 49 -46zM777 326q0 -170 -133 -272
q-121 -92 -297 -92q-138 0 -242.5 100.5t-104.5 238.5q0 51 34 118q54 105 154.5 164t220.5 59q144 0 252 -85q116 -91 116 -231zM533 394q0 49 -23 84q-27 41 -74 41q-104 0 -159 -87q-45 -72 -45 -183q0 -59 10 -90q15 -45 57 -68q26 -14 38 -14q91 0 135 77q22 39 48 158
q13 59 13 82z" />
    <glyph glyph-name="Udieresis" unicode="&#xdc;" horiz-adv-x="814" 
d="M670 742q0 -29 -50 -45q-36 -11 -74 -11t-74 11q-50 16 -50 44q0 29 50 45q36 11 74 11t74 -11q50 -16 50 -44zM356 745q0 -30 -48 -47q-36 -12 -74 -12q-37 0 -73 12q-49 17 -49 46q0 30 48 47q36 12 74 12q37 0 73 -12q49 -17 49 -46zM728 350q0 -8 -15 -110
q-23 -158 -88 -211.5t-227 -53.5q-120 0 -208 48q-99 53 -137 158q-20 54 -20 83v377l271 4q-2 -30 -14 -148q-9 -92 -9 -149q0 -225 121 -225q104 0 104 304q0 35 -1.5 84t-1.5 57q0 45 4 69h221v-287z" />
    <glyph glyph-name="aacute" unicode="&#xe1;" horiz-adv-x="568" 
d="M459 671l-194 -94l-124 27l112 161zM490 343q0 -170 -39 -331q-113 -19 -164 -19l-1 7q-46 -6 -93 -6q-76 0 -112 26q-43 31 -43 104q0 109 89 150q41 19 183 38q2 10 2 29q0 38 -16.5 51t-55.5 13q-86 0 -148 -71l-30 146q48 46 171 46q119 0 178 -31q79 -43 79 -152z
M312 214l-2 4v-2q-19 8 -38 8q-35 0 -70 -22q-38 -25 -38 -58q0 -26 27 -43q24 -15 51 -15q9 0 26 3t26 3v-4q5 14 12 62q6 45 6 64z" />
    <glyph glyph-name="agrave" unicode="&#xe0;" horiz-adv-x="567" 
d="M441 610l-124 -27l-194 94l206 94zM490 343q0 -170 -39 -331q-113 -19 -164 -19l-1 7q-46 -6 -93 -6q-76 0 -112 26q-43 31 -43 104q0 109 89 150q41 19 183 38q2 10 2 29q0 38 -16.5 51t-55.5 13q-86 0 -148 -71l-30 146q48 46 171 46q119 0 178 -31q79 -43 79 -152z
M312 214l-2 4v-2q-19 8 -38 8q-35 0 -70 -22q-38 -25 -38 -58q0 -26 27 -43q24 -15 51 -15q9 0 26 3t26 3v-4q5 14 12 62q6 45 6 64z" />
    <glyph glyph-name="acircumflex" unicode="&#xe2;" horiz-adv-x="567" 
d="M478 549l-97 3l-93 69l-105 -55l-109 -1l220 150zM490 343q0 -170 -39 -331q-113 -19 -164 -19l-1 7q-46 -6 -93 -6q-76 0 -112 26q-43 31 -43 104q0 109 89 150q41 19 183 38q2 10 2 29q0 38 -16.5 51t-55.5 13q-86 0 -148 -71l-30 146q48 46 171 46q119 0 178 -31
q79 -43 79 -152zM312 214l-2 4v-2q-19 8 -38 8q-35 0 -70 -22q-38 -25 -38 -58q0 -26 27 -43q24 -15 51 -15q9 0 26 3t26 3v-4q5 14 12 62q6 45 6 64z" />
    <glyph glyph-name="adieresis" unicode="&#xe4;" horiz-adv-x="570" 
d="M519 639q0 -33 -35 -53q-30 -17 -65 -17q-36 0 -66 17q-35 20 -35 53t35 53q30 17 65 17q36 0 66 -17q35 -20 35 -53zM263 658q0 -34 -36 -55q-30 -17 -67 -17t-67 17q-37 20 -37 54t36 55q30 17 67 17t67 -17q37 -20 37 -54zM490 343q0 -170 -39 -331q-113 -19 -164 -19
l-1 7q-46 -6 -93 -6q-76 0 -112 26q-43 31 -43 104q0 109 89 150q41 19 183 38q2 10 2 29q0 38 -16.5 51t-55.5 13q-86 0 -148 -71l-30 146q48 46 171 46q119 0 178 -31q79 -43 79 -152zM312 214l-2 4v-2q-19 8 -38 8q-35 0 -70 -22q-38 -25 -38 -58q0 -26 27 -43
q24 -15 51 -15q9 0 26 3t26 3v-4q5 14 12 62q6 45 6 64z" />
    <glyph glyph-name="atilde" unicode="&#xe3;" horiz-adv-x="567" 
d="M434 675q-64 -62 -127 -62q-25 0 -72 21t-71 21q-20 0 -30 -16l-20 -28l-49 64q43 31 56 38q34 19 64 19q26 0 73 -19.5t73 -19.5q16 0 29 16q21 25 23 27zM490 343q0 -170 -39 -331q-113 -19 -164 -19l-1 7q-46 -6 -93 -6q-76 0 -112 26q-43 31 -43 104q0 109 89 150
q41 19 183 38q2 10 2 29q0 38 -16.5 51t-55.5 13q-86 0 -148 -71l-30 146q48 46 171 46q119 0 178 -31q79 -43 79 -152zM312 214l-2 4v-2q-19 8 -38 8q-35 0 -70 -22q-38 -25 -38 -58q0 -26 27 -43q24 -15 51 -15q9 0 26 3t26 3v-4q5 14 12 62q6 45 6 64z" />
    <glyph glyph-name="aring" unicode="&#xe5;" horiz-adv-x="570" 
d="M413 684q0 -41 -30 -70.5t-71 -29.5t-71 29.5t-30 70.5q0 42 29.5 71.5t71.5 29.5t71.5 -29.5t29.5 -71.5zM490 343q0 -170 -39 -331q-113 -19 -164 -19l-1 7q-46 -6 -93 -6q-76 0 -112 26q-43 31 -43 104q0 109 89 150q41 19 183 38q2 10 2 29q0 38 -16.5 51t-55.5 13
q-86 0 -148 -71l-30 146q48 46 171 46q119 0 178 -31q79 -43 79 -152zM347 685q0 14 -10.5 24t-24.5 10t-24.5 -11t-10.5 -25t10.5 -24t24.5 -10t24.5 11t10.5 25zM312 214l-2 4v-2q-19 8 -38 8q-35 0 -70 -22q-38 -25 -38 -58q0 -26 27 -43q24 -15 51 -15q9 0 26 3t26 3v-4
q5 14 12 62q6 45 6 64z" />
    <glyph glyph-name="ccedilla" unicode="&#xe7;" horiz-adv-x="589" 
d="M515 351l-145 -39q-2 41 -22 70q-23 34 -61 34q-55 0 -83 -64q-21 -48 -21 -111q0 -48 14 -84q18 -51 58 -51q33 0 73 33t49 65l129 -24q-70 -198 -279 -198q-105 0 -163 66q-55 63 -55 170q0 141 73 228q78 92 217 92q57 0 118 -28q73 -32 83 -80zM356 -141
q0 -38 -30.5 -60.5t-69.5 -22.5q-50 0 -111 34l18 41q40 -22 72 -22q39 0 39 29q0 43 -78 38l30 85h57l-16 -48q7 1 22 1q29 0 48 -22.5t19 -52.5z" />
    <glyph glyph-name="eacute" unicode="&#xe9;" horiz-adv-x="628" 
d="M504 704l-194 -94l-124 27l112 161zM548 256q0 -28 -2 -44q-132 8 -314 8q-14 0 -24 -1q7 -64 21 -84q21 -30 79 -30q54 0 96 43q29 -15 85 -47q-53 -71 -105.5 -95.5t-144.5 -24.5q-93 0 -159 78q-63 75 -63 169q0 112 85 210q89 101 199 101q122 0 187 -82
q60 -76 60 -201zM393 370q0 79 -90 79q-36 0 -68 -37t-32 -74q0 -8 3 -14h-2q6 1 19 1h162q8 19 8 45z" />
    <glyph glyph-name="egrave" unicode="&#xe8;" horiz-adv-x="628" 
d="M465 613l-124 -27l-194 94l206 94zM548 256q0 -28 -2 -44q-132 8 -314 8q-14 0 -24 -1q7 -64 21 -84q21 -30 79 -30q54 0 96 43q29 -15 85 -47q-53 -71 -105.5 -95.5t-144.5 -24.5q-93 0 -159 78q-63 75 -63 169q0 112 85 210q89 101 199 101q122 0 187 -82
q60 -76 60 -201zM393 370q0 79 -90 79q-36 0 -68 -37t-32 -74q0 -8 3 -14h-2q6 1 19 1h162q8 19 8 45z" />
    <glyph glyph-name="ecircumflex" unicode="&#xea;" horiz-adv-x="622" 
d="M521 580l-100 12l-106 71l-112 -74l-121 -3l235 163zM548 256q0 -28 -2 -44q-132 8 -314 8q-14 0 -24 -1q7 -64 21 -84q21 -30 79 -30q54 0 96 43q29 -15 85 -47q-53 -71 -105.5 -95.5t-144.5 -24.5q-93 0 -159 78q-63 75 -63 169q0 112 85 210q89 101 199 101
q122 0 187 -82q60 -76 60 -201zM393 370q0 79 -90 79q-36 0 -68 -37t-32 -74q0 -8 3 -14h-2q6 1 19 1h162q8 19 8 45z" />
    <glyph glyph-name="edieresis" unicode="&#xeb;" horiz-adv-x="633" 
d="M559 627q0 -33 -43 -51q-34 -14 -72 -14t-72 14q-43 18 -43 51t43 51q34 14 72 14t72 -14q43 -18 43 -51zM241 644q0 -34 -39 -54q-32 -16 -69 -16t-69 16q-39 20 -39 53q0 34 39 54q32 16 69 16t69 -16q39 -20 39 -53zM548 256q0 -28 -2 -44q-132 8 -314 8q-14 0 -24 -1
q7 -64 21 -84q21 -30 79 -30q54 0 96 43q29 -15 85 -47q-53 -71 -105.5 -95.5t-144.5 -24.5q-93 0 -159 78q-63 75 -63 169q0 112 85 210q89 101 199 101q122 0 187 -82q60 -76 60 -201zM393 370q0 79 -90 79q-36 0 -68 -37t-32 -74q0 -8 3 -14h-2q6 1 19 1h162q8 19 8 45z
" />
    <glyph glyph-name="iacute" unicode="&#xed;" horiz-adv-x="369" 
d="M369 674l-194 -94l-124 27l112 161zM268 -15l-208 -15l-5 540l209 2z" />
    <glyph glyph-name="igrave" unicode="&#xec;" horiz-adv-x="370" 
d="M296 602l-124 -27l-194 94l206 94zM268 -15l-208 -15l-5 540l209 2z" />
    <glyph glyph-name="icircumflex" unicode="&#xee;" horiz-adv-x="370" 
d="M336 609h-113l-60 84l-69 -69l-94 15l178 136zM268 -15l-208 -15l-5 540l209 2z" />
    <glyph glyph-name="idieresis" unicode="&#xef;" horiz-adv-x="398" 
d="M334 641q0 -63 -77 -63q-76 0 -76 58q0 78 92 78q61 0 61 -73zM140 644q0 -23 -15.5 -37t-38.5 -14q-72 0 -72 60q0 63 60 63q66 0 66 -72zM268 -15l-208 -15l-5 540l209 2z" />
    <glyph glyph-name="ntilde" unicode="&#xf1;" horiz-adv-x="627" 
d="M434 675q-25 -29 -50 -57q-33 -34 -64 -34q-25 0 -78 36t-70 36q-16 0 -33 -17q-12 -14 -25 -28l-50 39q48 97 109 97q27 0 76 -33.5t74 -33.5q16 0 33 22q23 31 27 34zM552 -20l-194 -15q0 17 1 53.5t1 54.5q0 123 -12 180q-23 121 -97 121q-31 0 -52 -14l-15 -371
l-170 -6l6 550q61 -4 182 -12q-2 -18 -2 -29q0 -14 3 -27q34 38 118 38q102 0 166 -69q61 -67 62 -170z" />
    <glyph glyph-name="oacute" unicode="&#xf3;" horiz-adv-x="664" 
d="M530 687l-194 -94l-124 27l112 161zM582 273q0 -106 -106 -194q-102 -85 -210 -85q-110 0 -178 78q-65 75 -65 187q0 129 89 203q83 69 215 69q112 0 183.5 -73t71.5 -185zM402 270q0 49 -19 101q-24 66 -64 66q-53 0 -80 -53q-21 -42 -21 -101q0 -47 20 -101
q25 -69 63 -69t72 61q29 54 29 96z" />
    <glyph glyph-name="ograve" unicode="&#xf2;" horiz-adv-x="662" 
d="M438 597l-124 -27l-194 94l206 94zM582 273q0 -106 -106 -194q-102 -85 -210 -85q-110 0 -178 78q-65 75 -65 187q0 129 89 203q83 69 215 69q112 0 183.5 -73t71.5 -185zM402 270q0 49 -19 101q-24 66 -64 66q-53 0 -80 -53q-21 -42 -21 -101q0 -47 20 -101
q25 -69 63 -69t72 61q29 54 29 96z" />
    <glyph glyph-name="ocircumflex" unicode="&#xf4;" horiz-adv-x="667" 
d="M526 561l-101 12l-102 69l-96 -64l-97 12l195 130zM582 273q0 -106 -106 -194q-102 -85 -210 -85q-110 0 -178 78q-65 75 -65 187q0 129 89 203q83 69 215 69q112 0 183.5 -73t71.5 -185zM402 270q0 49 -19 101q-24 66 -64 66q-53 0 -80 -53q-21 -42 -21 -101
q0 -47 20 -101q25 -69 63 -69t72 61q29 54 29 96z" />
    <glyph glyph-name="odieresis" unicode="&#xf6;" horiz-adv-x="669" 
d="M580 620q0 -32 -42 -50q-33 -14 -70 -14t-70 14q-42 18 -42 50t42 50q33 14 70 14t70 -14q42 -18 42 -50zM289 649q0 -34 -46 -54q-37 -16 -77 -16q-41 0 -77 15q-47 20 -47 55q0 34 46 54q37 16 77 16q41 0 77 -15q47 -20 47 -55zM582 273q0 -106 -106 -194
q-102 -85 -210 -85q-110 0 -178 78q-65 75 -65 187q0 129 89 203q83 69 215 69q112 0 183.5 -73t71.5 -185zM402 270q0 49 -19 101q-24 66 -64 66q-53 0 -80 -53q-21 -42 -21 -101q0 -47 20 -101q25 -69 63 -69t72 61q29 54 29 96z" />
    <glyph glyph-name="otilde" unicode="&#xf5;" horiz-adv-x="667" 
d="M493 639q-22 -24 -45 -48q-27 -26 -58 -26q-24 0 -73.5 34t-73.5 34q-22 0 -38.5 -20t-31.5 -38l-52 48q7 32 51 61q41 28 75 28q27 0 74 -27.5t69 -27.5q16 0 29 16q21 25 23 27zM582 276q0 -106 -106 -194q-102 -85 -210 -85q-111 0 -178 78q-65 75 -65 187
q0 129 89 203q83 68 215 68q112 0 183.5 -72.5t71.5 -184.5zM402 273q0 50 -19 101q-24 66 -64 66q-53 0 -79 -53q-21 -42 -21 -101q0 -47 20 -101q24 -69 62 -69q39 0 72 61q29 53 29 96z" />
    <glyph glyph-name="uacute" unicode="&#xfa;" horiz-adv-x="583" 
d="M461 666l-194 -94l-124 27l112 161zM508 487q0 -81 -4.5 -244.5t-4.5 -245.5q-25 0 -75 -2t-75 -2q-8 0 -8 9.5t-6 11.5q-55 -42 -118 -42q-48 0 -94 19q-103 43 -103 327q0 93 10 177h159q0 -42 -1 -127t-1 -127q0 -155 88 -155q48 0 48 26q0 4 -2 8l1 -4q26 92 16 379z
" />
    <glyph glyph-name="ugrave" unicode="&#xf9;" horiz-adv-x="586" 
d="M420 591l-124 -27l-194 94l206 94zM508 487q0 -81 -4.5 -244.5t-4.5 -245.5q-25 0 -75 -2t-75 -2q-8 0 -8 9.5t-6 11.5q-55 -42 -118 -42q-48 0 -94 19q-103 43 -103 327q0 93 10 177h159q0 -42 -1 -127t-1 -127q0 -155 88 -155q48 0 48 26q0 4 -2 8l1 -4q26 92 16 379z
" />
    <glyph glyph-name="ucircumflex" unicode="&#xfb;" horiz-adv-x="591" 
d="M462 543l-107 6l-87 87l-92 -63l-102 4l195 130zM508 487q0 -81 -4.5 -244.5t-4.5 -245.5q-25 0 -75 -2t-75 -2q-8 0 -8 9.5t-6 11.5q-55 -42 -118 -42q-48 0 -94 19q-103 43 -103 327q0 93 10 177h159q0 -42 -1 -127t-1 -127q0 -155 88 -155q48 0 48 26q0 4 -2 8l1 -4
q26 92 16 379z" />
    <glyph glyph-name="udieresis" unicode="&#xfc;" horiz-adv-x="574" 
d="M522 632q0 -28 -38 -45q-29 -12 -62 -12t-62 12q-38 16 -38 44t38 45q29 12 62 12t62 -12q38 -16 38 -44zM259 651q0 -30 -44 -53q-38 -20 -72 -20q-33 0 -69 19q-41 23 -41 53q0 31 39 53q34 18 68 18q33 0 72 -19q47 -22 47 -51zM508 487q0 -81 -4.5 -244.5
t-4.5 -245.5q-25 0 -75 -2t-75 -2q-8 0 -8 9.5t-6 11.5q-55 -42 -118 -42q-48 0 -94 19q-103 43 -103 327q0 93 10 177h159q0 -42 -1 -127t-1 -127q0 -155 88 -155q48 0 48 26q0 4 -2 8l1 -4q26 92 16 379z" />
    <glyph glyph-name="dagger" unicode="&#x2020;" horiz-adv-x="558" 
d="M503 466l-187 29q39 -66 39 -128q0 -58 -20 -145q-30 -130 -32 -143h-55q0 48 -23 142t-23 143q0 58 43 135l-192 -40l15 81l-15 75h180l-37 161q10 -1 38 -10q25 -8 39 -8t38 6q29 8 38 9l-33 -158l187 7l-15 -75z" />
    <glyph glyph-name="degree" unicode="&#xb0;" horiz-adv-x="427" 
d="M350 546q0 -61 -44.5 -105.5t-105.5 -44.5t-105.5 44.5t-44.5 105.5t44.5 105.5t105.5 44.5t105.5 -44.5t44.5 -105.5zM261 545q0 25 -19 43.5t-44 18.5t-43 -18.5t-18 -43.5t18.5 -43.5t43.5 -18.5t43.5 18.5t18.5 43.5z" />
    <glyph glyph-name="cent" unicode="&#xa2;" horiz-adv-x="529" 
d="M459 351l-98 -53q-12 31 -38 53t-58 24v-283q63 8 90 55q18 -31 62 -88q-56 -70 -152 -77v-52h-73v53q-81 14 -133 88q-49 70 -49 155q0 97 42 163q49 74 140 84v98h73v-87h7q126 2 187 -133zM189 107v249l-6 1q-30 0 -51 -48q-17 -40 -17 -75q0 -83 74 -127z" />
    <glyph glyph-name="sterling" unicode="&#xa3;" horiz-adv-x="628" 
d="M569 554l-152 -51q-15 37 -34 47q-15 8 -58 8q-46 0 -62 -43q-9 -26 -9 -82v-13h163v-118h-165q-1 -13 -1 -39q0 -55 15 -118q9 -3 43 -3q15 0 45 -1.5t45 -1.5q103 0 155 29l1 -16q0 -15 -3 -43t-3 -41q0 -36 -4 -56q-60 -13 -147 -13l-286 1q-30 99 -30 226q0 38 3 77
l-46 -1v118l52 1l6 69q5 54 18 83q15 35 54 65q74 58 179 58q77 0 136 -34q64 -38 85 -108z" />
    <glyph glyph-name="section" unicode="&#xa7;" horiz-adv-x="629" 
d="M549 35q0 -97 -68 -148q-60 -46 -161 -46q-158 0 -201 138l45 35q16 -34 64 -59q45 -24 85 -24q30 0 52 10q31 13 31 38q0 28 -46 60q-32 22 -72 37q-112 43 -145 65q-70 50 -70 134q0 71 60 142q-49 41 -49 113q0 78 65 126q59 42 140 42q128 0 190 -88l-68 -71
q-23 56 -97 56q-23 0 -42 -7q-25 -11 -25 -30q0 -32 77 -61q111 -42 142 -62q77 -51 77 -138q0 -70 -57 -130q73 -43 73 -132zM390 264q0 32 -61 61q-45 17 -90 35q-28 -24 -28 -49q0 -30 61 -58q44 -17 88 -33q30 23 30 44z" />
    <glyph glyph-name="bullet" unicode="&#x2022;" horiz-adv-x="761" 
d="M680 435q0 -101 -83 -168q-78 -64 -181 -64t-181 64q-83 67 -83 168t83 168q78 64 181 64t181 -64q83 -67 83 -168z" />
    <glyph glyph-name="paragraph" unicode="&#xb6;" horiz-adv-x="640" 
d="M594 800l-1 -53l-45 -9l-10 -738l-92 3l-3 716l-78 -13l6 -705l-100 -1l-20 366q-97 9 -152 66t-55 154q0 78 58 146t135 68h357zM268 573q0 35 -13 68q-16 43 -46 43t-46 -43q-12 -33 -12 -68t12 -68q16 -43 46 -43t46 43q13 33 13 68z" />
    <glyph glyph-name="germandbls" unicode="&#xdf;" horiz-adv-x="745" 
d="M416 -26q-25 0 -58 16q-28 14 -55 27l37 152q78 -36 118 -36q18 0 37.5 22.5t19.5 40.5q0 22 -59 48q-90 40 -111 54q-62 40 -68 97q-2 20 -2 39q0 63 35 99q26 11 52 21q29 17 29 43q0 22 -15 36t-37 14q-50 0 -74 -39q-21 -33 -20 -85l16 -600l-219 14q-32 169 -32 378
q0 114 6 215q9 137 104 213q90 71 231 71q97 0 187 -50q106 -59 106 -148q0 -77 -45 -113q-19 -15 -111 -54q53 -30 107 -59q60 -34 87 -69q36 -47 36 -118q0 -109 -100 -174q-86 -55 -202 -55z" />
    <glyph glyph-name="registered" unicode="&#xae;" horiz-adv-x="796" 
d="M724 342q0 -147 -103.5 -250.5t-250.5 -103.5t-250.5 103.5t-103.5 250.5q0 146 104 249t250 103t250 -103t104 -249zM620 342q0 115 -67.5 187t-182.5 72q-116 0 -183 -71t-67 -188t67 -188.5t183 -71.5q115 0 182.5 72t67.5 188zM594 276l-88 -72l-126 78l-24 -13
l62 -115l-91 -52l-175 330q97 71 99 73q58 35 116 35q60 0 94.5 -35t34.5 -95q0 -44 -34 -72zM398 411q0 50 -40 50q-23 0 -47 -15q-4 -3 -41 -30l43 -81l54 28q31 21 31 48z" />
    <glyph glyph-name="copyright" unicode="&#xa9;" horiz-adv-x="796" 
d="M724 344q0 -147 -103.5 -250.5t-250.5 -103.5t-250.5 103.5t-103.5 250.5q0 146 104 249t250 103t250 -103t104 -249zM620 344q0 116 -65 195q-70 83 -184 83q-115 0 -185 -83q-66 -78 -66 -195q0 -118 64 -197q68 -85 184 -85q114 0 185 85q67 80 67 197zM566 289
q-9 -70 -58.5 -108t-122.5 -38q-88 0 -142 57t-54 146q0 86 49.5 141.5t134.5 55.5q78 0 121.5 -32t57.5 -105l-91 -3q0 47 -75 47q-53 0 -72 -29q-16 -24 -16 -79q0 -44 25 -79q27 -38 70 -38q30 0 55.5 17.5t27.5 46.5h90z" />
    <glyph glyph-name="trademark" unicode="&#x2122;" horiz-adv-x="970" 
d="M896 628l-28 -316l-101 6l-11 214h-3l-105 -212l-108 16l-48 204h-6l-26 -200h-68l40 352l176 -12l44 -216l92 195zM404 704l-1 -78l-107 -11v-283l-130 -6l-14 269l-124 -9v74l152 30q90 16 154 16q25 0 70 -2z" />
    <glyph glyph-name="acute" unicode="&#xb4;" horiz-adv-x="413" 
d="M333 638l-240 -68l-26 68l232 98z" />
    <glyph glyph-name="dieresis" unicode="&#xa8;" horiz-adv-x="685" 
d="M610 588q0 -40 -44 -64q-36 -20 -80 -20t-80 20q-44 24 -44 64t44 64q36 20 80 20t80 -20q44 -24 44 -64zM308 598q0 -40 -41 -66q-36 -21 -79 -21t-78 21q-42 25 -42 65t41 66q36 21 79 21t78 -21q42 -25 42 -65z" />
    <glyph glyph-name="notequal" unicode="&#x2260;" horiz-adv-x="519" 
d="M497 245q0 -96 -70 -161.5t-166 -65.5t-165.5 66t-69.5 161t69.5 161t165.5 66t166 -65.5t70 -161.5zM304 415q-80 0 -178 -18l17 -330l133 3q-3 34 -7 103q67 5 112 32q57 34 57 93q0 53 -40 85t-94 32zM336 295q0 -57 -82 -68l-10 119q19 2 30 2q62 0 62 -53z" />
    <glyph glyph-name="AE" unicode="&#xc6;" horiz-adv-x="1086" 
d="M1066 663q-51 0 -154 -9t-154 -9v-126q34 6 100 8t98 7l-3 -196q-71 -6 -206 -14q3 -22 3 -50q0 6 -5 -111q19 9 121 12q110 3 137 10l-3 -167l-527 -24q3 16 5 115q-29 2 -86 2q-69 0 -140 -3q-12 -16 -45 -111q-14 -1 -31 -1q-15 0 -46 1.5t-47 1.5q-42 0 -67 -8
q73 198 227 590q25 55 69 167q193 3 175 4v36q120 13 286 20q144 6 287 11zM476 256q-2 61 -20 170q-21 118 -24 170q-63 -102 -156 -352z" />
    <glyph glyph-name="Oslash" unicode="&#xd8;" horiz-adv-x="859" 
d="M777 408q0 -195 -116 -323q-121 -132 -314 -132q-100 0 -193 76l-12 -12l-43 52l16 12q-115 131 -115 295q0 57 27 130q48 131 145 210q104 86 237 86q82 0 137 -23q43 -19 92 -63.5t98 -89.5l-20 -16q61 -107 61 -202zM534 495q-2 55 -23 98q-27 56 -75 56
q-112 0 -165 -120q-39 -89 -39 -217q0 -68 7 -103zM522 403l-256 -259q12 -15 32 -30q25 -18 39 -18q98 0 143 112q19 50 42 195z" />
    <glyph glyph-name="infinity" unicode="&#x221e;" horiz-adv-x="480" 
d="M423 553q-10 0 -24 -10q-59 -44 -73 -59q-24 -27 -45 -79l-50 14q-3 -10 -7 -29l48 -11q-2 -7 2 -32l-58 16q-4 -11 -7 -28l64 -17v-14q1 -13 -3 -18l-69 18q-6 -14 -9 -32l72 -19q0 -2 1 -8v-7q0 -10 -4 -18l-78 19l-6 -24l79 -20v-3q0 -11 -6 -34l-82 19l-8 -20
q10 0 82 -28q-3 -52 -35.5 -99.5t-79.5 -67.5q-4 71 -42 98q-29 -23 -29 -47q0 -6 3 -17.5t3 -16.5q-39 61 -39 151q0 38 10 53q23 -1 99 -18l5 21l-96 26l9 36l97 -26l7 25l-96 29l9 33l96 -28l7 29l-93 23v3q0 3 7 14.5t8 14.5l87 -23q1 6 7 26l-83 22q9 9 21 26l69 -18
q7 20 9 31q-11 3 -73 19q9 27 9 50q0 42 -31 89t-31 49q0 5 9 5q54 0 97 -31.5t59 -82.5q18 19 36.5 37.5t46.5 18.5q43 0 99 -30zM199 84l-21 6l6 21l-10 3l-6 -22l-22 6l-3 -8l23 -6l-6 -24l9 -2l6 23l21 -6z" />
    <glyph glyph-name="plusminus" unicode="&#xb1;" horiz-adv-x="1045" 
d="M953 287q0 -108 -92 -209t-198 -101q-116 0 -199 55q-13 12 -38 30q-2 1 -7 1q-4 0 -9.5 -5.5t-7.5 -6.5q-62 -41 -132 -41q-61 0 -126 37t-93 91q-13 24 -23.5 70.5t-10.5 74.5q0 111 143 215q-9 28 -9 60q0 96 60 164q62 72 156 72q99 0 206 -80q82 39 146 39
q93 0 162.5 -67t69.5 -160q0 -58 -30 -103q4 -15 23 -54q9 -19 9 -82zM841 408q-15 8 -33 8q-16 0 -35 -8q-23 -11 -23 -25q0 -12 23 -12q22 0 37.5 12.5t30.5 24.5zM580 607q0 9 -7.5 24.5t-15.5 18.5q-10 -12 -10 -33q0 -25 15 -25q18 0 18 15zM917 337q0 24 -26 49
l-36 -52q-18 -19 -58 -19q-33 0 -65 15q-39 19 -39 47q0 38 39 60q33 20 73 20q32 0 66 -10q25 32 25 72q0 70 -63.5 127.5t-134.5 57.5q-45 0 -94 -24q27 -33 27 -69q0 -59 -72 -59q-56 0 -56 67q0 39 20 70q-72 48 -122 48q-12 0 -21 -3q-65 5 -121 -58.5t-56 -130.5
q0 -17 5 -33q80 18 101 18q88 0 88 -66q0 -41 -36.5 -67.5t-78.5 -26.5q-77 0 -103 73q-40 -13 -69 -73q-26 -53 -26 -100q0 -91 60.5 -153.5t150.5 -62.5q76 0 102 33l1 2q0 7 -20 38t-20 53q0 36 35 60q31 22 68 22q35 0 55.5 -20.5t20.5 -55.5q0 -29 -24 -54
q-22 -20 -45 -40q62 -65 139 -65q49 0 103.5 28t85.5 67q37 41 74 81q29 37 45 119q2 8 2 15zM352 471q0 17 -46 17q-45 0 -70 -16q9 -46 53 -46q19 0 41 14t22 31zM405 175q0 -33 25 -58q17 7 35 34.5t18 45.5q0 22 -27 22q-51 0 -51 -44z" />
    <glyph glyph-name="lessequal" unicode="&#x2264;" horiz-adv-x="492" 
d="M479 560q0 -97 -68.5 -165.5t-165.5 -68.5t-165 68.5t-68 165.5q0 96 68.5 164t164.5 68t165 -68t69 -164zM393 516l-87 41q22 19 22 47q0 40 -22 63.5t-62 23.5q-38 0 -77 -24l-66 -48l116 -218l60 35l-41 75l16 9l83 -51zM264 605q0 -18 -19 -29.5t-37 -20.5l-29 54
q40 29 59 29q26 0 26 -33z" />
    <glyph glyph-name="greaterequal" unicode="&#x2265;" horiz-adv-x="490" 
d="M478 227q0 -97 -68.5 -165.5t-165.5 -68.5t-165 68.5t-68 165.5q0 96 68.5 164t164.5 68q97 0 165.5 -67.5t68.5 -164.5zM374 191h-60q-1 -19 -18 -31t-37 -12q-28 0 -46 26q-16 23 -16 52q0 36 10 51q13 20 48 20q49 0 49 -31l60 2q-15 90 -119 90q-55 0 -87.5 -37
t-32.5 -93q0 -58 35.5 -96t93.5 -38q48 0 80.5 25t39.5 72z" />
    <glyph glyph-name="yen" unicode="&#xa5;" horiz-adv-x="663" 
d="M600 658l-121 -233h81v-103h-132l-23 -48h155v-103h-164v-156l-176 -15l-1 171h-167v103h157l-26 48h-131v103h77l-119 261l230 1l85 -282l149 290z" />
    <glyph glyph-name="mu" unicode="&#xb5;" horiz-adv-x="744" 
d="M354 4q-49 0 -109 22.5t-98 54.5q-73 62 -114 151.5t-41 184.5q0 101 54 195q43 75 155 126q103 48 198 48q65 0 128 -11q2 -11 2 -28q0 -49 -13 -124q-48 7 -90 7q-116 0 -193 -54q-87 -60 -87 -172q0 -106 40 -180q50 -94 148 -85q13 -4 28 -4q68 0 117.5 55.5
t49.5 124.5q0 62 -36 106q-38 48 -99 48q-50 0 -84 -37q-30 -33 -36 -85q8 -29 31 -54q26 -29 54 -29l10 2q28 22 28 41q0 32 -71 45l-1 8q0 20 41 67q56 -5 90.5 -38t34.5 -88q0 -54 -38 -80q-2 -2 -82 -36q-35 5 -71 11q-31 7 -61 44q-52 63 -52 134q0 88 74 146
q69 55 158 55q102 0 173.5 -75t71.5 -178q0 -125 -93 -221.5t-217 -96.5z" />
    <glyph glyph-name="mu" unicode="&#x3bc;" horiz-adv-x="744" 
d="M354 4q-49 0 -109 22.5t-98 54.5q-73 62 -114 151.5t-41 184.5q0 101 54 195q43 75 155 126q103 48 198 48q65 0 128 -11q2 -11 2 -28q0 -49 -13 -124q-48 7 -90 7q-116 0 -193 -54q-87 -60 -87 -172q0 -106 40 -180q50 -94 148 -85q13 -4 28 -4q68 0 117.5 55.5
t49.5 124.5q0 62 -36 106q-38 48 -99 48q-50 0 -84 -37q-30 -33 -36 -85q8 -29 31 -54q26 -29 54 -29l10 2q28 22 28 41q0 32 -71 45l-1 8q0 20 41 67q56 -5 90.5 -38t34.5 -88q0 -54 -38 -80q-2 -2 -82 -36q-35 5 -71 11q-31 7 -61 44q-52 63 -52 134q0 88 74 146
q69 55 158 55q102 0 173.5 -75t71.5 -178q0 -125 -93 -221.5t-217 -96.5z" />
    <glyph glyph-name="partialdiff" unicode="&#x2202;" horiz-adv-x="1042" 
d="M52 147q-15 0 -25 9t-19 18q-5 15 -5 30q0 57 60 118q49 50 111 80q7 116 97.5 197t207.5 81q93 0 160 -42q15 -15 48 -44q30 15 105 25q65 9 110 9q89 0 89 -46q0 -102 -207 -199q-281 -132 -513 -200q-123 -36 -219 -36zM782 360q-19 -104 -107 -177t-194 -73
q-47 0 -103 15.5t-92 40.5q38 -3 246 81q196 80 250 113zM868 565q0 20 -49 20q-59 0 -105 -21l36 -69q-123 -49 -370 -147q-41 -18 -82 -35q-50 -20 -84 -25q-24 41 -30 64q-54 -34 -65 -44q-34 -30 -39 -66q3 -6 16 -6q16 0 122 34q231 74 444 162q34 16 102 46
q104 42 104 87z" />
    <glyph glyph-name="summation" unicode="&#x2211;" horiz-adv-x="800" 
d="M763 600q-18 -10 -87 -95q-80 -100 -92 -112q52 -77 93 -254q-41 24 -127 56t-124 54q-128 -93 -231 -162q6 121 46 260q-117 57 -240 137q52 19 131 29q14 2 135 12q39 179 62 221q30 -21 83 -82q50 -59 71 -95q62 11 123 21q73 12 125 12q17 0 32 -2z" />
    <glyph glyph-name="product" unicode="&#x220f;" horiz-adv-x="807" 
d="M510 372q-61 -11 -216 -11q-10 34 -58 84q-40 41 -40 92q0 67 55 121.5t122 54.5q196 0 196 -130q0 -41 -20 -79q-6 -11 -45 -68q-1 -1 -1 -3q0 -8 5 -23t5 -23q0 -9 -3 -15zM509 343l1 -11q1 -30 -18 -47q-27 -7 -54 -15q-31 -8 -55 -8q-35 0 -73 15q-15 20 -15 43
q0 9 3 14q7 -1 28 -1q31 0 92.5 5t90.5 5zM748 377q-33 -46 -59 -46q-17 0 -29 20q-16 -16 -76 -64q-50 -39 -71 -69q49 -11 79 -11q1 0 22.5 20t43.5 20q32 0 32 -32q0 -14 -19 -28q-24 -16 -28 -24q6 -11 13.5 -23t7.5 -22q0 -11 -8 -21q-5 -1 -15.5 -6t-18.5 -5
q-22 0 -43 49h-7q-25 -1 -62 9q-48 13 -62 15q-32 -34 -94 -102q-2 -2 -21 -47q-14 -31 -37 -30h-5q-6 7 -6 29t-31.5 23.5t-31.5 25.5q0 17 21 22l34 4q9 2 50 40t45 48q-35 7 -150 48q-95 34 -150 34q-26 0 -53 -6q-6 21 -6 22q0 9 6 14q51 19 51 33q0 7 -5 21.5t-5 22.5
q0 14 9 24q12 4 18 4t8 -4q6 -17 12.5 -33t30.5 -30q43 -26 147 -60q109 -36 154 -37q26 28 86.5 76.5t86.5 76.5q9 10 16 34t12 33q3 5 21.5 10.5t26.5 5.5q9 0 18 -8t9 -17q0 -6 -7.5 -15t-7.5 -14l1 -4q21 5 31 5q17 0 17 -16q0 -4 -1 -15zM495 599q-24 -12 -47 -39
q-25 -30 -25 -53q0 -31 48 -31q24 0 38 27q10 21 10 48q0 46 -24 48zM426 406q2 5 2 12q0 15 -14 45t-26 33q-11 -33 -26 -98q9 9 17 19q14 14 19 14q6 0 28 -25zM364 505q0 20 -24.5 44.5t-44.5 24.5q-26 0 -26 -55q0 -54 33 -54q17 0 39.5 12.5t22.5 27.5z" />
    <glyph glyph-name="pi" unicode="&#x3c0;" horiz-adv-x="646" 
d="M542 584q0 -51 -48 -123q69 -55 69 -125q0 -41 -27 -84q-19 -29 -51 -58q-27 -26 -27 -25q0 2 12.5 -22.5t12.5 -49.5q0 -7 -1 -15q-12 -22 -52 -45q-7 45 -10 54q-9 27 -33 41q-20 -11 -55 -24q-43 -15 -57 -21q-11 0 -32 -1t-30 -1q-35 0 -62 15q-31 19 -31 51
q0 51 51 90q48 36 100 36q79 0 130 -37q20 14 41 43q24 33 24 54q0 14 -8 31q-10 21 -23 21q-136 -96 -265 -96q-59 0 -101 18q-55 26 -55 77q0 67 87 109q72 35 147 35q83 0 151 -30q24 49 24 76q0 41 -50 72q-45 27 -90 27q-48 0 -107 -27q-41 -18 -86 -48
q-38 -26 -36 -26q-7 0 -34 33l-34 42q101 127 312 127q101 0 167 -45q77 -53 77 -149zM326 426q-1 18 -69 18q-44 0 -81 -10q-54 -15 -54 -45l1 -5q15 -2 31 -2q96 0 172 44zM314 194q-24 8 -53 8q-52 0 -52 -26l1 -7q7 -1 16 -1q47 0 88 26z" />
    <glyph glyph-name="integral" unicode="&#x222b;" horiz-adv-x="595" 
d="M595 775q-65 -65 -185 -201q49 -8 75 -8q7 0 19.5 2.5t19.5 2.5t20 -4q-90 -87 -181 -226q14 -8 72 -10q55 -2 59 -6q-198 -186 -211 -197q-147 -132 -218 -169q2 37 42 134q34 81 62 132q-88 4 -152 4q15 43 57.5 125t57.5 125q-35 1 -94 4q7 47 52 182q48 145 69 167
q76 -4 217 -26q160 -25 219 -31zM474 528q-31 1 -62 3q-38 2 -62 9q53 107 120 220q-79 2 -240 15q-35 -64 -71 -128q-48 -88 -60 -126q16 2 38 2q27 0 52 -2q-23 -46 -51 -120q-42 -110 -47 -122q79 0 139 -12q-8 -35 -46 -107q-44 -82 -54 -110q45 25 142 116l140 132
q-25 11 -112 3q-1 18 76 109q90 104 98 118z" />
    <glyph glyph-name="ordfeminine" unicode="&#xaa;" horiz-adv-x="347" 
d="M357 399l-360 -3l3 359l340 18zM306 623q0 99 -105 99q-75 0 -113 -78l90 -3q-2 -2 -4 -2v1q0 6 15.5 15.5t23.5 9.5q10 0 10 -22q0 -32 -26 -32q-6 0 -21 2t-23 2q-110 0 -110 -92q0 -79 131 -79q16 0 45.5 3t43.5 4q14 29 28.5 85t14.5 87zM201 566v4v-2l-1 -6l-2 -13
l-8 -46q-7 -5 -23 -5q-39 0 -39 23q0 46 48 46q7 0 25 -1z" />
    <glyph glyph-name="ordmasculine" unicode="&#xba;" horiz-adv-x="414" 
d="M415 757l-10 -333l-394 -21q-10 95 -10 207q0 102 10 160zM381 597q0 67 -56 104q-48 32 -120 32q-75 0 -125 -47.5t-50 -122.5q0 -62 42 -96.5t105 -34.5q81 0 139 41q65 46 65 124zM177 485q-49 0 -49 74q0 38 22 73q25 40 60 40q27 0 44 -20.5t17 -48.5q0 -44 -25 -79
q-27 -39 -69 -39z" />
    <glyph glyph-name="Omega" unicode="&#x3a9;" horiz-adv-x="671" 
d="M623 323q0 -115 -90 -193q-85 -74 -202 -74q-116 0 -202 74q-90 78 -90 192q0 115 90 193q85 74 202 74q116 0 202 -74q90 -78 90 -192zM514 214l-118 115l107 124l-77 13l-93 -93l-96 94l-74 -25l101 -116l-93 -115l66 -28l96 94l95 -94z" />
    <glyph glyph-name="Omega" unicode="&#x2126;" horiz-adv-x="671" 
d="M623 323q0 -115 -90 -193q-85 -74 -202 -74q-116 0 -202 74q-90 78 -90 192q0 115 90 193q85 74 202 74q116 0 202 -74q90 -78 90 -192zM514 214l-118 115l107 124l-77 13l-93 -93l-96 94l-74 -25l101 -116l-93 -115l66 -28l96 94l95 -94z" />
    <glyph glyph-name="ae" unicode="&#xe6;" horiz-adv-x="964" 
d="M880 264q0 -15 -2 -44q-133 8 -314 8q-14 0 -24 -1q8 -64 21 -84q20 -30 78 -30q53 0 97 43q29 -15 85 -47q-53 -71 -106 -95.5t-144 -24.5q-58 0 -122 50q2 -3 2 -27q-113 -19 -164 -19l-1 7q-46 -6 -93 -6q-76 0 -112 26q-43 31 -43 104q0 109 89 150q41 19 183 38
q2 10 2 29q0 37 -18 52q-16 12 -54 12q-86 0 -148 -71l-30 146q48 46 171 46q78 0 116 -13q47 -16 98 -68q63 102 185 102q123 0 188 -82q60 -75 60 -201zM535 332zM312 214l-2 4v-2q-19 8 -38 8q-35 0 -70 -22q-38 -25 -38 -58q0 -26 27 -43q24 -15 51 -15q9 0 26 3t26 3
v-4q5 14 12 62q6 45 6 64zM725 378q0 -23 -8 -45q-149 0 -179 -1q-3 7 -3 14q0 37 32 74t68 37q39 0 64 -19q26 -22 26 -60z" />
    <glyph glyph-name="oslash" unicode="&#xf8;" horiz-adv-x="670" 
d="M581 270q0 -104 -107 -192q-102 -84 -208 -84q-85 0 -147 47l-10 -9l-26 35l10 7q-70 81 -70 185q0 129 89 203q83 69 215 69q51 0 100 -23q53 -25 77 -66l20 20l26 -29l-14 -13q45 -68 45 -150zM398 342q-9 35 -27 61q-23 34 -52 34q-53 0 -80 -53q-21 -42 -21 -100
q0 -47 15 -92zM402 270q0 10 -2 27l-151 -138q24 -46 52 -46q38 0 72 61q29 54 29 96z" />
    <glyph glyph-name="questiondown" unicode="&#xbf;" horiz-adv-x="637" 
d="M394 692q-135 -46 -198 -46l-24 142q37 0 99 17q69 19 99 21zM573 183q0 -106 -111 -160q-87 -43 -205 -43q-70 0 -129.5 55.5t-59.5 125.5q0 58 51 111q32 34 97 75q55 35 58 43q-15 50 -46 148q51 14 149 51q7 -21 14 -120q4 -65 8 -131q-16 -18 -59 -49t-59 -51
q-27 -32 -27 -71q0 -35 29 -73h18q78 0 78 78q0 29 -10 62l204 32v-83z" />
    <glyph glyph-name="exclamdown" unicode="&#xa1;" horiz-adv-x="414" 
d="M346 533q-90 0 -153 11q-30 7 -90 16l21 177l222 -6v-198zM319 -161l-18 -32l-269 -15q2 47 9 142q3 29 15 71q17 64 18 71q34 151 40 182q21 105 25 185l136 -6q6 -187 19 -378q3 -55 7 -111q5 -64 18 -109z" />
    <glyph glyph-name="logicalnot" unicode="&#xac;" horiz-adv-x="672" 
d="M569 158h-150v176h-388v150h538v-326z" />
    <glyph glyph-name="florin" unicode="&#x192;" horiz-adv-x="678" 
d="M622 742l-22 -120q-35 4 -55 4q-90 0 -115 -168h106l-23 -124h-98l-57 -319q-19 -105 -75.5 -148.5t-165.5 -43.5q-52 0 -102 12l23 119q28 -4 46 -4q47 0 65 22q13 16 22 66l52 296h-77l24 124h77q13 111 81 197q77 98 181 98q55 0 113 -11z" />
    <glyph glyph-name="Delta" unicode="&#x394;" horiz-adv-x="1089" 
d="M1067 374q0 -66 -42.5 -146t-98.5 -114l128 -169q-76 35 -249 86q-29 -23 -148 -44q-105 -19 -158 -19q-196 0 -338 98q-161 111 -161 298q0 182 183 291q155 92 350 92t349 -87q185 -105 185 -286z" />
    <glyph glyph-name="Delta" unicode="&#x2206;" horiz-adv-x="1089" 
d="M1067 374q0 -66 -42.5 -146t-98.5 -114l128 -169q-76 35 -249 86q-29 -23 -148 -44q-105 -19 -158 -19q-196 0 -338 98q-161 111 -161 298q0 182 183 291q155 92 350 92t349 -87q185 -105 185 -286z" />
    <glyph glyph-name="guillemotleft" unicode="&#xab;" horiz-adv-x="462" 
d="M369 120h-71l-87 137l87 146h71l-53 -146zM209 120h-71l-87 137l87 146h71l-53 -146z" />
    <glyph glyph-name="guillemotright" unicode="&#xbb;" horiz-adv-x="464" 
d="M369 257l-87 -137h-71l53 137l-53 146h71zM209 257l-87 -137h-71l53 137l-53 146h71z" />
    <glyph glyph-name="ellipsis" unicode="&#x2026;" horiz-adv-x="1201" 
d="M1115 201l-1 -201h-214l-1 200zM677 0h-214l-1 200h214zM245 200l-1 -200h-212l-1 200h214z" />
    <glyph glyph-name="nonbreakingspace" unicode="&#xa0;" 
 />
    <glyph glyph-name="Agrave" unicode="&#xc0;" horiz-adv-x="828" 
d="M481 697l-105 -49l-213 116l206 94zM782 1q-178 -8 -201 -8q-39 0 -78 3q-6 34 -25 91q-57 4 -171 4q-51 0 -78 -1q-6 -8 -12 -43q-6 -39 -10 -49q-24 -2 -62 -1q-55 2 -62 2q-40 0 -67 -6l121 257q32 67 74 175q57 148 69 177q30 0 92 3t93 3q47 0 56 -5q13 -7 129 -280
q109 -256 132 -322zM449 201q-25 23 -58 109q-36 90 -58 116q-29 -99 -34 -115q-20 -65 -42 -112z" />
    <glyph glyph-name="Atilde" unicode="&#xc3;" horiz-adv-x="839" 
d="M610 734q-73 -72 -145 -72q-29 0 -82.5 24.5t-80.5 24.5q-22 0 -35 -18l-22 -33l-56 74q49 36 64 44q39 22 73 22q30 0 83.5 -22.5t82.5 -22.5q18 0 34 19q23 29 26 31zM782 1q-178 -8 -201 -8q-39 0 -78 3q-6 34 -25 91q-57 4 -171 4q-51 0 -78 -1q-6 -8 -12 -43
q-6 -39 -10 -49q-24 -2 -62 -1q-55 2 -62 2q-40 0 -67 -6l121 257q32 67 74 175q57 148 69 177q30 0 92 3t93 3q47 0 56 -5q13 -7 129 -280q109 -256 132 -322zM449 201q-25 23 -58 109q-36 90 -58 116q-29 -99 -34 -115q-20 -65 -42 -112z" />
    <glyph glyph-name="Otilde" unicode="&#xd5;" horiz-adv-x="806" 
d="M662 749q-41 -39 -66 -55q-38 -23 -81 -23q-34 0 -101 34t-98 34q-26 0 -47.5 -19.5t-40.5 -38.5l-52 68q57 88 136 88q35 0 99 -36.5t97 -36.5q22 0 47 25q20 19 40 39zM777 326q0 -170 -133 -272q-121 -92 -297 -92q-138 0 -242.5 100.5t-104.5 238.5q0 51 34 118
q54 105 154.5 164t220.5 59q144 0 252 -85q116 -91 116 -231zM533 394q0 49 -23 84q-27 41 -74 41q-104 0 -159 -87q-45 -72 -45 -183q0 -59 10 -90q15 -45 57 -68q26 -14 38 -14q91 0 135 77q22 39 48 158q13 59 13 82z" />
    <glyph glyph-name="OE" unicode="&#x152;" horiz-adv-x="1164" 
d="M1152 663q-51 0 -154 -9t-154 -9v-126q34 5 100 8t98 7l-3 -196q-72 -6 -206 -14q3 -23 3 -50q0 1 -5 -111q23 10 122 13q107 2 136 9l-3 -167l-526 -29l1 11l-1 5q-94 -52 -213 -52q-151 0 -253 139q-94 128 -94 284q0 60 29 136q49 129 145 206q104 84 235 84
q60 0 163 -56l1 42q120 13 286 20q144 6 287 11zM552 375q0 83 -29 162q-39 103 -107 103q-97 0 -146 -95q-38 -74 -38 -182q0 -101 18 -149q27 -74 106 -98q97 12 144 86q34 54 52 166v7z" />
    <glyph glyph-name="oe" unicode="&#x153;" horiz-adv-x="940" 
d="M854 272q0 -16 -2 -44q-133 8 -314 8q-14 0 -24 -1q7 -63 21 -84q21 -30 78 -30q53 0 97 43q29 -15 85 -47q-52 -70 -108 -96q-52 -24 -142 -24q-79 0 -138 56q-5 3 -6 12q-3 14 -3 15q-63 -82 -167 -82q-109 0 -164 84q-46 71 -46 186q0 118 59 189q63 76 179 76
q61 0 93 -13q40 -15 72 -62q4 13 19 30q77 67 164 67q122 0 187 -83q60 -75 60 -200zM693 383q0 38 -26 60q-25 19 -64 19q-36 0 -68 -37t-32 -74q0 -9 3 -14q30 1 179 1q8 22 8 45zM356 265q0 53 -22 102q-27 63 -72 63q-64 0 -94 -59q-23 -45 -23 -116q0 -54 20 -94
q26 -50 74 -50q47 0 84 55q33 50 33 99zM570 339z" />
    <glyph glyph-name="endash" unicode="&#x2013;" horiz-adv-x="534" 
d="M534 249h-534v158h534v-158z" />
    <glyph glyph-name="emdash" unicode="&#x2014;" horiz-adv-x="1001" 
d="M1000 257h-1000v158h1000v-158z" />
    <glyph glyph-name="quotedblleft" unicode="&#x201c;" horiz-adv-x="459" 
d="M381 547q0 -97 -78 -97q-44 0 -70.5 28t-26.5 73q0 112 93 229l62 -34l-14 -148q34 -21 34 -51zM190 559q0 -97 -78 -97q-44 0 -70.5 28t-26.5 73q0 112 93 229l62 -34l-14 -148q34 -21 34 -51z" />
    <glyph glyph-name="quotedblright" unicode="&#x201d;" horiz-adv-x="455" 
d="M374 701q0 -84 -92 -241l-62 34l14 148q-34 21 -34 51q0 97 78 97q39 0 67.5 -25.5t28.5 -63.5zM187 704q0 -112 -93 -229l-62 34l14 148q-34 21 -34 51q0 97 78 97q44 0 70.5 -28t26.5 -73z" />
    <glyph glyph-name="quoteleft" unicode="&#x2018;" horiz-adv-x="306" 
d="M228 456l-236 15q35 201 113 289q17 15 37 44l56 -14q-16 -75 -16 -143q0 -131 46 -191z" />
    <glyph glyph-name="quoteright" unicode="&#x2019;" horiz-adv-x="331" 
d="M241 760q-35 -201 -113 -289q-17 -15 -37 -44l-56 5q16 75 16 144q0 134 -46 199z" />
    <glyph glyph-name="divide" unicode="&#xf7;" horiz-adv-x="614" 
d="M381 501q0 -31 -27.5 -50t-59.5 -19t-59 19t-27 50h-1q0 31 29 51q26 18 58 18t59.5 -19t27.5 -50zM550 348h-539v65h539v-65zM378 242q0 -31 -27.5 -50t-59.5 -19t-58 18q-29 20 -29 51t29 51q26 18 58 18t59.5 -19t27.5 -50z" />
    <glyph glyph-name="lozenge" unicode="&#x25ca;" horiz-adv-x="917" 
d="M902 469q-10 -11 -42 -28t-49 -21q-16 8 -49 22q-11 -6 -18 -8q-10 -3 -28 -14q-13 -74 -63 -150q-29 -46 -101 -130.5t-101 -129.5q-134 106 -235 205q-27 -7 -66 -24q10 -19 23 -36q-19 0 -58 -3t-59 -3q-11 0 -19 2q40 60 83 122q9 -30 7 -44l1 -5q13 7 26 13
q17 9 23 18q-48 66 -64 105q-23 53 -23 123q0 81 61 126q55 41 138 41q66 0 105 -31q7 9 16 20q44 42 114 42q40 0 63 -9q19 -7 55 -33q50 -36 66 -101q6 -34 13 -69l21 12q10 18 31 52q27 15 83 43q-5 -33 -16 -57q2 1 13 7.5t12 6.5q7 0 20 -31q-2 -2 -28 -17
q18 -2 45 -16zM644 493v5q1 30 -31.5 68.5t-61.5 38.5q-19 0 -51 -10q-38 -12 -38 -25q0 -6 13 -26q5 -25 5 -45q0 -29 -7 -46q-4 -12 -24 -38q-65 144 -146 144q-48 0 -82 -25q-37 -27 -37 -73q0 -70 73 -178q61 -92 127 -148q23 -20 55 -41q200 221 205 399z" />
    <glyph glyph-name="ydieresis" unicode="&#xff;" horiz-adv-x="661" 
d="M587 631q0 -30 -36 -47q-29 -13 -63 -13t-63 13q-36 17 -36 47t36 47q29 13 63 13t63 -13q36 -17 36 -47zM317 633q0 -34 -39 -54q-31 -16 -69 -16t-69 16q-39 20 -39 54t39 54q31 16 69 16t69 -16q39 -20 39 -54zM598 456q-62 -143 -124.5 -284.5t-139.5 -216.5
q-99 -95 -280 -153l-30 141q86 0 127 17q24 10 47.5 36.5t49.5 35.5q-105 178 -196 429h201q39 -119 42 -126q26 -71 60 -118q20 21 47.5 126t47.5 123q4 4 23 4q17 0 125 -14z" />
    <glyph glyph-name="Ydieresis" unicode="&#x178;" horiz-adv-x="847" 
d="M704 751q0 -30 -36 -47q-29 -13 -63 -13t-63 13q-36 17 -36 47t36 47q29 13 63 13t63 -13q36 -17 36 -47zM362 751q0 -34 -39 -54q-31 -16 -69 -16t-69 16q-39 20 -39 54t39 54q31 16 69 16t69 -16q39 -20 39 -54zM839 626q-16 -25 -144 -190q-119 -154 -122 -164
q-6 -20 -6 -55q0 -37 2.5 -111.5t2.5 -111.5h-247q5 45 5 110q0 117 -2 150q-8 12 -103 122q-120 140 -189 233q35 12 140 21q92 9 145 9l4 -1q14 -12 65 -98q52 -90 80 -117q40 26 94 106q41 61 82 123z" />
    <glyph glyph-name="fraction" unicode="&#x2044;" horiz-adv-x="360" 
d="M318 686l-417 -686h-109l420 686h106z" />
    <glyph glyph-name="currency" unicode="&#xa4;" horiz-adv-x="643" 
d="M553 115l-77 -79l-44 44q-66 -39 -129 -39q-74 0 -134 39l-44 -44l-79 79l44 44q-37 65 -37 128q0 72 37 131l-44 43l79 80l44 -44q63 38 129 38q73 0 134 -38l44 44l77 -80l-44 -43q38 -59 38 -130q0 -75 -38 -129zM423 288q0 50 -36.5 86.5t-86.5 36.5t-86.5 -36.5
t-36.5 -86.5t36.5 -86.5t86.5 -36.5t86.5 36.5t36.5 86.5z" />
    <glyph glyph-name="guilsinglleft" unicode="&#x2039;" horiz-adv-x="364" 
d="M308 580l-174 -226l137 -282l-52 -55l-202 335l254 283z" />
    <glyph glyph-name="guilsinglright" unicode="&#x203a;" horiz-adv-x="367" 
d="M289 332l-202 -335l-52 55l137 282l-174 226l37 55z" />
    <glyph glyph-name="fi" unicode="&#xf001;" horiz-adv-x="774" 
d="M694 760l-3 -148q-27 18 -118 30q-76 11 -127 11q-98 0 -98 -91q0 -19 4 -33q20 -5 53 -5q99 0 277 5l4 -527l-205 -2l6 377h-141l6 -392l-231 -6q0 58 9 173t9 173q0 47 -35 47t-91 -16l-13 139q27 12 139 19q2 90 39 159q43 82 122 102q48 12 152 12q172 0 242 -27z
" />
    <glyph glyph-name="fl" unicode="&#xf002;" horiz-adv-x="803" 
d="M724 869q-2 -93 -18 -308q-14 -198 -14 -308q0 -121 11 -253h-222q1 24 1 71q0 34 -4 153q-4 95 -1 153h-131l6 -392l-231 -6q0 57 9 172.5t9 173.5q0 47 -35 47t-91 -16l-13 139q29 12 139 19q4 82 45 157q50 90 122 96q55 3 166 8q-1 6 -1 17q0 9 3 41q3 25 1 41z
M478 529v110q-25 13 -57 13q-34 0 -54 -27t-20 -62q0 -16 5 -34h126z" />
    <glyph glyph-name="daggerdbl" unicode="&#x2021;" horiz-adv-x="444" 
d="M408 62l-154 35l36 -183l-124 -20l38 208l-168 -40v114l153 -1q-8 33 -15 66q-10 43 -10 65q0 29 8 78q7 40 14 79l-150 -27l9 135l147 -27l-42 170l128 4l-21 -187l151 19v-114l-147 33l12 -82q7 -50 7 -81l-26 -134q71 2 137 10z" />
    <glyph glyph-name="periodcentered" unicode="&#xb7;" horiz-adv-x="336" 
d="M245 197h-191v183h191v-183z" />
    <glyph glyph-name="periodcentered" unicode="&#x2219;" horiz-adv-x="336" 
d="M245 197h-191v183h191v-183z" />
    <glyph glyph-name="quotesinglbase" unicode="&#x201a;" horiz-adv-x="383" 
d="M297 26q-34 -67 -138 -187q-115 -134 -165 -146q43 130 123 393z" />
    <glyph glyph-name="quotedblbase" unicode="&#x201e;" horiz-adv-x="617" 
d="M533 19q-34 -67 -138 -187q-115 -134 -165 -146q43 130 123 393zM297 26q-34 -67 -138 -187q-115 -134 -165 -146q43 130 123 393z" />
    <glyph glyph-name="perthousand" unicode="&#x2030;" horiz-adv-x="1000" 
d="M992 146q0 -65 -46.5 -111.5t-111.5 -46.5t-111.5 46.5t-46.5 111.5t46.5 111.5t111.5 46.5t111.5 -46.5t46.5 -111.5zM324 572q0 -65 -46.5 -111.5t-111.5 -46.5t-111.5 46.5t-46.5 111.5t46.5 111.5t111.5 46.5t111.5 -46.5t46.5 -111.5zM525 730l-345 -742h-62
l344 742h63zM643 146q0 -65 -46.5 -111.5t-111.5 -46.5t-111.5 46.5t-46.5 111.5t46.5 111.5t111.5 46.5t111.5 -46.5t46.5 -111.5zM888 146q0 22 -16 38t-38 16t-38 -16t-16 -38t16 -38t38 -16t38 16t16 38zM220 572q0 22 -16 38t-38 16t-38 -16t-16 -38t16 -38t38 -16
t38 16t16 38zM539 146q0 22 -16 38t-38 16t-38 -16t-16 -38t16 -38t38 -16t38 16t16 38z" />
    <glyph glyph-name="Acircumflex" unicode="&#xc2;" horiz-adv-x="839" 
d="M627 657h-146l-61 58l-89 -58h-132l213 131zM782 1q-178 -8 -201 -8q-39 0 -78 3q-6 34 -25 91q-57 4 -171 4q-51 0 -78 -1q-6 -8 -12 -43q-6 -39 -10 -49q-24 -2 -62 -1q-55 2 -62 2q-40 0 -67 -6l121 257q32 67 74 175q57 148 69 177q30 0 92 3t93 3q47 0 56 -5
q13 -7 129 -280q109 -256 132 -322zM449 201q-25 23 -58 109q-36 90 -58 116q-29 -99 -34 -115q-20 -65 -42 -112z" />
    <glyph glyph-name="Ecircumflex" unicode="&#xca;" horiz-adv-x="663" 
d="M503 686h-117l-91 61l-99 -67l-120 -3l222 145zM597 529q-51 0 -154 -7.5t-154 -7.5v-100q66 2 198 12l-3 -157q-71 -5 -206 -11q3 -18 3 -41q0 -2 -5 -88q36 12 106 12h37.5h36.5q49 0 78 5l-3 -133l-528 -24q17 68 20 204q-1 -30 -1 209q0 170 -4 227q118 10 286 16
q144 4 287 9z" />
    <glyph glyph-name="Aacute" unicode="&#xc1;" horiz-adv-x="841" 
d="M532 715l-240 -68l-26 68l232 98zM782 1q-178 -8 -201 -8q-39 0 -78 3q-6 34 -25 91q-57 4 -171 4q-51 0 -78 -1q-6 -8 -12 -43q-6 -39 -10 -49q-24 -2 -62 -1q-55 2 -62 2q-40 0 -67 -6l121 257q32 67 74 175q57 148 69 177q30 0 92 3t93 3q47 0 56 -5q13 -7 129 -280
q109 -256 132 -322zM449 201q-25 23 -58 109q-36 90 -58 116q-29 -99 -34 -115q-20 -65 -42 -112z" />
    <glyph glyph-name="Edieresis" unicode="&#xcb;" horiz-adv-x="654" 
d="M520 747q0 -24 -27 -39q-22 -12 -49 -12t-49 12q-27 15 -27 39t27 39q22 12 49 12t49 -12q27 -15 27 -39zM237 744q0 -26 -28 -41q-24 -13 -52 -13t-52 13q-29 15 -29 41t28 41q24 13 52 13t52 -13q29 -15 29 -41zM597 529q-51 0 -154 -7.5t-154 -7.5v-100q66 2 198 12
l-3 -157q-71 -5 -206 -11q3 -18 3 -41q0 -2 -5 -88q36 12 106 12h37.5h36.5q49 0 78 5l-3 -133l-528 -24q17 68 20 204q-1 -30 -1 209q0 170 -4 227q118 10 286 16q144 4 287 9z" />
    <glyph glyph-name="Egrave" unicode="&#xc8;" horiz-adv-x="662" 
d="M439 690l-124 -27l-194 94l206 94zM597 529q-51 0 -154 -7.5t-154 -7.5v-100q66 2 198 12l-3 -157q-71 -5 -206 -11q3 -18 3 -41q0 -2 -5 -88q36 12 106 12h37.5h36.5q49 0 78 5l-3 -133l-528 -24q17 68 20 204q-1 -30 -1 209q0 170 -4 227q118 10 286 16q144 4 287 9z
" />
    <glyph glyph-name="Iacute" unicode="&#xcd;" horiz-adv-x="458" 
d="M415 738l-194 -94l-124 27l112 161zM349 -42q-34 0 -104.5 -1t-105.5 -1q-33 0 -96 2q38 199 38 488q0 79 -4 147h271z" />
    <glyph glyph-name="Icircumflex" unicode="&#xce;" horiz-adv-x="452" 
d="M419 637h-124l-81 59l-82 -59h-123l205 163zM349 -42q-34 0 -104.5 -1t-105.5 -1q-33 0 -96 2q44 235 44 484q0 65 -3 129l264 3z" />
    <glyph glyph-name="Idieresis" unicode="&#xcf;" horiz-adv-x="461" 
d="M415 700q0 -27 -27 -44q-23 -14 -52 -14t-53 14q-27 17 -27 44t27 44q23 14 52 14t53 -14q27 -17 27 -44zM199 716q0 -27 -25.5 -43t-54.5 -16t-53 14q-28 17 -28 45q0 27 27 44q24 15 53 15t53 -14q28 -17 28 -45zM349 -42q-34 0 -104.5 -1t-105.5 -1q-33 0 -96 2
q38 199 38 485q0 79 -4 147h271z" />
    <glyph glyph-name="Igrave" unicode="&#xcc;" horiz-adv-x="452" 
d="M333 687l-124 -27l-194 94l206 94zM349 -42q-34 0 -104.5 -1t-105.5 -1q-33 0 -96 2q38 199 38 485q0 79 -4 147h271z" />
    <glyph glyph-name="Oacute" unicode="&#xd3;" horiz-adv-x="844" 
d="M621 776l-194 -94l-124 27l112 161zM777 326q0 -170 -133 -272q-121 -92 -297 -92q-138 0 -242.5 100.5t-104.5 238.5q0 51 34 118q54 105 154.5 164t220.5 59q144 0 252 -85q116 -91 116 -231zM533 394q0 49 -23 84q-27 41 -74 41q-104 0 -159 -87q-45 -72 -45 -183
q0 -59 10 -90q15 -45 57 -68q26 -14 38 -14q91 0 135 77q22 39 48 158q13 59 13 82z" />
    <glyph glyph-name="Ocircumflex" unicode="&#xd4;" horiz-adv-x="846" 
d="M672 661h-139l-115 62l-147 -62h-127l273 136zM777 326q0 -170 -133 -272q-121 -92 -297 -92q-138 0 -242.5 100.5t-104.5 238.5q0 51 34 118q54 105 154.5 164t220.5 59q144 0 252 -85q116 -91 116 -231zM533 394q0 49 -23 84q-27 41 -74 41q-104 0 -159 -87
q-45 -72 -45 -183q0 -59 10 -90q15 -45 57 -68q26 -14 38 -14q91 0 135 77q22 39 48 158q13 59 13 82z" />
    <glyph glyph-name="apple" unicode="&#xf000;" horiz-adv-x="1227" 
d="M1218 356l-164 -57q-50 -159 -232 -251q-158 -80 -342 -80q-192 0 -328 100q-152 111 -152 296q0 182 183 291q155 92 350 92q187 0 338 -80q183 -97 195 -267zM909 445q-2 28 -27 54.5t-53 26.5q-48 0 -73 -43q-21 -36 -21 -87q0 -46 28 -64q11 -7 53 -16q28 -7 28 -25
q0 -31 -24 -31q-21 0 -41 40l-53 -8q19 -105 79 -105q47 0 77 42q26 38 26 87q0 41 -30 63q-11 9 -55 25q-30 12 -30 27q0 9 6.5 20.5t14.5 11.5q18 0 37 -49q20 9 58 31zM699 345q0 70 -84 101q-58 21 -142 21q-25 0 -42 -2l-1 -221q18 -1 39 -1q230 0 230 102zM404 502
l-54 10q-8 -48 -16 -97q-11 -59 -27 -93q-12 62 -34 187h-48q-12 -64 -38 -193q-5 27 -23 201q-26 -3 -78 -12q1 -4 19 -148q12 -97 26 -141h75q7 41 27 122q10 -40 26 -122l92 -1q6 58 24 144q14 72 29 143zM605 347q0 -53 -77 -70l-3 149q34 -1 57 -23.5t23 -55.5z" />
    <glyph glyph-name="Ograve" unicode="&#xd2;" horiz-adv-x="846" 
d="M545 718l-124 -27l-194 94l206 94zM777 326q0 -170 -133 -272q-121 -92 -297 -92q-138 0 -242.5 100.5t-104.5 238.5q0 51 34 118q54 105 154.5 164t220.5 59q144 0 252 -85q116 -91 116 -231zM533 394q0 49 -23 84q-27 41 -74 41q-104 0 -159 -87q-45 -72 -45 -183
q0 -59 10 -90q15 -45 57 -68q26 -14 38 -14q91 0 135 77q22 39 48 158q13 59 13 82z" />
    <glyph glyph-name="Uacute" unicode="&#xda;" horiz-adv-x="802" 
d="M650 776l-194 -94l-124 27l112 161zM728 350q0 -8 -15 -110q-23 -158 -88 -211.5t-227 -53.5q-120 0 -208 48q-99 53 -137 158q-20 54 -20 83v377l271 4q-2 -30 -14 -148q-9 -92 -9 -149q0 -225 121 -225q104 0 104 304q0 35 -1.5 84t-1.5 57q0 45 4 69h221v-287z" />
    <glyph glyph-name="Ucircumflex" unicode="&#xdb;" horiz-adv-x="812" 
d="M643 696l-119 -6l-116 71l-98 -59l-151 -3l251 128zM728 350q0 -8 -15 -110q-23 -158 -88 -211.5t-227 -53.5q-120 0 -208 48q-99 53 -137 158q-20 54 -20 83v377l271 4q-2 -30 -14 -148q-9 -92 -9 -149q0 -225 121 -225q104 0 104 304q0 35 -1.5 84t-1.5 57q0 45 4 69
h221v-287z" />
    <glyph glyph-name="Ugrave" unicode="&#xd9;" horiz-adv-x="802" 
d="M517 712l-124 -27l-194 94l206 94zM728 350q0 -8 -15 -110q-23 -158 -88 -211.5t-227 -53.5q-120 0 -208 48q-99 53 -137 158q-20 54 -20 83v377l271 4q-2 -30 -14 -148q-9 -92 -9 -149q0 -225 121 -225q104 0 104 304q0 35 -1.5 84t-1.5 57q0 45 4 69h221v-287z" />
    <glyph glyph-name="dotlessi" unicode="&#x131;" horiz-adv-x="321" 
d="M268 -15l-208 -15l-5 540l209 2z" />
    <glyph glyph-name="circumflex" unicode="&#x2c6;" horiz-adv-x="541" 
d="M474 637h-124l-81 59l-82 -59h-123l205 163z" />
    <glyph glyph-name="tilde" unicode="&#x2dc;" horiz-adv-x="516" 
d="M437 718q-64 -62 -127 -62q-25 0 -72 21t-71 21q-20 0 -30 -16l-20 -28l-49 64q43 31 56 38q34 19 64 19q26 0 73 -19.5t73 -19.5q16 0 29 16q21 25 23 27z" />
    <glyph glyph-name="macron" unicode="&#xaf;" horiz-adv-x="496" 
d="M389 662h-318v74h318v-74z" />
    <glyph glyph-name="macron" unicode="&#x2c9;" horiz-adv-x="496" 
d="M389 662h-318v74h318v-74z" />
    <glyph glyph-name="breve" unicode="&#x2d8;" horiz-adv-x="544" 
d="M452 736q-17 -59 -74 -93q-52 -30 -117 -30q-66 0 -117 30q-58 34 -75 93h95q38 -38 97 -38q62 0 95 38h96z" />
    <glyph glyph-name="dotaccent" unicode="&#x2d9;" horiz-adv-x="291" 
d="M206 670q0 -28 -19.5 -47t-47.5 -19q-26 0 -45.5 20t-19.5 46q0 28 19 47t47 19q27 0 46.5 -19.5t19.5 -46.5z" />
    <glyph glyph-name="ring" unicode="&#x2da;" horiz-adv-x="354" 
d="M271 645q0 -41 -30 -70.5t-71 -29.5t-71 29.5t-30 70.5q0 42 29.5 71.5t71.5 29.5t71.5 -29.5t29.5 -71.5zM205 646q0 14 -10.5 24t-24.5 10t-24.5 -11t-10.5 -25t10.5 -24t24.5 -10t24.5 11t10.5 25z" />
    <glyph glyph-name="cedilla" unicode="&#xb8;" horiz-adv-x="310" 
d="M276 -122q0 -38 -30.5 -60.5t-69.5 -22.5q-50 0 -111 34l18 41q40 -22 72 -22q39 0 39 29q0 43 -78 38l30 85h57l-16 -48q7 1 22 1q29 0 48 -22.5t19 -52.5z" />
    <glyph glyph-name="hungarumlaut" unicode="&#x2dd;" horiz-adv-x="608" 
d="M531 702l-202 -147l-48 56l184 171zM312 702l-202 -147l-48 56l184 171z" />
    <glyph glyph-name="ogonek" unicode="&#x2db;" horiz-adv-x="286" 
d="M270 -119q-48 -24 -104 -24q-97 0 -97 72q0 35 54 71h70q-47 -30 -47 -56q0 -34 44 -34q30 0 67 14z" />
    <glyph glyph-name="caron" unicode="&#x2c7;" horiz-adv-x="560" 
d="M475 736l-205 -163l-205 163h123l82 -58l81 58h124z" />
    <glyph glyph-name="Lslash" unicode="&#x141;" horiz-adv-x="637" 
d="M586 28l-499 -50l-11 255l-51 -47v119l51 49l-1 446l237 19l-24 -306l80 76v-119l-80 -79l15 -235l277 21z" />
    <glyph glyph-name="lslash" unicode="&#x142;" horiz-adv-x="396" 
d="M322 422l-73 -61v-361h-198v246l-73 -60v119l73 60v321h198v-205l73 60v-119z" />
    <glyph glyph-name="Scaron" unicode="&#x160;" horiz-adv-x="819" 
d="M621 977l-191 -147l-199 162l123 -2l76 -72l84 64zM740 613q-45 -20 -113 -42l-114 -36q-26 45 -60 79q-46 46 -84 46q-26 0 -54 -28t-28 -54q0 -40 117 -69q171 -42 217 -64q117 -56 117 -162q0 -147 -132 -242q-119 -86 -272 -86q-234 0 -310 268l210 19q29 -39 70 -68
q48 -33 90 -33q36 0 64.5 22.5t28.5 57.5q0 47 -111 63q-165 24 -205 41q-111 45 -111 164q0 155 107 246q101 85 259 85q93 0 192 -58q112 -64 122 -149z" />
    <glyph glyph-name="scaron" unicode="&#x161;" horiz-adv-x="560" 
d="M454 759l-190 -149l-195 145l112 4l91 -75l94 72zM495 512l-31 -112q-131 67 -200 67q-37 0 -63 -21q-29 -22 -29 -58q0 -30 74 -50q105 -29 139 -50q74 -45 74 -136q0 -87 -64 -156t-150 -69q-44 0 -119 34q-57 29 -114 57l44 122q114 -73 193 -73q27 0 46 14.5t19 41.5
q0 33 -72 50q-101 25 -133 44q-72 45 -72 143q0 70 47 143q51 78 117 90q28 5 62 5q127 0 232 -86z" />
    <glyph glyph-name="Zcaron" unicode="&#x17d;" horiz-adv-x="816" 
d="M677 943l-195 -130l-195 145l91 1l107 -69l107 65zM804 655l-457 -521l400 15l-9 -153l-696 -21l-15 114q200 250 231 287q135 160 254 267q-74 -10 -205 -12q-146 -3 -205 -9l-12 165l702 12z" />
    <glyph glyph-name="zcaron" unicode="&#x17e;" horiz-adv-x="635" 
d="M539 646l-195 -130l-195 145l89 -2l101 -48l114 45zM562 487l-6 -134l-247 -227l225 -6q7 -20 11 -54q4 -39 8 -55l-519 -15l3 103l292 272q-97 7 -179 7q-50 0 -68 -7l-3 124z" />
    <glyph glyph-name="brokenbar" unicode="&#xa6;" horiz-adv-x="323" 
d="M225 412h-150v274h150v-274zM225 0h-150v274h150v-274z" />
    <glyph glyph-name="Eth" unicode="&#xd0;" horiz-adv-x="755" 
d="M678 398q0 -210 -141 -315q-124 -93 -342 -93q-76 0 -139 11l2 351l-58 -3v146h58l3 280q66 12 149 12q210 0 330 -87q138 -100 138 -302zM476 385q0 121 -34 179q-44 75 -156 75l-3 -144h97v-146h-97v-224q98 17 148 90q45 66 45 170z" />
    <glyph glyph-name="eth" unicode="&#xf0;" horiz-adv-x="605" 
d="M581 259q0 -122 -81 -195.5t-204 -73.5q-115 0 -194 73q-82 74 -82 188q0 102 63 179t163 88q-34 27 -53 37l-94 -31l-75 55l96 28q-50 32 -79 44l126 44q18 -4 42 -18q35 -20 41 -23l96 32l80 -53l-89 -30q91 -49 164 -145q80 -105 80 -199zM406 246q0 58 -26 110
q-31 63 -83 63q-50 0 -83 -58q-27 -49 -27 -104q0 -44 33 -93q36 -53 78 -53q54 0 83 42q25 37 25 93z" />
    <glyph glyph-name="Yacute" unicode="&#xdd;" horiz-adv-x="762" 
d="M644 799l-232 -129l-86 62l112 161zM747 704q-15 -29 -130 -212q-104 -164 -109.5 -187t-5.5 -61q0 -42 2.5 -125.5t2.5 -124.5h-223q4 54 4 138q0 125 -1 153q-10 17 -93 137q-89 128 -170 263q29 12 126 23q86 11 131 11q25 -27 64 -115q40 -92 70 -128q36 29 86 120
q36 69 72 137z" />
    <glyph glyph-name="Thorn" unicode="&#xde;" horiz-adv-x="707" 
d="M652 457q0 -137 -86 -206q-78 -64 -218 -64q-12 0 -36 1t-35 1q-1 -43 -1 -58q0 -26 2 -79t2 -79h-242v827h241l3 -100q19 2 56 2q134 0 217 -54q97 -64 97 -191zM468 423q0 152 -151 152q-10 0 -38 -1v-262q87 4 123 18q66 25 66 93z" />
    <glyph glyph-name="thorn" unicode="&#xfe;" horiz-adv-x="669" 
d="M588 274q0 -128 -75.5 -207.5t-203.5 -79.5q-27 0 -54 4v-124q0 -44 -2 -74h-216l-3 916h214l1 -176q32 2 50 2q133 0 208 -63q81 -68 81 -198zM402 262q0 76 -35 108t-112 36l-2 -235q1 -25 -1 -75v4q91 17 117 43q33 31 33 119z" />
    <glyph glyph-name="minus" unicode="&#xad;" horiz-adv-x="680" 
d="M576 213h-512v150h512v-150z" />
    <glyph glyph-name="minus" unicode="&#x2212;" horiz-adv-x="680" 
d="M576 213h-512v150h512v-150z" />
    <glyph glyph-name="onesuperior" unicode="&#xb9;" horiz-adv-x="182" 
d="M140 405l-100 2l-1 368l101 25v-395z" />
    <glyph glyph-name="twosuperior" unicode="&#xb2;" horiz-adv-x="370" 
d="M342 383q-59 -10 -188 -10h-111q-4 14 -4 38q10 18 106 122q77 84 77 128q0 36 -46 36q-31 0 -47 -30q-13 -25 -13 -61q0 -9 1 -18l-93 1l-3 76q0 56 52 94q48 34 106 34q61 0 104.5 -36t43.5 -96q0 -42 -33 -102q-15 -27 -60 -92q10 0 104 3q0 -58 4 -87z" />
    <glyph glyph-name="threesuperior" unicode="&#xb3;" horiz-adv-x="323" 
d="M299 517q0 -60 -54 -97q-48 -33 -111 -33q-43 0 -72 28.5t-31 71.5q26 12 80 27q6 -45 43 -45q19 0 30.5 14t11.5 33q0 42 -72 42q-16 0 -29 -3q-8 33 -8 78q118 0 118 65q0 12 -13.5 22.5t-25.5 10.5q-38 0 -56 -63q-19 5 -37 10q-22 7 -34 18q2 35 43.5 70.5t77.5 35.5
q54 0 93 -26q44 -31 44 -82q0 -30 -8 -45q-6 -9 -22 -20t-25 -22q37 -24 45 -35q12 -16 12 -55z" />
    <glyph glyph-name="onehalf" unicode="&#xbd;" horiz-adv-x="426" 
d="M233 800l-2 -326h-92v304zM362 413h-362v29h362v-29zM319 5q-34 -6 -91 -6q-28 0 -83 1t-83 1q-7 9 -15 30q9 15 95 110q69 75 69 114q0 33 -41 33q-32 0 -46 -36q-11 -28 -7 -63l-84 2q-3 67 -3 68q0 50 48 84q43 31 95 31q55 0 94 -32.5t39 -86.5t-83 -174q50 0 93 3
q0 -53 3 -79z" />
    <glyph glyph-name="onequarter" unicode="&#xbc;" horiz-adv-x="421" 
d="M223 465l-92 3l1 307l87 12zM349 404h-334v38h334v-38zM331 121l-56 -5l-9 -108l-90 -4v105q-14 -5 -75 -5h-27q-19 1 -28 1q-20 17 -41 75q22 29 54 91.5t52 89.5q7 1 20 1q31 0 62 -3q-2 -23 -32.5 -81t-31.5 -77l57 -2l18 128l84 -8l-7 -125l50 1v-74z" />
    <glyph glyph-name="threequarters" unicode="&#xbe;" horiz-adv-x="405" 
d="M305 544q0 -54 -49 -87q-43 -30 -99 -30q-38 0 -64.5 26t-28.5 64q23 11 72 24q6 -40 38 -40q38 0 38 42q0 37 -66 37q-12 0 -24 -1q-6 22 -8 70q18 -1 22 -1q32 0 56 13q29 16 29 46q0 10 -12 20t-23 10q-35 0 -51 -57q-17 4 -34 9q-20 6 -30 16q1 31 39 63t70 32
q49 0 83 -24q40 -26 40 -73q0 -36 -16 -50t-33 -28q34 -23 40 -31q11 -15 11 -50zM389 413l-2 -38l-366 -2v43zM331 121l-56 -5l-9 -108l-90 -4v105q-14 -5 -75 -5h-27q-19 1 -28 1q-20 17 -41 75q22 29 54 91.5t52 89.5q7 1 20 1q31 0 62 -3q-2 -23 -32.5 -81t-31.5 -77
l57 -2l18 128l84 -8l-7 -125l50 1v-74z" />
    </font>
</defs>
</svg>
