<?xml version="1.0" standalone="no"?>
<!DOCTYPE svg PUBLIC "-//W3C//DTD SVG 1.1//EN" "http://www.w3.org/Graphics/SVG/1.1/DTD/svg11.dtd" >
<svg xmlns="http://www.w3.org/2000/svg" xmlns:xlink="http://www.w3.org/1999/xlink" version="1.1">
<metadata>
Created by FontForge 20141024 at Sun Jan 18 20:23:26 2015
 By System Administrator
(C) 2003 Bitstream Inc. &#38; Font Diner. All Rights Reserved. Designed by Stuart Sandler. http://www.fontdiner.com/ ROE
</metadata>
<defs>
<font id="GigglesBTN" horiz-adv-x="1706" >
  <font-face 
    font-family="Giggles BTN"
    font-weight="400"
    font-stretch="normal"
    units-per-em="2048"
    panose-1="2 15 6 4 5 4 7 4 3 5"
    ascent="1638"
    descent="-410"
    x-height="811"
    cap-height="1522"
    bbox="-360 -586 2068 2046"
    underline-thickness="41"
    underline-position="-252"
    unicode-range="U+0020-F002"
  />
<missing-glyph horiz-adv-x="1024" 
d="M128 0v1923h768v-1923h-768zM256 128h512v1667h-512v-1667z" />
    <glyph glyph-name=".notdef" horiz-adv-x="1024" 
d="M128 0v1923h768v-1923h-768zM256 128h512v1667h-512v-1667z" />
    <glyph glyph-name=".null" horiz-adv-x="0" 
 />
    <glyph glyph-name="nonmarkingreturn" horiz-adv-x="543" 
 />
    <glyph glyph-name="space" unicode=" " horiz-adv-x="543" 
 />
    <glyph glyph-name="exclam" unicode="!" horiz-adv-x="555" 
d="M399 1210q0 -120 -18 -445q-21 -375 -39 -394q-48 -52 -121 -52q-19 0 -31 9q-36 26 -36 721q0 335 20 350q3 2 12 2q33 0 109 -21q83 -22 93.5 -39.5t10.5 -130.5zM412 125q0 -44 -45 -112q-48 -72 -88 -72q-46 0 -91 42.5t-45 88.5t77 114t124 68q32 0 52 -51
q16 -39 16 -78z" />
    <glyph glyph-name="quotedbl" unicode="&#x22;" horiz-adv-x="672" 
d="M594 1266q0 -422 -37 -447q-12 -8 -29 -8q-67 0 -112 51q-19 21 -40 227q-18 180 -18 252q0 64 11 81.5t90 39.5q72 21 104 21q31 0 31 -217zM299 1266q0 -423 -37 -447q-13 -8 -31 -8q-67 0 -112 51q-19 21 -40 227q-18 180 -18 252q0 64 11 81.5t90 39.5q72 21 104 21
q33 0 33 -217z" />
    <glyph glyph-name="numbersign" unicode="#" horiz-adv-x="1575" 
d="M1552 1073l-86 -231h-268l-80 -230h277l-84 -231h-275l-141 -393h-250l139 393h-235l-141 -393h-250l139 393h-274l86 231h270l82 230h-283l86 231h279l141 393h250l-139 -393h235l141 393h250l-139 -393h270zM952 842h-245l-82 -232h245z" />
    <glyph glyph-name="dollar" unicode="$" horiz-adv-x="813" 
d="M752 1112q0 -35 -29 -74t-64 -39q-32 0 -92.5 22.5t-93.5 22.5q-54 0 -112 -77.5t-58 -132.5q0 -54 203 -180.5t203 -196.5q0 -64 -59 -139q-50 -65 -113 -105q-4 -95 -8 -166q-8 -139 -17 -145q-12 -8 -31 -8q-27 0 -65.5 17t-55.5 38q-8 11 -20 211q-174 10 -205 57
q-14 22 -14 55q0 82 41 82q33 0 98 -11t98 -11q45 0 85 20q49 24 49 64q0 43 -112 99q-176 88 -207 109q-112 77 -112 173q0 97 81 212q71 103 163 165q-2 51 -2 75q0 150 10 164q15 20 94 45q73 23 105 23q13 0 18 -4q13 -9 17 -238q58 -8 123 -40q82 -41 82 -87z" />
    <glyph glyph-name="percent" unicode="%" horiz-adv-x="1255" 
d="M1214 377q0 -134 -49 -233q-62 -126 -182 -126q-114 0 -190 116q-66 102 -66 222q0 146 48 253q64 141 192 141q123 0 192 -131q55 -106 55 -242zM1114 1229q0 -54 -639 -924q-215 -293 -229 -293q-26 0 -43 46q-15 37 -15 67q0 28 362 578q365 554 415 595h6
q24 0 81 -23q62 -27 62 -46zM530 920q0 -133 -50 -233q-63 -126 -183 -126q-114 0 -190 116q-66 101 -66 222q0 146 49 254q65 141 193 141q123 0 192 -132q55 -106 55 -242zM1081 369q0 68 -24 150q-33 106 -84 106q-52 0 -78 -99q-18 -69 -18 -145q0 -65 19 -135
q27 -96 75 -96q60 0 90 83q20 59 20 136zM397 913q0 69 -25 149q-32 105 -83 105q-52 0 -78 -97q-18 -69 -18 -144q0 -66 19 -136q27 -98 75 -98q60 0 90 84q20 60 20 137z" />
    <glyph glyph-name="ampersand" unicode="&#x26;" horiz-adv-x="1196" 
d="M1130 371q0 -421 -36 -447q-41 -28 -252 -28q-266 0 -467 78q-277 107 -277 329q0 143 119 240q99 80 254 112q-150 40 -245 117q-120 97 -120 232q0 228 291 335q204 74 484 74q89 0 110 -22q10 -10 19 -83q8 -62 8 -91q0 -31 -6 -45t-184 -29q-220 -18 -323 -44
q-171 -43 -171 -126q0 -78 99 -126q63 -30 188 -55q107 -21 112 -30q25 -44 25 -131q0 -66 -27 -84q-14 -10 -129 -31q-122 -23 -182 -53q-92 -47 -92 -129q0 -100 252 -146q45 -8 338 -34q-23 183 -23 292q0 60 10 80q9 17 88 41q73 23 101 23l18 -4q18 -22 18 -215z" />
    <glyph glyph-name="quotesingle" unicode="'" horiz-adv-x="377" 
d="M299 1266q0 -423 -37 -447q-13 -8 -31 -8q-67 0 -112 51q-19 21 -40 227q-18 180 -18 252q0 64 11 81.5t90 39.5q72 21 104 21q33 0 33 -217z" />
    <glyph glyph-name="parenleft" unicode="(" horiz-adv-x="721" 
d="M627 -43q0 -76 -37 -76q-44 0 -137 66q-174 122 -272.5 307.5t-98.5 396.5q0 212 76 387q82 192 243 305q96 68 154 68q53 0 53 -88q0 -38 -16 -70q-52 -38 -125 -96q-172 -158 -172 -520q0 -237 199 -469q49 -50 110 -123q23 -43 23 -88z" />
    <glyph glyph-name="parenright" unicode=")" horiz-adv-x="721" 
d="M639 651q0 -211 -98.5 -396.5t-272.5 -307.5q-93 -66 -137 -66q-37 0 -37 76q0 45 23 88q44 48 110 123q199 232 199 469q0 361 -172 520q-59 41 -125 96q-16 32 -16 70q0 88 53 88q58 0 153 -68q161 -113 244 -305q76 -175 76 -387z" />
    <glyph glyph-name="asterisk" unicode="*" horiz-adv-x="795" 
d="M733 1196q0 -22 -147 -100q145 -92 145 -115t-31.5 -59.5t-54.5 -36.5q-20 0 -162 69q-2 -80 -5 -112q-7 -89 -22 -97t-32 -8q-56 0 -92 31q-13 11 -25 184q-138 -67 -160 -67q-21 0 -52.5 37t-31.5 59q0 23 146 115q-148 78 -148 100q0 31 21 89q24 67 47 67
q20 0 164 -82q-2 78 -2 59q0 88 12.5 100.5t65.5 24.5q48 10 73 10q12 0 21 -4q23 -13 24 -198q158 90 179 90q23 0 47 -67q20 -58 20 -89z" />
    <glyph glyph-name="plus" unicode="+" 
d="M1452 496h-479v-496h-238v496h-481v231h481v494h238v-494h479v-231z" />
    <glyph glyph-name="comma" unicode="," horiz-adv-x="393" 
d="M332 150q0 -57 -53 -209q-57 -166 -95 -166q-82 0 -82 145q0 298 52 320q19 8 39 8q46 0 89 -26q50 -29 50 -72z" />
    <glyph glyph-name="hyphen" unicode="-" horiz-adv-x="819" 
d="M758 569q0 -28 -18 -102q-19 -80 -34 -90t-108 -10q-86 0 -267 17q-207 20 -225 38q-45 46 -45 119q0 18 9 30q22 35 391 35q284 0 295 -18q2 -4 2 -19z" />
    <glyph glyph-name="hyphen" unicode="&#x2010;" horiz-adv-x="819" 
d="M758 569q0 -28 -18 -102q-19 -80 -34 -90t-108 -10q-86 0 -267 17q-207 20 -225 38q-45 46 -45 119q0 18 9 30q22 35 391 35q284 0 295 -18q2 -4 2 -19z" />
    <glyph glyph-name="period" unicode="." horiz-adv-x="432" 
d="M354 125q0 -44 -44 -112q-48 -72 -89 -72q-45 0 -90 42.5t-45 88.5t77 114t124 68q32 0 52 -51q15 -39 15 -78z" />
    <glyph glyph-name="slash" unicode="/" horiz-adv-x="788" 
d="M727 1358q0 -60 -260.5 -738.5t-300.5 -721.5l-10 -2q-23 0 -59 37.5t-36 60.5q0 22 70 239q361 1129 401 1147q23 11 72 11q123 0 123 -33z" />
    <glyph glyph-name="zero" unicode="0" horiz-adv-x="1085" 
d="M1024 631q0 -262 -98 -463q-125 -256 -359 -256q-238 0 -382 236q-124 202 -124 456q0 284 98 500q128 282 376 282q251 0 384 -265q105 -211 105 -490zM809 616q0 165 -58 340q-75 232 -202 232q-130 0 -194 -219q-44 -150 -44 -326q0 -159 47 -311q65 -211 185 -211
q146 0 216 186q50 133 50 309z" />
    <glyph glyph-name="one" unicode="1" horiz-adv-x="532" 
d="M389 926q0 -972 -37 -1002q-10 -8 -30 -8q-72 0 -121 51q-18 19 -39 549q-19 459 -19 625q0 158 11 175t94 39q76 21 108 21q11 0 15 -2q18 -11 18 -448z" />
    <glyph glyph-name="two" unicode="2" horiz-adv-x="1010" 
d="M952 76q0 -87 -78 -115q-135 -49 -395 -49q-399 0 -399 244q0 194 147 363q137 128 273 255q147 140 147 264q0 99 -119 99q-84 0 -207 -43t-163 -43q-45 0 -79 40.5t-34 86.5q0 6 2 12q56 172 463 172q202 0 313 -93q121 -101 121 -298q0 -148 -160 -316
q-149 -133 -298 -265q-160 -144 -160 -232q0 -60 96 -60q84 0 240 45t217 45q35 0 56 -40q17 -33 17 -72z" />
    <glyph glyph-name="three" unicode="3" horiz-adv-x="1108" 
d="M1042 258q0 -229 -290 -335q-204 -75 -484 -75q-87 0 -110 23q-11 11 -24 79q-11 61 -11 87q0 33 14 53q8 11 188 26q215 18 320 45q170 44 170 128q0 80 -173 129q-111 31 -325 55q-184 20 -190 27q-29 32 -29 84q0 78 27 131q5 9 185 31q217 25 325 56q174 48 174 126
q0 83 -171 126q-102 26 -322 44q-178 15 -184.5 28t-6.5 43q0 29 8 92q9 73 19 82q24 25 110 25q280 0 484 -75q290 -106 290 -335q0 -134 -121 -231q-95 -77 -245 -117q154 -32 253 -112q119 -97 119 -240z" />
    <glyph glyph-name="four" unicode="4" horiz-adv-x="1085" 
d="M1024 510q0 -71 -56 -89q-14 -4 -116 -9q-11 -503 -33 -518q-14 -11 -31 -11q-73 0 -120 56q-15 17 -37 464q-140 -4 -238 -4h-221q-46 0 -66 21q-45 27 -45 57q0 13 13 64.5t20 60.5q49 160 123 376q108 310 137 322q15 7 35 7q44 0 92 -20q60 -24 60 -60
q0 -75 -219 -598q127 0 301 -6q-13 318 -13 475t11 172q14 21 94 45q74 22 108 22q19 0 23 -45q15 -163 8 -682q96 -6 114 -12q56 -19 56 -88z" />
    <glyph glyph-name="five" unicode="5" horiz-adv-x="1153" 
d="M1092 399q0 -228 -292 -335q-204 -74 -485 -74q-87 0 -110 22q-12 12 -24 79q-11 60 -11 87q0 33 14 53q8 12 188 26q215 18 320 45q170 44 170 128q0 83 -174 130q-99 27 -329 54q-186 21 -197 39q-61 21 -73 34q-17 19 -17 77q0 113 28 287q-55 9 -55 116q0 59 22 79
t80 20q134 0 420 -14q339 -16 375 -33q49 -24 49 -86q0 -63 -43 -91q-18 -11 -300 -11q-221 0 -337 3q6 -86 6 -205l400 -77q154 -30 255 -112q120 -98 120 -241z" />
    <glyph glyph-name="six" unicode="6" horiz-adv-x="1096" 
d="M1038 422q0 -218 -123 -350q-127 -135 -344 -135q-208 0 -360 226q-135 203 -135 423q0 232 89 408q99 195 294 292q123 62 237 62q98 0 176 -87q76 -83 76 -182q0 -57 -33 -57q-6 0 -77 46t-142 46q-50 0 -143 -47q-301 -153 -301 -481q0 -20 2 -41q130 262 367 262
q176 0 294 -103q123 -108 123 -282zM799 365q0 231 -205 231q-178 0 -260 -260q91 -154 246 -154q80 0 147 50q72 55 72 133z" />
    <glyph glyph-name="seven" unicode="7" horiz-adv-x="952" 
d="M924 1217q0 -70 -172.5 -625t-200.5 -580q-47 -41 -193 -41q-61 0 -61 21q0 133 379 1057q-421 -23 -594 -23q-44 0 -59 23q-11 18 -11 67q0 112 25 150q11 16 239 16q173 0 355 -10q273 -16 291 -47q1 -5 2 -8z" />
    <glyph glyph-name="eight" unicode="8" horiz-adv-x="1051" 
d="M989 367q0 -172 -150 -290q-139 -110 -315 -110q-175 0 -314 110q-149 118 -149 290q0 115 77 198q74 79 190 101q-113 26 -184 102q-76 81 -76 193q0 187 139 288q123 90 317 90q195 0 319 -90q140 -101 140 -288q0 -100 -95 -189q-86 -81 -190 -106q117 -22 200 -100
q91 -86 91 -199zM700 934q0 86 -43 146q-49 67 -133 67q-83 0 -131 -67q-43 -59 -43 -146q0 -72 51 -117t123 -45q73 0 124.5 45t51.5 117zM717 393q0 78 -59 123q-54 41 -134 41t-132 -41q-58 -45 -58 -123q0 -93 48 -152q52 -65 142 -65q91 0 144 65q49 59 49 152z" />
    <glyph glyph-name="nine" unicode="9" horiz-adv-x="1085" 
d="M1012 700q0 -232 -89 -409q-98 -196 -292 -293q-124 -61 -240 -61q-100 0 -176 86q-74 83 -74 184q0 57 31 57q6 0 77 -47t142 -47q53 0 146 47q301 154 301 483q0 20 -2 41q-132 -264 -369 -264q-176 0 -294 104q-124 109 -124 283q0 218 125 349q128 135 344 135
q209 0 359 -226q135 -202 135 -422zM756 948q-93 156 -248 156q-80 0 -147 -51q-72 -55 -72 -133q0 -232 207 -232q178 0 260 260z" />
    <glyph glyph-name="colon" unicode=":" horiz-adv-x="473" 
d="M371 584q0 -44 -45 -112q-48 -73 -88 -73q-46 0 -91 43t-45 88q0 46 77 114.5t124 68.5q32 0 52 -51q16 -39 16 -78zM371 125q0 -44 -45 -112q-48 -72 -88 -72q-46 0 -91 42.5t-45 88.5t77 114t124 68q32 0 52 -51q16 -39 16 -78z" />
    <glyph glyph-name="semicolon" unicode=";" horiz-adv-x="473" 
d="M371 584q0 -44 -45 -112q-48 -73 -88 -73q-46 0 -91 43t-45 88q0 46 77 114.5t124 68.5q32 0 52 -51q16 -39 16 -78zM352 150q0 -57 -52 -209q-57 -166 -95 -166q-82 0 -82 145q0 298 51 320q20 8 39 8q47 0 90 -26q49 -29 49 -72z" />
    <glyph glyph-name="less" unicode="&#x3c;" 
d="M1442 8l-1178 486v233l1178 487v-253l-854 -351l854 -348v-254z" />
    <glyph glyph-name="equal" unicode="=" 
d="M1452 719h-1198v231h1198v-231zM1452 272h-1198v230h1198v-230z" />
    <glyph glyph-name="greater" unicode="&#x3e;" 
d="M1442 494l-1178 -486v254l854 348l-854 351v253l1178 -487v-233z" />
    <glyph glyph-name="question" unicode="?" horiz-adv-x="989" 
d="M936 1012q0 -132 -133 -209l-248 -114q-133 -75 -133 -202q0 -15 6 -45t6 -45q0 -34 -51 -53q-38 -14 -80 -14q-82 0 -110 47q-21 34 -21 119q0 132 121 229q112 74 225 148q121 90 121 206q0 99 -119 99q-84 0 -207.5 -43t-162.5 -43q-45 0 -79 40.5t-34 86.5q0 5 2 12
q51 172 463 172q201 0 313 -93q121 -101 121 -298zM436 125q0 -44 -43 -112q-47 -72 -88 -72q-45 0 -90 42.5t-45 88.5t76 114t123 68q32 0 52 -51q15 -39 15 -78z" />
    <glyph glyph-name="at" unicode="@" horiz-adv-x="2048" 
d="M1968 764q0 -341 -256 -547q-142 -115 -330 -115q-108 0 -162 39.5t-59 120.5q-56 -83 -125.5 -120.5t-169.5 -37.5q-163 0 -247 88t-84 257q0 242 140.5 404.5t350.5 162.5q76 0 134 -31.5t95 -91.5l52 92h206l-153 -610v-6q-4 -23 -4 -27q0 -59 63 -59q156 0 257 168
q87 145 87 311q0 239 -179 390t-468 151q-298 0 -504 -146q-323 -229 -323 -631q0 -317 219 -496q203 -165 528 -165q334 0 596 186l97 -135q-155 -116 -328 -174q-177 -59 -365 -59q-390 0 -643 194q-156 120 -233.5 281t-77.5 362q0 341 209 598q170 210 420 303
q186 70 407 70q173 0 320 -45q326 -100 463 -377q67 -137 67 -305zM1198 696q-9 76 -50 116t-110 40q-124 0 -199 -149q-61 -122 -61 -259q0 -174 133 -174q90 0 155 66q58 59 81 151z" />
    <glyph glyph-name="A" unicode="A" horiz-adv-x="913" 
d="M864 35q0 -22 -21.5 -36.5t-43.5 -14.5q-70 0 -115 71q-9 15 -57 248l-344 -12l-70 -260q-5 -32 -23 -88q-16 -33 -61 -33q-39 0 -74 19q-43 23 -43 59q0 56 151 753q150 693 167 721q44 76 151 76q46 0 76 -18q48 -30 180 -698q127 -646 127 -787zM588 500
q-38 194 -105 583q-31 -140 -143 -571z" />
    <glyph glyph-name="B" unicode="B" horiz-adv-x="1087" 
d="M1036 342q0 -222 -286 -375q-243 -131 -488 -131q-76 0 -110 25q-10 6 -17 131q-16 294 -16 911q0 601 26 621q31 22 146 22q69 0 221 -43q518 -146 518 -461q0 -134 -121 -231q-95 -77 -245 -117q154 -32 253 -112q119 -97 119 -240zM801 1012q0 96 -86 162
q-63 49 -188 90q-92 28 -185 57q6 -102 3 -261q-5 -237 -5 -261h4q155 0 278 38q179 56 179 175zM809 373q0 118 -178 174q-125 40 -277 39h-8q0 -24 5 -262q3 -158 -3 -261q93 29 186 57q125 41 189 90q86 66 86 163z" />
    <glyph glyph-name="C" unicode="C" horiz-adv-x="997" 
d="M977 1200q0 -86 -51 -86q-25 0 -128 46t-171 46q-154 0 -255 -214q-83 -176 -83 -351q0 -196 81 -345q101 -183 281 -183q47 0 115.5 26.5t81.5 26.5q57 0 57 -92q0 -60 -110 -100q-87 -31 -160 -31q-286 0 -441 242q-133 206 -133 507q0 515 320 692q107 60 217 60
q139 0 245 -53q134 -66 134 -191z" />
    <glyph glyph-name="D" unicode="D" horiz-adv-x="1044" 
d="M983 772q0 -304 -161 -555q-184 -287 -470 -287q-79 0 -174 33q-121 42 -121 105q0 29 28 65.5t56 36.5q12 0 25 -6q-42 521 -29 1022q-29 -10 -51 -10q-55 0 -55 77q0 119 148 176q107 41 249 41q131 0 256 -73q299 -177 299 -625zM741 735q0 516 -368 516
q6 -133 6 -321q0 -546 -23 -811q207 41 305 230q80 154 80 386z" />
    <glyph glyph-name="E" unicode="E" horiz-adv-x="1077" 
d="M1036 53q0 -55 -39 -80q-26 -16 -367 -39q-307 -20 -411 -20q-82 0 -94 10q-37 31 -37 121q0 49 18 66t68 22q-11 155 -22 410q-62 7 -62 125q0 82 53 90q-10 298 -8 436q-45 11 -45 117q0 58 22 78t81 20q143 0 416 -13q332 -17 379.5 -37t47.5 -85q0 -61 -45 -88
q-17 -10 -291 -12q-221 -1 -321 2q4 -158 2 -412q456 -7 507.5 -28.5t51.5 -88.5q0 -61 -41 -88q-37 -24 -522 -24q-2 -130 -10 -390q201 9 389 9q203 0 225 -9q55 -20 55 -92z" />
    <glyph glyph-name="F" unicode="F" horiz-adv-x="1057" 
d="M1036 1274q0 -60 -45 -88q-16 -10 -291 -12q-224 -1 -323 2q5 -222 4 -412q456 -7 507.5 -28.5t51.5 -88.5q0 -61 -41 -88q-37 -24 -522 -24q-11 -584 -33 -601q-13 -10 -31 -10q-74 0 -120 56q-18 20 -41 563q-64 7 -64 125q0 82 55 90q-10 298 -8 436q-45 11 -45 117
q0 57 22 77.5t81 20.5q136 0 418 -14q335 -17 376 -35q49 -22 49 -86z" />
    <glyph glyph-name="G" unicode="G" horiz-adv-x="1376" 
d="M1294 702q0 -49 -32 -55q8 -131 8 -356q0 -381 -10 -397q-29 -46 -84 -46q-48 0 -72 39q-6 10 -23 279q-133 -123 -385 -123q-247 0 -443 214q-192 208 -192 454q0 522 492 723q155 63 305 63q115 0 215 -81q107 -86 107 -197q0 -58 -41 -58q-9 0 -102 48t-179 48
q-61 0 -178 -47q-393 -158 -393 -499q0 -172 120.5 -298t290.5 -126q219 0 365 196q-3 77 -4 146q-104 -4 -187 -4q-167 0 -180 10q-28 23 -28 100q0 39 17.5 61.5t461.5 22.5q109 0 122 -7q29 -15 29 -110z" />
    <glyph glyph-name="H" unicode="H" horiz-adv-x="1178" 
d="M1063 68q0 -351 -14 -373q-6 -2 -15 -4q-30 0 -73 24t-64 49q-8 10 -59 676l-463 -16q-12 -623 -35 -641q-13 -10 -33 -10q-30 0 -72 19t-61.5 42.5t-41.5 646.5q-19 537 -19 733q0 188 12 205q16 23 103 49q80 23 118 23q2 0 12 -2q27 -44 19 -834l444 -24
q-47 629 -47 796q0 12 2 29q22 34 97 59q66 21 116 21l23 -4q23 -38 39 -696q12 -490 12 -768z" />
    <glyph glyph-name="I" unicode="I" horiz-adv-x="487" 
d="M367 1030q0 -1056 -37 -1087q-10 -9 -31 -9q-72 0 -121 56q-18 20 -39 597q-18 499 -18 679q0 172 11 189.5t92 42.5q75 24 106 24q13 0 18 -4q19 -14 19 -488z" />
    <glyph glyph-name="J" unicode="J" horiz-adv-x="975" 
d="M872 303q0 -77 -8 -102q-39 -120 -183 -236q-148 -121 -269 -121q-80 0 -244 111q-168 114 -168 176q0 46 44 105q47 63 91 63q15 0 119 -101.5t162 -101.5q65 0 141 98q72 94 72 162q0 39 -11 279q-22 527 -22 774q0 44 24 56q15 8 66 8q86 0 113 -33q15 -18 45 -519
q28 -477 28 -618z" />
    <glyph glyph-name="K" unicode="K" horiz-adv-x="1063" 
d="M1087 1411q0 -86 -530 -772q494 -507 494 -551q0 -50 -37 -111q-40 -69 -86 -69q-62 0 -543 624q-9 -617 -35 -638q-38 -33 -94 -33q-60 0 -98 28q-7 5 -15 162q-30 603 -30 1137q0 207 10 225q16 29 109 68q89 37 128 37l11 -2q22 -42 16 -789q144 242 233 387
q197 319 228 328q42 12 92 12q39 0 83 -8q64 -13 64 -35z" />
    <glyph glyph-name="L" unicode="L" horiz-adv-x="967" 
d="M967 102q0 -103 -27 -151q-11 -19 -236 -31q-160 -8 -270 -8q-210 0 -233 22q-32 31 -68 638q-31 523 -31 720q0 52 4 66q10 32 107 77q91 42 131 42q8 0 16 -2q35 -117 35 -621q0 -270 -10 -666q157 5 328 5q211 0 223 -9q31 -22 31 -82z" />
    <glyph glyph-name="M" unicode="M" horiz-adv-x="1358" 
d="M1245 1286q0 -254 -23 -740q-30 -620 -69 -652q-19 -17 -47 -17q-89 0 -129 94q-10 24 -10 301q0 296 6 625q-265 -557 -348 -557q-89 0 -260 555q-28 -882 -35 -891q-12 -16 -41 -16q-35 0 -75 14q-52 18 -52 45q0 22 -17 342q-32 640 -32 842q0 65 6 80q12 30 100 50
q68 15 119 15q30 0 51 -6q66 -19 287 -643q156 377 321 762q38 33 109 33q99 0 127 -27q12 -12 12 -209z" />
    <glyph glyph-name="N" unicode="N" horiz-adv-x="1118" 
d="M1057 1419q0 -276 -69 -796q-85 -638 -187 -691h-8q-136 0 -416 994q-20 -443 -43 -889q-33 -35 -101 -35q-60 0 -92 37q-6 7 -21 544q-14 508 -14 623q0 133 9 150q17 35 98 59q65 19 119 19q36 0 41 -2q89 -36 377 -1117l55 1117q27 65 164 65q54 0 69 -11
q19 -14 19 -67z" />
    <glyph glyph-name="O" unicode="O" horiz-adv-x="1098" 
d="M1036 702q0 -255 -102 -454q-128 -248 -359 -248q-241 0 -387 235q-127 203 -127 459q0 285 100 500q129 281 380 281q259 0 392 -272q103 -211 103 -501zM821 707q0 164 -58 339q-77 230 -206 230q-132 0 -197 -218q-45 -150 -45 -327q0 -162 47 -312q64 -210 187 -210
q148 0 220 186q52 134 52 312z" />
    <glyph glyph-name="P" unicode="P" horiz-adv-x="983" 
d="M932 885q0 -225 -177 -363q-159 -125 -393 -133q-16 -353 -32 -373q-34 -41 -97 -41q-47 0 -81 35q-23 23 -23 709q0 674 31 696q37 27 125 27q98 0 231 -60q176 -78 283 -191q133 -140 133 -306zM678 852q0 211 -297 322v-29q3 -133 -10 -529h6q126 0 207 54
q94 62 94 182z" />
    <glyph glyph-name="Q" unicode="Q" horiz-adv-x="1049" 
d="M987 692q0 -298 -123 -491q74 -129 74 -166q0 -45 -37.5 -77t-83.5 -32q-19 0 -104 125q-76 -43 -164 -43q-228 0 -367 225q-121 193 -121 435q0 269 95 474q123 265 360 265q239 0 368 -250q103 -200 103 -465zM782 680q0 155 -56 322q-74 219 -196 219
q-125 0 -185 -207q-42 -143 -42 -312q0 -152 44 -294q61 -199 177 -199q44 0 78 16q-110 186 -110 234q0 29 57 49q45 16 82 16q29 0 108 -121q43 123 43 277z" />
    <glyph glyph-name="R" unicode="R" horiz-adv-x="956" 
d="M895 66q0 -45 -37.5 -76t-83.5 -31q-29 0 -156 204q-113 181 -147 257q-56 -12 -121 -14q-4 -169 -22 -353q-30 -33 -84 -33q-57 0 -86 33q-15 16 -28 463q-11 368 -11 526q0 307 18 324q33 31 125 31q27 0 55 -4q221 -33 383 -165q185 -150 185 -358q0 -247 -226 -378
q59 -83 136 -214q100 -170 100 -212zM647 840q0 201 -289 303q4 -58 4 -154t-6 -371q118 -2 198 50q93 60 93 172z" />
    <glyph glyph-name="S" unicode="S" horiz-adv-x="887" 
d="M831 1251q0 -106 -100 -106q-26 0 -77.5 7t-78.5 7q-91 0 -173 -47q-97 -55 -97 -139q0 -116 128 -186q119 -63 238 -127q128 -101 128 -291q0 -179 -184 -307q-167 -115 -353 -115q-48 0 -79 46q-27 40 -27 91q0 35 18 57q12 15 124 50q133 41 192 73q100 54 100 121
q0 80 -137 145q-127 60 -255 120q-137 87 -137 222q0 167 106 293q96 114 261 174q112 41 203 41q76 0 130 -26q70 -34 70 -103z" />
    <glyph glyph-name="T" unicode="T" horiz-adv-x="936" 
d="M997 1550q0 -58 -47 -88q-17 -10 -372 -20q6 -115 6 -312q0 -94 -2 -249q-8 -886 -39 -910q-11 -8 -35 -8q-31 0 -73.5 17t-62 38.5t-41.5 532.5q-20 476 -20 773q0 81 2 114q-324 0 -340 18q-34 40 -34 115q0 62 41 86q17 10 223 10q675 0 737 -29q57 -26 57 -88z" />
    <glyph glyph-name="U" unicode="U" horiz-adv-x="1038" 
d="M930 991q0 -128 -18 -492q-20 -412 -35 -440q-31 -51 -111 -51q-29 0 -68 10q-47 13 -57 31q-6 11 -6 82q-59 -33 -156 -33q-231 0 -306 170q-41 94 -54 371q-13 265 -13 430q0 128 9 150q13 35 97 71q77 33 122 33q22 0 31 -6q18 -13 18 -273q0 -92 -2 -278t-2 -279
q0 -254 147 -254q43 0 109 27q2 157 12 456q13 383 25 402q39 62 162 62q58 0 79 -13q17 -9 17 -176z" />
    <glyph glyph-name="V" unicode="V" horiz-adv-x="877" 
d="M821 1397q0 -71 -93 -647.5t-107 -599.5q-50 -80 -166 -80q-44 0 -76 16q-83 42 -305 1044q-47 213 -47 252q0 22 26 37q23 13 45 13q69 0 121 -66q57 -71 221 -862q186 926 191 934q20 32 69 32q43 0 77 -15q44 -21 44 -58z" />
    <glyph glyph-name="W" unicode="W" horiz-adv-x="1399" 
d="M1313 1397q0 -85 -58 -607q-59 -528 -73 -554q-47 -86 -162 -86q-37 0 -59 12q-71 38 -263 721q-83 -325 -107 -411q-91 -337 -116 -363q-48 -52 -129 -52q-33 0 -49 15q-38 35 -135 625q-94 578 -94 733q0 77 63 77q65 0 117 -80q26 -40 164 -854q200 797 293 797
q99 0 296 -792l107 682q13 83 27 167q21 37 71 37q107 0 107 -67z" />
    <glyph glyph-name="X" unicode="X" horiz-adv-x="924" 
d="M862 1286q0 -54 -268 -555q252 -469 252 -532q0 -39 -28 -71t-66 -32q-19 0 -37 13q-26 17 -246 393q-76 -138 -128 -229q-107 -187 -124.5 -199.5t-38.5 -12.5q-40 0 -74 37.5t-34 77.5q0 64 260 565q-285 499 -285 549q0 44 37 87.5t80 43.5q13 0 22 -4
q39 -17 273 -436q75 140 127 230q105 185 129 196q12 6 26 6q44 0 83.5 -41.5t39.5 -85.5z" />
    <glyph glyph-name="Y" unicode="Y" horiz-adv-x="858" 
d="M834 1350q0 -53 -116 -316q-99 -228 -153 -325h-2q-9 -613 -39 -633q-14 -10 -32 -10q-79 0 -138 57q-23 23 -47 586q-61 102 -168 329q-123 264 -123 326q0 43 37 87t80 44q14 0 23 -4q116 -231 272 -530q120 255 256 520q12 6 27 6q48 0 85.5 -44t37.5 -93z" />
    <glyph glyph-name="Z" unicode="Z" horiz-adv-x="952" 
d="M891 1237q0 -161 -586 -889q438 27 500 27q53 0 53 -80q0 -62 -55 -82q-38 -14 -289 -44q-243 -30 -301 -30q-56 0 -99.5 47.5t-43.5 104.5q0 16 2 24q18 75 579 869q-34 -2 -247 -17q-151 -10 -246 -10q-43 0 -72 51q-25 44 -25 90q0 38 20 59t191 21q178 0 355 -25
q264 -39 264 -116z" />
    <glyph glyph-name="bracketleft" unicode="[" horiz-adv-x="793" 
d="M690 -49q0 -54 -37 -80q-20 -15 -191 -30q-147 -13 -210 -13q-76 0 -92 14q-37 32 -37 121q0 49 18 66t68 22q-48 652 -39 1225q-45 9 -45 117q0 63 29 84q23 16 86 16q330 0 401 -31q49 -21 49 -86t-43 -90q-53 -30 -233 -26q2 -83 2 -170v-351q0 -374 -15 -676
q189 0 234 -18q55 -23 55 -94z" />
    <glyph glyph-name="backslash" unicode="\" horiz-adv-x="788" 
d="M727 -6q0 -23 -35.5 -60.5t-58.5 -37.5l-10 2q-40 43 -301 721.5t-261 738.5q0 33 123 33q50 0 72 -11q40 -18 401 -1147q70 -217 70 -239z" />
    <glyph glyph-name="bracketright" unicode="]" horiz-adv-x="793" 
d="M662 -37q0 -89 -37 -121q-17 -14 -93 -14q-62 0 -210 13q-170 15 -191 30q-37 26 -37 80q0 71 56 94q44 18 233 18q-28 581 -12 1197h-13q-174 0 -221 26q-43 25 -43 90t49 86q70 31 402 31q62 0 85 -16q29 -21 29 -84q0 -108 -45 -117v-244q0 -448 -39 -981
q50 -5 68.5 -22t18.5 -66z" />
    <glyph glyph-name="asciicircum" unicode="^" horiz-adv-x="2048" 
d="M1632 899h-264l-344 342l-346 -342h-264l465 563h288z" />
    <glyph glyph-name="underscore" unicode="_" horiz-adv-x="1024" 
d="M1024 -483h-1024v239h1024v-239z" />
    <glyph glyph-name="grave" unicode="`" horiz-adv-x="473" 
d="M412 1042q0 -24 -24 -41.5t-50 -17.5q-37 0 -159 137q-118 133 -118 158q0 24 55 42q45 15 77 15q19 0 36 -8q22 -10 102.5 -135t80.5 -150z" />
    <glyph glyph-name="a" unicode="a" horiz-adv-x="915" 
d="M834 588q0 -79 -16 -328q-17 -276 -30 -293q-21 -30 -63 -30q-47 0 -59 35q-3 11 -4 75q-89 -67 -220 -67q-139 0 -257 76q-134 86 -134 218q0 157 94 249.5t250 92.5q161 0 267 -90l2 39q1 62 -95 134q-91 69 -155 69q-51 0 -141 -68.5t-105 -68.5q-41 0 -75 53
q-30 49 -30 92q0 60 142 141q133 76 205 76q115 0 244 -86.5t169 -193.5q11 -28 11 -125zM645 287q0 79 -80 126q-68 40 -153 40q-69 0 -113.5 -41t-44.5 -109q0 -66 52 -111q49 -42 116 -42q73 0 140 32q83 40 83 105z" />
    <glyph glyph-name="b" unicode="b" horiz-adv-x="918" 
d="M866 426q0 -155 -117 -264t-274 -109q-93 0 -176 60q-4 -76 -11 -90q-16 -31 -81 -31q-53 0 -80 33q-41 49 -41 849q0 466 23 480q17 10 47 10q41 0 91 -21q55 -23 72 -55q12 -22 7 -379q23 2 59 2q225 0 353 -129.5t128 -355.5zM645 461q0 129 -98 208q-91 72 -223 72
q-4 -153 -17 -452q84 -49 144 -49q80 0 139 72q55 67 55 149z" />
    <glyph glyph-name="c" unicode="c" horiz-adv-x="723" 
d="M713 72q0 -144 -252 -144q-204 0 -315 172q-95 146 -95 361q0 173 117.5 302.5t290.5 129.5q61 0 111 -29q59 -35 59 -92q0 -34 -18 -80q-20 -55 -48 -55q-20 0 -58 15.5t-59 15.5q-85 0 -146 -82q-56 -75 -56 -162q0 -124 82 -214q84 -93 206 -93q58 0 97 20.5t43 20.5
q41 0 41 -86z" />
    <glyph glyph-name="d" unicode="d" horiz-adv-x="924" 
d="M838 903q0 -804 -39 -850q-28 -33 -82 -33q-66 0 -81 32q-5 11 -9 89q-83 -59 -178 -59q-157 0 -273 107q-119 110 -119 266q0 227 131 358q129 128 346 128q31 0 64 -3v63q-2 300 6 316q16 32 74 55q51 21 92 21q27 0 45 -11q23 -13 23 -479zM616 317q-8 191 -14 453
h-20q-122 0 -211 -79q-92 -82 -92 -202q0 -81 56 -149q60 -72 140 -72q57 0 141 49z" />
    <glyph glyph-name="e" unicode="e" horiz-adv-x="817" 
d="M807 195q0 -88 -99 -154q-88 -59 -180 -59q-189 0 -333 141.5t-144 331.5q0 212 82 359q102 181 299 181q115 0 199 -137q74 -120 74 -244q0 -59 -19 -98q-23 -48 -163 -80q-116 -26 -219 -26q-17 0 -30 2q60 -226 273 -226q68 0 123 70t69 70q33 0 53 -52q15 -39 15 -79
zM510 608q-14 72 -45 131q-43 80 -98 80q-44 0 -75 -112q-20 -74 -28 -152q69 35 246 53z" />
    <glyph glyph-name="f" unicode="f" horiz-adv-x="686" 
d="M846 1153q0 -49 -38 -94q-34 -41 -83 -58q-13 1 -80.5 69.5t-118.5 68.5q-62 0 -107 -76q-39 -66 -38 -133l2 -150q187 -7 235 -26q52 -21 52 -88q0 -61 -41 -86q-27 -17 -244 -23v-80q0 -518 -12 -530q-22 -21 -76 -21q-78 0 -98 33q-14 23 -37 596q-95 3 -118 19
q-36 23 -36 112q0 70 44 87q18 8 104 9q-2 95 -2 150q0 126 10 151q45 114 144 195q107 88 222 88q66 0 187 -76q129 -79 129 -137z" />
    <glyph glyph-name="g" unicode="g" horiz-adv-x="909" 
d="M821 682q0 -710 -30 -786q-45 -111 -166 -197t-238 -86q-69 0 -204 78q-142 82 -142 141q0 42 31 91q34 54 73 54q16 0 105.5 -68.5t140.5 -68.5q57 0 133 68.5t76 124.5v98q-68 -37 -147 -37q-175 0 -285 118q-107 115 -107 290q0 225 152 351q145 120 373 110
q0 64 17 78q14 12 83 12q105 0 127 -33q8 -12 8 -338zM596 319q-5 160 -12 480q-123 -8 -210 -83q-93 -80 -93 -200q0 -91 60 -161t151 -70q50 0 104 34z" />
    <glyph glyph-name="h" unicode="h" horiz-adv-x="913" 
d="M836 512q0 -70 -16 -226q-18 -178 -36 -209t-85 -56q-60 -23 -103 -23q-45 0 -45 47q0 78 27.5 231.5t27.5 231.5q0 160 -123 160q-66 0 -157 -66q-11 -518 -37 -549q-29 -33 -82 -33q-60 0 -82 29q-13 17 -27 504q-12 416 -12 573q0 175 8 191q16 32 74 55q51 21 92 21
q27 0 45 -11q26 -14 23 -579q102 67 211 67q297 0 297 -358z" />
    <glyph glyph-name="i" unicode="i" horiz-adv-x="391" 
d="M338 1096q0 -44 -45 -113q-48 -74 -88 -74q-46 0 -90.5 44t-44.5 89q0 46 76.5 114.5t123.5 68.5q33 0 52 -51q16 -39 16 -78zM299 551q0 -433 -14 -496q-19 -82 -70 -82q-70 0 -100 76q-9 22 -18 253q-7 195 -7 280q0 55 4 71q10 38 66 76.5t96 38.5q19 0 29 -4
q14 -6 14 -213z" />
    <glyph glyph-name="j" unicode="j" horiz-adv-x="412" 
d="M332 1171q0 -43 -44 -111q-47 -73 -87 -73q-46 0 -90.5 43t-44.5 88q0 46 75.5 114t122.5 68q33 0 52 -50q16 -40 16 -79zM334 -131q0 -141 -12 -174q-42 -112 -144 -194q-108 -87 -221 -87q-66 0 -188 75q-129 80 -129 138q0 41 42 96.5t80 55.5q13 0 81 -69.5
t118 -69.5q56 0 99 66q37 56 42 118q2 22 2 78l-2 649q0 272 11 280q24 21 77 21q77 0 99 -31q11 -16 29 -446q16 -390 16 -506z" />
    <glyph glyph-name="k" unicode="k" horiz-adv-x="817" 
d="M797 1130q0 -82 -312 -509q308 -323 308 -367q0 -50 -23 -105q-27 -67 -70 -67q-55 0 -383 448q-2 -152 -7 -262q-8 -220 -21 -233q-34 -35 -86 -35q-58 0 -88 31q-14 13 -29 500q-12 415 -12 575q0 156 8 172q15 28 97 67t118 39l10 -2q19 -32 12 -684q221 452 263 465
q38 13 82 13q34 0 75 -10q58 -13 58 -36z" />
    <glyph glyph-name="l" unicode="l" horiz-adv-x="627" 
d="M627 186q0 -106 -25 -147q-11 -19 -143 -31q-97 -8 -164 -8q-134 0 -159 23.5t-44 460.5q-14 337 -14 524q0 100 6 118q11 32 78 73.5t102 41.5l12 -2q31 -92 31 -387q0 -309 -8 -582q82 4 170 4q13 0 36.5 1t33.5 1q88 0 88 -90z" />
    <glyph glyph-name="m" unicode="m" horiz-adv-x="1122" 
d="M1053 975q0 -198 -21 -581q-26 -484 -59 -513q-17 -14 -41 -14q-91 0 -114 120q-7 37 -7 187q0 124 6 395q-200 -446 -272 -446q-79 0 -258 479l-62 -442q-15 -25 -67 -25q-80 0 -80 39q0 106 13 419q14 355 26 372q43 63 155 63q22 0 41 -6q58 -19 248 -621
q165 364 336 736q27 30 70 30q52 0 75 -24q11 -11 11 -168z" />
    <glyph glyph-name="n" unicode="n" horiz-adv-x="791" 
d="M760 1001q0 -184 -55 -546q-65 -435 -136 -435q-96 0 -290 551q-14 -222 -31 -448q-21 -31 -78 -31q-60 0 -74 35q-5 14 -15 341q-9 302 -9 380q0 80 6 98q11 33 73 56q52 20 95 20q21 0 28 -2q62 -18 269 -678l28 473q4 98 11 205q18 63 114 63q46 0 57 -20q7 -12 7 -62
z" />
    <glyph glyph-name="o" unicode="o" horiz-adv-x="889" 
d="M838 391q0 -163 -98 -272q-101 -113 -263 -113q-161 0 -290 105q-136 112 -136 270q0 185 93 302q101 128 282 128q180 0 296 -120t116 -300zM688 393q0 93 -78 164.5t-172 71.5q-93 0 -151 -60t-58 -153q0 -91 65.5 -155t156.5 -64q99 0 164 47q73 53 73 149z" />
    <glyph glyph-name="p" unicode="p" horiz-adv-x="696" 
d="M684 705q0 -179 -121 -295q-116 -113 -297 -125q-2 -87 -14 -189q-25 -37 -76 -37q-38 0 -65 31q-25 27 -25 635q0 373 25 401q42 50 122 50q40 0 134 -48q317 -159 317 -423zM489 676q0 179 -227 274q10 -130 8 -475q98 3 156 52q63 53 63 149z" />
    <glyph glyph-name="q" unicode="q" horiz-adv-x="909" 
d="M848 485q0 -203 -139 -311q51 -103 51 -135q0 -43 -33 -76t-76 -33q-20 0 -123 174q-19 -2 -41 -2q-161 0 -289 104q-137 111 -137 269q0 186 93 303q102 129 282 129t296 -120.5t116 -301.5zM698 489q0 93 -79 165q-77 69 -170 69q-94 0 -151.5 -60t-57.5 -153
q0 -80 52.5 -141t131.5 -74q-64 128 -64 168q0 28 49 49q41 16 74 16t140 -192q75 53 75 153z" />
    <glyph glyph-name="r" unicode="r" horiz-adv-x="745" 
d="M731 -57q0 -43 -33 -75t-75 -32q-28 0 -140 204q-99 178 -131 257q-39 -9 -86 -12q-3 -143 -4 -146q-14 -80 -86 -80q-41 0 -65.5 31t-24.5 635q0 372 25 401q41 50 122 50q40 0 134 -48q317 -159 317 -423q0 -214 -166 -334q53 -83 123 -216q90 -170 90 -212zM489 676
q0 179 -227 274q10 -130 8 -475q98 3 156 52q63 53 63 149z" />
    <glyph glyph-name="s" unicode="s" horiz-adv-x="674" 
d="M666 868q0 -33 -24 -72q-27 -42 -58 -42q-30 0 -83.5 23.5t-82.5 23.5q-50 0 -102 -82q-48 -76 -48 -129q0 -55 180.5 -180.5t180.5 -196.5q0 -102 -103.5 -200.5t-206.5 -98.5q-45 0 -108 14q-77 18 -92 43q-13 21 -13 56q0 84 35 84q30 0 88.5 -11.5t87.5 -11.5
q42 0 77 21q40 24 40 63q0 43 -99 99q-156 89 -183 110q-99 77 -99 172q0 141 126 291q131 155 270 155q58 0 132 -36q85 -43 85 -95z" />
    <glyph glyph-name="t" unicode="t" horiz-adv-x="520" 
d="M541 850q0 -72 -63 -93q-26 -9 -126 -14q2 -224 2 -251q0 -492 -18.5 -529t-59.5 -37q-47 0 -69 39q-16 28 -32 365q-13 257 -15 407q-112 0 -134 11q-46 22 -46 122q0 99 109 99q12 0 34 -1q26 -1 35 -1q0 211 8 227q21 41 88 41q53 0 80 -31q11 -13 16 -246
q95 -5 125 -15q66 -23 66 -93z" />
    <glyph glyph-name="u" unicode="u" horiz-adv-x="819" 
d="M743 121q0 -92 -12 -121q-22 -51 -102 -51q-72 0 -93 27q-15 19 -22 94q-54 -23 -119 -23q-232 0 -289 260q-47 216 -47 428q0 24 4 39q10 34 83 74q69 37 108 37q13 0 20 -6q19 -15 29 -262q10 -275 16 -306q30 -131 127 -131q21 0 56 15q-23 289 -23 483q0 54 59 81
q45 21 107 21q34 0 49 -6q24 -9 39 -300q10 -206 10 -353z" />
    <glyph glyph-name="v" unicode="v" horiz-adv-x="664" 
d="M618 868q0 -48 -66.5 -408.5t-78.5 -375.5q-39 -51 -135 -51q-36 0 -62 10q-42 17 -156 381q-110 352 -112 436q7 31 60 31q54 0 96 -41q44 -44 162 -483l137 528q15 20 57 20q98 0 98 -47z" />
    <glyph glyph-name="w" unicode="w" horiz-adv-x="1098" 
d="M1044 868q0 -57 -47 -414q-48 -361 -59 -376q-39 -53 -131 -53q-30 0 -49 6q-54 17 -211 573q-81 -296 -178 -606q-37 -33 -105 -33q-28 0 -43 10q-31 23 -110 449q-76 414 -76 522q0 53 51 53q54 0 96 -51q20 -23 131 -588q163 553 238 553q81 0 242 -557l106 533
q21 22 59 22q86 0 86 -43z" />
    <glyph glyph-name="x" unicode="x" horiz-adv-x="739" 
d="M690 741q0 -39 -194 -305q186 -268 186 -315q0 -66 -78 -66q-18 0 -39 11q-24 12 -188 210q-166 -217 -189 -229t-47 -12q-86 0 -86 69q0 53 189 338q-209 263 -209 303t35.5 82.5t74.5 42.5q36 0 220 -249q171 245 208 245q40 0 78.5 -42t38.5 -83z" />
    <glyph glyph-name="y" unicode="y" horiz-adv-x="823" 
d="M741 135q0 -346 -20 -393q-50 -115 -149 -190q-105 -80 -224 -80q-64 0 -185 80q-126 84 -126 141q0 41 43.5 95t83.5 54q12 0 79 -71.5t115 -71.5q58 0 102 62q36 52 46 116q4 29 8 193q-53 -23 -121 -23q-232 0 -289 260q-47 215 -47 428q0 26 4 39q11 35 82 74
q67 37 107 37q13 0 22 -6q20 -14 28 -262q10 -274 17 -306q32 -131 127 -131q28 0 72 21q6 260 10 367q10 308 21 317q23 18 69 18q82 0 105 -35q7 -11 15 -343q5 -273 5 -390z" />
    <glyph glyph-name="z" unicode="z" horiz-adv-x="819" 
d="M803 700q0 -119 -488 -393q284 8 373 8q55 0 55 -84q0 -66 -49 -79q-207 -56 -512 -56q-59 0 -101 51q-40 48 -40 109q0 16 2 25q17 75 487 372q-48 0 -205 -5q-128 -3 -206 -3q-39 0 -65 56q-21 45 -21 90q0 58 44 71q14 4 95 4q154 0 354 -35q277 -49 277 -131z" />
    <glyph glyph-name="braceleft" unicode="{" horiz-adv-x="1024" 
d="M893 -414q14 0 -41 -2h-41q-207 0 -299 49q-70 38 -93 122q-13 51 -13 159v256q0 134 -49 188t-169 54h-18q-27 -2 -18 -2v241q-7 0 18 -2h18q124 0 173 62q45 55 45 182v254q0 136 24 194q41 99 203 125q74 13 180 13h39q54 -2 41 -2v-242q8 0 -21 2h-20
q-98 0 -132 -35.5t-34 -146.5v-240q0 -142 -45 -200.5t-166 -84.5q126 -25 171 -90q40 -58 40 -192v-242q0 -105 29 -140q33 -40 135 -40q-7 0 22 2h21v-242z" />
    <glyph glyph-name="bar" unicode="|" horiz-adv-x="1024" 
d="M633 -483h-240v2048h240v-2048z" />
    <glyph glyph-name="braceright" unicode="}" horiz-adv-x="1024" 
d="M874 410q7 0 -18 2h-18q-123 0 -172 -61q-45 -55 -45 -181v-256q0 -109 -14 -160q-23 -85 -93 -123q-49 -26 -111.5 -36.5t-179.5 -10.5h-45q-61 2 -45 2v242h23q28 -2 20 -2q102 0 135 40q29 35 29 140v242q0 141 46 199.5t165 82.5q-126 27 -171 92q-40 59 -40 193v240
q0 112 -33 147t-127 35h-22q-32 -2 -25 -2v242q-13 0 41 2h39q209 0 301 -49q70 -38 93 -123q14 -51 14 -160v-254q0 -127 44 -182q50 -62 173 -62h18q25 2 18 2v-241z" />
    <glyph glyph-name="asciitilde" unicode="~" 
d="M1530 565q-201 -137 -377 -137q-40 0 -88.5 8.5t-83.5 20.5q-11 3 -39 12q-257 90 -381 90q-162 0 -383 -158v254q220 144 387 144q62 0 127.5 -12.5t167.5 -45.5q14 -4 51 -16q164 -57 248 -57q164 0 371 151v-254z" />
    <glyph glyph-name="Adieresis" unicode="&#xc4;" horiz-adv-x="913" 
d="M864 35q0 -22 -21.5 -36.5t-43.5 -14.5q-70 0 -115 71q-9 15 -57 248l-344 -12l-70 -260q-5 -32 -23 -88q-16 -33 -61 -33q-39 0 -74 19q-43 23 -43 59q0 56 151 753q150 693 167 721q44 76 151 76q46 0 76 -18q48 -30 180 -698q127 -646 127 -787zM588 500
q-38 194 -105 583q-31 -140 -143 -571zM780 1852q0 -44 -45 -112q-48 -73 -88 -73q-46 0 -90.5 43t-44.5 88q0 46 76.5 114.5t123.5 68.5q33 0 52 -51q16 -40 16 -78zM432 1852q0 -44 -45 -112q-48 -73 -88 -73q-46 0 -91 43t-45 88q0 46 77 114.5t124 68.5q32 0 52 -51
q16 -40 16 -78z" />
    <glyph glyph-name="Aring" unicode="&#xc5;" horiz-adv-x="913" 
d="M864 35q0 -22 -21.5 -36.5t-43.5 -14.5q-70 0 -115 71q-9 15 -57 248l-344 -12l-70 -260q-5 -32 -23 -88q-16 -33 -61 -33q-39 0 -74 19q-43 23 -43 59q0 56 151 753q150 693 167 721q19 33 52 52q-49 25 -84.5 72.5t-35.5 92.5q0 84 69.5 164t151.5 80q51 0 106.5 -59.5
t55.5 -110.5q0 -59 -27 -121q-30 -68 -77 -104q10 -4 16 -8q48 -30 180 -698q127 -646 127 -787zM532 1731q0 22 -24.5 50.5t-46.5 28.5q-94 0 -94 -112q0 -29 27.5 -55.5t56.5 -26.5q81 0 81 115zM588 500q-38 194 -105 583q-31 -140 -143 -571z" />
    <glyph glyph-name="Ccedilla" unicode="&#xc7;" horiz-adv-x="997" 
d="M977 1200q0 -86 -51 -86q-25 0 -128 46t-171 46q-154 0 -255 -214q-83 -176 -83 -351q0 -196 81 -345q101 -183 281 -183q47 0 115.5 26.5t81.5 26.5q57 0 57 -92q0 -88 -204 -124q-16 -33 -72 -120q99 -2 175 -51q89 -57 89 -150q0 -95 -96 -144q-74 -38 -181 -38
q-169 0 -266 133q-26 37 -26 58q0 20 90 20q73 0 84 -8q26 -21 53 -40.5t63 -19.5q33 0 60 18q31 21 31 52q0 28 -35 44q-28 13 -60 13q-13 0 -38 -7t-37 -7q-23 0 -63 35t-40 57q0 43 106 155q-237 40 -366 271q-111 199 -111 471q0 515 320 692q107 60 217 60
q139 0 245 -53q134 -66 134 -191z" />
    <glyph glyph-name="Eacute" unicode="&#xc9;" horiz-adv-x="1077" 
d="M1036 53q0 -55 -39 -80q-26 -16 -367 -39q-307 -20 -411 -20q-82 0 -94 10q-37 31 -37 121q0 49 18 66t68 22q-11 155 -22 410q-62 7 -62 125q0 82 53 90q-10 298 -8 436q-45 11 -45 117q0 58 22 78t81 20q143 0 416 -13q332 -17 379.5 -37t47.5 -85q0 -61 -45 -88
q-17 -10 -291 -12q-221 -1 -321 2q4 -158 2 -412q456 -7 507.5 -28.5t51.5 -88.5q0 -61 -41 -88q-37 -24 -522 -24q-2 -130 -10 -390q201 9 389 9q203 0 225 -9q55 -20 55 -92zM842 1831q0 -25 -118 -158q-122 -137 -159 -137q-26 0 -50 17.5t-24 41.5q0 25 80.5 150
t102.5 135q17 8 37 8q31 0 76 -15q55 -18 55 -42z" />
    <glyph glyph-name="Ntilde" unicode="&#xd1;" horiz-adv-x="1118" 
d="M1057 1419q0 -276 -69 -796q-85 -638 -187 -691h-8q-136 0 -416 994q-20 -443 -43 -889q-33 -35 -101 -35q-60 0 -92 37q-6 7 -21 544q-14 508 -14 623q0 133 9 150q17 35 98 59q65 19 119 19q36 0 41 -2q89 -36 377 -1117l55 1117q27 65 164 65q54 0 69 -11
q19 -14 19 -67zM920 1751q0 -21 -18 -61q-19 -46 -36 -46q-9 0 -78 37t-112 37q-48 0 -123.5 -61.5t-136.5 -61.5q-50 0 -141 64.5t-91 101.5q0 21 21 61.5t39 40.5q11 0 75.5 -32.5t106.5 -32.5q47 0 110.5 62.5t127.5 62.5q60 0 156 -61q100 -63 100 -111z" />
    <glyph glyph-name="Odieresis" unicode="&#xd6;" horiz-adv-x="1098" 
d="M1036 702q0 -255 -102 -454q-128 -248 -359 -248q-241 0 -387 235q-127 203 -127 459q0 285 100 500q129 281 380 281q259 0 392 -272q103 -211 103 -501zM821 707q0 164 -58 339q-77 230 -206 230q-132 0 -197 -218q-45 -150 -45 -327q0 -162 47 -312q64 -210 187 -210
q148 0 220 186q52 134 52 312zM862 1790q0 -44 -45 -112q-48 -73 -88 -73q-46 0 -90.5 43t-44.5 88q0 46 76.5 114.5t123.5 68.5q33 0 52 -51q16 -40 16 -78zM514 1790q0 -44 -45 -112q-48 -73 -88 -73q-46 0 -91 43t-45 88q0 46 77 114.5t124 68.5q32 0 52 -51
q16 -40 16 -78z" />
    <glyph glyph-name="Udieresis" unicode="&#xdc;" horiz-adv-x="1038" 
d="M930 991q0 -128 -18 -492q-20 -412 -35 -440q-31 -51 -111 -51q-29 0 -68 10q-47 13 -57 31q-6 11 -6 82q-59 -33 -156 -33q-231 0 -306 170q-41 94 -54 371q-13 265 -13 430q0 128 9 150q13 35 97 71q77 33 122 33q22 0 31 -6q18 -13 18 -273q0 -92 -2 -278t-2 -279
q0 -254 147 -254q43 0 109 27q2 157 12 456q13 383 25 402q39 62 162 62q58 0 79 -13q17 -9 17 -176zM842 1647q0 -44 -45 -112q-48 -73 -88 -73q-46 0 -90.5 43t-44.5 88q0 46 76.5 114.5t123.5 68.5q33 0 52 -51q16 -40 16 -78zM494 1647q0 -44 -45 -112q-48 -73 -88 -73
q-46 0 -91 43t-45 88q0 46 77 114.5t124 68.5q32 0 52 -51q16 -40 16 -78z" />
    <glyph glyph-name="aacute" unicode="&#xe1;" horiz-adv-x="915" 
d="M834 588q0 -79 -16 -328q-17 -276 -30 -293q-21 -30 -63 -30q-47 0 -59 35q-3 11 -4 75q-89 -67 -220 -67q-139 0 -257 76q-134 86 -134 218q0 157 94 249.5t250 92.5q161 0 267 -90l2 39q1 62 -95 134q-91 69 -155 69q-51 0 -141 -68.5t-105 -68.5q-41 0 -75 53
q-30 49 -30 92q0 60 142 141q133 76 205 76q115 0 244 -86.5t169 -193.5q11 -28 11 -125zM645 287q0 79 -80 126q-68 40 -153 40q-69 0 -113.5 -41t-44.5 -109q0 -66 52 -111q49 -42 116 -42q73 0 140 32q83 40 83 105zM719 1401q0 -25 -118 -158q-122 -137 -159 -137
q-26 0 -50 17.5t-24 41.5q0 25 80.5 150t102.5 135q17 8 37 8q31 0 76 -15q55 -18 55 -42z" />
    <glyph glyph-name="agrave" unicode="&#xe0;" horiz-adv-x="915" 
d="M834 588q0 -79 -16 -328q-17 -276 -30 -293q-21 -30 -63 -30q-47 0 -59 35q-3 11 -4 75q-89 -67 -220 -67q-139 0 -257 76q-134 86 -134 218q0 157 94 249.5t250 92.5q161 0 267 -90l2 39q1 62 -95 134q-91 69 -155 69q-51 0 -141 -68.5t-105 -68.5q-41 0 -75 53
q-30 49 -30 92q0 60 142 141q133 76 205 76q115 0 244 -86.5t169 -193.5q11 -28 11 -125zM645 287q0 79 -80 126q-68 40 -153 40q-69 0 -113.5 -41t-44.5 -109q0 -66 52 -111q49 -42 116 -42q73 0 140 32q83 40 83 105zM637 1165q0 -24 -24 -41.5t-50 -17.5q-37 0 -159 137
q-118 133 -118 158q0 24 55 42q45 15 77 15q19 0 36 -8q22 -10 102.5 -135t80.5 -150z" />
    <glyph glyph-name="acircumflex" unicode="&#xe2;" horiz-adv-x="915" 
d="M834 588q0 -79 -16 -328q-17 -276 -30 -293q-21 -30 -63 -30q-47 0 -59 35q-3 11 -4 75q-89 -67 -220 -67q-139 0 -257 76q-134 86 -134 218q0 157 94 249.5t250 92.5q161 0 267 -90l2 39q1 62 -95 134q-91 69 -155 69q-51 0 -141 -68.5t-105 -68.5q-41 0 -75 53
q-30 49 -30 92q0 60 142 141q133 76 205 76q115 0 244 -86.5t169 -193.5q11 -28 11 -125zM645 287q0 79 -80 126q-68 40 -153 40q-69 0 -113.5 -41t-44.5 -109q0 -66 52 -111q49 -42 116 -42q73 0 140 32q83 40 83 105zM793 1183q0 -19 -30 -57.5t-48 -38.5q-13 0 -139.5 90
t-137.5 90q-10 0 -145 -100t-146 -100q-24 0 -55 45t-31 71t173.5 178t203.5 152q27 0 191 -153t164 -177z" />
    <glyph glyph-name="adieresis" unicode="&#xe4;" horiz-adv-x="915" 
d="M834 588q0 -79 -16 -328q-17 -276 -30 -293q-21 -30 -63 -30q-47 0 -59 35q-3 11 -4 75q-89 -67 -220 -67q-139 0 -257 76q-134 86 -134 218q0 157 94 249.5t250 92.5q161 0 267 -90l2 39q1 62 -95 134q-91 69 -155 69q-51 0 -141 -68.5t-105 -68.5q-41 0 -75 53
q-30 49 -30 92q0 60 142 141q133 76 205 76q115 0 244 -86.5t169 -193.5q11 -28 11 -125zM645 287q0 79 -80 126q-68 40 -153 40q-69 0 -113.5 -41t-44.5 -109q0 -66 52 -111q49 -42 116 -42q73 0 140 32q83 40 83 105zM739 1258q0 -44 -45 -112q-48 -73 -88 -73
q-46 0 -90.5 43t-44.5 88q0 46 76.5 114.5t123.5 68.5q33 0 52 -51q16 -40 16 -78zM391 1258q0 -44 -45 -112q-48 -73 -88 -73q-46 0 -91 43t-45 88q0 46 77 114.5t124 68.5q32 0 52 -51q16 -40 16 -78z" />
    <glyph glyph-name="atilde" unicode="&#xe3;" horiz-adv-x="915" 
d="M834 588q0 -79 -16 -328q-17 -276 -30 -293q-21 -30 -63 -30q-47 0 -59 35q-3 11 -4 75q-89 -67 -220 -67q-139 0 -257 76q-134 86 -134 218q0 157 94 249.5t250 92.5q161 0 267 -90l2 39q1 62 -95 134q-91 69 -155 69q-51 0 -141 -68.5t-105 -68.5q-41 0 -75 53
q-30 49 -30 92q0 60 142 141q133 76 205 76q115 0 244 -86.5t169 -193.5q11 -28 11 -125zM645 287q0 79 -80 126q-68 40 -153 40q-69 0 -113.5 -41t-44.5 -109q0 -66 52 -111q49 -42 116 -42q73 0 140 32q83 40 83 105zM879 1239q0 -21 -18 -61q-19 -46 -36 -46q-9 0 -78 37
t-112 37q-48 0 -123.5 -61.5t-136.5 -61.5q-50 0 -141 64.5t-91 101.5q0 21 21 61.5t39 40.5q11 0 75.5 -32.5t106.5 -32.5q47 0 110.5 62.5t127.5 62.5q60 0 156 -61q100 -63 100 -111z" />
    <glyph glyph-name="aring" unicode="&#xe5;" horiz-adv-x="915" 
d="M834 588q0 -79 -16 -328q-17 -276 -30 -293q-21 -30 -63 -30q-47 0 -59 35q-3 11 -4 75q-89 -67 -220 -67q-139 0 -257 76q-134 86 -134 218q0 157 94 249.5t250 92.5q161 0 267 -90l2 39q1 62 -95 134q-91 69 -155 69q-51 0 -141 -68.5t-105 -68.5q-41 0 -75 53
q-30 49 -30 92q0 60 142 141q133 76 205 76q115 0 244 -86.5t169 -193.5q11 -28 11 -125zM645 287q0 79 -80 126q-68 40 -153 40q-69 0 -113.5 -41t-44.5 -109q0 -66 52 -111q49 -42 116 -42q73 0 140 32q83 40 83 105zM690 1331q0 -88 -52 -168q-59 -90 -142 -90
q-63 0 -126 60.5t-63 123.5q0 84 69 162q70 82 153 82q50 0 105.5 -59.5t55.5 -110.5zM578 1308q0 23 -25 51.5t-47 28.5q-94 0 -94 -112q0 -29 27.5 -55.5t56.5 -26.5q82 0 82 114z" />
    <glyph glyph-name="ccedilla" unicode="&#xe7;" horiz-adv-x="723" 
d="M739 -391q0 -96 -95 -144q-75 -38 -181 -38q-170 0 -266 133q-27 36 -27 57t90 21q73 0 84 -9q26 -20 53.5 -39.5t63.5 -19.5q33 0 61.5 19t28.5 51q0 28 -35 44q-28 13 -59 13q-14 0 -39 -7t-37 -7q-23 0 -62.5 34.5t-39.5 57.5q0 44 110 159q-168 30 -259 193
q-79 141 -79 334q0 173 117.5 302.5t290.5 129.5q61 0 111 -29q59 -35 59 -92q0 -34 -18 -80q-20 -55 -48 -55q-20 0 -58 15.5t-59 15.5q-85 0 -146 -82q-56 -75 -56 -162q0 -124 82 -214q84 -93 206 -93q58 0 97 20.5t43 20.5q41 0 41 -86q0 -122 -164 -140
q-16 -32 -74 -122q99 -2 175 -51q89 -57 89 -150z" />
    <glyph glyph-name="eacute" unicode="&#xe9;" horiz-adv-x="817" 
d="M807 195q0 -88 -99 -154q-88 -59 -180 -59q-189 0 -333 141.5t-144 331.5q0 212 82 359q102 181 299 181q115 0 199 -137q74 -120 74 -244q0 -59 -19 -98q-23 -48 -163 -80q-116 -26 -219 -26q-17 0 -30 2q60 -226 273 -226q68 0 123 70t69 70q33 0 53 -52q15 -39 15 -79
zM510 608q-14 72 -45 131q-43 80 -98 80q-44 0 -75 -112q-20 -74 -28 -152q69 35 246 53zM535 1380q0 -25 -118 -158q-122 -137 -159 -137q-26 0 -50 17.5t-24 41.5q0 25 80.5 150t102.5 135q17 8 37 8q31 0 76 -15q55 -18 55 -42z" />
    <glyph glyph-name="egrave" unicode="&#xe8;" horiz-adv-x="817" 
d="M807 195q0 -88 -99 -154q-88 -59 -180 -59q-189 0 -333 141.5t-144 331.5q0 212 82 359q102 181 299 181q115 0 199 -137q74 -120 74 -244q0 -59 -19 -98q-23 -48 -163 -80q-116 -26 -219 -26q-17 0 -30 2q60 -226 273 -226q68 0 123 70t69 70q33 0 53 -52q15 -39 15 -79
zM510 608q-14 72 -45 131q-43 80 -98 80q-44 0 -75 -112q-20 -74 -28 -152q69 35 246 53zM453 1165q0 -24 -24 -41.5t-50 -17.5q-37 0 -159 137q-118 133 -118 158q0 24 55 42q45 15 77 15q19 0 36 -8q22 -10 102.5 -135t80.5 -150z" />
    <glyph glyph-name="ecircumflex" unicode="&#xea;" horiz-adv-x="817" 
d="M807 195q0 -88 -99 -154q-88 -59 -180 -59q-189 0 -333 141.5t-144 331.5q0 212 82 359q102 181 299 181q115 0 199 -137q74 -120 74 -244q0 -59 -19 -98q-23 -48 -163 -80q-116 -26 -219 -26q-17 0 -30 2q60 -226 273 -226q68 0 123 70t69 70q33 0 53 -52q15 -39 15 -79
zM510 608q-14 72 -45 131q-43 80 -98 80q-44 0 -75 -112q-20 -74 -28 -152q69 35 246 53zM752 1163q0 -19 -30 -57.5t-48 -38.5q-13 0 -139.5 90t-137.5 90q-10 0 -145 -100t-146 -100q-24 0 -55 45t-31 71t173.5 178t203.5 152q27 0 191 -153t164 -177z" />
    <glyph glyph-name="edieresis" unicode="&#xeb;" horiz-adv-x="817" 
d="M807 195q0 -88 -99 -154q-88 -59 -180 -59q-189 0 -333 141.5t-144 331.5q0 212 82 359q102 181 299 181q115 0 199 -137q74 -120 74 -244q0 -59 -19 -98q-23 -48 -163 -80q-116 -26 -219 -26q-17 0 -30 2q60 -226 273 -226q68 0 123 70t69 70q33 0 53 -52q15 -39 15 -79
zM510 608q-14 72 -45 131q-43 80 -98 80q-44 0 -75 -112q-20 -74 -28 -152q69 35 246 53zM719 1278q0 -44 -45 -112q-48 -73 -88 -73q-46 0 -90.5 43t-44.5 88q0 46 76.5 114.5t123.5 68.5q33 0 52 -51q16 -40 16 -78zM371 1278q0 -44 -45 -112q-48 -73 -88 -73
q-46 0 -91 43t-45 88q0 46 77 114.5t124 68.5q32 0 52 -51q16 -40 16 -78z" />
    <glyph glyph-name="iacute" unicode="&#xed;" horiz-adv-x="391" 
d="M299 551q0 -433 -14 -496q-19 -82 -70 -82q-70 0 -100 76q-9 22 -18 253q-7 195 -7 280q0 55 4 71q10 38 66 76.5t96 38.5q19 0 29 -4q14 -6 14 -213zM412 1196q0 -25 -118 -158q-122 -137 -159 -137q-26 0 -50 17.5t-24 41.5q0 25 80.5 150t102.5 135q17 8 37 8
q31 0 76 -15q55 -18 55 -42z" />
    <glyph glyph-name="igrave" unicode="&#xec;" horiz-adv-x="391" 
d="M299 551q0 -433 -14 -496q-19 -82 -70 -82q-70 0 -100 76q-9 22 -18 253q-7 195 -7 280q0 55 4 71q10 38 66 76.5t96 38.5q19 0 29 -4q14 -6 14 -213zM269 960q0 -24 -24 -41.5t-50 -17.5q-37 0 -159 137q-118 133 -118 158q0 24 55 42q45 15 77 15q19 0 36 -8
q22 -10 102.5 -135t80.5 -150z" />
    <glyph glyph-name="icircumflex" unicode="&#xee;" horiz-adv-x="391" 
d="M299 551q0 -433 -14 -496q-19 -82 -70 -82q-70 0 -100 76q-9 22 -18 253q-7 195 -7 280q0 55 4 71q10 38 66 76.5t96 38.5q19 0 29 -4q14 -6 14 -213zM568 999q0 -19 -30 -57.5t-48 -38.5q-13 0 -139.5 90t-137.5 90q-10 0 -145 -100t-146 -100q-24 0 -55 45t-31 71
t173.5 178t203.5 152q27 0 191 -153t164 -177z" />
    <glyph glyph-name="idieresis" unicode="&#xef;" horiz-adv-x="391" 
d="M299 551q0 -433 -14 -496q-19 -82 -70 -82q-70 0 -100 76q-9 22 -18 253q-7 195 -7 280q0 55 4 71q10 38 66 76.5t96 38.5q19 0 29 -4q14 -6 14 -213zM514 1094q0 -44 -45 -112q-48 -73 -88 -73q-46 0 -90.5 43t-44.5 88q0 46 76.5 114.5t123.5 68.5q33 0 52 -51
q16 -40 16 -78zM166 1094q0 -44 -45 -112q-48 -73 -88 -73q-46 0 -91 43t-45 88q0 46 77 114.5t124 68.5q32 0 52 -51q16 -40 16 -78z" />
    <glyph glyph-name="ntilde" unicode="&#xf1;" horiz-adv-x="791" 
d="M760 1001q0 -184 -55 -546q-65 -435 -136 -435q-96 0 -290 551q-14 -222 -31 -448q-21 -31 -78 -31q-60 0 -74 35q-5 14 -15 341q-9 302 -9 380q0 80 6 98q11 33 73 56q52 20 95 20q21 0 28 -2q62 -18 269 -678l28 473q4 98 11 205q18 63 114 63q46 0 57 -20q7 -12 7 -62
zM838 1280q0 -21 -18 -61q-19 -46 -36 -46q-9 0 -78 37t-112 37q-48 0 -123.5 -61.5t-136.5 -61.5q-50 0 -141 64.5t-91 101.5q0 21 21 61.5t39 40.5q11 0 75.5 -32.5t106.5 -32.5q47 0 110.5 62.5t127.5 62.5q60 0 156 -61q100 -63 100 -111z" />
    <glyph glyph-name="oacute" unicode="&#xf3;" horiz-adv-x="889" 
d="M838 391q0 -163 -98 -272q-101 -113 -263 -113q-161 0 -290 105q-136 112 -136 270q0 185 93 302q101 128 282 128q180 0 296 -120t116 -300zM688 393q0 93 -78 164.5t-172 71.5q-93 0 -151 -60t-58 -153q0 -91 65.5 -155t156.5 -64q99 0 164 47q73 53 73 149zM658 1237
q0 -25 -118 -158q-122 -137 -159 -137q-26 0 -50 17.5t-24 41.5q0 25 80.5 150t102.5 135q17 8 37 8q31 0 76 -15q55 -18 55 -42z" />
    <glyph glyph-name="ograve" unicode="&#xf2;" horiz-adv-x="889" 
d="M838 391q0 -163 -98 -272q-101 -113 -263 -113q-161 0 -290 105q-136 112 -136 270q0 185 93 302q101 128 282 128q180 0 296 -120t116 -300zM688 393q0 93 -78 164.5t-172 71.5q-93 0 -151 -60t-58 -153q0 -91 65.5 -155t156.5 -64q99 0 164 47q73 53 73 149zM596 981
q0 -24 -24 -41.5t-50 -17.5q-37 0 -159 137q-118 133 -118 158q0 24 55 42q45 15 77 15q19 0 36 -8q22 -10 102.5 -135t80.5 -150z" />
    <glyph glyph-name="ocircumflex" unicode="&#xf4;" horiz-adv-x="889" 
d="M838 391q0 -163 -98 -272q-101 -113 -263 -113q-161 0 -290 105q-136 112 -136 270q0 185 93 302q101 128 282 128q180 0 296 -120t116 -300zM688 393q0 93 -78 164.5t-172 71.5q-93 0 -151 -60t-58 -153q0 -91 65.5 -155t156.5 -64q99 0 164 47q73 53 73 149zM793 1020
q0 -19 -30 -57.5t-48 -38.5q-13 0 -139.5 90t-137.5 90q-10 0 -145 -100t-146 -100q-24 0 -55 45t-31 71t173.5 178t203.5 152q27 0 191 -153t164 -177z" />
    <glyph glyph-name="odieresis" unicode="&#xf6;" horiz-adv-x="889" 
d="M838 391q0 -163 -98 -272q-101 -113 -263 -113q-161 0 -290 105q-136 112 -136 270q0 185 93 302q101 128 282 128q180 0 296 -120t116 -300zM688 393q0 93 -78 164.5t-172 71.5q-93 0 -151 -60t-58 -153q0 -91 65.5 -155t156.5 -64q99 0 164 47q73 53 73 149zM739 1135
q0 -44 -45 -112q-48 -73 -88 -73q-46 0 -90.5 43t-44.5 88q0 46 76.5 114.5t123.5 68.5q33 0 52 -51q16 -40 16 -78zM391 1135q0 -44 -45 -112q-48 -73 -88 -73q-46 0 -91 43t-45 88q0 46 77 114.5t124 68.5q32 0 52 -51q16 -40 16 -78z" />
    <glyph glyph-name="otilde" unicode="&#xf5;" horiz-adv-x="889" 
d="M838 391q0 -163 -98 -272q-101 -113 -263 -113q-161 0 -290 105q-136 112 -136 270q0 185 93 302q101 128 282 128q180 0 296 -120t116 -300zM688 393q0 93 -78 164.5t-172 71.5q-93 0 -151 -60t-58 -153q0 -91 65.5 -155t156.5 -64q99 0 164 47q73 53 73 149zM838 1076
q0 -21 -18 -61q-19 -46 -36 -46q-9 0 -78 37t-112 37q-48 0 -123.5 -61.5t-136.5 -61.5q-50 0 -141 64.5t-91 101.5q0 21 21 61.5t39 40.5q11 0 75.5 -32.5t106.5 -32.5q47 0 110.5 62.5t127.5 62.5q60 0 156 -61q100 -63 100 -111z" />
    <glyph glyph-name="uacute" unicode="&#xfa;" horiz-adv-x="819" 
d="M743 121q0 -92 -12 -121q-22 -51 -102 -51q-72 0 -93 27q-15 19 -22 94q-54 -23 -119 -23q-232 0 -289 260q-47 216 -47 428q0 24 4 39q10 34 83 74q69 37 108 37q13 0 20 -6q19 -15 29 -262q10 -275 16 -306q30 -131 127 -131q21 0 56 15q-23 289 -23 483q0 54 59 81
q45 21 107 21q34 0 49 -6q24 -9 39 -300q10 -206 10 -353zM719 1237q0 -25 -118 -158q-122 -137 -159 -137q-26 0 -50 17.5t-24 41.5q0 25 80.5 150t102.5 135q17 8 37 8q31 0 76 -15q55 -18 55 -42z" />
    <glyph glyph-name="ugrave" unicode="&#xf9;" horiz-adv-x="819" 
d="M743 121q0 -92 -12 -121q-22 -51 -102 -51q-72 0 -93 27q-15 19 -22 94q-54 -23 -119 -23q-232 0 -289 260q-47 216 -47 428q0 24 4 39q10 34 83 74q69 37 108 37q13 0 20 -6q19 -15 29 -262q10 -275 16 -306q30 -131 127 -131q21 0 56 15q-23 289 -23 483q0 54 59 81
q45 21 107 21q34 0 49 -6q24 -9 39 -300q10 -206 10 -353zM555 1001q0 -24 -24 -41.5t-50 -17.5q-37 0 -159 137q-118 133 -118 158q0 24 55 42q45 15 77 15q19 0 36 -8q22 -10 102.5 -135t80.5 -150z" />
    <glyph glyph-name="ucircumflex" unicode="&#xfb;" horiz-adv-x="819" 
d="M743 121q0 -92 -12 -121q-22 -51 -102 -51q-72 0 -93 27q-15 19 -22 94q-54 -23 -119 -23q-232 0 -289 260q-47 216 -47 428q0 24 4 39q10 34 83 74q69 37 108 37q13 0 20 -6q19 -15 29 -262q10 -275 16 -306q30 -131 127 -131q21 0 56 15q-23 289 -23 483q0 54 59 81
q45 21 107 21q34 0 49 -6q24 -9 39 -300q10 -206 10 -353zM732 1122q0 -19 -30 -57.5t-48 -38.5q-13 0 -139.5 90t-137.5 90q-10 0 -145 -100t-146 -100q-24 0 -55 45t-31 71t173.5 178t203.5 152q27 0 191 -153t164 -177z" />
    <glyph glyph-name="udieresis" unicode="&#xfc;" horiz-adv-x="819" 
d="M743 121q0 -92 -12 -121q-22 -51 -102 -51q-72 0 -93 27q-15 19 -22 94q-54 -23 -119 -23q-232 0 -289 260q-47 216 -47 428q0 24 4 39q10 34 83 74q69 37 108 37q13 0 20 -6q19 -15 29 -262q10 -275 16 -306q30 -131 127 -131q21 0 56 15q-23 289 -23 483q0 54 59 81
q45 21 107 21q34 0 49 -6q24 -9 39 -300q10 -206 10 -353zM698 1196q0 -44 -45 -112q-48 -73 -88 -73q-46 0 -90.5 43t-44.5 88q0 46 76.5 114.5t123.5 68.5q33 0 52 -51q16 -40 16 -78zM350 1196q0 -44 -45 -112q-48 -73 -88 -73q-46 0 -91 43t-45 88q0 46 77 114.5
t124 68.5q32 0 52 -51q16 -40 16 -78z" />
    <glyph glyph-name="dagger" unicode="&#x2020;" horiz-adv-x="1024" 
d="M979 834h-324v-1051h-288v1051h-322v227h322v412h288v-412h324v-227z" />
    <glyph glyph-name="degree" unicode="&#xb0;" horiz-adv-x="674" 
d="M649 1155q0 -129 -92 -220t-221 -91q-131 0 -220 90t-89 221q0 132 89.5 221.5t221.5 89.5q127 0 219 -92t92 -219zM502 1157q0 70 -47 117t-117 47q-69 0 -117.5 -48t-48.5 -116q0 -72 47 -119t119 -47q69 0 116.5 48.5t47.5 117.5z" />
    <glyph glyph-name="cent" unicode="&#xa2;" horiz-adv-x="868" 
d="M807 338q0 -137 -248 -143q-3 -96 -7 -166q-8 -137 -17 -144q-12 -8 -31 -8q-75 0 -121 55q-11 14 -27 293q-151 57 -227 201q-68 127 -68 301q0 271 265 387q0 268 10 283q13 19 92 44q73 23 104 23q14 0 21 -4q13 -8 16 -305q53 -8 94 -37q50 -35 50 -82q0 -35 -20 -80
q-24 -53 -54 -53q-23 0 -65.5 15.5t-65.5 15.5q-91 0 -160 -76.5t-69 -167.5q0 -130 97 -218.5t228 -88.5q76 0 105 14q2 2 24 18q13 9 29 9q45 0 45 -86z" />
    <glyph glyph-name="sterling" unicode="&#xa3;" horiz-adv-x="1198" 
d="M1110 139q0 -88 -18 -123q-14 -26 -498 -26q-402 0 -424.5 31t-22.5 69q0 55 62 195q71 163 82 211q-89 7 -191 26q-16 16 -30.5 55t-14.5 64q0 17 8 29q13 17 246 28q-1 50 -16 156q-14 101 -14 156q0 39 6 69q23 116 159 220t256 104q71 0 227 -101q160 -104 160 -161
q0 -42 -37 -94q-40 -56 -79 -56q-14 0 -113 92.5t-151 92.5q-91 0 -143 -67q-48 -61 -48 -155q0 -47 6 -125q7 -97 8 -124q113 2 144 2q285 0 295 -19q2 -4 2 -18q0 -30 -18 -103q-19 -81 -32 -90.5t-83 -9.5q-152 0 -318 10q-21 -143 -86 -244q178 5 326 5h143
q161 0 176 -9q31 -17 31 -90z" />
    <glyph glyph-name="section" unicode="&#xa7;" horiz-adv-x="1024" 
d="M999 633q0 -100 -43 -170q-49 -79 -141 -98q67 -51 97 -109.5t30 -136.5q0 -156 -109.5 -245t-302.5 -89q-215 0 -328 94.5t-116 276.5h285q6 -156 153 -156q55 0 89 29t34 75q0 40 -29 66q-24 22 -135 66l-161 63q-151 59 -228 150q-74 86 -74 204q0 190 191 275
q-119 100 -119 241q0 176 127 265q110 77 293 77q180 0 291 -89q118 -95 127 -271h-293q0 66 -36 105.5t-95 39.5q-121 0 -121 -94q0 -76 160 -145l155 -68q144 -62 212 -131q87 -91 87 -225zM733 596q0 64 -170 137q-114 49 -180 84q-98 -49 -98 -123q0 -66 207 -153
q70 -30 143 -64q98 44 98 119z" />
    <glyph glyph-name="bullet" unicode="&#x2022;" horiz-adv-x="1208" 
d="M899 762q0 -122 -87.5 -209.5t-209.5 -87.5t-208.5 87.5t-86.5 209.5q0 124 86 209.5t211 85.5q124 0 209.5 -85.5t85.5 -209.5z" />
    <glyph glyph-name="paragraph" unicode="&#xb6;" horiz-adv-x="1024" 
d="M997 1356h-106v-1356h-176v1356h-150v-1356h-174v784q-164 6 -263 101.5t-99 244.5q0 167 113 261q106 88 276 88h579v-123z" />
    <glyph glyph-name="germandbls" unicode="&#xdf;" horiz-adv-x="1018" 
d="M1010 213q0 -102 -103.5 -200.5t-206.5 -98.5q-45 0 -108 14q-77 18 -92 43q-13 21 -13 56q0 84 35 84q30 0 88.5 -11.5t87.5 -11.5q42 0 77 21q40 24 40 63q0 42 -98 106q-160 106 -183 124q-98 83 -98 169q0 90 59 167q22 30 108 111q59 54 59 89q0 65 -69 133t-134 68
q-57 0 -99 -66q-36 -56 -43 -119q-2 -18 -2 -75l2 -648q0 -276 -10 -284q-25 -21 -78 -21q-73 0 -98 33q-12 15 -29 446q-16 391 -16 506q0 138 12 172q40 111 143 195q110 88 222 88q134 0 252.5 -116.5t118.5 -250.5q0 -90 -48 -183q-21 -41 -89 -137q-48 -67 -48 -97
q0 -45 180.5 -172.5t180.5 -196.5z" />
    <glyph glyph-name="registered" unicode="&#xae;" 
d="M1599 737q0 -318 -221 -530q-226 -217 -526 -217q-152 0 -287 57q-282 121 -403 412q-56 133 -56 278q0 149 60 289q124 291 405 406q132 53 281 53q157 0 295 -58q135 -56 244 -167q208 -215 208 -523zM1464 737q0 253 -172 428q-181 185 -438 185q-126 0 -231 -43
q-234 -95 -332 -332q-47 -113 -47 -238q0 -119 44 -227.5t130 -196.5q91 -93 199.5 -139.5t234.5 -46.5q123 0 233 45q237 96 332 328q47 114 47 237zM1229 344h-248l-154 326h-65v-326h-225v819h329q355 0 355 -237q0 -171 -174 -221zM989 909q0 59 -38 86t-122 27h-67
v-219h80q147 0 147 106z" />
    <glyph glyph-name="copyright" unicode="&#xa9;" 
d="M1599 737q0 -149 -55 -286q-113 -282 -405 -404q-138 -57 -287 -57q-146 0 -283 57q-288 121 -407 406q-56 131 -56 284q0 223 127.5 415t331.5 278q133 55 287 55q155 0 290 -56t242 -163q215 -215 215 -529zM1464 737q0 255 -176 432q-179 181 -434 181t-430 -179
q-182 -185 -182 -434q0 -183 105 -337.5t276 -225.5q112 -47 231 -47q182 0 340 104t225 271q45 111 45 235zM1229 610q-6 -143 -107.5 -230t-263.5 -87q-197 0 -306 122q-106 117 -106 316q0 201 104 322q109 129 306 129q146 0 246 -72q110 -79 119 -219h-213
q-15 141 -156 141q-82 0 -129 -78t-47 -215q0 -284 186 -284q139 0 152 155h215z" />
    <glyph glyph-name="trademark" unicode="&#x2122;" 
d="M1468 913h-155v390l-146 -390h-65l-150 390v-390h-155v551h223l113 -303l114 303h221v-551zM690 1337h-164v-424h-174v424h-164v127h502v-127z" />
    <glyph glyph-name="acute" unicode="&#xb4;" horiz-adv-x="473" 
d="M412 1278q0 -25 -118 -158q-122 -137 -159 -137q-26 0 -50 17.5t-24 41.5q0 25 80.5 150t102.5 135q17 8 37 8q31 0 76 -15q55 -18 55 -42z" />
    <glyph glyph-name="dieresis" unicode="&#xa8;" horiz-adv-x="739" 
d="M678 1176q0 -44 -45 -112q-48 -73 -88 -73q-46 0 -90.5 43t-44.5 88q0 46 76.5 114.5t123.5 68.5q33 0 52 -51q16 -40 16 -78zM330 1176q0 -44 -45 -112q-48 -73 -88 -73q-46 0 -91 43t-45 88q0 46 77 114.5t124 68.5q32 0 52 -51q16 -40 16 -78z" />
    <glyph glyph-name="notequal" unicode="&#x2260;" 
d="M1452 276h-704l-246 -307l-170 137l135 170h-213v222h360l183 227h-543v221h694l246 305l168 -137l-135 -168h225v-221h-377l-180 -227h557v-222z" />
    <glyph glyph-name="AE" unicode="&#xc6;" horiz-adv-x="1602" 
d="M1561 53q0 -51 -39 -80q-22 -16 -367 -39q-310 -20 -412 -20q-82 0 -94 10q-37 31 -37 121q0 49 20 67q17 17 66 21l-8 129l-364 -10q-61 -152 -154 -348q-23 -33 -68 -33q-35 0 -66 16q-38 19 -38 52q0 29 274 726q276 702 312 756q51 78 166 78q53 0 71 -18.5t25 -73.5
q129 -3 349 -16q286 -17 314 -31q50 -24 50 -86q0 -60 -45 -88q-40 -25 -613 -8q4 -159 2 -414q463 -7 508 -29q51 -24 51 -88q0 -58 -41 -88q-31 -22 -522 -24q-2 -130 -10 -390q201 9 389 9q204 0 225 -9q56 -21 56 -92zM680 459l-4 84q-62 7 -62 125q0 82 54 90
q-4 102 -6 260q-46 -110 -238 -545z" />
    <glyph glyph-name="Oslash" unicode="&#xd8;" horiz-adv-x="1098" 
d="M1036 702q0 -255 -102 -454q-128 -248 -359 -248q-94 0 -177 39q-48 -112 -60 -125l-10 -2q-23 0 -59 37.5t-36 60.5q0 22 33 125q-99 101 -154 262q-51 147 -51 297q0 285 100 500q129 281 380 281q90 0 167 -35q39 102 48 106q22 10 71 10q123 0 123 -32
q0 -26 -71 -230q157 -220 157 -592zM638 1249q-38 27 -81 27q-132 0 -197 -218q-45 -150 -45 -327q0 -157 45 -306q170 517 278 824zM821 707q0 138 -46 299q-157 -424 -298 -775q33 -22 72 -22q148 0 220 186q52 134 52 312z" />
    <glyph glyph-name="infinity" unicode="&#x221e;" 
d="M1513 610q0 -167 -72 -284q-86 -140 -243 -140q-106 0 -200 84q-59 52 -142 172q-134 -256 -324 -256q-139 0 -238 122t-99 300q0 167 72 284q86 138 243 138q88 0 166.5 -58t175.5 -198q139 258 324 258q156 0 252 -137q85 -122 85 -285zM1393 606q0 76 -51 127t-128 51
q-135 0 -258 -223q87 -135 234 -135q90 0 146.5 50.5t56.5 129.5zM752 657q-86 134 -234 134q-92 0 -147.5 -49.5t-55.5 -129.5q0 -76 51 -127t128 -51q71 0 133 53q59 52 125 170z" />
    <glyph glyph-name="plusminus" unicode="&#xb1;" 
d="M1452 690h-479v-319h-238v319h-481v232h481v319h238v-319h479v-232zM1452 -18h-1198v231h1198v-231z" />
    <glyph glyph-name="lessequal" unicode="&#x2264;" 
d="M1450 299l-1194 379v201l1194 378v-239l-776 -240l776 -239v-240zM1452 -16h-1196v229h1196v-229z" />
    <glyph glyph-name="greaterequal" unicode="&#x2265;" 
d="M1450 678l-1192 -379v240l776 239l-776 240v239l1192 -378v-201zM1452 -16h-1196v229h1196v-229z" />
    <glyph glyph-name="yen" unicode="&#xa5;" horiz-adv-x="1079" 
d="M989 391q0 -25 -17 -85q-19 -65 -33 -74t-110 -9q-53 0 -163 4q-12 -261 -29 -272q-13 -8 -35 -8q-30 0 -72 16q-45 18 -63 39q-13 15 -29 236q-303 18 -319 32q-45 40 -45 99q0 13 8 24q11 16 346 25l-6 104q-289 18 -303 31q-45 40 -45 98q0 14 8 25q12 15 276 24
q-55 107 -131 278q-98 221 -98 265t37 88.5t80 44.5q13 0 22 -4t126 -241q132 -268 145 -291q121 256 258 520q12 6 24 6q43 0 83 -41.5t40 -85.5q0 -43 -89 -260q-70 -169 -120 -272q244 -2 252 -17q2 -3 2 -14q0 -25 -17 -85q-19 -65 -34 -75q-23 -15 -264 -6l-2 -88h43
q266 0 272 -14q2 -5 2 -17z" />
    <glyph glyph-name="mu" unicode="&#xb5;" horiz-adv-x="1315" 
d="M1260 1090l-175 -1090h-321l18 125q-75 -141 -209 -141q-121 0 -184 120l-82 -532h-352l238 1518h358l-80 -529q-4 -26 -8 -77t-4 -66q0 -86 35 -128t108 -42q88 0 138.5 68.5t74.5 220.5l88 553h357z" />
    <glyph glyph-name="mu" unicode="&#x3bc;" horiz-adv-x="1315" 
d="M1260 1090l-175 -1090h-321l18 125q-75 -141 -209 -141q-121 0 -184 120l-82 -532h-352l238 1518h358l-80 -529q-4 -26 -8 -77t-4 -66q0 -86 35 -128t108 -42q88 0 138.5 68.5t74.5 220.5l88 553h357z" />
    <glyph glyph-name="partialdiff" unicode="&#x2202;" horiz-adv-x="1114" 
d="M1055 760q0 -346 -162 -565.5t-418 -219.5q-183 0 -299.5 116.5t-116.5 299.5q0 194 111 327q117 142 307 142q194 0 289 -176q23 123 33 208t10 148q0 89 -29 149t-69 60q-33 0 -130.5 -93t-181.5 -93q-49 0 -80.5 33.5t-31.5 83.5q0 67 94 124.5t219 57.5
q233 0 354 -193q101 -162 101 -409zM698 532q0 238 -141 238q-95 0 -160 -138t-65 -345q0 -236 143 -236q122 0 182 193q41 133 41 288z" />
    <glyph glyph-name="summation" unicode="&#x2211;" horiz-adv-x="1520" 
d="M1473 -393h-1424v184l684 756l-661 665v261h1335v-302h-838l596 -608l-587 -651h895v-305z" />
    <glyph glyph-name="product" unicode="&#x220f;" horiz-adv-x="1645" 
d="M1493 -393h-399v1532h-549v-1532h-400v1866h1348v-1866z" />
    <glyph glyph-name="pi" unicode="&#x3c0;" horiz-adv-x="1530" 
d="M1538 1090l-39 -232h-178l-135 -858h-357l134 858h-232l-135 -858h-354l133 858h-27q-76 0 -100 -96q-4 -17 -6 -37h-236q33 210 129 288q92 77 307 77h1096z" />
    <glyph glyph-name="integral" unicode="&#x222b;" horiz-adv-x="1249" 
d="M1200 1366q0 -66 -40.5 -104.5t-106.5 -38.5q-129 0 -129 151q0 40 -6.5 50t-26.5 10q-100 0 -123 -666q-2 -36 -4 -92q-9 -282 -17 -363q-19 -214 -71 -354q-63 -167 -159.5 -249.5t-229.5 -82.5q-100 0 -163 45q-73 50 -73 146q0 143 154 143q125 0 125 -139
q0 -12 -2 -25v-2q0 -43 34 -43q99 0 119 668l4 153q17 519 131.5 751t348.5 232q95 0 161 -46q74 -52 74 -144z" />
    <glyph glyph-name="ordfeminine" unicode="&#xaa;" horiz-adv-x="633" 
d="M567 1122q0 -50 -10 -214q-12 -180 -20 -191q-15 -21 -41 -21q-31 0 -38 25q-2 6 -3 49q-59 -45 -144 -45q-91 0 -167 50q-87 56 -87 143q0 101 62 162t164 61t172 -60v25q0 40 -62 88q-59 45 -100 45q-33 0 -91.5 -45t-68.5 -45q-26 0 -48 35q-19 31 -19 59q0 40 93 94
q87 49 132 49q75 0 159 -57t109 -127q8 -23 8 -80zM438 926q0 48 -51 75q-42 23 -94 23q-98 0 -98 -88q0 -40 33 -66q30 -24 71 -24q45 0 87 18q52 23 52 62z" />
    <glyph glyph-name="ordmasculine" unicode="&#xba;" horiz-adv-x="573" 
d="M543 1112q0 -106 -64 -177q-67 -73 -172 -73t-188 69q-88 72 -88 175q0 121 60 197q66 83 183 83t193 -78.5t76 -195.5zM426 1116q0 52 -44.5 91.5t-96.5 39.5t-84.5 -33t-32.5 -86q0 -50 37 -86t88 -36q55 0 92 27q41 30 41 83z" />
    <glyph glyph-name="Omega" unicode="&#x3a9;" horiz-adv-x="1645" 
d="M1599 0h-636v352q94 84 143 196.5t49 246.5q0 170 -80 276q-89 119 -254 119q-154 0 -244 -107t-90 -290q0 -275 193 -441v-352h-635v307h332q-268 193 -268 529q0 310 202 496q196 179 510 179q316 0 511 -178q202 -185 202 -497q0 -336 -268 -529h333v-307z" />
    <glyph glyph-name="Omega" unicode="&#x2126;" horiz-adv-x="1645" 
d="M1599 0h-636v352q94 84 143 196.5t49 246.5q0 170 -80 276q-89 119 -254 119q-154 0 -244 -107t-90 -290q0 -275 193 -441v-352h-635v307h332q-268 193 -268 529q0 310 202 496q196 179 510 179q316 0 511 -178q202 -185 202 -497q0 -336 -268 -529h333v-307z" />
    <glyph glyph-name="ae" unicode="&#xe6;" horiz-adv-x="1432" 
d="M1421 195q0 -87 -98 -153q-90 -60 -180 -60q-195 0 -336 143q-7 -74 -19 -158q-17 -30 -63 -30q-47 0 -59 35q-3 11 -4 75q-89 -67 -220 -67q-139 0 -257 76q-134 86 -134 218q0 157 94 249.5t250 92.5q161 0 267 -90v39q1 61 -94 134q-91 69 -154 69q-51 0 -141 -68.5
t-105 -68.5q-42 0 -75 53q-30 48 -30 92q0 59 143 141q134 76 204 76q189 0 342 -172q107 174 295 174q115 0 198 -137q74 -120 74 -244q0 -58 -19 -98q-22 -48 -163 -80q-116 -26 -219 -26q-17 0 -29 2q59 -226 272 -226q68 0 123.5 70t69.5 70q33 0 52 -52q15 -39 15 -79z
M1124 608q-13 72 -45 131q-43 80 -98 80q-43 0 -75 -112q-20 -74 -27 -152q68 35 245 53zM645 287q0 79 -80 126q-68 40 -153 40q-69 0 -113.5 -41t-44.5 -109q0 -66 52 -111q49 -42 116 -42q73 0 140 32q83 40 83 105z" />
    <glyph glyph-name="oslash" unicode="&#xf8;" horiz-adv-x="889" 
d="M838 391q0 -163 -98 -272q-101 -113 -263 -113q-38 0 -76 7q-53 -118 -69 -136l-10 -2q-24 0 -59.5 37.5t-35.5 60.5t20 97q-196 114 -196 311q0 185 93 302q101 128 282 128q32 0 63 -4q39 98 48 102q22 11 71 11q123 0 123 -33q0 -27 -47 -162q154 -121 154 -334z
M688 393q0 86 -69 156q-66 -176 -139 -351q90 7 146 54q62 53 62 141zM424 628q-87 -5 -141 -64t-54 -148q0 -96 71 -161q57 181 124 373z" />
    <glyph glyph-name="questiondown" unicode="&#xbf;" horiz-adv-x="989" 
d="M803 1116q0 -46 -76 -114t-123 -68q-32 0 -52 50q-15 40 -15 79q0 44 43 111q47 73 88 73q45 0 90 -43t45 -88zM936 -31q0 -5 -2 -12q-52 -172 -463 -172q-202 0 -313 93q-121 100 -121 298q0 132 133 208q124 58 248 115q133 74 133 201q0 16 -6 45.5t-6 45.5
q0 34 51 53q38 14 80 14q82 0 110 -47q21 -34 21 -119q0 -132 -121 -229q-113 -74 -225 -148q-121 -90 -121 -206q0 -99 119 -99q84 0 207 43t163 43q45 0 79 -40.5t34 -86.5z" />
    <glyph glyph-name="exclamdown" unicode="&#xa1;" horiz-adv-x="555" 
d="M412 1116q0 -46 -77 -114t-124 -68q-32 0 -52 50q-16 40 -16 79q0 43 46.5 113.5t86.5 70.5q46 0 91 -43t45 -88zM401 139q0 -336 -20 -350q-3 -2 -12 -2q-33 0 -109 21q-83 22 -93.5 39.5t-10.5 129.5q0 120 18 446q21 375 39 394q48 51 121 51q19 0 31 -8
q36 -26 36 -721z" />
    <glyph glyph-name="logicalnot" unicode="&#xac;" 
d="M1452 365h-229v274h-969v227h1198v-501z" />
    <glyph glyph-name="radical" unicode="&#x221a;" horiz-adv-x="1366" 
d="M1370 1565h-96l-590 -1606h-119l-307 846l-145 -55l-37 129l360 127l223 -635l496 1343h215v-149z" />
    <glyph glyph-name="florin" unicode="&#x192;" horiz-adv-x="1260" 
d="M1264 1163q0 -41 -55 -101.5t-95 -60.5q-12 0 -68 69t-106 69q-56 0 -111 -66q-47 -56 -65 -119q-4 -15 -29 -180q101 -5 228 -20q51 -22 51 -88q0 -60 -41 -86q-17 -11 -271 -21q-38 -258 -71 -440q-12 -82 -53 -240q-44 -113 -154 -175q-101 -56 -229 -56
q-66 0 -143 51q-67 44 -113 104q-25 33 -25 45q0 42 54.5 103t94.5 61q13 0 69 -69.5t106 -69.5q48 0 103 57q50 51 65 103q5 52 16 153q11 97 49 369q-60 0 -97 3q-77 4 -87 15q-29 32 -29 113q0 99 116 99q14 0 40 -1.5t39 -1.5h51q16 105 26 158q22 118 37 143
q66 112 176 193q123 90 240 90q68 0 174.5 -75t106.5 -128z" />
    <glyph glyph-name="approxequal" unicode="&#x2248;" 
d="M1530 782q-207 -135 -375 -135q-95 0 -285 64q-196 65 -309 65q-82 0 -173 -37t-210 -121v256q107 71 209 107q99 35 195 35q104 0 299 -65.5t278 -65.5q84 0 169 34.5t202 116.5v-254zM1530 348q-203 -137 -377 -137q-91 0 -289 65.5t-303 65.5q-158 0 -383 -158v254
q110 73 208.5 108.5t195.5 35.5q104 0 299 -65.5t278 -65.5q158 0 371 151v-254z" />
    <glyph glyph-name="approxequal" unicode="&#x22f2;" 
d="M1530 782q-207 -135 -375 -135q-95 0 -285 64q-196 65 -309 65q-82 0 -173 -37t-210 -121v256q107 71 209 107q99 35 195 35q104 0 299 -65.5t278 -65.5q84 0 169 34.5t202 116.5v-254zM1530 348q-203 -137 -377 -137q-91 0 -289 65.5t-303 65.5q-158 0 -383 -158v254
q110 73 208.5 108.5t195.5 35.5q104 0 299 -65.5t278 -65.5q158 0 371 151v-254z" />
    <glyph glyph-name="Delta" unicode="&#x394;" horiz-adv-x="1468" 
d="M1473 0h-1475l539 1473h395zM997 285l-264 774l-262 -774h526z" />
    <glyph glyph-name="Delta" unicode="&#x2206;" horiz-adv-x="1468" 
d="M1473 0h-1475l539 1473h395zM997 285l-264 774l-262 -774h526z" />
    <glyph glyph-name="guillemotleft" unicode="&#xab;" horiz-adv-x="909" 
d="M868 86q0 -25 -35.5 -55.5t-60.5 -30.5q-27 0 -185.5 204.5t-158.5 241.5q0 34 160 227t184 193q22 0 54 -24t32 -45q0 -16 -100.5 -177t-100.5 -174t105.5 -177t105.5 -183zM492 86q0 -25 -36 -55.5t-61 -30.5q-27 0 -185.5 204.5t-158.5 241.5q0 34 160 227t184 193
q22 0 54 -24t32 -45q0 -16 -100 -177t-100 -174t105.5 -177t105.5 -183z" />
    <glyph glyph-name="guillemotright" unicode="&#xbb;" horiz-adv-x="909" 
d="M858 446q0 -37 -158.5 -241.5t-185.5 -204.5q-25 0 -60.5 30.5t-35.5 55.5q0 19 105.5 183t105.5 177t-100.5 174t-100.5 177q0 21 32 45t54 24q25 0 184.5 -193t159.5 -227zM481 446q0 -37 -158.5 -241.5t-185.5 -204.5q-25 0 -60.5 30.5t-35.5 55.5q0 19 105.5 183
t105.5 177t-100.5 174t-100.5 177q0 21 32.5 45t53.5 24q25 0 184.5 -193t159.5 -227z" />
    <glyph glyph-name="ellipsis" unicode="&#x2026;" horiz-adv-x="1251" 
d="M1174 125q0 -44 -45 -112q-48 -72 -89 -72q-45 0 -90 42.5t-45 88.5t77 114t124 68q32 0 52 -51q16 -39 16 -78zM764 125q0 -44 -45 -112q-48 -72 -88 -72q-46 0 -90.5 42.5t-44.5 88.5t76.5 114t123.5 68q33 0 52 -51q16 -39 16 -78zM354 125q0 -44 -44 -112
q-48 -72 -89 -72q-45 0 -90 42.5t-45 88.5t77 114t124 68q32 0 52 -51q15 -39 15 -78z" />
    <glyph glyph-name="Agrave" unicode="&#xc0;" horiz-adv-x="913" 
d="M864 35q0 -22 -21.5 -36.5t-43.5 -14.5q-70 0 -115 71q-9 15 -57 248l-344 -12l-70 -260q-5 -32 -23 -88q-16 -33 -61 -33q-39 0 -74 19q-43 23 -43 59q0 56 151 753q150 693 167 721q44 76 151 76q46 0 76 -18q48 -30 180 -698q127 -646 127 -787zM588 500
q-38 194 -105 583q-31 -140 -143 -571zM637 1718q0 -24 -24 -41.5t-50 -17.5q-37 0 -159 137q-118 133 -118 158q0 24 55 42q45 15 77 15q19 0 36 -8q22 -10 102.5 -135t80.5 -150z" />
    <glyph glyph-name="Atilde" unicode="&#xc3;" horiz-adv-x="913" 
d="M864 35q0 -22 -21.5 -36.5t-43.5 -14.5q-70 0 -115 71q-9 15 -57 248l-344 -12l-70 -260q-5 -32 -23 -88q-16 -33 -61 -33q-39 0 -74 19q-43 23 -43 59q0 56 151 753q150 693 167 721q44 76 151 76q46 0 76 -18q48 -30 180 -698q127 -646 127 -787zM588 500
q-38 194 -105 583q-31 -140 -143 -571zM838 1792q0 -21 -18 -61q-19 -46 -36 -46q-9 0 -78 37t-112 37q-48 0 -123.5 -61.5t-136.5 -61.5q-50 0 -141 64.5t-91 101.5q0 21 21 61.5t39 40.5q11 0 75.5 -32.5t106.5 -32.5q47 0 110.5 62.5t127.5 62.5q60 0 156 -61
q100 -63 100 -111z" />
    <glyph glyph-name="Otilde" unicode="&#xd5;" horiz-adv-x="1098" 
d="M1036 702q0 -255 -102 -454q-128 -248 -359 -248q-241 0 -387 235q-127 203 -127 459q0 285 100 500q129 281 380 281q259 0 392 -272q103 -211 103 -501zM821 707q0 164 -58 339q-77 230 -206 230q-132 0 -197 -218q-45 -150 -45 -327q0 -162 47 -312q64 -210 187 -210
q148 0 220 186q52 134 52 312zM920 1731q0 -21 -18 -61q-19 -46 -36 -46q-9 0 -78 37t-112 37q-48 0 -123.5 -61.5t-136.5 -61.5q-50 0 -141 64.5t-91 101.5q0 21 21 61.5t39 40.5q11 0 75.5 -32.5t106.5 -32.5q47 0 110.5 62.5t127.5 62.5q60 0 156 -61q100 -63 100 -111z
" />
    <glyph glyph-name="OE" unicode="&#x152;" horiz-adv-x="1483" 
d="M1442 66q0 -53 -37 -82q-22 -18 -362 -38q-297 -18 -410 -18q-271 0 -429 209q-143 189 -143 469q0 239 61 398q71 186 240 319q128 100 289 100q128 0 391 -14q313 -18 351 -37q49 -25 49 -86q0 -58 -45 -88q-15 -10 -291 -12q-223 -1 -322 2q4 -159 2 -414
q467 -7 510 -29q52 -25 52 -88q0 -55 -43 -86q-32 -22 -523 -24q-2 -130 -10 -389q202 8 389 8q205 0 225 -8q56 -22 56 -92zM580 145q-12 156 -23 410q-61 7 -61 123q0 83 53 90q-10 299 -8 438q-80 2 -160 -192q-66 -159 -66 -326q0 -166 57 -328q76 -215 208 -215z" />
    <glyph glyph-name="oe" unicode="&#x153;" horiz-adv-x="1452" 
d="M1442 195q0 -88 -99 -154q-88 -59 -180 -59q-235 0 -381 194q-100 -170 -305 -170q-161 0 -290 105q-136 112 -136 270q0 185 93 302q101 128 282 128q177 0 293 -117q37 129 125 211q97 90 223 90q115 0 199 -137q73 -120 73 -244q0 -58 -18 -98q-22 -48 -164 -80
q-115 -26 -218 -26q-18 0 -30 2q60 -226 273 -226q68 0 124 70t70 70q33 0 52 -52q14 -39 14 -79zM1145 608q-14 72 -45 131q-44 80 -99 80q-43 0 -74 -112q-20 -74 -28 -152q69 35 246 53zM688 393q0 93 -78 164.5t-172 71.5q-93 0 -151 -60t-58 -153q0 -91 65.5 -155
t156.5 -64q99 0 164 47q73 53 73 149z" />
    <glyph glyph-name="endash" unicode="&#x2013;" horiz-adv-x="1024" 
d="M963 573q0 -28 -18 -102q-19 -80 -34 -90t-108 -10q-112 0 -378 17q-302 20 -319 38q-45 48 -45 119q0 19 9 30q24 35 596 35q283 0 295 -18q2 -3 2 -19z" />
    <glyph glyph-name="emdash" unicode="&#x2014;" horiz-adv-x="2048" 
d="M2068 571q0 -36 -44.5 -107.5t-77.5 -84.5q-26 -10 -263 -10q-239 0 -849 17q-708 20 -744.5 37.5t-69.5 48.5q-40 39 -40 71q0 17 20 30q40 27 1074 34l296 1q674 0 694 -18q4 -4 4 -19z" />
    <glyph glyph-name="quotedblleft" unicode="&#x201c;" horiz-adv-x="639" 
d="M569 1315q0 -279 -51 -299q-16 -6 -41 -6q-47 0 -89 25q-50 29 -50 73q0 56 53 208q58 165 96 165q82 0 82 -166zM283 1335q0 -299 -52 -319q-15 -6 -38 -6q-47 0 -90 25q-50 29 -50 73q0 56 53 208q57 165 95 165q82 0 82 -146z" />
    <glyph glyph-name="quotedblright" unicode="&#x201d;" horiz-adv-x="639" 
d="M569 1382q0 -56 -52 -207q-57 -165 -95 -165q-82 0 -82 145q0 300 51 320q16 6 39 6q47 0 90 -26q49 -29 49 -73zM285 1382q0 -55 -54 -207q-58 -165 -96 -165q-82 0 -82 166q0 279 51 299q16 6 41 6q47 0 90 -26q50 -29 50 -73z" />
    <glyph glyph-name="quoteleft" unicode="&#x2018;" horiz-adv-x="354" 
d="M285 1315q0 -279 -52 -299q-15 -6 -40 -6q-47 0 -90 25q-50 29 -50 73q0 56 54 208q58 165 96 165q82 0 82 -166z" />
    <glyph glyph-name="quoteright" unicode="&#x2019;" horiz-adv-x="354" 
d="M285 1382q0 -55 -54 -207q-58 -165 -96 -165q-82 0 -82 166q0 279 51 299q16 6 41 6q47 0 90 -26q50 -29 50 -73z" />
    <glyph glyph-name="divide" unicode="&#xf7;" 
d="M1018 1016q0 -68 -48.5 -116t-117.5 -48q-70 0 -117 47t-47 117q0 68 49 117t117 49q67 0 115.5 -49.5t48.5 -116.5zM1452 496h-1198v231h1198v-231zM1018 205q0 -70 -47 -117t-117 -47q-69 0 -117.5 48t-48.5 116t49 117t117 49t116 -48.5t48 -117.5z" />
    <glyph glyph-name="lozenge" unicode="&#x25ca;" horiz-adv-x="1012" 
d="M1006 592l-500 -1069l-500 1069l500 1061zM891 592l-385 817l-385 -817l385 -825z" />
    <glyph glyph-name="ydieresis" unicode="&#xff;" horiz-adv-x="823" 
d="M741 135q0 -346 -20 -393q-50 -115 -149 -190q-105 -80 -224 -80q-64 0 -185 80q-126 84 -126 141q0 41 43.5 95t83.5 54q12 0 79 -71.5t115 -71.5q58 0 102 62q36 52 46 116q4 29 8 193q-53 -23 -121 -23q-232 0 -289 260q-47 215 -47 428q0 26 4 39q11 35 82 74
q67 37 107 37q13 0 22 -6q20 -14 28 -262q10 -274 17 -306q32 -131 127 -131q28 0 72 21q6 260 10 367q10 308 21 317q23 18 69 18q82 0 105 -35q7 -11 15 -343q5 -273 5 -390zM678 1237q0 -44 -45 -112q-48 -73 -88 -73q-46 0 -90.5 43t-44.5 88q0 46 76.5 114.5
t123.5 68.5q33 0 52 -51q16 -40 16 -78zM330 1237q0 -44 -45 -112q-48 -73 -88 -73q-46 0 -91 43t-45 88q0 46 77 114.5t124 68.5q32 0 52 -51q16 -40 16 -78z" />
    <glyph glyph-name="Ydieresis" unicode="&#x178;" horiz-adv-x="858" 
d="M834 1350q0 -53 -116 -316q-99 -228 -153 -325h-2q-9 -613 -39 -633q-14 -10 -32 -10q-79 0 -138 57q-23 23 -47 586q-61 102 -168 329q-123 264 -123 326q0 43 37 87t80 44q14 0 23 -4q116 -231 272 -530q120 255 256 520q12 6 27 6q48 0 85.5 -44t37.5 -93zM719 1811
q0 -44 -45 -112q-48 -73 -88 -73q-46 0 -90.5 43t-44.5 88q0 46 76.5 114.5t123.5 68.5q33 0 52 -51q16 -40 16 -78zM371 1811q0 -44 -45 -112q-48 -73 -88 -73q-46 0 -91 43t-45 88q0 46 77 114.5t124 68.5q32 0 52 -51q16 -40 16 -78z" />
    <glyph glyph-name="fraction" unicode="&#x2044;" horiz-adv-x="307" 
d="M616 1229q0 -54 -639 -924q-215 -293 -229 -293q-25 0 -43 46q-14 37 -14 67q0 28 362 578q364 554 414 595h6q25 0 81 -23q62 -27 62 -46z" />
    <glyph glyph-name="currency" unicode="&#xa4;" horiz-adv-x="1157" 
d="M1120 1161q0 -88 -53 -88q-25 0 -128 46t-171 46q-101 0 -186 -104q-64 -79 -105 -197q352 0 359 -14q2 -4 2 -16q0 -26 -18 -85q-19 -65 -32.5 -74t-109.5 -9q-42 0 -244 10q-4 -39 -4 -76q0 -13 2 -49q131 2 150 2q174 0 174 -31q0 -25 -18 -85q-19 -65 -32.5 -74
t-109.5 -9q-1 0 -131 6q39 -120 119 -199q92 -89 209 -89q47 0 116 26.5t82 26.5q26 0 42 -25.5t16 -52.5q0 -70 -107 -112q-83 -33 -166 -33q-207 0 -353 137q-135 126 -187 336q-150 11 -166 24q-45 38 -45 99q0 14 8 24q12 16 176 23q-6 71 -4 143q-90 8 -122 22
q-58 27 -58 101q0 14 8 25q12 15 186 22q36 223 165 373q146 172 357 172q136 0 244 -53q135 -67 135 -189z" />
    <glyph glyph-name="guilsinglleft" unicode="&#x2039;" horiz-adv-x="532" 
d="M492 86q0 -25 -36 -55.5t-61 -30.5q-27 0 -185.5 204.5t-158.5 241.5q0 34 160 227t184 193q22 0 54 -24t32 -45q0 -16 -100 -177t-100 -174t105.5 -177t105.5 -183z" />
    <glyph glyph-name="guilsinglright" unicode="&#x203a;" horiz-adv-x="532" 
d="M481 446q0 -37 -158.5 -241.5t-185.5 -204.5q-25 0 -60.5 30.5t-35.5 55.5q0 19 105.5 183t105.5 177t-100.5 174t-100.5 177q0 21 32.5 45t53.5 24q25 0 184.5 -193t159.5 -227z" />
    <glyph glyph-name="fi" unicode="&#xf001;" horiz-adv-x="969" 
d="M915 551q0 -433 -14 -496q-19 -82 -70 -82q-70 0 -100 76q-9 22 -17 253q-7 195 -7 280q0 55 4 71q9 38 65 76.5t96 38.5q19 0 29 -4q14 -6 14 -213zM846 1153q0 -49 -38 -94q-34 -41 -83 -58q-13 1 -80.5 69.5t-118.5 68.5q-62 0 -107 -76q-39 -66 -38 -133l2 -150
q187 -7 235 -26q52 -21 52 -88q0 -61 -41 -86q-27 -17 -244 -23v-80q0 -518 -12 -530q-22 -21 -76 -21q-78 0 -98 33q-14 23 -37 596q-95 3 -118 19q-36 23 -36 112q0 70 44 87q18 8 104 9q-2 95 -2 150q0 126 10 151q45 114 144 195q107 88 222 88q66 0 187 -76
q129 -79 129 -137z" />
    <glyph glyph-name="fl" unicode="&#xf002;" horiz-adv-x="1286" 
d="M1286 186q0 -104 -24 -147q-11 -19 -144 -31q-96 -8 -164 -8q-133 0 -157 23q-27 24 -45 365q-15 259 -15 411q0 101 6 119q11 31 78 72.5t103 41.5l12 -2q31 -93 31 -387q0 -100 -9 -373q82 4 170 4q14 0 37 1t33 1q88 0 88 -90zM813 1188q0 -49 -37 -94
q-35 -41 -84 -58q-12 0 -64 51.5t-102 51.5q-62 0 -107 -76q-39 -66 -38 -133l2 -150q165 -6 215.5 -26.5t50.5 -87.5q0 -61 -41 -86q-28 -17 -223 -23v-80q0 -519 -12 -530q-22 -21 -76 -21q-79 0 -98 33q-14 24 -37 596q-95 3 -119 19q-35 23 -35 112q0 70 44 87
q18 8 104 9q-2 95 -2 150q0 126 10 151q45 114 144 195q107 88 222 88q131 0 244 -115q39 -39 39 -63z" />
    <glyph glyph-name="daggerdbl" unicode="&#x2021;" horiz-adv-x="1024" 
d="M979 143h-324v-360h-288v360h-322v228h322v514h-322v227h322v361h288v-361h324v-227h-324v-514h324v-228z" />
    <glyph glyph-name="periodcentered" unicode="&#xb7;" horiz-adv-x="604" 
d="M487 707q0 -78 -54 -132.5t-132 -54.5q-79 0 -131.5 53.5t-52.5 133.5q0 79 52.5 132.5t131.5 53.5q78 0 131 -53q55 -56 55 -133z" />
    <glyph glyph-name="periodcentered" unicode="&#x2219;" horiz-adv-x="604" 
d="M487 707q0 -78 -54 -132.5t-132 -54.5q-79 0 -131.5 53.5t-52.5 133.5q0 79 52.5 132.5t131.5 53.5q78 0 131 -53q55 -56 55 -133z" />
    <glyph glyph-name="quotesinglbase" unicode="&#x201a;" horiz-adv-x="352" 
d="M324 150q0 -57 -53 -209q-57 -166 -95 -166q-82 0 -82 145q0 298 51 320q20 8 39 8q47 0 90 -26q50 -29 50 -72z" />
    <glyph glyph-name="quotedblbase" unicode="&#x201e;" horiz-adv-x="639" 
d="M610 150q0 -57 -52 -209q-57 -166 -95 -166q-82 0 -82 145q0 298 51 320q20 8 39 8q47 0 90 -26q49 -29 49 -72zM324 150q0 -57 -53 -209q-57 -166 -95 -166q-82 0 -82 145q0 298 51 320q20 8 39 8q47 0 90 -26q50 -29 50 -72z" />
    <glyph glyph-name="perthousand" unicode="&#x2030;" horiz-adv-x="1788" 
d="M1747 377q0 -134 -49 -233q-63 -126 -182 -126q-115 0 -190 116q-66 102 -66 222q0 146 48 253q63 141 191 141q124 0 192 -131q56 -106 56 -242zM1214 377q0 -134 -49 -233q-62 -126 -182 -126q-114 0 -190 116q-66 102 -66 222q0 146 48 253q64 141 192 141
q123 0 192 -131q55 -106 55 -242zM1114 1229q0 -54 -639 -924q-215 -293 -229 -293q-26 0 -43 46q-15 37 -15 67q0 28 362 578q365 554 415 595h6q24 0 81 -23q62 -27 62 -46zM530 920q0 -133 -50 -233q-63 -126 -183 -126q-114 0 -190 116q-66 101 -66 222q0 146 49 254
q65 141 193 141q123 0 192 -132q55 -106 55 -242zM1614 369q0 68 -25 150q-32 106 -84 106q-51 0 -78 -99q-18 -69 -18 -145q0 -65 19 -135q27 -96 75 -96q61 0 90 83q21 59 21 136zM1081 369q0 68 -24 150q-33 106 -84 106q-52 0 -78 -99q-18 -69 -18 -145q0 -65 19 -135
q27 -96 75 -96q60 0 90 83q20 59 20 136zM397 913q0 69 -25 149q-32 105 -83 105q-52 0 -78 -97q-18 -69 -18 -144q0 -66 19 -136q27 -98 75 -98q60 0 90 84q20 60 20 137z" />
    <glyph glyph-name="Acircumflex" unicode="&#xc2;" horiz-adv-x="913" 
d="M864 35q0 -22 -21.5 -36.5t-43.5 -14.5q-70 0 -115 71q-9 15 -57 248l-344 -12l-70 -260q-5 -32 -23 -88q-16 -33 -61 -33q-39 0 -74 19q-43 23 -43 59q0 56 151 753q150 693 167 721q44 76 151 76q46 0 76 -18q48 -30 180 -698q127 -646 127 -787zM588 500
q-38 194 -105 583q-31 -140 -143 -571zM834 1716q0 -19 -30 -57.5t-48 -38.5q-13 0 -139.5 90t-137.5 90q-10 0 -145 -100t-146 -100q-24 0 -55 45t-31 71t173.5 178t203.5 152q27 0 191 -153t164 -177z" />
    <glyph glyph-name="Ecircumflex" unicode="&#xca;" horiz-adv-x="1077" 
d="M1036 53q0 -55 -39 -80q-26 -16 -367 -39q-307 -20 -411 -20q-82 0 -94 10q-37 31 -37 121q0 49 18 66t68 22q-11 155 -22 410q-62 7 -62 125q0 82 53 90q-10 298 -8 436q-45 11 -45 117q0 58 22 78t81 20q143 0 416 -13q332 -17 379.5 -37t47.5 -85q0 -61 -45 -88
q-17 -10 -291 -12q-221 -1 -321 2q4 -158 2 -412q456 -7 507.5 -28.5t51.5 -88.5q0 -61 -41 -88q-37 -24 -522 -24q-2 -130 -10 -390q201 9 389 9q203 0 225 -9q55 -20 55 -92zM895 1634q0 -19 -30 -57.5t-48 -38.5q-13 0 -139.5 90t-137.5 90q-10 0 -145 -100t-146 -100
q-24 0 -55 45t-31 71t173.5 178t203.5 152q27 0 191 -153t164 -177z" />
    <glyph glyph-name="Aacute" unicode="&#xc1;" horiz-adv-x="913" 
d="M864 35q0 -22 -21.5 -36.5t-43.5 -14.5q-70 0 -115 71q-9 15 -57 248l-344 -12l-70 -260q-5 -32 -23 -88q-16 -33 -61 -33q-39 0 -74 19q-43 23 -43 59q0 56 151 753q150 693 167 721q44 76 151 76q46 0 76 -18q48 -30 180 -698q127 -646 127 -787zM588 500
q-38 194 -105 583q-31 -140 -143 -571zM658 1933q0 -25 -118 -158q-122 -137 -159 -137q-26 0 -50 17.5t-24 41.5q0 25 80.5 150t102.5 135q17 8 37 8q31 0 76 -15q55 -18 55 -42z" />
    <glyph glyph-name="Edieresis" unicode="&#xcb;" horiz-adv-x="1077" 
d="M1036 53q0 -55 -39 -80q-26 -16 -367 -39q-307 -20 -411 -20q-82 0 -94 10q-37 31 -37 121q0 49 18 66t68 22q-11 155 -22 410q-62 7 -62 125q0 82 53 90q-10 298 -8 436q-45 11 -45 117q0 58 22 78t81 20q143 0 416 -13q332 -17 379.5 -37t47.5 -85q0 -61 -45 -88
q-17 -10 -291 -12q-221 -1 -321 2q4 -158 2 -412q456 -7 507.5 -28.5t51.5 -88.5q0 -61 -41 -88q-37 -24 -522 -24q-2 -130 -10 -390q201 9 389 9q203 0 225 -9q55 -20 55 -92zM883 1729q0 -44 -45 -112q-48 -73 -88 -73q-46 0 -90.5 43t-44.5 88q0 46 76.5 114.5
t123.5 68.5q33 0 52 -51q16 -40 16 -78zM535 1729q0 -44 -45 -112q-48 -73 -88 -73q-46 0 -91 43t-45 88q0 46 77 114.5t124 68.5q32 0 52 -51q16 -40 16 -78z" />
    <glyph glyph-name="Egrave" unicode="&#xc8;" horiz-adv-x="1077" 
d="M1036 53q0 -55 -39 -80q-26 -16 -367 -39q-307 -20 -411 -20q-82 0 -94 10q-37 31 -37 121q0 49 18 66t68 22q-11 155 -22 410q-62 7 -62 125q0 82 53 90q-10 298 -8 436q-45 11 -45 117q0 58 22 78t81 20q143 0 416 -13q332 -17 379.5 -37t47.5 -85q0 -61 -45 -88
q-17 -10 -291 -12q-221 -1 -321 2q4 -158 2 -412q456 -7 507.5 -28.5t51.5 -88.5q0 -61 -41 -88q-37 -24 -522 -24q-2 -130 -10 -390q201 9 389 9q203 0 225 -9q55 -20 55 -92zM699 1574q0 -24 -24 -41.5t-50 -17.5q-37 0 -159 137q-118 133 -118 158q0 24 55 42
q45 15 77 15q19 0 36 -8q22 -10 102.5 -135t80.5 -150z" />
    <glyph glyph-name="Iacute" unicode="&#xcd;" horiz-adv-x="487" 
d="M367 1030q0 -1056 -37 -1087q-10 -9 -31 -9q-72 0 -121 56q-18 20 -39 597q-18 499 -18 679q0 172 11 189.5t92 42.5q75 24 106 24q13 0 18 -4q19 -14 19 -488zM494 1974q0 -25 -118 -158q-122 -137 -159 -137q-26 0 -50 17.5t-24 41.5q0 25 80.5 150t102.5 135
q17 8 37 8q31 0 76 -15q55 -18 55 -42z" />
    <glyph glyph-name="Icircumflex" unicode="&#xce;" horiz-adv-x="487" 
d="M367 1030q0 -1056 -37 -1087q-10 -9 -31 -9q-72 0 -121 56q-18 20 -39 597q-18 499 -18 679q0 172 11 189.5t92 42.5q75 24 106 24q13 0 18 -4q19 -14 19 -488zM588 1716q0 -19 -30 -57.5t-48 -38.5q-13 0 -139.5 90t-137.5 90q-10 0 -145 -100t-146 -100q-24 0 -55 45
t-31 71t173.5 178t203.5 152q27 0 191 -153t164 -177z" />
    <glyph glyph-name="Idieresis" unicode="&#xcf;" horiz-adv-x="487" 
d="M367 1030q0 -1056 -37 -1087q-10 -9 -31 -9q-72 0 -121 56q-18 20 -39 597q-18 499 -18 679q0 172 11 189.5t92 42.5q75 24 106 24q13 0 18 -4q19 -14 19 -488zM555 1852q0 -44 -45 -112q-48 -73 -88 -73q-46 0 -90.5 43t-44.5 88q0 46 76.5 114.5t123.5 68.5
q33 0 52 -51q16 -40 16 -78zM207 1852q0 -44 -45 -112q-48 -73 -88 -73q-46 0 -91 43t-45 88q0 46 77 114.5t124 68.5q32 0 52 -51q16 -40 16 -78z" />
    <glyph glyph-name="Igrave" unicode="&#xcc;" horiz-adv-x="487" 
d="M367 1030q0 -1056 -37 -1087q-10 -9 -31 -9q-72 0 -121 56q-18 20 -39 597q-18 499 -18 679q0 172 11 189.5t92 42.5q75 24 106 24q13 0 18 -4q19 -14 19 -488zM330 1656q0 -24 -24 -41.5t-50 -17.5q-37 0 -159 137q-118 133 -118 158q0 24 55 42q45 15 77 15q19 0 36 -8
q22 -10 102.5 -135t80.5 -150z" />
    <glyph glyph-name="Oacute" unicode="&#xd3;" horiz-adv-x="1098" 
d="M1036 702q0 -255 -102 -454q-128 -248 -359 -248q-241 0 -387 235q-127 203 -127 459q0 285 100 500q129 281 380 281q259 0 392 -272q103 -211 103 -501zM821 707q0 164 -58 339q-77 230 -206 230q-132 0 -197 -218q-45 -150 -45 -327q0 -162 47 -312q64 -210 187 -210
q148 0 220 186q52 134 52 312zM740 1851q0 -25 -118 -158q-122 -137 -159 -137q-26 0 -50 17.5t-24 41.5q0 25 80.5 150t102.5 135q17 8 37 8q31 0 76 -15q55 -18 55 -42z" />
    <glyph glyph-name="Ocircumflex" unicode="&#xd4;" horiz-adv-x="1098" 
d="M1036 702q0 -255 -102 -454q-128 -248 -359 -248q-241 0 -387 235q-127 203 -127 459q0 285 100 500q129 281 380 281q259 0 392 -272q103 -211 103 -501zM821 707q0 164 -58 339q-77 230 -206 230q-132 0 -197 -218q-45 -150 -45 -327q0 -162 47 -312q64 -210 187 -210
q148 0 220 186q52 134 52 312zM895 1675q0 -19 -30 -57.5t-48 -38.5q-13 0 -139.5 90t-137.5 90q-10 0 -145 -100t-146 -100q-24 0 -55 45t-31 71t173.5 178t203.5 152q27 0 191 -153t164 -177z" />
    <glyph glyph-name="Ograve" unicode="&#xd2;" horiz-adv-x="1098" 
d="M1036 702q0 -255 -102 -454q-128 -248 -359 -248q-241 0 -387 235q-127 203 -127 459q0 285 100 500q129 281 380 281q259 0 392 -272q103 -211 103 -501zM821 707q0 164 -58 339q-77 230 -206 230q-132 0 -197 -218q-45 -150 -45 -327q0 -162 47 -312q64 -210 187 -210
q148 0 220 186q52 134 52 312zM719 1636q0 -24 -24 -41.5t-50 -17.5q-37 0 -159 137q-118 133 -118 158q0 24 55 42q45 15 77 15q19 0 36 -8q22 -10 102.5 -135t80.5 -150z" />
    <glyph glyph-name="Uacute" unicode="&#xda;" horiz-adv-x="1038" 
d="M930 991q0 -128 -18 -492q-20 -412 -35 -440q-31 -51 -111 -51q-29 0 -68 10q-47 13 -57 31q-6 11 -6 82q-59 -33 -156 -33q-231 0 -306 170q-41 94 -54 371q-13 265 -13 430q0 128 9 150q13 35 97 71q77 33 122 33q22 0 31 -6q18 -13 18 -273q0 -92 -2 -278t-2 -279
q0 -254 147 -254q43 0 109 27q2 157 12 456q13 383 25 402q39 62 162 62q58 0 79 -13q17 -9 17 -176zM863 1667q0 -25 -118 -158q-122 -137 -159 -137q-26 0 -50 17.5t-24 41.5q0 25 80.5 150t102.5 135q17 8 37 8q31 0 76 -15q55 -18 55 -42z" />
    <glyph glyph-name="Ucircumflex" unicode="&#xdb;" horiz-adv-x="1038" 
d="M930 991q0 -128 -18 -492q-20 -412 -35 -440q-31 -51 -111 -51q-29 0 -68 10q-47 13 -57 31q-6 11 -6 82q-59 -33 -156 -33q-231 0 -306 170q-41 94 -54 371q-13 265 -13 430q0 128 9 150q13 35 97 71q77 33 122 33q22 0 31 -6q18 -13 18 -273q0 -92 -2 -278t-2 -279
q0 -254 147 -254q43 0 109 27q2 157 12 456q13 383 25 402q39 62 162 62q58 0 79 -13q17 -9 17 -176zM875 1511q0 -19 -30 -57.5t-48 -38.5q-13 0 -139.5 90t-137.5 90q-10 0 -145 -100t-146 -100q-24 0 -55 45t-31 71t173.5 178t203.5 152q27 0 191 -153t164 -177z" />
    <glyph glyph-name="Ugrave" unicode="&#xd9;" horiz-adv-x="1038" 
d="M930 991q0 -128 -18 -492q-20 -412 -35 -440q-31 -51 -111 -51q-29 0 -68 10q-47 13 -57 31q-6 11 -6 82q-59 -33 -156 -33q-231 0 -306 170q-41 94 -54 371q-13 265 -13 430q0 128 9 150q13 35 97 71q77 33 122 33q22 0 31 -6q18 -13 18 -273q0 -92 -2 -278t-2 -279
q0 -254 147 -254q43 0 109 27q2 157 12 456q13 383 25 402q39 62 162 62q58 0 79 -13q17 -9 17 -176zM719 1411q0 -24 -24 -41.5t-50 -17.5q-37 0 -159 137q-118 133 -118 158q0 24 55 42q45 15 77 15q19 0 36 -8q22 -10 102.5 -135t80.5 -150z" />
    <glyph glyph-name="dotlessi" unicode="&#x131;" horiz-adv-x="391" 
d="M299 551q0 -433 -14 -496q-19 -82 -70 -82q-70 0 -100 76q-9 22 -18 253q-7 195 -7 280q0 55 4 71q10 38 66 76.5t96 38.5q19 0 29 -4q14 -6 14 -213z" />
    <glyph glyph-name="circumflex" unicode="&#x2c6;" horiz-adv-x="854" 
d="M793 1040q0 -19 -30 -57.5t-48 -38.5q-13 0 -139.5 90t-137.5 90q-10 0 -145 -100t-146 -100q-24 0 -55 45t-31 71t173.5 178t203.5 152q27 0 191 -153t164 -177z" />
    <glyph glyph-name="tilde" unicode="&#x2dc;" horiz-adv-x="858" 
d="M797 1137q0 -21 -18 -61q-19 -46 -36 -46q-9 0 -78 37t-112 37q-48 0 -123.5 -61.5t-136.5 -61.5q-50 0 -141 64.5t-91 101.5q0 21 21 61.5t39 40.5q11 0 75.5 -32.5t106.5 -32.5q47 0 110.5 62.5t127.5 62.5q60 0 156 -61q100 -63 100 -111z" />
    <glyph glyph-name="macron" unicode="&#xaf;" horiz-adv-x="768" 
d="M707 1114q0 -57 -6 -67q-10 -17 -60 -17q-83 0 -303 22q-253 26 -265 49t-12 48q0 60 39 90q30 23 265 23q296 0 313 -15q29 -24 29 -133z" />
    <glyph glyph-name="macron" unicode="&#x2c9;" horiz-adv-x="768" 
d="M707 1114q0 -57 -6 -67q-10 -17 -60 -17q-83 0 -303 22q-253 26 -265 49t-12 48q0 60 39 90q30 23 265 23q296 0 313 -15q29 -24 29 -133z" />
    <glyph glyph-name="breve" unicode="&#x2d8;" horiz-adv-x="842" 
d="M780 1233q0 -16 -32 -62q-60 -83 -142 -147q-102 -80 -182 -80q-93 0 -189 77q-81 63 -139 157q-35 55 -35 75q0 23 29 59t51 36l104.5 -89.5t170.5 -89.5q67 0 173.5 78t110.5 78q24 0 52 -34t28 -58z" />
    <glyph glyph-name="dotaccent" unicode="&#x2d9;" horiz-adv-x="391" 
d="M330 1176q0 -44 -45 -112q-48 -73 -88 -73q-46 0 -91 43t-45 88q0 46 77 114.5t124 68.5q32 0 52 -51q16 -40 16 -78z" />
    <glyph glyph-name="ring" unicode="&#x2da;" horiz-adv-x="506" 
d="M444 1188q0 -88 -52 -168q-59 -90 -142 -90q-63 0 -126 60.5t-63 123.5q0 84 69 162q70 82 153 82q50 0 105.5 -59.5t55.5 -110.5zM332 1165q0 23 -25 51.5t-47 28.5q-94 0 -94 -112q0 -29 27.5 -55.5t56.5 -26.5q82 0 82 114z" />
    <glyph glyph-name="cedilla" unicode="&#xb8;" horiz-adv-x="692" 
d="M631 -201q0 -95 -96 -144q-75 -38 -181 -38q-169 0 -266 133q-27 37 -27 57q0 21 91 21q72 0 84 -8q26 -21 53 -40.5t63 -19.5q33 0 61.5 19.5t28.5 50.5q0 28 -34 44q-28 13 -60 13q-13 0 -38 -7t-38 -7q-23 0 -62.5 35t-39.5 57q0 29 69.5 113.5t98.5 93.5q14 4 27 4
q18 0 47 -8q37 -10 37 -23q0 -18 -82 -145q99 -2 175 -51q89 -57 89 -150z" />
    <glyph glyph-name="hungarumlaut" unicode="&#x2dd;" horiz-adv-x="752" 
d="M690 1278q0 -25 -118 -158q-121 -137 -158 -137q-26 0 -50 17.5t-24 41.5q0 25 80 150t102 135q17 8 37 8q32 0 76 -15q55 -18 55 -42zM414 1278q0 -25 -118 -158q-122 -137 -159 -137q-26 0 -49 16q-27 19 -27 43t81.5 149.5t103.5 135.5q17 8 37 8q31 0 76 -15
q55 -18 55 -42z" />
    <glyph glyph-name="ogonek" unicode="&#x2db;" horiz-adv-x="737" 
d="M676 -156q0 -22 -4.5 -31t-38.5 -26q-141 -72 -324 -72q-89 0 -166 62q-82 66 -82 153q0 36 12 124q12 100 23 112q21 22 78 22q46 0 59 -16q9 -9 11 -88t28 -119q39 -61 140 -61q39 0 117 13t116 13q31 0 31 -86z" />
    <glyph glyph-name="caron" unicode="&#x2c7;" horiz-adv-x="854" 
d="M793 1253q0 -26 -173.5 -177.5t-203.5 -151.5q-27 0 -191 152.5t-164 176.5q0 20 30 58.5t48 38.5q13 0 139.5 -90.5t137.5 -90.5q10 0 145 100.5t146 100.5q24 0 55 -45t31 -72z" />
    <glyph glyph-name="Lslash" unicode="&#x141;" horiz-adv-x="967" 
d="M967 102q0 -103 -27 -151q-11 -19 -236 -31q-160 -8 -270 -8q-210 0 -233 22q-30 29 -63 566q-58 -18 -72 -13q-61 20 -94 85q-8 16 -6 31q2 27 159 117q-23 429 -23 572q0 52 4 66q10 32 107 77q91 42 131 42q8 0 16 -2q35 -117 35 -617q104 48 114 41q4 -3 10 -16
q11 -20 27 -82q18 -67 18 -98q0 -10 -3 -15q-9 -16 -92 -58q-25 -13 -76 -34q-2 -174 -8 -408q157 5 328 5q211 0 223 -9q31 -22 31 -82z" />
    <glyph glyph-name="lslash" unicode="&#x142;" horiz-adv-x="627" 
d="M627 186q0 -106 -25 -147q-11 -19 -143 -31q-97 -8 -164 -8q-134 0 -159 23.5t-44 467.5q-90 -30 -108 -25q-61 21 -94 86q-8 16 -6 31q3 31 200 139q-6 202 -6 286q0 100 6 118q11 32 78 73.5t102 41.5l12 -2q31 -92 31 -387v-17q109 50 120 43q4 -2 10 -15
q11 -21 27 -82q18 -68 18 -98q0 -11 -3 -15q-9 -16 -92 -58q-27 -14 -82 -37q-2 -156 -6 -303q82 4 170 4q13 0 36.5 1t33.5 1q88 0 88 -90z" />
    <glyph glyph-name="Scaron" unicode="&#x160;" horiz-adv-x="887" 
d="M831 1251q0 -106 -100 -106q-26 0 -77.5 7t-78.5 7q-91 0 -173 -47q-97 -55 -97 -139q0 -116 128 -186q119 -63 238 -127q128 -101 128 -291q0 -179 -184 -307q-167 -115 -353 -115q-48 0 -79 46q-27 40 -27 91q0 35 18 57q12 15 124 50q133 41 192 73q100 54 100 121
q0 80 -137 145q-127 60 -255 120q-137 87 -137 222q0 167 106 293q96 114 261 174q112 41 203 41q76 0 130 -26q70 -34 70 -103zM813 1826q0 -26 -173.5 -177.5t-203.5 -151.5q-27 0 -191 152.5t-164 176.5q0 20 30 58.5t48 38.5q13 0 139.5 -90.5t137.5 -90.5
q10 0 145 100.5t146 100.5q24 0 55 -45t31 -72z" />
    <glyph glyph-name="scaron" unicode="&#x161;" horiz-adv-x="674" 
d="M666 868q0 -33 -24 -72q-27 -42 -58 -42q-30 0 -83.5 23.5t-82.5 23.5q-50 0 -102 -82q-48 -76 -48 -129q0 -55 180.5 -180.5t180.5 -196.5q0 -102 -103.5 -200.5t-206.5 -98.5q-45 0 -108 14q-77 18 -92 43q-13 21 -13 56q0 84 35 84q30 0 88.5 -11.5t87.5 -11.5
q42 0 77 21q40 24 40 63q0 43 -99 99q-156 89 -183 110q-99 77 -99 172q0 141 126 291q131 155 270 155q58 0 132 -36q85 -43 85 -95zM793 1458q0 -26 -173.5 -177.5t-203.5 -151.5q-27 0 -191 152.5t-164 176.5q0 20 30 58.5t48 38.5q13 0 139.5 -90.5t137.5 -90.5
q10 0 145 100.5t146 100.5q24 0 55 -45t31 -72z" />
    <glyph glyph-name="Zcaron" unicode="&#x17d;" horiz-adv-x="952" 
d="M891 1237q0 -161 -586 -889q438 27 500 27q53 0 53 -80q0 -62 -55 -82q-38 -14 -289 -44q-243 -30 -301 -30q-56 0 -99.5 47.5t-43.5 104.5q0 16 2 24q18 75 579 869q-34 -2 -247 -17q-151 -10 -246 -10q-43 0 -72 51q-25 44 -25 90q0 38 20 59t191 21q178 0 355 -25
q264 -39 264 -116zM875 1847q0 -26 -173.5 -177.5t-203.5 -151.5q-27 0 -191 152.5t-164 176.5q0 20 30 58.5t48 38.5q13 0 139.5 -90.5t137.5 -90.5q10 0 145 100.5t146 100.5q24 0 55 -45t31 -72z" />
    <glyph glyph-name="zcaron" unicode="&#x17e;" horiz-adv-x="819" 
d="M803 700q0 -119 -488 -393q284 8 373 8q55 0 55 -84q0 -66 -49 -79q-207 -56 -512 -56q-59 0 -101 51q-40 48 -40 109q0 16 2 25q17 75 487 372q-48 0 -205 -5q-128 -3 -206 -3q-39 0 -65 56q-21 45 -21 90q0 58 44 71q14 4 95 4q154 0 354 -35q277 -49 277 -131z
M813 1314q0 -26 -173.5 -177.5t-203.5 -151.5q-27 0 -191 152.5t-164 176.5q0 20 30 58.5t48 38.5q13 0 139.5 -90.5t137.5 -90.5q10 0 145 100.5t146 100.5q24 0 55 -45t31 -72z" />
    <glyph glyph-name="brokenbar" unicode="&#xa6;" horiz-adv-x="1024" 
d="M633 674h-240v758h240v-758zM633 -350h-240v758h240v-758z" />
    <glyph glyph-name="Eth" unicode="&#xd0;" horiz-adv-x="1044" 
d="M983 772q0 -304 -161 -555q-184 -287 -470 -287q-79 0 -174 33q-121 42 -121 105q0 29 28 65.5t56 36.5q12 0 25 -6q-16 198 -24 395q-133 17 -148 33q-45 46 -45 119q0 18 8 30q14 22 179 31q-4 210 1 414q-29 -10 -51 -10q-55 0 -55 77q0 119 148 176q107 41 249 41
q131 0 256 -73q299 -177 299 -625zM741 735q0 516 -368 516q6 -133 6 -321v-155q188 -3 196 -17q3 -4 3 -19q0 -28 -18 -102q-19 -80 -34 -90t-108 -10q-16 0 -42 1q-4 -235 -20 -419q207 41 305 230q80 154 80 386z" />
    <glyph glyph-name="eth" unicode="&#xf0;" horiz-adv-x="911" 
d="M856 496q0 -194 -96 -324q-106 -145 -293 -145q-162 0 -284 94q-132 103 -132 260q0 185 93 302q101 128 282 128q94 0 170 -33q-43 65 -102 121q-133 -53 -156 -53q-26 0 -60 29.5t-34 56.5q0 8 110 65q-47 23 -170 50q-39 8 -39 32q0 49 67 95q62 43 114 43
q118 0 254 -109q69 33 211 94q28 -21 28 -102q0 -48 -119 -108l-6 -3q162 -212 162 -493zM670 403q0 90 -75 158t-165 68q-89 0 -145 -57t-56 -146q0 -87 63 -149t150 -62q96 0 158 45q70 51 70 143z" />
    <glyph glyph-name="Yacute" unicode="&#xdd;" horiz-adv-x="858" 
d="M834 1350q0 -53 -116 -316q-99 -228 -153 -325h-2q-9 -613 -39 -633q-14 -10 -32 -10q-79 0 -138 57q-23 23 -47 586q-61 102 -168 329q-123 264 -123 326q0 43 37 87t80 44q14 0 23 -4q116 -231 272 -530q120 255 256 520q12 6 27 6q48 0 85.5 -44t37.5 -93zM678 1851
q0 -25 -118 -158q-122 -137 -159 -137q-26 0 -50 17.5t-24 41.5q0 25 80.5 150t102.5 135q17 8 37 8q31 0 76 -15q55 -18 55 -42z" />
    <glyph glyph-name="yacute" unicode="&#xfd;" horiz-adv-x="823" 
d="M741 135q0 -346 -20 -393q-50 -115 -149 -190q-105 -80 -224 -80q-64 0 -185 80q-126 84 -126 141q0 41 43.5 95t83.5 54q12 0 79 -71.5t115 -71.5q58 0 102 62q36 52 46 116q4 29 8 193q-53 -23 -121 -23q-232 0 -289 260q-47 215 -47 428q0 26 4 39q11 35 82 74
q67 37 107 37q13 0 22 -6q20 -14 28 -262q10 -274 17 -306q32 -131 127 -131q28 0 72 21q6 260 10 367q10 308 21 317q23 18 69 18q82 0 105 -35q7 -11 15 -343q5 -273 5 -390zM658 1278q0 -25 -118 -158q-122 -137 -159 -137q-26 0 -50 17.5t-24 41.5q0 25 80.5 150
t102.5 135q17 8 37 8q31 0 76 -15q55 -18 55 -42z" />
    <glyph glyph-name="Thorn" unicode="&#xde;" horiz-adv-x="983" 
d="M932 686q0 -227 -180 -365q-162 -125 -398 -131q-10 -128 -14 -143q-23 -72 -107 -72q-51 0 -81 35q-23 26 -23 709q0 673 31 696q44 33 135 33q34 0 47 -8q24 -15 29 -203q209 -46 374 -191q187 -164 187 -360zM678 651q0 211 -297 322v-25q4 -155 -14 -530l10 -2
q127 0 207 52q94 62 94 183z" />
    <glyph glyph-name="thorn" unicode="&#xfe;" horiz-adv-x="696" 
d="M684 705q0 -179 -121 -295q-116 -113 -297 -125q-2 -86 -14 -189q-25 -37 -76 -37q-41 0 -65.5 31t-24.5 811q0 478 25 510q44 57 84 57q13 0 20 -6q28 -23 35 -288q167 -43 294 -170q140 -139 140 -299zM489 676q0 179 -227 274q10 -130 8 -475q98 3 156 52
q63 53 63 149z" />
    <glyph glyph-name="minus" unicode="&#x2212;" 
d="M1452 494h-1198v235h1198v-235z" />
    <glyph glyph-name="multiply" unicode="&#xd7;" 
d="M1473 170l-162 -162l-441 441l-440 -441l-162 162l441 440l-441 443l162 161l440 -440l441 440l162 -161l-441 -443z" />
    <glyph glyph-name="onesuperior" unicode="&#xb9;" horiz-adv-x="313" 
d="M231 1255q0 -571 -24 -587q-13 -9 -25 -9q-41 0 -69 31q-13 14 -23 270q-8 204 -8 308q0 74 9.5 85t48.5 23q36 10 57 10q34 0 34 -131z" />
    <glyph glyph-name="twosuperior" unicode="&#xb2;" horiz-adv-x="545" 
d="M504 760q0 -94 -242 -94q-205 0 -205 131q0 96 70 179l129 122q70 66 70 123q0 26 -39 26q-32 0 -90 -20.5t-88 -20.5q-29 0 -49 26q-19 23 -19 52q0 57 92 84q64 18 143 18q224 0 224 -200q0 -74 -76 -157q-18 -19 -141 -128q-76 -66 -76 -102q0 -13 26 -13
q38 0 110 21.5t110 21.5q51 0 51 -69z" />
    <glyph glyph-name="threesuperior" unicode="&#xb3;" horiz-adv-x="604" 
d="M543 842q0 -116 -142 -172q-102 -39 -241 -39q-86 0 -86 104q0 24 10 39q4 6 165 24q152 16 152 58q0 40 -150 62q-166 25 -167 26q-23 19 -23 53q0 46 15 72q5 9 167 32q156 23 156 60q0 41 -153 58q-161 17 -168 30q-4 8 -4 29q0 61 12 81q17 27 72 27q139 0 241 -39
q142 -55 142 -171q0 -109 -138 -164q140 -51 140 -170z" />
    <glyph glyph-name="onehalf" unicode="&#xbd;" horiz-adv-x="1223" 
d="M1141 104q0 -94 -242 -94q-205 0 -205 131q0 97 70 179q1 0 131 121q70 66 70 122q0 29 -41 29q-32 0 -89.5 -20.5t-86.5 -20.5t-49.5 23.5t-20.5 52.5q0 57 93 84q66 20 144 20q222 0 222 -203q0 -74 -76 -156q-17 -18 -141 -126q-76 -66 -76 -103q0 -12 28 -12
q38 0 110 21.5t110 21.5q49 0 49 -70zM987 1229q0 -54 -639 -924q-215 -293 -229 -293q-26 0 -43 46q-15 37 -15 67q0 28 362 578q365 554 415 595h6q24 0 81 -23q62 -27 62 -46zM283 1163q0 -544 -25 -561q-12 -8 -25 -8q-40 0 -69 31q-13 13 -23 270q-8 202 -8 307
q0 75 8 84q11 13 50 24q36 11 57 11l16 -4q19 -9 19 -154z" />
    <glyph glyph-name="onequarter" unicode="&#xbc;" horiz-adv-x="1194" 
d="M1112 326q0 -39 -23 -53q-15 -8 -59 -11q-2 -99 -4 -130q-5 -106 -16.5 -114t-24.5 -8q-41 0 -70 33q-10 12 -20 215q-74 -2 -55 -2q-211 0 -226 8q-39 22 -39 43q0 27 63 211q66 193 87 199q7 2 23 2q88 0 88 -53q0 -34 -97 -269q50 0 150 -2q-4 110 -4 205q0 85 8 96
q27 37 106 37q28 0 33 -50q0 1 0 -73v-223q80 -6 80 -61zM987 1229q0 -54 -639 -924q-215 -293 -229 -293q-26 0 -43 46q-15 37 -15 67q0 28 362 578q365 554 415 595h6q24 0 81 -23q62 -27 62 -46zM283 1163q0 -544 -25 -561q-12 -8 -25 -8q-40 0 -69 31q-13 13 -23 270
q-8 202 -8 307q0 75 8 84q11 13 50 24q36 11 57 11l16 -4q19 -9 19 -154z" />
    <glyph glyph-name="threequarters" unicode="&#xbe;" horiz-adv-x="1395" 
d="M1313 326q0 -39 -23 -53q-16 -8 -59 -11q-2 -99 -4 -130q-5 -106 -17 -114t-24 -8q-41 0 -70 33q-10 12 -20 215q-74 -2 -56 -2q-210 0 -225 8q-37 21 -37 43q0 27 63 211q65 192 87 199q6 2 20 2q88 0 88 -53q0 -34 -96 -269q50 0 150 -2q-5 110 -5 205q0 85 9 96
q27 37 106 37q28 0 33 -50q0 1 0 -73v-223q80 -6 80 -61zM1188 1229q0 -54 -639 -924q-215 -293 -230 -293q-26 0 -43 49q-12 37 -12 70q0 25 362 574q364 554 412 593h9q24 0 80 -23q61 -27 61 -46zM563 782q0 -116 -142 -171q-102 -40 -241 -40q-86 0 -86 105q0 24 10 39
q5 6 166 23q152 17 152 59q0 40 -151 62q-165 25 -167 26q-22 18 -22 53q0 46 14 72q5 8 168 32q156 22 156 60q0 41 -154 57q-161 17 -168 31q-4 8 -4 29q0 61 13 81q17 27 71 27q139 0 241 -40q142 -55 142 -171q0 -108 -137 -164q139 -51 139 -170z" />
    <glyph glyph-name="franc" unicode="&#x20a3;" horiz-adv-x="1776" 
d="M1036 1274q0 -60 -45 -88q-16 -10 -291 -12q-224 -1 -323 2q5 -222 4 -412q456 -7 507.5 -28.5t51.5 -88.5q0 -61 -41 -88q-37 -24 -522 -24q-11 -584 -33 -601q-13 -10 -31 -10q-74 0 -120 56q-18 20 -41 563q-64 7 -64 125q0 82 55 90q-10 298 -8 436q-45 11 -45 117
q0 57 22 77.5t81 20.5q136 0 418 -14q335 -17 376 -35q49 -22 49 -86zM1714 -118q0 -43 -33 -75t-75 -32q-28 0 -140 204q-99 178 -131 257q-39 -9 -86 -12q-3 -143 -4 -146q-14 -80 -86 -80q-41 0 -65.5 31t-24.5 635q0 372 25 401q41 50 122 50q40 0 134 -48
q317 -159 317 -423q0 -214 -166 -334q53 -83 123 -216q90 -170 90 -212zM1472 615q0 179 -227 274q10 -130 8 -475q98 3 156 52q63 53 63 149z" />
    <glyph glyph-name="Gbreve" unicode="&#x11e;" horiz-adv-x="1376" 
d="M1294 702q0 -49 -32 -55q8 -131 8 -356q0 -381 -10 -397q-29 -46 -84 -46q-48 0 -72 39q-6 10 -23 279q-133 -123 -385 -123q-247 0 -443 214q-192 208 -192 454q0 522 492 723q155 63 305 63q115 0 215 -81q107 -86 107 -197q0 -58 -41 -58q-9 0 -102 48t-179 48
q-61 0 -178 -47q-393 -158 -393 -499q0 -172 120.5 -298t290.5 -126q219 0 365 196q-3 77 -4 146q-104 -4 -187 -4q-167 0 -180 10q-28 23 -28 100q0 39 17.5 61.5t461.5 22.5q109 0 122 -7q29 -15 29 -110zM1026 1888q0 -16 -32 -62q-60 -83 -142 -147q-102 -80 -182 -80
q-93 0 -189 77q-81 63 -139 157q-35 55 -35 75q0 23 29 59t51 36l104.5 -89.5t170.5 -89.5q67 0 173.5 78t110.5 78q24 0 52 -34t28 -58z" />
    <glyph glyph-name="gbreve" unicode="&#x11f;" horiz-adv-x="909" 
d="M821 682q0 -710 -30 -786q-45 -111 -166 -197t-238 -86q-69 0 -204 78q-142 82 -142 141q0 42 31 91q34 54 73 54q16 0 105.5 -68.5t140.5 -68.5q57 0 133 68.5t76 124.5v98q-68 -37 -147 -37q-175 0 -285 118q-107 115 -107 290q0 225 152 351q145 120 373 110
q0 64 17 78q14 12 83 12q105 0 127 -33q8 -12 8 -338zM596 319q-5 160 -12 480q-123 -8 -210 -83q-93 -80 -93 -200q0 -91 60 -161t151 -70q50 0 104 34zM760 1397q0 -16 -32 -62q-60 -83 -142 -147q-102 -80 -182 -80q-93 0 -189 77q-81 63 -139 157q-35 55 -35 75
q0 23 29 59t51 36l104.5 -89.5t170.5 -89.5q67 0 173.5 78t110.5 78q24 0 52 -34t28 -58z" />
    <glyph glyph-name="Idotaccent" unicode="&#x130;" horiz-adv-x="487" 
d="M367 1030q0 -1056 -37 -1087q-10 -9 -31 -9q-72 0 -121 56q-18 20 -39 597q-18 499 -18 679q0 172 11 189.5t92 42.5q75 24 106 24q13 0 18 -4q19 -14 19 -488zM391 1811q0 -44 -45 -112q-48 -73 -88 -73q-46 0 -91 43t-45 88q0 46 77 114.5t124 68.5q32 0 52 -51
q16 -40 16 -78z" />
    <glyph glyph-name="Scedilla" unicode="&#x15e;" horiz-adv-x="887" 
d="M831 1251q0 -106 -100 -106q-26 0 -77.5 7t-78.5 7q-91 0 -173 -47q-97 -55 -97 -139q0 -116 128 -186q119 -63 238 -127q128 -101 128 -291q0 -184 -195 -314q-11 -28 -79 -134q99 -2 176 -51q89 -57 89 -150q0 -95 -96 -144q-75 -38 -181 -38q-170 0 -266 133
q-27 37 -27 57q0 21 90 21q73 0 84 -8q26 -21 53.5 -40.5t63.5 -19.5q33 0 61.5 19.5t28.5 50.5q0 28 -35 44q-27 13 -59 13q-13 0 -38 -7t-38 -7q-23 0 -62.5 35t-39.5 57q0 19 37 71q-54 -10 -104 -10q-48 0 -79 46q-27 40 -27 91q0 35 18 57q12 15 124 50q133 41 192 73
q100 54 100 121q0 80 -137 145q-127 60 -255 120q-137 87 -137 222q0 167 106 293q96 114 261 174q112 41 203 41q76 0 130 -26q70 -34 70 -103z" />
    <glyph glyph-name="scedilla" unicode="&#x15f;" horiz-adv-x="674" 
d="M666 868q0 -33 -24 -72q-27 -42 -58 -42q-30 0 -83.5 23.5t-82.5 23.5q-50 0 -102 -82q-48 -76 -48 -129q0 -55 180.5 -180.5t180.5 -196.5q0 -76 -61.5 -154.5t-145.5 -118.5q-15 -32 -74 -123q99 -2 176 -51q88 -57 88 -150q0 -96 -95 -144q-75 -38 -181 -38
q-170 0 -266 133q-27 37 -27 57q0 21 90 21q73 0 84 -8q26 -21 53.5 -40.5t63.5 -19.5q33 0 61.5 19.5t28.5 50.5q0 28 -35 44q-27 13 -59 13q-14 0 -38.5 -7t-37.5 -7q-23 0 -62.5 35t-39.5 57q0 36 91 140q-105 18 -124 49q-13 21 -13 56q0 84 35 84q30 0 88.5 -11.5
t87.5 -11.5q42 0 77 21q40 24 40 63q0 43 -99 99q-156 89 -183 110q-99 77 -99 172q0 141 126 291q131 155 270 155q58 0 132 -36q85 -43 85 -95z" />
    <glyph glyph-name="Cacute" unicode="&#x106;" horiz-adv-x="997" 
d="M977 1200q0 -86 -51 -86q-25 0 -128 46t-171 46q-154 0 -255 -214q-83 -176 -83 -351q0 -196 81 -345q101 -183 281 -183q47 0 115.5 26.5t81.5 26.5q57 0 57 -92q0 -60 -110 -100q-87 -31 -160 -31q-286 0 -441 242q-133 206 -133 507q0 515 320 692q107 60 217 60
q139 0 245 -53q134 -66 134 -191zM719 1831q0 -25 -118 -158q-122 -137 -159 -137q-26 0 -50 17.5t-24 41.5q0 25 80.5 150t102.5 135q17 8 37 8q31 0 76 -15q55 -18 55 -42z" />
    <glyph glyph-name="cacute" unicode="&#x107;" horiz-adv-x="723" 
d="M713 72q0 -144 -252 -144q-204 0 -315 172q-95 146 -95 361q0 173 117.5 302.5t290.5 129.5q61 0 111 -29q59 -35 59 -92q0 -34 -18 -80q-20 -55 -48 -55q-20 0 -58 15.5t-59 15.5q-85 0 -146 -82q-56 -75 -56 -162q0 -124 82 -214q84 -93 206 -93q58 0 97 20.5t43 20.5
q41 0 41 -86zM555 1278q0 -25 -118 -158q-122 -137 -159 -137q-26 0 -50 17.5t-24 41.5q0 25 80.5 150t102.5 135q17 8 37 8q31 0 76 -15q55 -18 55 -42z" />
    <glyph glyph-name="Ccaron" unicode="&#x10c;" horiz-adv-x="997" 
d="M977 1200q0 -86 -51 -86q-25 0 -128 46t-171 46q-154 0 -255 -214q-83 -176 -83 -351q0 -196 81 -345q101 -183 281 -183q47 0 115.5 26.5t81.5 26.5q57 0 57 -92q0 -60 -110 -100q-87 -31 -160 -31q-286 0 -441 242q-133 206 -133 507q0 515 320 692q107 60 217 60
q139 0 245 -53q134 -66 134 -191zM957 1867q0 -26 -173.5 -177.5t-203.5 -151.5q-27 0 -191 152.5t-164 176.5q0 20 30 58.5t48 38.5q13 0 139.5 -90.5t137.5 -90.5q10 0 145 100.5t146 100.5q24 0 55 -45t31 -72z" />
    <glyph glyph-name="ccaron" unicode="&#x10d;" horiz-adv-x="723" 
d="M713 72q0 -144 -252 -144q-204 0 -315 172q-95 146 -95 361q0 173 117.5 302.5t290.5 129.5q61 0 111 -29q59 -35 59 -92q0 -34 -18 -80q-20 -55 -48 -55q-20 0 -58 15.5t-59 15.5q-85 0 -146 -82q-56 -75 -56 -162q0 -124 82 -214q84 -93 206 -93q58 0 97 20.5t43 20.5
q41 0 41 -86zM711 1314q0 -26 -173.5 -177.5t-203.5 -151.5q-27 0 -191 152.5t-164 176.5q0 20 30 58.5t48 38.5q13 0 139.5 -90.5t137.5 -90.5q10 0 145 100.5t146 100.5q24 0 55 -45t31 -72z" />
    <glyph glyph-name="dcroat" unicode="&#x111;" horiz-adv-x="924" 
d="M1009 1180q0 -27 -14 -96q-16 -76 -28 -85.5t-89 -9.5q-13 0 -41 1l1 -87q0 -804 -39 -850q-28 -33 -82 -33q-66 0 -81 32q-5 11 -9 89q-83 -59 -178 -59q-157 0 -273 107q-119 110 -119 266q0 227 131 358q129 128 346 128q31 0 64 -3v71q-153 17 -166 32
q-36 43 -36 112q0 17 6 29q11 20 196 29q1 96 6 106q16 32 74 55q51 21 92 21q27 0 45 -11q12 -6 18 -167q167 -3 174 -17q2 -4 2 -18zM616 317q-8 191 -14 453h-20q-122 0 -211 -79q-92 -82 -92 -202q0 -81 56 -149q60 -72 140 -72q57 0 141 49z" />
    <glyph glyph-name="nonbreakingspace" unicode="&#xa0;" horiz-adv-x="543" 
 />
    <glyph glyph-name="apple" unicode="&#xf000;" horiz-adv-x="1618" 
d="M1167 1552q0 -131 -103 -234.5t-204 -103.5h-8h-8q-3 1 -8 3q-1 4 -2 14v22q0 132 102 237q96 99 229 124q1 -7 2 -23v-39zM1505 403q-90 -195 -152 -279q-118 -159 -257 -159q-46 0 -129.5 33t-124.5 33q-44 0 -130 -33t-128 -33q-129 0 -258 176q-213 291 -213 596
q0 211 117 349q124 145 331 145q67 0 156 -35q84 -33 123 -33q31 0 123.5 35t150.5 35q113 0 198 -38.5t161 -125.5q-201 -128 -201 -328q0 -114 59 -199.5t174 -138.5z" />
    <glyph glyph-name="sfthyphen" unicode="&#xad;" horiz-adv-x="874" 
d="M758 569q0 -28 -18 -102q-19 -80 -34 -90t-108 -10q-86 0 -267 17q-207 20 -225 38q-45 46 -45 119q0 18 9 30q22 35 391 35q284 0 295 -18q2 -4 2 -19z" />
    <glyph glyph-name="Euro" unicode="&#x20ac;" horiz-adv-x="1157" 
d="M1120 1161q0 -88 -53 -88q-25 0 -128 46t-171 46q-101 0 -186 -104q-64 -79 -105 -197q352 0 359 -14q2 -4 2 -16q0 -26 -18 -85q-19 -65 -32.5 -74t-109.5 -9q-42 0 -244 10q-4 -39 -4 -76q0 -13 2 -49q131 2 150 2q174 0 174 -31q0 -25 -18 -85q-19 -65 -32.5 -74
t-109.5 -9q-1 0 -131 6q39 -120 119 -199q92 -89 209 -89q47 0 116 26.5t82 26.5q26 0 42 -25.5t16 -52.5q0 -70 -107 -112q-83 -33 -166 -33q-207 0 -353 137q-135 126 -187 336q-150 11 -166 24q-45 38 -45 99q0 14 8 24q12 16 176 23q-6 71 -4 143q-90 8 -122 22
q-58 27 -58 101q0 14 8 25q12 15 186 22q36 223 165 373q146 172 357 172q136 0 244 -53q135 -67 135 -189z" />
    </font>
</defs>
</svg>
