<?xml version="1.0" standalone="no"?>
<!DOCTYPE svg PUBLIC "-//W3C//DTD SVG 1.1//EN" "http://www.w3.org/Graphics/SVG/1.1/DTD/svg11.dtd" >
<svg>
<metadata>
Created by FontForge 20090622 at Tue Feb 21 15:34:12 2017
 By deploy user
Copyright 2006 House Industries/Brand Design Co., Inc. All Rights Reserved.
</metadata>
<defs>
<font id="BurbankBigWide-Black" horiz-adv-x="707" >
  <font-face 
    font-family="Burbank Big Wd Bk"
    font-weight="700"
    font-stretch="normal"
    units-per-em="1000"
    panose-1="0 0 0 0 0 0 0 0 0 0"
    ascent="750"
    descent="-250"
    x-height="522"
    cap-height="695"
    bbox="-100 -311 1430 983"
    underline-thickness="50"
    underline-position="-50"
    unicode-range="U+0020-U+FB04"
  />
<missing-glyph horiz-adv-x="290" 
 />
    <glyph glyph-name="ff" unicode="ff" horiz-adv-x="1112" 
d="M1082 251q-50 2 -159 2l3 -281q-119 2 -269 -1q-4 139 -5 282h-75q0 59 -1 206l77 -3q2 134 70 204.5t222 70.5q75 0 167 -16q-5 -79 -9 -197q-32 4 -62 4q-60 0 -86 -17.5t-28 -54.5q96 -2 156 -2zM526 233q-44 1 -139 2l3 -223q-119 2 -269 -1q-4 104 -5 224h-95
q0 59 -1 206q35 -2 97 -3q5 136 71 201.5t212 65.5q74 0 173 -18q-5 -64 -9 -182q-50 4 -64 4q-59 0 -82.5 -18t-26.5 -59q86 -2 136 -2z" />
    <glyph glyph-name="fi" unicode="fi" horiz-adv-x="888" 
d="M532 233q-47 1 -146 2l4 -219q-119 2 -269 -1q-4 102 -5 220h-95q0 54 -1 201q35 -2 97 -3q4 132 60.5 199t193.5 67q69 0 147 -14q-5 -79 -9 -197q-25 3 -45 3q-42 0 -57 -14.5t-17 -49.5q90 -2 143 -2zM583 -17q1 156 -3 522q105 0 269 2q1 -389 4 -523q-118 1 -270 -1
zM720 535q-84 0 -124 26.5t-40 83.5q0 50 40 78.5t122 28.5q160 0 160 -106q0 -111 -158 -111z" />
    <glyph glyph-name="fl" unicode="fl" horiz-adv-x="893" 
d="M521 222q-42 1 -135 2l4 -212q-119 2 -269 -1q-3 98 -4 213h-96q0 59 -1 206q35 -2 97 -3q2 132 64.5 200t199.5 68q73 0 163 -16q-5 -79 -9 -197q-46 4 -58 4q-45 0 -63.5 -15t-22.5 -50q82 -2 131 -2zM856 -25l-270 1q3 252 3.5 442.5t0.5 255.5l-1 65l269 -2
q-2 -255 -2.5 -445.5t0.5 -253.5v-63z" />
    <glyph glyph-name="ffi" unicode="ffi" horiz-adv-x="1440" 
d="M1084 253q-55 1 -166 2l4 -286q-119 2 -269 -1q-4 142 -5 287h-95q0 54 -1 201q36 -1 97 -3v6q2 133 65.5 203.5t205.5 70.5q64 0 150 -15q-5 -79 -9 -197q-18 2 -48 2q-48 0 -69.5 -16.5t-21.5 -52.5v-7l163 -2zM506 233q-39 1 -119 2l3 -223q-119 2 -269 -1
q-4 104 -5 224h-95q0 59 -1 206l97 -3q5 133 72.5 200t213.5 67q73 0 160 -16q-5 -64 -9 -182q-28 3 -51 3q-61 0 -85 -19t-27 -60l116 -1zM1135 -7q1 146 -3 512q105 0 269 2q1 -379 4 -513q-118 1 -270 -1zM1272 535q-84 0 -124 26.5t-40 83.5q0 50 40 78.5t122 28.5
q160 0 160 -106q0 -111 -158 -111z" />
    <glyph glyph-name="ffl" unicode="ffl" horiz-adv-x="1438" 
d="M1062 247q-50 2 -159 2l3 -277q-119 2 -269 -1q-4 136 -5 278h-75q0 59 -1 206l77 -3v4q2 133 72 204t223 71q74 0 164 -16q-5 -79 -9 -197q-48 4 -63 4q-63 0 -86.5 -18.5t-26.5 -54.5v-3q96 -2 156 -2zM506 233q-39 1 -120 2l4 -223q-119 2 -269 -1q-4 104 -5 224h-95
q0 59 -1 206l97 -3q5 142 73.5 209t225.5 67q65 0 149 -12q-6 -74 -10 -192q-28 3 -50 3q-61 0 -86.5 -20.5t-27.5 -61.5l116 -1zM1401 -6l-270 1q3 252 3.5 438t-0.5 246v60l269 -2q-2 -255 -2.5 -441t-0.5 -244z" />
    <glyph glyph-name=".notdef" horiz-adv-x="290" 
 />
    <glyph glyph-name=".null" horiz-adv-x="0" 
 />
    <glyph glyph-name="nonmarkingreturn" horiz-adv-x="333" 
 />
    <glyph glyph-name="space" unicode=" " horiz-adv-x="290" 
 />
    <glyph glyph-name="exclam" unicode="!" horiz-adv-x="356" 
d="M183 -11q-80 0 -124 35t-44 96q0 57 41.5 91.5t123.5 34.5q75 0 118 -35.5t43 -94.5q0 -60 -46.5 -93.5t-111.5 -33.5zM60 278q-4 108 -36 422q21 -1 53.5 -2t122.5 -2.5t134 0.5q-14 -120 -29 -413q-109 2 -245 -5z" />
    <glyph glyph-name="quotedbl" unicode="&#x22;" horiz-adv-x="425" 
d="M37 399q-8 122 -27 294q64 -1 184 4q-7 -101 -8 -290q-49 0 -149 -8zM236 396q2 86 -8 315q63 -5 187 -5q-15 -118 -30 -313z" />
    <glyph glyph-name="numbersign" unicode="#" horiz-adv-x="678" 
d="M392 79q0 35 1 89q-64 0 -105 -1q0 -28 2 -76q-10 1 -26.5 1.5t-67.5 1.5t-90 0q1 30 1 72q-60 -2 -91 -2q4 83 -1 179q35 -1 92 -2q1 44 0 101q-27 0 -87 -2q4 80 -1 179q33 -1 86 -1l-2 75q82 -5 183 1q-1 -33 -1 -76h106l-2 91q85 -4 183 1q-1 -44 -1 -89q29 0 89 2
q-1 -10 -1.5 -26t-1.5 -65.5t1 -85.5q-37 1 -87 1q0 -65 1 -104q29 0 91 2q-1 -10 -1.5 -26t-1.5 -65t2 -87q-33 0 -88 1q0 -29 2 -89q-74 3 -184 0zM285 341h108q1 33 0 105q-70 0 -108 -1q-1 -43 0 -104z" />
    <glyph glyph-name="dollar" unicode="$" horiz-adv-x="695" 
d="M471 -62q-56 2 -117.5 2.5t-95.5 -0.5h-33q6 54 8 111q-99 22 -163 76.5t-70 137.5q126 -2 260 2q6 -26 32 -41t59 -15q68 0 68 32q0 17 -29 26.5t-113 15.5q-132 10 -196.5 52.5t-64.5 123.5q0 70 57 117.5t155 64.5l-10 123q83 -1 141 -1t89 1l30 1q-9 -69 -13 -129
q90 -22 151 -74.5t77 -137.5q-98 2 -259 -7q-5 27 -26 42t-51 15q-65 0 -65 -34q0 -20 28.5 -30.5t102.5 -15.5q145 -9 208.5 -47t63.5 -118q0 -75 -61.5 -122.5t-166.5 -63.5z" />
    <glyph glyph-name="percent" unicode="%" horiz-adv-x="880" 
d="M221 325q-107 0 -161.5 60.5t-54.5 155.5q0 83 61 138t157 55q105 0 161 -54.5t56 -152.5q0 -104 -60 -153t-159 -49zM223 435q36 0 36 94q0 90 -37 90t-37 -89q0 -95 38 -95zM201 -29l-92 14l554 713l95 -12zM655 -44q-98 0 -156.5 58t-58.5 150q0 86 58 146.5t161 60.5
q100 0 158 -56.5t58 -150.5q0 -98 -63 -153t-157 -55zM658 71q36 0 36 90t-37 90q-17 0 -27 -23t-10 -60q0 -97 38 -97z" />
    <glyph glyph-name="ampersand" unicode="&#x26;" horiz-adv-x="876" 
d="M352 -41q-69 0 -128.5 11.5t-110 36t-79.5 68.5t-29 102q0 126 150 180q-97 83 -97 162q0 69 46.5 116.5t122.5 68.5t176 21q118 0 209.5 -55t91.5 -147q0 -37 -15.5 -67t-46.5 -52.5t-61.5 -37.5t-74.5 -32q29 -16 100 -49q22 36 42 83l105.5 -48t78.5 -33l25 -10
q-20 -41 -48 -83q8 -3 31 -13t36 -15q-34 -49 -101 -175l-107 58q-135 -90 -316 -90zM317 504q0 -39 56 -86q85 31 85 85q0 26 -18.5 45t-50.5 19q-31 0 -51.5 -17t-20.5 -46zM384 124q45 0 93 28q-93 50 -167 94q-25 -23 -25 -52q0 -33 29 -51.5t70 -18.5z" />
    <glyph glyph-name="quotesingle" unicode="'" horiz-adv-x="204" 
d="M18 407q2 82 -8 300q62 -5 184 -5q-12 -113 -25 -299q-7 1 -19.5 1.5t-52 1.5t-79.5 1z" />
    <glyph glyph-name="parenleft" unicode="(" horiz-adv-x="411" 
d="M179 -166q-149 226 -149 473q0 310 158 497l212 -84q-53 -98 -76.5 -191t-23.5 -213q0 -180 111 -401q-57 -17 -115 -37.5l-88 -31.5z" />
    <glyph glyph-name="parenright" unicode=")" horiz-adv-x="412" 
d="M235 -176q-106 44 -235 83q111 220 111 401q0 219 -100 404q91 33 218 90q153 -187 153 -494q0 -238 -147 -484z" />
    <glyph glyph-name="asterisk" unicode="*" horiz-adv-x="425" 
d="M174 307l-150 67l70 106l-89 8q8 35 14 70l9 52l2 17q54 -14 102 -25l-17 104l184 6q-11 -73 -16 -111l109 29l28 -144q-54 -3 -84 -6l37.5 -57t25.5 -37l8 -10q-42 -14 -81 -29.5t-56 -23.5l-18 -8q-20 56 -38 98z" />
    <glyph glyph-name="plus" unicode="+" horiz-adv-x="559" 
d="M171 81q2 94 2 149l-162 -1q1 53 1 98.5t-1 76.5l-1 31q10 0 164 -3l-1 146l214 -3l-2 -143l164 1l-3 -204l-161 1l2 -148z" />
    <glyph glyph-name="comma" unicode="," horiz-adv-x="312" 
d="M118 -169l-123 86q56 45 89 83q-37 14 -59 47t-22 72q0 60 42.5 101t110.5 41q72 0 111.5 -43.5t39.5 -116.5q0 -130 -189 -270z" />
    <glyph glyph-name="hyphen" unicode="-" horiz-adv-x="388" 
d="M12 220q1 79 0.5 129t-1.5 73l-1 22q124 -3 216 -4t122 0h30q-3 -82 -4 -137t0 -69l1 -14h-363z" />
    <glyph glyph-name="period" unicode="." horiz-adv-x="318" 
d="M161 -21q-76 0 -116 38t-40 104q0 63 43.5 100t110.5 37t111 -38.5t43 -97.5q-2 -68 -41 -105.5t-111 -37.5z" />
    <glyph glyph-name="slash" unicode="/" horiz-adv-x="529" 
d="M-5 -116l144.5 414.5t108.5 329.5l37 114q61 -2 123 -2t94 1l32 1l-290 -858h-249z" />
    <glyph glyph-name="zero" unicode="0" horiz-adv-x="880" 
d="M439 -28q-180 0 -299.5 103t-119.5 266q0 118 56.5 201t149.5 121.5t213 38.5q197 0 309 -92.5t112 -265.5t-117 -272.5t-304 -99.5zM443 195q53 0 88.5 39t35.5 112q0 63 -35.5 103.5t-88.5 40.5q-63 0 -94.5 -40t-31.5 -108q0 -61 32 -104t94 -43z" />
    <glyph glyph-name="one" unicode="1" horiz-adv-x="520" 
d="M176 -3q2 237 2 396l-103 -49l-75 224l261 126l188 -15l6 -681z" />
    <glyph glyph-name="two" unicode="2" horiz-adv-x="788" 
d="M764 -1q-251 4 -434 5.5t-241 1.5l-58 -1l-7 258q443 72 443 197q0 27 -18 45.5t-52 18.5q-100 0 -88 -142l-298 4q-10 157 97.5 243.5t307.5 86.5q182 0 272 -64t90 -172q0 -103 -94.5 -169t-268.5 -94q90 2 176.5 7t128.5 10l41 4q-1 -72 0 -125t2 -83z" />
    <glyph glyph-name="three" unicode="3" horiz-adv-x="832" 
d="M421 -27q-199 0 -313 69.5t-108 211.5q203 -6 325 -12q-4 -34 22.5 -52t76.5 -18q41 0 69 14t28 36q0 37 -64 49q-69 12 -178 0q-1 61 -6 154q96 -6 168 4q78 11 78 49q0 23 -25 36.5t-65 13.5q-51 0 -79 -22.5t-25 -56.5q-86 4 -163.5 6t-111.5 2h-35q-1 121 106 189
t307 68q172 0 279.5 -61.5t107.5 -160.5q0 -51 -40 -87.5t-103 -51.5q68 -13 111.5 -54t43.5 -100q0 -78 -58 -130.5t-146 -74t-202 -21.5z" />
    <glyph glyph-name="four" unicode="4" horiz-adv-x="825" 
d="M453 -1l1 104q-101 0 -445 -4q-3 62 -4 212l280 389q134 -5 243 -7t151 -1h42q-2 -291 -1 -382q34 0 100 2l-1 -208h-98l2 -104q-79 -2 -146.5 -2.5t-95.5 0.5zM300 310q38 -1 156 -1v230z" />
    <glyph glyph-name="five" unicode="5" horiz-adv-x="820" 
d="M418 -27q-174 0 -282.5 67.5t-125.5 193.5l304 4q7 -29 33.5 -48t68.5 -19q38 0 63.5 16t25.5 47q0 27 -22.5 44.5t-70.5 17.5q-67 0 -88 -34q-119 9 -294 16q7 177 8 415q172 -1 721 9q-3 -77 -3 -214q-141 1 -452 -8v-69q81 36 201 36q151 0 230.5 -63t79.5 -161
q0 -67 -31.5 -116.5t-87.5 -78t-125 -42t-153 -13.5z" />
    <glyph glyph-name="six" unicode="6" horiz-adv-x="857" 
d="M434 -29q-193 0 -303.5 95.5t-110.5 271.5q0 182 115 277t314 95q167 0 267 -64.5t115 -172.5q-89 0 -170 -2t-117 -5l-36 -2q-20 45 -72 45q-47 0 -75.5 -39t-33.5 -99q42 30 106.5 48.5t126.5 18.5q292 0 292 -197q0 -89 -57.5 -151.5t-150 -90.5t-210.5 -28zM455 291
q-60 0 -112 -38q33 -78 111 -78q42 0 62.5 16.5t20.5 40.5q0 27 -21 43t-61 16z" />
    <glyph glyph-name="seven" unicode="7" horiz-adv-x="722" 
d="M157 -1q-2 145 57 263t174 200l-383 -9l2 237l707 9q-1 -97 0 -156t2 -85l1 -25q-136 -71 -191.5 -176.5t-53.5 -269.5z" />
    <glyph glyph-name="eight" unicode="8" horiz-adv-x="857" 
d="M445 -23q-220 0 -330 59t-110 169q0 58 42 97t121 49q-64 22 -101.5 64t-37.5 97q0 89 99 145.5t305 56.5q196 0 300 -59.5t104 -145.5q0 -55 -36 -94.5t-102 -58.5q71 -16 112 -54t41 -92q0 -63 -35 -109.5t-94.5 -72.5t-129 -38.5t-148.5 -12.5zM437 160q43 0 73 16
t30 44t-34 45.5t-86 23.5q-107 -13 -107 -66q0 -28 33 -45.5t91 -17.5zM452 413q86 18 86 65q0 25 -29.5 40.5t-80.5 15.5q-56 0 -81 -16t-25 -37q0 -25 37 -44t93 -24z" />
    <glyph glyph-name="nine" unicode="9" horiz-adv-x="845" 
d="M422 -22q-170 0 -282 69.5t-135 190.5q89 -2 158 -1t111 3l41 3q22 -58 106 -58q98 0 107 131q-74 -54 -218 -54q-139 0 -218 51t-79 147q0 123 112 188t288 65q190 0 301 -100.5t111 -275.5q0 -176 -111 -267.5t-292 -91.5zM418 387q54 0 106 26q-19 102 -105 102
q-46 0 -70 -17.5t-24 -45.5q0 -65 93 -65z" />
    <glyph glyph-name="colon" unicode=":" horiz-adv-x="300" 
d="M150 -25q-65 0 -103.5 35t-38.5 96q0 62 39 97t106 35q70 0 106 -34.5t36 -97.5q0 -131 -145 -131zM147 275q-65 0 -103.5 35t-38.5 103q0 58 38 91t106 33t105 -33.5t37 -90.5q0 -72 -40 -105t-104 -33z" />
    <glyph glyph-name="semicolon" unicode=";" horiz-adv-x="311" 
d="M122 -168l-58 46.5t-44 32.5l-15 10q41 38 75 85q-31 13 -50 43t-19 70q0 55 39.5 92.5t107.5 37.5q69 0 108.5 -41t39.5 -102q0 -56 -26 -106.5t-62.5 -86.5t-95.5 -81zM156 281q-65 0 -103.5 37.5t-38.5 93.5q0 57 41 94t105 37q61 0 101.5 -36.5t40.5 -94.5
q0 -64 -39.5 -97.5t-106.5 -33.5z" />
    <glyph glyph-name="less" unicode="&#x3c;" horiz-adv-x="485" 
d="M467 15l-457 182q1 11 1.5 31.5t2 87.5t-0.5 130l450 189q-1 -11 -2 -31t-2.5 -83t0.5 -118q-122 -34 -264 -79q137 -45 275 -83z" />
    <glyph glyph-name="equal" unicode="=" horiz-adv-x="492" 
d="M18 124q1 44 -3 175q211 -2 462 2l-1 -177q-184 3 -458 0zM477 361l-462 2l3 176q110 -2 224.5 -2t173.5 1l60 1z" />
    <glyph glyph-name="greater" unicode="&#x3e;" horiz-adv-x="488" 
d="M14 19q3 48 2 107t-2 81t1 32q160 40 286 84l-141.5 41.5t-100.5 27.5l-32 8q1 66 0 117.5t-3 82.5l-1 32l234 -98l165 -66l52 -20q-1 -74 0 -128t2 -84l2 -31z" />
    <glyph glyph-name="question" unicode="?" horiz-adv-x="792" 
d="M232 255l-3 150q139 -13 200.5 1t61.5 62q0 28 -25 45.5t-69 17.5q-50 0 -75.5 -28.5t-31.5 -71.5q-116 12 -290 16q26 130 126.5 201t264.5 71q177 0 286.5 -59t109.5 -170q0 -98 -75.5 -151t-203.5 -58l-1 -24q-95 1 -156 0.5t-90 -1.5zM381 -32q-89 0 -133 36t-44 97
q0 60 47.5 94.5t125.5 34.5q83 0 127 -34.5t44 -99.5q0 -60 -45 -94t-122 -34z" />
    <glyph glyph-name="at" unicode="@" horiz-adv-x="990" 
d="M644 -167q-98 -22 -186.5 -24t-171.5 21.5t-143.5 73t-96.5 138t-36 208.5q0 207 124.5 326.5t370.5 119.5q233 0 354 -109.5t121 -331.5q0 -156 -48 -218.5t-148 -62.5q-46 0 -86.5 21t-61.5 60q-68 -79 -232 -79q-112 0 -168.5 46.5t-56.5 120.5q0 156 286 156
q52 0 82 -2q-1 18 -2 30q-5 52 -55 52q-22 0 -40.5 -12t-22.5 -35q-105 2 -242 -2q4 100 90 155t240 55q139 0 211.5 -57t77.5 -153q4 -73 -3 -156q-4 -58 34 -58q23 0 33.5 26t10.5 106q0 177 -86.5 264.5t-285.5 87.5q-206 0 -301 -88.5t-95 -264.5q0 -211 131 -294.5
t382 -19.5q4 -29 20 -100zM554 186v31q-11 1 -31 1q-51 0 -77 -14.5t-26 -38.5q0 -22 15.5 -35t44.5 -13q70 0 74 69z" />
    <glyph glyph-name="A" unicode="A" horiz-adv-x="811" 
d="M0 18l198 678l420 5l193 -720q-175 2 -291 0l-23 107q-96 2 -204 2l-15 -73zM394 542q-21 -86 -61 -265q31 -1 123 -1z" />
    <glyph glyph-name="B" unicode="B" horiz-adv-x="799" 
d="M49 -2q-2 325 -9 690q186 30 334 30q190 0 285 -54t95 -152q0 -64 -39.5 -107.5t-110.5 -58.5q185 -33 185 -166q0 -108 -99 -159t-298 -51q-139 0 -343 28zM303 144q51 -7 81 -7q57 0 89 17.5t31 52.5q0 61 -130 61q-36 0 -73 -4zM299 526v-117q35 -3 64 -3
q115 0 115 66q0 27 -29 44.5t-81 17.5q-32 0 -69 -8z" />
    <glyph glyph-name="C" unicode="C" horiz-adv-x="855" 
d="M441 -15q-85 0 -157.5 19.5t-133 60.5t-95.5 112.5t-35 166.5q0 165 112.5 262.5t297.5 97.5q169 0 278 -79.5t131 -208.5l-301 -17q-11 48 -38.5 78.5t-69.5 30.5q-56 0 -85.5 -44.5t-29.5 -117.5q0 -69 32 -114t86 -45q98 0 115 120q89 -3 164.5 -7t106.5 -6l31 -3
q-10 -139 -120.5 -222.5t-288.5 -83.5z" />
    <glyph glyph-name="D" unicode="D" horiz-adv-x="837" 
d="M315 187q18 -1 27 -1q182 0 182 160q0 156 -170 156q-29 0 -45 -2zM40 -5q2 217 2.5 388.5t-0.5 234.5l-1 63q162 25 282 25q246 0 370 -91t124 -270q0 -364 -544 -364q-102 0 -233 14z" />
    <glyph glyph-name="E" unicode="E" horiz-adv-x="700" 
d="M48 5q0 282 -8 686q243 8 630 11q-1 -68 2 -202q-99 -1 -361 -7v-59q89 0 284 2q-2 -41 1 -174l-280 1q0 -17 2 -59q97 -4 357 -6l-1 -207q-269 11 -626 14z" />
    <glyph glyph-name="F" unicode="F" horiz-adv-x="659" 
d="M48 2q-1 290 -8 692l604 6q1 -96 5 -229q-185 -4 -337 -5v-86q98 0 252 2q-2 -75 1 -220q-99 1 -250 1l4 -160z" />
    <glyph glyph-name="G" unicode="G" horiz-adv-x="875" 
d="M441 -28q-184 -1 -302.5 99.5t-118.5 277.5q0 170 113.5 267t304.5 97q159 0 266.5 -64t135.5 -197q-134 -8 -289 -20q-11 37 -39.5 61.5t-72.5 24.5q-61 0 -97 -46t-36 -122q0 -81 41 -130t114 -49q86 0 128 53l-177 -5q3 43 0 169q186 -3 453 -5q0 -198 -114.5 -304.5
t-309.5 -106.5z" />
    <glyph glyph-name="H" unicode="H" horiz-adv-x="791" 
d="M480 -14v197q-53 0 -167 -1l3 -168q-134 1 -272 -1q1 277 -4 667q132 0 269 1q1 -110 2 -276q3 0 29.5 -0.5t55.5 -0.5h83l-3 306q129 -2 272 1q0 -319 3 -727z" />
    <glyph glyph-name="I" unicode="I" horiz-adv-x="370" 
d="M49 -1q1 307 -4 695q99 0 275 1q2 -335 5 -695q-132 1 -276 -1z" />
    <glyph glyph-name="J" unicode="J" horiz-adv-x="708" 
d="M335 -11q-159 0 -244.5 75.5t-85.5 218.5q0 60 14 106q64 -10 255 -24q-4 -24 -4 -57q0 -105 64 -105q28 0 44.5 19.5t26 78t9.5 162.5q0 101 -20 237q83 0 272 13q22 -134 22 -256q0 -468 -353 -468z" />
    <glyph glyph-name="K" unicode="K" horiz-adv-x="805" 
d="M495 -23l-103 235l-86 -107l2 -98l-268 -1v681l267 -1q-1 -97 -1 -249l190 276l309 -12l-212 -283l201 -430q-92 -1 -166.5 -3.5t-103.5 -4.5z" />
    <glyph glyph-name="L" unicode="L" horiz-adv-x="624" 
d="M46 2q0 409 -6 687q84 -3 271 0q-2 -77 4 -467l304 -2l-1 -221z" />
    <glyph glyph-name="M" unicode="M" horiz-adv-x="1028" 
d="M25 16q21 303 34 661q206 -1 390 2q13 -112 67 -352l75 388q171 -3 372 -11q13 -263 40 -717l-275 -8q1 24 2 68t2 173t1 250q-44 -199 -78 -374l-283 -1l-80 371q0 -240 7 -453q-133 2 -274 3z" />
    <glyph glyph-name="N" unicode="N" horiz-adv-x="801" 
d="M43 16q2 254 -3 659q130 5 258 8l195 -309q0 96 -11 338q137 0 265 -1q0 -273 14 -714q-130 -10 -265 -14l-198 314q0 -90 7 -283q-131 2 -262 2z" />
    <glyph glyph-name="O" unicode="O" horiz-adv-x="878" 
d="M439 -18q-190 1 -303.5 96t-115.5 268q-2 88 32.5 158.5t94 114t134 67t156.5 23.5q197 0 309.5 -95.5t111.5 -266.5q0 -91 -33.5 -162t-91 -115t-132.5 -66t-162 -22zM439 180q58 0 91 41t33 122q0 84 -33 127t-92 43q-57 0 -90 -44.5t-33 -124.5q-1 -71 32.5 -117.5
t91.5 -46.5z" />
    <glyph glyph-name="P" unicode="P" horiz-adv-x="754" 
d="M40 -1q1 28 1.5 82t1.5 229t1 362q155 25 272 25q433 0 433 -284q0 -75 -29 -129.5t-81 -85t-115.5 -45t-140.5 -14.5q-45 0 -68 2l3 -141q-171 1 -278 -1zM311 504q-1 -55 1 -185q16 -2 45 -2q128 0 128 100q0 42 -30 66.5t-88 24.5q-29 0 -56 -4z" />
    <glyph glyph-name="Q" unicode="Q" horiz-adv-x="879" 
d="M586 -174q-59 117 -85 163q-31 -3 -64 -3q-179 0 -297.5 93.5t-119.5 269.5q1 170 123.5 264t299.5 94q197 0 306.5 -98.5t109.5 -262.5q0 -174 -122 -271l105 -82zM440 178q57 0 90.5 41.5t33.5 130.5q0 72 -32 118.5t-91 46.5q-61 0 -93 -46t-32 -120
q0 -80 34.5 -125.5t89.5 -45.5z" />
    <glyph glyph-name="R" unicode="R" horiz-adv-x="776" 
d="M495 -24l-121 207q-23 -1 -71 -1q0 -30 1.5 -98.5t1.5 -82.5q-159 2 -266 -1q1 29 1.5 83t1.5 231t1 364q167 37 307 37q192 0 303.5 -72.5t110.5 -199.5q-1 -151 -134 -212l145 -218q-122 -13 -281 -37zM300 356q31 -4 65 -4q139 0 139 86q0 38 -32 62t-93 24
q-37 0 -80 -10z" />
    <glyph glyph-name="S" unicode="S" horiz-adv-x="808" 
d="M412 -23q-171 0 -279.5 69t-127.5 195q106 -1 293 9q9 -39 38.5 -64.5t78.5 -25.5q38 0 59.5 13.5t21.5 36.5q0 26 -32.5 39t-127.5 20q-77 6 -130.5 18t-97 36.5t-65 66.5t-21.5 103q0 102 98.5 162.5t263.5 60.5q168 1 274.5 -68.5t131.5 -198.5l-281 3q-15 79 -103 79
q-40 0 -63.5 -14.5t-23.5 -37.5q0 -30 39.5 -44t136.5 -21q169 -12 239 -60t69 -141q-1 -112 -107 -174t-284 -62z" />
    <glyph glyph-name="T" unicode="T" horiz-adv-x="677" 
d="M12 458l-2 238q489 -1 657 -1q-2 -126 -2 -237h-188q0 -204 4 -459q-133 0 -278 -1q0 176 -2 460h-189z" />
    <glyph glyph-name="U" unicode="U" horiz-adv-x="781" 
d="M391 -14q-371 0 -371 428q0 131 29 275q84 -13 269 -32q-22 -123 -22 -213q0 -229 91 -229q48 0 71.5 51t23.5 174q0 116 -18 264q85 1 273 9q24 -154 24 -271q0 -456 -370 -456z" />
    <glyph glyph-name="V" unicode="V" horiz-adv-x="798" 
d="M197 -16l-197 678l294 1q46 -211 104 -450l110 486h290l-193 -720q-200 0 -408 5z" />
    <glyph glyph-name="W" unicode="W" horiz-adv-x="1042" 
d="M569 -26q-32 331 -51 495l-49 -457l-406 15q-15 256 -53 657l258 2q9 -204 27 -461l58 420l337 -1q28 -232 59 -445l31 514l252 -3l-54 -721z" />
    <glyph glyph-name="X" unicode="X" horiz-adv-x="853" 
d="M331 5l-331 8l201 323q-68 136 -178 339l316 11q23 -65 82 -202l58.5 124.5t36.5 81.5l10 25l311 -11q-142 -252 -195 -354l112.5 -200t75.5 -126l23 -35l-332 -8q-63 137 -103 217z" />
    <glyph glyph-name="Y" unicode="Y" horiz-adv-x="800" 
d="M265 -10q-3 99 -8 156l-257 529q89 2 305 11q15 -63 92 -270l104 298q76 -4 299 -5l-264 -564q-3 -18 1 -154z" />
    <glyph glyph-name="Z" unicode="Z" horiz-adv-x="701" 
d="M674 -3l-648 6l1 188l297 281l-285 -6l-1 230q191 -1 330 0t217 2l78 1l3 -195l-305 -280l315 1z" />
    <glyph glyph-name="bracketleft" unicode="[" horiz-adv-x="427" 
d="M412 -143q-22 1 -57.5 1.5t-140 1.5t-170.5 0q4 337 -4 927q180 -2 368 2q-1 -85 3 -180q-61 0 -98 -3q-4 -295 0 -557q62 -2 104 -2q-5 -86 -5 -190z" />
    <glyph glyph-name="backslash" unicode="\" horiz-adv-x="529" 
d="M534 -112q-120 3 -249 0l-290 858q112 -4 249 0q128 -409 290 -858z" />
    <glyph glyph-name="bracketright" unicode="]" horiz-adv-x="425" 
d="M17 -139l-7 189l106 2q2 138 1.5 262t-1.5 210l-2 86l-96 2l1 183l366 -2q-4 -263 -4.5 -494.5t1.5 -331.5l1 -100q-75 1 -166.5 -0.5t-145.5 -3.5z" />
    <glyph glyph-name="asciicircum" unicode="^" horiz-adv-x="628" 
d="M618 242q-5 1 -16.5 2t-67 2t-134.5 1q-36 133 -87 297q-46 -136 -87 -309q-8 1 -23.5 2.5t-71.5 3.5t-121 1q67 171 159 447q8 -1 27 -1.5t92 -1.5t171 1q55 -171 159 -445z" />
    <glyph glyph-name="underscore" unicode="_" horiz-adv-x="563" 
d="M7 -173l-2 204q124 -3 265 -4t220 -1l78 1l-3 -200h-558z" />
    <glyph glyph-name="grave" unicode="`" horiz-adv-x="758" 
d="M400 542l-157 143q55 32 139 88q33 -47 133 -162q-39 -20 -115 -69z" />
    <glyph glyph-name="a" unicode="a" horiz-adv-x="708" 
d="M235 -20q-102 0 -163.5 44t-61.5 118q0 159 273 159q53 0 118 -6q0 11 -1 18q-6 58 -56 58q-52 0 -61 -46q-90 7 -247 11q12 92 99.5 146t211.5 54q179 0 254 -67.5t80 -206.5q2 -73 2 -135t-1 -103l-2 -41q-116 1 -246 -2q3 24 5 72q-33 -36 -89 -54.5t-115 -18.5z
M336 123q36 1 54.5 20.5t19.5 69.5q-23 2 -33 2q-46 0 -69.5 -13.5t-23.5 -35.5q0 -43 52 -43z" />
    <glyph glyph-name="b" unicode="b" horiz-adv-x="743" 
d="M32 -15q1 227 -2 702q7 0 24.5 -0.5t85.5 -1.5t164 1q-5 -68 -8 -229q66 73 168 73q118 0 188.5 -76.5t70.5 -197.5q0 -123 -78 -197t-199 -74q-67 0 -118 22t-77 61q2 -39 6 -82q-137 3 -225 -1zM362 140q85 0 85 120q0 44 -21 76.5t-65 32.5q-37 0 -60 -31t-23 -77
q0 -53 21 -87t63 -34z" />
    <glyph glyph-name="c" unicode="c" horiz-adv-x="704" 
d="M369 -17q-172 0 -260.5 70.5t-88.5 207.5q0 122 84.5 196t243.5 74q149 0 243 -62t104 -170l-288 -12q-1 30 -15 53.5t-41 23.5q-31 0 -47 -30t-16 -74q0 -51 16 -77t43 -26q21 0 36.5 15.5t19.5 47.5q99 -7 296 -14q-25 -107 -115 -165t-215 -58z" />
    <glyph glyph-name="d" unicode="d" horiz-adv-x="747" 
d="M712 -25l-226 2q4 40 7 98q-28 -45 -84 -68.5t-114 -23.5q-121 0 -198 74t-77 196t67.5 198.5t184.5 76.5q107 0 173 -73l-5 238q51 -1 272 1q-2 -334 0 -719zM379 141q39 0 63 28.5t24 86.5q0 47 -22.5 80.5t-60.5 33.5q-43 0 -65 -32t-22 -80q0 -59 23.5 -88t59.5 -29z
" />
    <glyph glyph-name="e" unicode="e" horiz-adv-x="749" 
d="M387 -21q-191 0 -279.5 74.5t-87.5 207.5q0 129 97 199.5t249 70.5q198 -1 286 -84.5t82 -246.5q-127 0 -432 -4q18 -68 78 -68q52 0 71 46q68 -6 283 -11q-86 -184 -347 -184zM380 379q-74 0 -83 -88l161 6q-4 40 -21.5 61t-56.5 21z" />
    <glyph glyph-name="f" unicode="f" horiz-adv-x="586" 
d="M556 243q-57 1 -169 2l3 -243q-119 2 -269 -1q-3 116 -5 244h-95q0 59 -1 206q36 -1 97 -3v5q1 55 14 97t42.5 78.5t85 56t135.5 19.5q82 0 192 -19q-5 -79 -9 -197q-54 6 -89 6q-56 0 -75.5 -12t-21.5 -36v-4l166 -2z" />
    <glyph glyph-name="g" unicode="g" horiz-adv-x="684" 
d="M326 -311q-147 0 -236.5 31.5t-89.5 99.5q0 39 37 63.5t101 30.5q-49 8 -83.5 37t-34.5 65q0 82 122 118q-129 53 -129 181q0 80 48 131.5t117 70.5t160 19l42 -1q22 117 35 205l275 -123l-117 -125q103 -56 103 -184q0 -57 -28 -99t-76 -64.5t-102.5 -33t-117.5 -10.5
q-33 0 -66 3q-3 -6 -3 -13q0 -16 25.5 -23.5t101.5 -11.5q158 -6 223.5 -48t65.5 -122q0 -66 -57 -112t-138.5 -65.5t-177.5 -19.5zM340 194q63 0 63 91q0 86 -63 86q-62 0 -62 -88q0 -40 16 -64.5t46 -24.5zM448 -147q0 42 -102 48q-63 -16 -63 -53q0 -43 83 -42
q34 0 58 13t24 34z" />
    <glyph glyph-name="h" unicode="h" horiz-adv-x="709" 
d="M30 14q1 34 1.5 92t1.5 241t-1 337q99 0 271 1q-1 -92 -1 -226q30 33 75.5 54.5t94.5 21.5q94 0 149.5 -56t59.5 -150q3 -71 3 -157.5t-1 -137.5l-1 -51l-264 1q5 148 0 257q-4 73 -51 73q-32 0 -45.5 -21t-15.5 -61q-2 -44 -2.5 -98t0.5 -86l1 -33q-124 3 -275 -1z" />
    <glyph glyph-name="i" unicode="i" horiz-adv-x="342" 
d="M37 1q1 128 -3 494q105 0 269 2q1 -361 4 -495q-118 1 -270 -1zM174 525q-84 0 -124 26.5t-40 83.5q0 50 40 78.5t122 28.5q160 0 160 -106q0 -111 -158 -111z" />
    <glyph glyph-name="j" unicode="j" horiz-adv-x="340" 
d="M177 524q-166 0 -166 113q0 49 40.5 78.5t120.5 29.5q78 0 118 -29t40 -80q0 -112 -153 -112zM-100 -232q1 5 2 16t2 59t1 112q27 -4 53 -4q43 0 61 19.5t19 66.5q1 96 1 196.5t-1 178.5l-1 77q93 -2 152 -2t86 1l27 2q1 -19 2 -55.5t2 -161.5t0 -264q-1 -256 -262 -256
q-66 0 -144 15z" />
    <glyph glyph-name="k" unicode="k" 
d="M422 -22l-68 174l-55 -75l1 -63q-71 2 -138.5 2t-99.5 -1l-32 -1q3 233 4 401t0 219l-1 51q81 -2 148 -2.5t94 -0.5l27 1q-1 -82 -2 -200t-1 -145l40.5 104.5l28.5 76.5l8 25q96 -4 174.5 -6t109.5 -2h31l-144 -209l160 -334q-97 -3 -168.5 -7t-94.5 -6z" />
    <glyph glyph-name="l" unicode="l" horiz-adv-x="342" 
d="M305 0l-270 1q3 252 3.5 427t-0.5 224v48l269 -2z" />
    <glyph glyph-name="m" unicode="m" horiz-adv-x="1082" 
d="M33 11q3 207 -3 486q90 -3 208 0q-2 -37 -2 -84q35 54 93 88t122 34q150 0 203 -110q72 75 192 75q59 0 101 -20.5t63.5 -55t31 -68.5t12.5 -74q3 -63 2.5 -129.5t-2.5 -118.5l-2 -52l-263 2q7 113 -3 226q-5 66 -47 66q-28 0 -41.5 -19.5t-16.5 -61.5q-2 -23 -2 -65
t1 -72l1 -30q-116 2 -270 -1q1 14 3 35.5t4 83t-3 98.5q-6 67 -52 67q-52 0 -59 -80q-4 -43 -4.5 -97.5t0.5 -87.5l1 -34q-100 2 -268 -1z" />
    <glyph glyph-name="n" unicode="n" 
d="M414 -18q1 13 1.5 36l2 94t-1.5 128q-3 74 -52 74q-29 0 -43 -19.5t-17 -61.5q-2 -31 -2.5 -86t0.5 -95l1 -40q-174 3 -273 0l2 484q129 -2 209 1l-1 -79q29 51 90.5 85t130.5 33q99 -2 156.5 -59t61.5 -164q2 -52 2.5 -134.5t0.5 -138.5l-1 -57z" />
    <glyph glyph-name="o" unicode="o" horiz-adv-x="758" 
d="M377 -13q-161 0 -259 69t-98 214q0 83 46.5 142.5t125.5 88.5t180 29q165 0 266 -70.5t100 -196.5q0 -73 -30 -128t-82 -86.5t-114.5 -46.5t-134.5 -15zM381 147q40 0 60.5 26t19.5 93q0 52 -21 80.5t-60 28.5q-38 0 -61 -27t-23 -76q0 -125 85 -125z" />
    <glyph glyph-name="p" unicode="p" horiz-adv-x="759" 
d="M30 -216v730l240 1q-1 -48 -1 -78q31 41 82.5 66.5t114.5 25.5q124 0 198.5 -82t74.5 -190q1 -119 -76 -195.5t-198 -76.5q-115 0 -169 69l13 -269zM382 139q81 0 81 119q1 44 -20 77.5t-63 33.5q-39 0 -62 -29.5t-23 -85.5q0 -52 22.5 -83.5t64.5 -31.5z" />
    <glyph glyph-name="q" unicode="q" horiz-adv-x="759" 
d="M446 -213q10 157 14 272q-24 -35 -72.5 -58t-106.5 -23q-114 0 -187.5 79.5t-73.5 195.5q0 127 78 204t188 77q62 0 116 -29t84 -75l-4 83q80 -2 140.5 -2t81.5 1l20 1q-2 -198 -2 -379.5t1 -263.5l1 -82zM379 137q39 0 61.5 30.5t22.5 88.5q0 47 -21.5 79t-60.5 32
q-44 0 -65 -31t-21 -81q0 -118 84 -118z" />
    <glyph glyph-name="r" unicode="r" horiz-adv-x="532" 
d="M32 1q0 272 -2 495q87 0 217 1q-1 -35 -1 -78q35 63 106.5 92t174.5 10q-4 -105 -6 -236q-47 0 -81 2.5t-58 -5.5t-39.5 -17.5t-24.5 -32.5t-13 -51t-5 -73l2 -106q-108 1 -270 -1z" />
    <glyph glyph-name="s" unicode="s" horiz-adv-x="661" 
d="M349 -36q-150 0 -242 55.5t-107 162.5q66 -2 255 1q6 -23 27 -36.5t52 -13.5q60 0 60 28q0 15 -27.5 23.5t-106.5 15.5q-122 11 -181.5 49t-59.5 115q0 85 83 132.5t212 47.5q154 0 245 -60t102 -150q-74 0 -247 -12q-19 50 -74 50q-52 0 -52 -28q0 -17 24.5 -27
t92.5 -14q139 -8 197.5 -44.5t58.5 -109.5q0 -87 -84 -136t-228 -49z" />
    <glyph glyph-name="t" unicode="t" horiz-adv-x="560" 
d="M545 19q-115 -27 -202 -27q-123 0 -184.5 64.5t-65.5 207.5l-2 91l-90 -1q1 75 1 118t-1 60l-1 16l92 -2l3 117l268 2q-2 -51 -4 -121l177 1l-1 -193l-176 3l3 -61q2 -41 21.5 -59t63.5 -18q31 0 81 9z" />
    <glyph glyph-name="u" unicode="u" 
d="M271 4q-136 0 -191 81.5t-55 245.5q0 87 13 183q59 -8 255 -19q-7 -72 -7 -119q0 -90 14 -128.5t47 -38.5q23 0 36.5 16.5t17.5 56.5q5 50 6 110.5t-1 96.5l-2 36q58 -3 266 -3q-2 -220 2 -526l-218 1q2 44 2 103q-30 -45 -79.5 -70.5t-105.5 -25.5z" />
    <glyph glyph-name="v" unicode="v" horiz-adv-x="696" 
d="M526 -1q-100 5 -186.5 6.5t-123.5 0.5l-36 -1l-180 490l279 11l36.5 -182.5t23.5 -109.5l7 -30q32 132 51 219.5t23 109.5l3 22l273 -6z" />
    <glyph glyph-name="w" unicode="w" horiz-adv-x="955" 
d="M534 -6q-16 82 -31 149l-21 93l-7 25l-30 -135.5t-17 -85.5l-5 -25q-130 -2 -205.5 -1.5t-103.5 1.5l-29 1l-85 480q93 -2 150 -1t82 3l25 1q5 -85 10.5 -158.5t8.5 -104.5l4 -31l81 303q65 -2 122 -2.5t81 0.5h24q27 -94 50 -166.5t32 -97.5l9 -26q5 91 11 170.5
t10 113.5l3 33l252 -4q-29 -155 -51.5 -287.5l-31.5 -187.5l-8 -55q-88 1 -170.5 -0.5t-121.5 -2.5z" />
    <glyph glyph-name="x" unicode="x" horiz-adv-x="765" 
d="M0 5l165 268l-148 229l305 7l62 -143l80 177q86 -6 157.5 -9.5t100.5 -3.5l29 -1l-158 -267l172 -274q-92 0 -167 -1.5t-104 -2.5l-28 -2q-54 114 -86 173l-76 -154z" />
    <glyph glyph-name="y" unicode="y" horiz-adv-x="686" 
d="M450 -253l-279 39l52 153l-223 551q87 2 158.5 6t99.5 7l27 3q15 -80 31.5 -155t25.5 -110l8 -35l39.5 170t26.5 122l8 39q105 -6 170.5 -9t78.5 -2h13z" />
    <glyph glyph-name="z" unicode="z" horiz-adv-x="628" 
d="M606 -3q-220 5 -366.5 7t-183.5 2l-36 -1l2 153l142.5 94l89.5 62l25 19q-81 -2 -143 -5.5t-84 -5.5l-21 -2q1 74 0.5 118t-1.5 62l-1 17q183 0 325.5 1t193.5 2l50 2l1 -159l-142 -94t-86 -60l-23 -17q60 0 125 2.5t100 5.5l35 2z" />
    <glyph glyph-name="braceleft" unicode="{" horiz-adv-x="472" 
d="M462 -137q-77 -24 -154 -24q-103 0 -148 41.5t-45 141.5l3 93q0 61 -23.5 85.5t-89.5 20.5l2 220q60 -6 84.5 7.5t24.5 55.5q0 17 -4.5 67.5t-4.5 77.5q0 153 182 153q74 0 156 -20q0 -54 1 -98.5t2 -61.5l1 -18q-43 4 -60 -8.5t-17 -45.5q0 -12 2 -42.5t2 -47.5
q0 -58 -22.5 -87.5t-76.5 -40.5q52 -15 72 -49.5t20 -93.5l-2 -74q0 -46 17 -60.5t69 -7.5q1 -61 3.5 -107t3.5 -62z" />
    <glyph glyph-name="bar" unicode="|" horiz-adv-x="361" 
d="M63 -119q3 444 -3 866l241 -3q-1 -41 -1.5 -113.5t-1.5 -305t0 -442.5q-85 3 -235 -2z" />
    <glyph glyph-name="braceright" unicode="}" horiz-adv-x="471" 
d="M10 -140q5 42 8 179q54 -7 71.5 6.5t17.5 55.5q0 5 -2 38t-2 51q0 105 96 128q-56 13 -79.5 45.5t-23.5 95.5q0 15 1.5 42.5t1.5 38.5q0 34 -16.5 47t-60.5 9q1 7 1.5 20t1.5 60t1 101q79 17 144 17q106 0 150 -39t44 -122q0 -23 -4 -65t-4 -59q0 -48 21 -65t87 -11
l2 -214q-61 5 -86.5 -17t-25.5 -80q0 -17 3 -55.5t3 -59.5q0 -93 -45 -132.5t-146 -39.5q-82 0 -159 25z" />
    <glyph glyph-name="asciitilde" unicode="~" horiz-adv-x="523" 
d="M135 470q-38 6 -126 12q-14 104 28.5 167.5t122.5 63.5q38 0 74.5 -19.5t66.5 -39t53 -19.5q38 0 39 60q39 -4 123 -8q9 -107 -29.5 -168t-112.5 -61q-34 0 -67 12t-54 26.5t-44.5 26.5t-40.5 12q-20 0 -27.5 -15t-5.5 -50z" />
    <glyph glyph-name="exclamdown" unicode="&#xa1;" horiz-adv-x="356" 
d="M22 -117q14 120 29 413q109 -2 245 5q4 -108 36 -422q-21 1 -53.5 2t-122.5 2.5t-134 -0.5zM176 333q-75 0 -118 35.5t-43 94.5q0 60 46.5 93.5t111.5 33.5q80 0 124 -35t44 -96q0 -57 -41.5 -91.5t-123.5 -34.5z" />
    <glyph glyph-name="cent" unicode="&#xa2;" horiz-adv-x="718" 
d="M242 -61q8 65 10 122q-111 26 -179 103t-68 189t63.5 186.5t179.5 98.5l-14 129h262l-6 -53.5t-5 -50.5t-3 -32q97 -25 158 -85t68 -143l-291 -12q-5 38 -23 59.5t-45 21.5q-30 0 -50 -32.5t-20 -78.5q0 -57 19 -86t52 -29q53 0 66 71q102 -7 297 -14q-37 -196 -231 -242
l8 -122q-62 2 -124 2t-93 -1z" />
    <glyph glyph-name="sterling" unicode="&#xa3;" horiz-adv-x="829" 
d="M22 267q1 39 0.5 64.5t-1.5 37.5l-1 12q20 -1 57 -1q-32 70 -32 114q0 111 99.5 166.5t269.5 55.5q186 0 295 -80.5t110 -211.5q-99 -1 -298 -14q0 41 -23 70t-68 29q-37 0 -61.5 -18.5t-24.5 -48.5q0 -26 24 -66l293 4q-2 -33 -2 -64t1 -46l1 -15q-199 6 -275 7
q-16 -30 -44 -51q113 -4 464 7q-1 -9 -2 -27t-2.5 -77.5t-0.5 -125.5q-345 14 -779 14l2 197q52 14 67 68h-69z" />
    <glyph glyph-name="yen" unicode="&#xa5;" horiz-adv-x="800" 
d="M55 223q1 50 -4 135q41 -1 106 0l-157 317q98 -2 297 8q30 -115 104 -296q53 134 106 325q13 -1 37.5 -2t103 -3.5t152.5 0.5l-162 -343l110 3l-1 -135h-169l-18 -43q128 2 190 4q-1 -43 1 -130q-85 0 -209 -1l3 -76q-133 3 -279 -1q2 5 0 75l-216 -4q1 50 1 131h187
l-19 40z" />
    <glyph glyph-name="section" unicode="&#xa7;" horiz-adv-x="809" 
d="M425 -281q-167 0 -280.5 61.5t-139.5 190.5q92 1 165 3.5t100 4.5l28 2q20 -69 115 -69q39 0 61 12.5t22 33.5q0 29 -50 39t-121.5 12.5t-143 11.5t-121.5 48t-50 110q0 49 35.5 86.5t96.5 50.5q-59 24 -89.5 70t-30.5 104q0 103 99 165.5t271 62.5q163 0 268.5 -72.5
t125.5 -197.5q-100 6 -172 6.5t-94 -1.5l-21 -2q-7 32 -33 50.5t-68 18.5q-39 0 -60 -15t-21 -37q0 -23 27 -35t70 -16t94.5 -6t103.5 -9.5t95 -22t70 -47t27 -81.5q0 -45 -29 -81.5t-77 -59.5q101 -41 104 -153q0 -107 -102 -172.5t-275 -65.5zM323 220q0 -51 144 -58
q25 18 25 42q0 59 -124 66q-45 -19 -45 -50z" />
    <glyph glyph-name="dieresis" unicode="&#xa8;" horiz-adv-x="758" 
d="M263 558q-51 0 -77 25.5t-26 63.5q0 35 30 58t74 23q47 0 74.5 -22.5t27.5 -61.5q0 -44 -29.5 -65t-73.5 -21zM499 560q-45 0 -72 24t-27 64q0 36 27 58.5t74 22.5t72 -23.5t25 -60.5q0 -41 -28.5 -63t-70.5 -22z" />
    <glyph glyph-name="copyright" unicode="&#xa9;" horiz-adv-x="919" 
d="M456 121q-276 0 -276 220q0 59 23.5 103.5t64 70t89 38t105.5 12.5q117 0 193.5 -49t74.5 -136l-200 2q-3 29 -21 46.5t-49 17.5q-74 0 -74 -103q0 -49 19.5 -75.5t54.5 -26.5q59 0 69 73h198q1 -47 -19 -83t-49 -56.5t-68.5 -33t-71.5 -16.5t-63 -4zM448 -26
q-209 0 -318.5 101t-109.5 281q0 164 119.5 257.5t330.5 93.5q191 0 310 -93t119 -267q0 -102 -37 -177t-102 -116.5t-142.5 -60.5t-169.5 -19zM454 52q357 0 357 293q0 135 -86 209.5t-259 74.5q-175 0 -266 -75.5t-91 -209.5q0 -145 93 -218.5t252 -73.5z" />
    <glyph glyph-name="ordfeminine" unicode="&#xaa;" horiz-adv-x="542" 
d="M185 303q-81 0 -130.5 31t-49.5 90q0 66 72.5 94t229.5 24q1 9 1 14q0 34 -32 34t-39 -33q-10 1 -28.5 2t-74 3t-109.5 2q14 69 80.5 105.5t175.5 36.5q227 0 243 -184q3 -38 3 -90t-1 -85l-2 -33l-176 -1q4 21 5 61q-43 -71 -168 -71zM312 459v10v10.5v8.5
q-41 1 -62 -13t-21 -35q0 -19 11 -29t28 -10q41 0 44 58z" />
    <glyph glyph-name="guillemotleft" unicode="&#xab;" horiz-adv-x="510" 
d="M104 102q-35 93 -99 241q47 90 110 226q49 -4 174 -4q-48 -93 -110 -228l96 -228q-67 0 -171 -7zM328 102q-36 95 -101 241q41 77 97 202q78 -4 171 -5q-47 -89 -98 -204l103 -232q-80 2 -172 -2z" />
    <glyph glyph-name="registered" unicode="&#xae;" horiz-adv-x="492" 
d="M250 255q-128 0 -186.5 55.5t-58.5 175.5q0 106 59 168t177 62q132 0 189 -65.5t57 -170.5q0 -112 -61.5 -168.5t-175.5 -56.5zM251 302q91 0 137 40t46 134q0 98 -44.5 146t-151.5 48q-92 0 -136 -46t-44 -141q0 -97 42 -139t151 -42zM274 340l-28 88q-9 -1 -17 -1
q0 -33 3 -74q-36 1 -113 0q3 97 3 272q58 9 104 9q163 0 163 -105q0 -59 -46 -84q2 -4 8 -17.5l14.5 -32l18.5 -39.5q-44 -5 -110 -16zM229 486q18 -1 28 8t10 30q0 41 -39 38z" />
    <glyph glyph-name="macron" unicode="&#xaf;" horiz-adv-x="758" 
d="M206 578q1 35 -2 125q87 -2 350 2l-2 -125q-92 2 -346 -2z" />
    <glyph glyph-name="degree" unicode="&#xb0;" horiz-adv-x="414" 
d="M210 351q-87 0 -146 49t-59 138q0 79 52.5 127t147.5 48q99 0 151.5 -47t52.5 -128q0 -86 -53 -136.5t-146 -50.5zM209 454q70 0 70 82q0 37 -18.5 58t-53.5 21q-33 0 -52 -23t-19 -56q0 -35 19 -58.5t54 -23.5z" />
    <glyph glyph-name="twosuperior" unicode="&#xb2;" horiz-adv-x="493" 
d="M474 314l-452 4l-5 159q272 38 272 114q0 17 -10 27.5t-28 10.5q-64 0 -58 -85q-80 3 -183 3q-6 97 59 147.5t190 50.5q107 0 165.5 -40t58.5 -108q0 -64 -65.5 -104t-173.5 -52l229 12z" />
    <glyph glyph-name="threesuperior" unicode="&#xb3;" horiz-adv-x="526" 
d="M268 297q-128 0 -196 42t-67 126q86 -4 208 -7q1 -21 17 -31.5t41 -10.5t40 8t15 22q0 23 -38 30q-45 7 -125 0q0 36 -3 92q80 -4 118 2q47 8 47 30q0 30 -49 30q-28 0 -45 -13t-18 -35l-199 5q-1 74 64 114t191 40q117 0 181 -35t64 -94q0 -36 -25 -59.5t-64 -30.5
q45 -7 70.5 -33.5t25.5 -61.5q0 -62 -69.5 -96t-183.5 -34z" />
    <glyph glyph-name="acute" unicode="&#xb4;" horiz-adv-x="758" 
d="M358 542l-62.5 39t-40.5 23l-12 7l77 91l44 54l10 15l72 -45.5l52 -31.5l17 -9z" />
    <glyph glyph-name="paragraph" unicode="&#xb6;" horiz-adv-x="754" 
d="M441 507q-36 -3 -61 -10q-3 -150 1 -516q-163 4 -264.5 100t-101.5 259q0 178 114.5 275.5t333.5 97.5q111 0 243 -22q-3 -418 8 -950q-9 1 -27.5 1.5t-90.5 1.5t-161 1q3 516 6 762z" />
    <glyph glyph-name="periodcentered" unicode="&#xb7;" horiz-adv-x="307" 
d="M152 234q-65 0 -103.5 35t-38.5 96q0 62 39 97t106 35q70 0 106 -34.5t36 -97.5q0 -131 -145 -131z" />
    <glyph glyph-name="cedilla" unicode="&#xb8;" horiz-adv-x="758" 
d="M300 10l103 1q-1 -23 1 -57q71 -1 106.5 -24.5t35.5 -63.5q0 -47 -52 -75t-154 -28q-64 0 -128 23q7 36 12 80q48 -21 88 -21q53 0 53 27q0 33 -86 28q11 47 21 110z" />
    <glyph glyph-name="onesuperior" unicode="&#xb9;" horiz-adv-x="352" 
d="M122 313q1 126 1 225l-70 -31l-48 144l168 80l130 -9l4 -408z" />
    <glyph glyph-name="ordmasculine" unicode="&#xba;" horiz-adv-x="545" 
d="M271 295q-127 0 -194 56.5t-67 159.5q0 92 72.5 145t191.5 53q126 0 193.5 -53t67.5 -151q0 -106 -73 -158t-191 -52zM273 415q48 0 48 92q0 90 -49 90q-50 0 -50 -85q0 -97 51 -97z" />
    <glyph glyph-name="guillemotright" unicode="&#xbb;" horiz-adv-x="509" 
d="M180 113q-69 6 -165 9q46 87 98 204l-103 229q70 -2 170 5l100 -238q-45 -84 -100 -209zM395 103q-51 5 -175 6q46 84 109 226l-96 228q89 0 174 6q38 -105 97 -238q-53 -104 -109 -228z" />
    <glyph glyph-name="onequarter" unicode="&#xbc;" horiz-adv-x="1047" 
d="M122 313q1 126 1 225l-70 -31l-48 144l168 80l130 -9l4 -408zM278 -32q-50 8 -166 21l289.5 360.5t198.5 262.5l62 86l168 -20l-303 -377.5t-193 -254.5zM814 -3l1 63q-123 0 -288 -3q-1 38 -2 128l183 233q80 -3 150.5 -4.5t101.5 -1.5l30 1q-1 -100 -1 -229q36 0 53 1
q-1 -52 -1 -125h-51l1 -62zM709 184q11 0 47 -0.5t60 -0.5v141z" />
    <glyph glyph-name="onehalf" unicode="&#xbd;" horiz-adv-x="1068" 
d="M122 313q1 126 1 225l-70 -31l-48 144l168 80l130 -9l4 -408zM278 -32q-50 8 -166 21l289.5 360.5t198.5 262.5l62 86l168 -20l-303 -377.5t-193 -254.5zM1049 -3l-452 4l-5 159q272 38 272 114q0 17 -10 27.5t-28 10.5q-64 0 -58 -85q-80 3 -183 3q-6 97 59 147.5
t190 50.5q107 0 165.5 -40t58.5 -108q0 -64 -65.5 -104t-173.5 -52l229 12z" />
    <glyph glyph-name="threequarters" unicode="&#xbe;" horiz-adv-x="1181" 
d="M268 297q-128 0 -196 42t-67 126q86 -4 208 -7q1 -21 17 -31.5t41 -10.5t40 8t15 22q0 23 -38 30q-45 7 -125 0q0 36 -3 92q80 -4 118 2q47 8 47 30q0 30 -49 30q-28 0 -45 -13t-18 -35l-199 5q-1 74 64 114t191 40q117 0 181 -35t64 -94q0 -36 -25 -59.5t-64 -30.5
q45 -7 70.5 -33.5t25.5 -61.5q0 -62 -69.5 -96t-183.5 -34zM412 -32q-50 8 -166 21l289.5 360.5t198.5 262.5l62 86l168 -20l-303 -377.5t-193 -254.5zM948 -3l1 63q-123 0 -288 -3q-1 38 -2 128l183 233q80 -3 150.5 -4.5t101.5 -1.5l30 1q-1 -100 -1 -229q36 0 53 1
q-1 -52 -1 -125h-51l1 -62zM843 184q11 0 47 -0.5t60 -0.5v141z" />
    <glyph glyph-name="questiondown" unicode="&#xbf;" horiz-adv-x="792" 
d="M401 -160q-177 0 -286.5 59t-109.5 170q0 98 75.5 151t203.5 58l1 24q95 -1 156 -0.5t90 1.5l29 1l3 -150q-139 13 -200.5 -1t-61.5 -62q0 -28 25 -45.5t69 -17.5q50 0 75.5 28.5t31.5 71.5q116 -12 290 -16q-26 -130 -126.5 -201t-264.5 -71zM415 329q-83 0 -127 34.5
t-44 99.5q0 60 45 94t122 34q89 0 133 -36t44 -97q0 -60 -47.5 -94.5t-125.5 -34.5z" />
    <glyph glyph-name="Agrave" unicode="&#xc0;" horiz-adv-x="811" 
d="M0 18l198 678l420 5l193 -720q-175 2 -291 0l-23 107q-96 2 -204 2l-15 -73zM394 542q-21 -86 -61 -265q31 -1 123 -1zM382 742l-157 143q55 32 139 88q33 -47 133 -162q-39 -20 -115 -69z" />
    <glyph glyph-name="Aacute" unicode="&#xc1;" horiz-adv-x="811" 
d="M0 18l198 678l420 5l193 -720q-175 2 -291 0l-23 107q-96 2 -204 2l-15 -73zM394 542q-21 -86 -61 -265q31 -1 123 -1zM429 742l-62.5 39t-40.5 23l-12 7l77 91t43 54l11 15l72 -45.5l52 -31.5l17 -9z" />
    <glyph glyph-name="Acircumflex" unicode="&#xc2;" horiz-adv-x="811" 
d="M0 18l198 678l420 5l193 -720q-175 2 -291 0l-23 107q-96 2 -204 2l-15 -73zM394 542q-21 -86 -61 -265q31 -1 123 -1zM268 741l-80 92q60 39 140 103q44 -1 139 4q43 -38 138 -107q-23 -22 -80 -91l-128 84q-43 -21 -129 -85z" />
    <glyph glyph-name="Atilde" unicode="&#xc3;" horiz-adv-x="811" 
d="M0 18l198 678l420 5l193 -720q-175 2 -291 0l-23 107q-96 2 -204 2l-15 -73zM394 542q-21 -86 -61 -265q31 -1 123 -1zM306 761q-36 1 -116 -5q-6 80 25.5 131.5t96.5 51.5q37 0 84.5 -26.5t62.5 -26.5q32 0 28 47q39 0 111 6q15 -83 -12.5 -132.5t-90.5 -49.5
q-45 0 -92.5 24.5t-61.5 24.5q-18 0 -27.5 -12.5t-7.5 -32.5z" />
    <glyph glyph-name="Adieresis" unicode="&#xc4;" horiz-adv-x="811" 
d="M0 18l198 678l420 5l193 -720q-175 2 -291 0l-23 107q-96 2 -204 2l-15 -73zM394 542q-21 -86 -61 -265q31 -1 123 -1zM280 758q-51 0 -77 25.5t-26 63.5q0 35 30 58t74 23q47 0 74.5 -22.5t27.5 -61.5q0 -44 -29.5 -65t-73.5 -21zM516 760q-45 0 -72 24t-27 64
q0 36 27 58.5t74 22.5t72 -23.5t25 -60.5q0 -41 -28.5 -63t-70.5 -22z" />
    <glyph glyph-name="Aring" unicode="&#xc5;" horiz-adv-x="811" 
d="M0 18l198 678l420 5l193 -720q-175 2 -291 0l-23 107q-96 2 -204 2l-15 -73zM394 542q-21 -86 -61 -265q31 -1 123 -1zM395 751q-69 0 -107 31t-38 78q0 51 41.5 78.5t104.5 27.5q69 0 109 -30t40 -76q0 -56 -42.5 -82.5t-107.5 -26.5zM399 815q21 0 35 12t14 33
q0 19 -13.5 33t-35.5 14q-23 0 -36.5 -13t-13.5 -32q0 -21 14 -34t36 -13z" />
    <glyph glyph-name="AE" unicode="&#xc6;" horiz-adv-x="1126" 
d="M1052 263q-11 1 -32.5 1.5t-98 1.5t-166.5 -1q1 -16 5 -72q114 -2 339 6l-2 -203q-188 0 -575 -13q-4 35 -14 106q-97 2 -209 1q-4 -14 -11 -41.5t-9 -33.5l-279 1q106 298 226 691q296 -4 514 -5.5t288 -0.5l71 1q-3 -72 2 -201q-13 1 -39.5 1.5t-119 2t-198.5 -0.5
q0 -25 1 -70q109 -3 306 2q-2 -67 1 -173zM433 550q-29 -86 -83 -274q37 -1 129 -1q-20 130 -46 275z" />
    <glyph glyph-name="Ccedilla" unicode="&#xc7;" horiz-adv-x="855" 
d="M850 291q-9 -127 -103.5 -208.5t-248.5 -94.5q0 -33 1 -46q71 -1 106.5 -24.5t35.5 -63.5q0 -47 -52 -75t-154 -28q-64 0 -128 23q7 36 12 80q48 -21 88 -21q53 0 53 27q0 33 -86 28q9 42 19 99q-77 5 -142 27.5t-118 64t-83 109.5t-30 156q0 165 112.5 262.5t297.5 97.5
q169 0 278 -79.5t131 -208.5l-301 -17q-11 48 -38.5 78.5t-69.5 30.5q-56 0 -85.5 -44.5t-29.5 -117.5q0 -69 32 -114t86 -45q98 0 115 120q89 -3 164.5 -7t106.5 -6z" />
    <glyph glyph-name="Egrave" unicode="&#xc8;" horiz-adv-x="700" 
d="M48 5q0 282 -8 686q243 8 630 11q-1 -68 2 -202q-99 -1 -361 -7v-59q89 0 284 2q-2 -41 1 -174l-280 1q0 -17 2 -59q97 -4 357 -6l-1 -207q-269 11 -626 14zM345 737l-157 143q55 32 139 88q33 -47 133 -162q-39 -20 -115 -69z" />
    <glyph glyph-name="Eacute" unicode="&#xc9;" horiz-adv-x="700" 
d="M48 5q0 282 -8 686q243 8 630 11q-1 -68 2 -202q-99 -1 -361 -7v-59q89 0 284 2q-2 -41 1 -174l-280 1q0 -17 2 -59q97 -4 357 -6l-1 -207q-269 11 -626 14zM391 737l-62.5 39l-40.5 24l-12 6l77 91t43 55l11 14l72 -45.5t52 -30.5l17 -10z" />
    <glyph glyph-name="Ecircumflex" unicode="&#xca;" horiz-adv-x="700" 
d="M48 5q0 282 -8 686q243 8 630 11q-1 -68 2 -202q-99 -1 -361 -7v-59q89 0 284 2q-2 -41 1 -174l-280 1q0 -17 2 -59q97 -4 357 -6l-1 -207q-269 11 -626 14zM231 736l-80 92q60 39 140 103q44 -1 139 4q43 -38 138 -107q-23 -22 -80 -91l-128 84q-43 -21 -129 -85z" />
    <glyph glyph-name="Edieresis" unicode="&#xcb;" horiz-adv-x="700" 
d="M48 5q0 282 -8 686q243 8 630 11q-1 -68 2 -202q-99 -1 -361 -7v-59q89 0 284 2q-2 -41 1 -174l-280 1q0 -17 2 -59q97 -4 357 -6l-1 -207q-269 11 -626 14zM244 753q-51 0 -77 25.5t-26 63.5q0 35 30 58t74 23q47 0 74.5 -22.5t27.5 -61.5q0 -44 -29.5 -65t-73.5 -21z
M480 755q-45 0 -72 24t-27 64q0 36 27 58.5t74 22.5t72 -23.5t25 -60.5q0 -41 -28.5 -63t-70.5 -22z" />
    <glyph glyph-name="Igrave" unicode="&#xcc;" horiz-adv-x="370" 
d="M49 -1q1 307 -4 695q99 0 275 1q2 -335 5 -695q-132 1 -276 -1zM170 732l-157 143q55 32 139 88q33 -47 133 -162q-39 -20 -115 -69z" />
    <glyph glyph-name="Iacute" unicode="&#xcd;" horiz-adv-x="370" 
d="M49 -1q1 307 -4 695q99 0 275 1q2 -335 5 -695q-132 1 -276 -1zM218 732l-62.5 39t-40.5 23l-12 7l77 91l44 54l10 15l72 -45.5l52 -31.5l17 -9z" />
    <glyph glyph-name="Icircumflex" unicode="&#xce;" horiz-adv-x="370" 
d="M49 -1q1 307 -4 695q99 0 275 1q2 -335 5 -695q-132 1 -276 -1zM57 731l-80 92q60 39 140 103q44 -1 139 4q43 -38 138 -107q-23 -22 -80 -91l-128 84q-43 -21 -129 -85z" />
    <glyph glyph-name="Idieresis" unicode="&#xcf;" horiz-adv-x="370" 
d="M49 -1q1 307 -4 695q99 0 275 1q2 -335 5 -695q-132 1 -276 -1zM69 748q-51 0 -77 25.5t-26 63.5q0 35 30 58t74 23q47 0 74.5 -22.5t27.5 -61.5q0 -44 -29.5 -65t-73.5 -21zM305 750q-45 0 -72 24t-27 64q0 36 27 58.5t74 22.5t72 -23.5t25 -60.5q0 -41 -28.5 -63
t-70.5 -22z" />
    <glyph glyph-name="Eth" unicode="&#xd0;" horiz-adv-x="882" 
d="M85 -5l2 246l-87 -4q1 9 1.5 25t1.5 71.5t-1 112.5q29 -3 85 -5l-1 240q164 25 282 25q245 0 369.5 -91t124.5 -270q0 -364 -547 -364q-99 0 -230 14zM360 184q104 -5 156.5 37t52.5 125q0 160 -180 160q-23 0 -35 -1v-72h70q-3 -68 1 -182q-25 -1 -67 -2z" />
    <glyph glyph-name="Ntilde" unicode="&#xd1;" horiz-adv-x="801" 
d="M43 16q2 254 -3 659q130 5 258 8l195 -309q0 96 -11 338q137 0 265 -1q0 -273 14 -714q-130 -10 -265 -14l-198 314q0 -90 7 -283q-131 2 -262 2zM309 766q-36 1 -116 -5q-6 80 25.5 131.5t96.5 51.5q37 0 84.5 -26.5t62.5 -26.5q32 0 28 47q39 0 111 6
q15 -83 -12.5 -132.5t-90.5 -49.5q-45 0 -92.5 24.5t-61.5 24.5q-18 0 -27.5 -12.5t-7.5 -32.5z" />
    <glyph glyph-name="Ograve" unicode="&#xd2;" horiz-adv-x="878" 
d="M439 -18q-190 1 -303.5 96t-115.5 268q-2 88 32.5 158.5t94 114t134 67t156.5 23.5q197 0 309.5 -95.5t111.5 -266.5q0 -91 -33.5 -162t-91 -115t-132.5 -66t-162 -22zM439 180q58 0 91 41t33 122q0 84 -33 127t-92 43q-57 0 -90 -44.5t-33 -124.5q-1 -71 32.5 -117.5
t91.5 -46.5zM423 732l-157 143q55 32 139 88q33 -47 133 -162q-39 -20 -115 -69z" />
    <glyph glyph-name="Oacute" unicode="&#xd3;" horiz-adv-x="878" 
d="M439 -18q-190 1 -303.5 96t-115.5 268q-2 88 32.5 158.5t94 114t134 67t156.5 23.5q197 0 309.5 -95.5t111.5 -266.5q0 -91 -33.5 -162t-91 -115t-132.5 -66t-162 -22zM439 180q58 0 91 41t33 122q0 84 -33 127t-92 43q-57 0 -90 -44.5t-33 -124.5q-1 -71 32.5 -117.5
t91.5 -46.5zM471 732l-62.5 39t-40.5 23l-12 7l77 91t43 54l11 15l72 -45.5l52 -31.5l17 -9z" />
    <glyph glyph-name="Ocircumflex" unicode="&#xd4;" horiz-adv-x="878" 
d="M439 -18q-190 1 -303.5 96t-115.5 268q-2 88 32.5 158.5t94 114t134 67t156.5 23.5q197 0 309.5 -95.5t111.5 -266.5q0 -91 -33.5 -162t-91 -115t-132.5 -66t-162 -22zM439 180q58 0 91 41t33 122q0 84 -33 127t-92 43q-57 0 -90 -44.5t-33 -124.5q-1 -71 32.5 -117.5
t91.5 -46.5zM310 729l-80 92q60 39 140 103q44 -1 139 4q43 -38 138 -107q-23 -22 -80 -91l-128 84q-43 -21 -129 -85z" />
    <glyph glyph-name="Otilde" unicode="&#xd5;" horiz-adv-x="878" 
d="M439 -18q-190 1 -303.5 96t-115.5 268q-2 88 32.5 158.5t94 114t134 67t156.5 23.5q197 0 309.5 -95.5t111.5 -266.5q0 -91 -33.5 -162t-91 -115t-132.5 -66t-162 -22zM439 180q58 0 91 41t33 122q0 84 -33 127t-92 43q-57 0 -90 -44.5t-33 -124.5q-1 -71 32.5 -117.5
t91.5 -46.5zM348 751q-36 1 -116 -5q-6 80 25.5 131.5t96.5 51.5q37 0 84.5 -26.5t62.5 -26.5q32 0 28 47q39 0 111 6q15 -83 -12.5 -132.5t-90.5 -49.5q-45 0 -92.5 24.5t-61.5 24.5q-18 0 -27.5 -12.5t-7.5 -32.5z" />
    <glyph glyph-name="Odieresis" unicode="&#xd6;" horiz-adv-x="878" 
d="M439 -18q-190 1 -303.5 96t-115.5 268q-2 88 32.5 158.5t94 114t134 67t156.5 23.5q197 0 309.5 -95.5t111.5 -266.5q0 -91 -33.5 -162t-91 -115t-132.5 -66t-162 -22zM439 180q58 0 91 41t33 122q0 84 -33 127t-92 43q-57 0 -90 -44.5t-33 -124.5q-1 -71 32.5 -117.5
t91.5 -46.5zM322 748q-51 0 -77 25.5t-26 63.5q0 35 30 58t74 23q47 0 74.5 -22.5t27.5 -61.5q0 -44 -29.5 -65t-73.5 -21zM558 750q-45 0 -72 24t-27 64q0 36 27 58.5t74 22.5t72 -23.5t25 -60.5q0 -41 -28.5 -63t-70.5 -22z" />
    <glyph glyph-name="multiply" unicode="&#xd7;" horiz-adv-x="565" 
d="M149 62q-49 53 -136 133l136 134l-144 143l66 65t51 53l18 18l142 -146l135 139q62 -67 135 -136l-138 -136l146 -143l-73 -69t-49 -49l-14 -15l-142 144z" />
    <glyph glyph-name="Oslash" unicode="&#xd8;" horiz-adv-x="884" 
d="M275 -171q-90 57 -221 125l104 104q-138 102 -138 285q0 166 114.5 262.5t304.5 96.5q54 0 108 -8q37 87 61 152q97 -54 237 -120q-39 -40 -97 -110q116 -92 116 -270q0 -163 -112.5 -266t-312.5 -103q-43 0 -82 6q-45 -80 -82 -154zM442 181q60 0 92 44t32 129
q0 70 -32.5 115t-91.5 45q-62 0 -93.5 -45.5t-31.5 -121.5q0 -80 33 -123t92 -43z" />
    <glyph glyph-name="Ugrave" unicode="&#xd9;" horiz-adv-x="781" 
d="M391 -14q-371 0 -371 428q0 131 29 275q84 -13 269 -32q-22 -123 -22 -213q0 -229 91 -229q48 0 71.5 51t23.5 174q0 116 -18 264q85 1 273 9q24 -154 24 -271q0 -456 -370 -456zM376 722l-157 143q55 32 139 88q33 -47 133 -162q-39 -20 -115 -69z" />
    <glyph glyph-name="Uacute" unicode="&#xda;" horiz-adv-x="781" 
d="M391 -14q-371 0 -371 428q0 131 29 275q84 -13 269 -32q-22 -123 -22 -213q0 -229 91 -229q48 0 71.5 51t23.5 174q0 116 -18 264q85 1 273 9q24 -154 24 -271q0 -456 -370 -456zM422 732l-62.5 39t-40.5 23l-12 7l77 91l44 54l10 15l72 -45.5l52 -31.5l17 -9z" />
    <glyph glyph-name="Ucircumflex" unicode="&#xdb;" horiz-adv-x="781" 
d="M391 -14q-371 0 -371 428q0 131 29 275q84 -13 269 -32q-22 -123 -22 -213q0 -229 91 -229q48 0 71.5 51t23.5 174q0 116 -18 264q85 1 273 9q24 -154 24 -271q0 -456 -370 -456zM262 731l-80 92q60 39 140 103q44 -1 139 4q43 -38 138 -107q-23 -22 -80 -91l-128 84
q-43 -21 -129 -85z" />
    <glyph glyph-name="Udieresis" unicode="&#xdc;" horiz-adv-x="781" 
d="M391 -14q-371 0 -371 428q0 131 29 275q84 -13 269 -32q-22 -123 -22 -213q0 -229 91 -229q48 0 71.5 51t23.5 174q0 116 -18 264q85 1 273 9q24 -154 24 -271q0 -456 -370 -456zM274 748q-51 0 -77 25.5t-26 63.5q0 35 30 58t74 23q47 0 74.5 -22.5t27.5 -61.5
q0 -44 -29.5 -65t-73.5 -21zM510 750q-45 0 -72 24t-27 64q0 36 27 58.5t74 22.5t72 -23.5t25 -60.5q0 -41 -28.5 -63t-70.5 -22z" />
    <glyph glyph-name="Yacute" unicode="&#xdd;" horiz-adv-x="800" 
d="M265 -10q-3 99 -8 156l-257 529q89 2 305 11q15 -63 92 -270l104 298q76 -4 299 -5l-264 -564q-3 -18 1 -154zM422 721l-62.5 39l-40.5 24l-12 6l77 91t44 55l10 14l72 -45.5t52 -30.5l17 -10z" />
    <glyph glyph-name="Thorn" unicode="&#xde;" horiz-adv-x="779" 
d="M40 -10q1 33 2 92t3 251t-1 371q110 -7 267 -7q-1 -44 -1 -86q44 4 94 4q188 0 276.5 -69.5t88.5 -191.5q0 -133 -106 -205t-294 -72q-36 0 -54 1l3 -87q-112 5 -278 -1zM310 428l2 -179q32 -2 46 -2q136 0 136 91q0 93 -129 93q-25 0 -55 -3z" />
    <glyph glyph-name="germandbls" unicode="&#xdf;" horiz-adv-x="758" 
d="M38 7q-19 227 6 423q18 141 107 211.5t265 70.5q153 0 241.5 -61t88.5 -159q0 -61 -39.5 -103.5t-101.5 -61.5q71 -16 107 -58.5t36 -99.5q0 -114 -96.5 -160.5t-285.5 -34.5q-1 52 4 152q87 5 87 66q0 28 -24 47.5t-69 20.5q2 37 -1 133q45 1 73 20.5t28 53.5
q0 32 -17 49.5t-49 17.5q-71 0 -85 -109q-21 -191 -3 -425q-65 -1 -133 0.5t-103 3.5z" />
    <glyph glyph-name="agrave" unicode="&#xe0;" horiz-adv-x="708" 
d="M235 -20q-102 0 -163.5 44t-61.5 118q0 159 273 159q53 0 118 -6q0 11 -1 18q-6 58 -56 58q-52 0 -61 -46q-90 7 -247 11q12 92 99.5 146t211.5 54q179 0 254 -67.5t80 -206.5q2 -73 2 -135t-1 -103l-2 -41q-116 1 -246 -2q3 24 5 72q-33 -36 -89 -54.5t-115 -18.5z
M336 123q36 1 54.5 20.5t19.5 69.5q-23 2 -33 2q-46 0 -69.5 -13.5t-23.5 -35.5q0 -43 52 -43zM348 557l-157 143q55 32 139 88q33 -47 133 -162q-39 -20 -115 -69z" />
    <glyph glyph-name="aacute" unicode="&#xe1;" horiz-adv-x="708" 
d="M235 -20q-102 0 -163.5 44t-61.5 118q0 159 273 159q53 0 118 -6q0 11 -1 18q-6 58 -56 58q-52 0 -61 -46q-90 7 -247 11q12 92 99.5 146t211.5 54q179 0 254 -67.5t80 -206.5q2 -73 2 -135t-1 -103l-2 -41q-116 1 -246 -2q3 24 5 72q-33 -36 -89 -54.5t-115 -18.5z
M336 123q36 1 54.5 20.5t19.5 69.5q-23 2 -33 2q-46 0 -69.5 -13.5t-23.5 -35.5q0 -43 52 -43zM395 557l-62.5 39l-40.5 24l-12 6l77 91t43 55l11 14l72 -45.5t52 -30.5l17 -10z" />
    <glyph glyph-name="acircumflex" unicode="&#xe2;" horiz-adv-x="708" 
d="M235 -20q-102 0 -163.5 44t-61.5 118q0 159 273 159q53 0 118 -6q0 11 -1 18q-6 58 -56 58q-52 0 -61 -46q-90 7 -247 11q12 92 99.5 146t211.5 54q179 0 254 -67.5t80 -206.5q2 -73 2 -135t-1 -103l-2 -41q-116 1 -246 -2q3 24 5 72q-33 -36 -89 -54.5t-115 -18.5z
M336 123q36 1 54.5 20.5t19.5 69.5q-23 2 -33 2q-46 0 -69.5 -13.5t-23.5 -35.5q0 -43 52 -43zM235 556l-80 92q60 39 140 103q44 -1 139 4q43 -38 138 -107q-23 -22 -80 -91l-128 84q-43 -21 -129 -85z" />
    <glyph glyph-name="atilde" unicode="&#xe3;" horiz-adv-x="708" 
d="M235 -20q-102 0 -163.5 44t-61.5 118q0 159 273 159q53 0 118 -6q0 11 -1 18q-6 58 -56 58q-52 0 -61 -46q-90 7 -247 11q12 92 99.5 146t211.5 54q179 0 254 -67.5t80 -206.5q2 -73 2 -135t-1 -103l-2 -41q-116 1 -246 -2q3 24 5 72q-33 -36 -89 -54.5t-115 -18.5z
M336 123q36 1 54.5 20.5t19.5 69.5q-23 2 -33 2q-46 0 -69.5 -13.5t-23.5 -35.5q0 -43 52 -43zM273 576q-36 1 -116 -5q-6 80 25.5 131.5t96.5 51.5q37 0 84.5 -26.5t62.5 -26.5q32 0 28 47q39 0 111 6q15 -83 -12.5 -132.5t-90.5 -49.5q-45 0 -92.5 24.5t-61.5 24.5
q-18 0 -27.5 -12.5t-7.5 -32.5z" />
    <glyph glyph-name="adieresis" unicode="&#xe4;" horiz-adv-x="708" 
d="M235 -20q-102 0 -163.5 44t-61.5 118q0 159 273 159q53 0 118 -6q0 11 -1 18q-6 58 -56 58q-52 0 -61 -46q-90 7 -247 11q12 92 99.5 146t211.5 54q179 0 254 -67.5t80 -206.5q2 -73 2 -135t-1 -103l-2 -41q-116 1 -246 -2q3 24 5 72q-33 -36 -89 -54.5t-115 -18.5z
M336 123q36 1 54.5 20.5t19.5 69.5q-23 2 -33 2q-46 0 -69.5 -13.5t-23.5 -35.5q0 -43 52 -43zM248 573q-51 0 -77 25.5t-26 63.5q0 35 30 58t74 23q47 0 74.5 -22.5t27.5 -61.5q0 -44 -29.5 -65t-73.5 -21zM484 575q-45 0 -72 24t-27 64q0 36 27 58.5t74 22.5t72 -23.5
t25 -60.5q0 -41 -28.5 -63t-70.5 -22z" />
    <glyph glyph-name="aring" unicode="&#xe5;" horiz-adv-x="708" 
d="M235 -20q-102 0 -163.5 44t-61.5 118q0 159 273 159q53 0 118 -6q0 11 -1 18q-6 58 -56 58q-52 0 -61 -46q-90 7 -247 11q12 92 99.5 146t211.5 54q179 0 254 -67.5t80 -206.5q2 -73 2 -135t-1 -103l-2 -41q-116 1 -246 -2q3 24 5 72q-33 -36 -89 -54.5t-115 -18.5z
M336 123q36 1 54.5 20.5t19.5 69.5q-23 2 -33 2q-46 0 -69.5 -13.5t-23.5 -35.5q0 -43 52 -43zM362 566q-69 0 -107 31t-38 78q0 51 41.5 78.5t104.5 27.5q69 0 109 -30t40 -76q0 -56 -42.5 -82.5t-107.5 -26.5zM366 630q21 0 35 12t14 33q0 19 -13.5 33t-35.5 14
q-23 0 -36.5 -13t-13.5 -32q0 -21 14 -34t36 -13z" />
    <glyph glyph-name="ae" unicode="&#xe6;" horiz-adv-x="1178" 
d="M816 -26q-88 0 -169.5 24t-121.5 65q-68 -86 -261 -86q-123 0 -188.5 43.5t-65.5 127.5q0 151 276 151q63 0 115 -5q0 10 -1 16q-7 61 -57 61q-27 0 -42 -13t-17 -34q-79 10 -249 12q16 94 99.5 147t212.5 53q146 0 223 -68q84 65 242 65q182 0 270 -87t80 -246
q-133 2 -432 -3q18 -71 78 -71q25 0 45.5 12t26.5 36q134 -11 283 -13q-44 -90 -133.5 -138.5t-213.5 -48.5zM808 380q-73 0 -83 -89l161 4q-7 85 -78 85zM335 122q76 0 76 91v1q-16 2 -30 2q-45 0 -71 -13.5t-26 -36.5q0 -21 14 -32.5t37 -11.5z" />
    <glyph glyph-name="ccedilla" unicode="&#xe7;" horiz-adv-x="704" 
d="M699 206q-23 -99 -103 -156t-193 -65q0 -30 1 -41q71 -1 106.5 -24.5t35.5 -63.5q0 -47 -52 -75t-154 -28q-64 0 -128 23q7 36 12 80q48 -21 88 -21q53 0 53 27q0 33 -86 28q9 41 19 97q-137 13 -207.5 82.5t-70.5 191.5t84.5 196t243.5 74q149 0 243 -62t104 -170
l-288 -12q-1 30 -15 53.5t-41 23.5q-31 0 -47 -30t-16 -74q0 -51 16 -77t43 -26q21 0 36.5 15.5t19.5 47.5q99 -7 296 -14z" />
    <glyph glyph-name="egrave" unicode="&#xe8;" horiz-adv-x="749" 
d="M387 -21q-191 0 -279.5 74.5t-87.5 207.5q0 129 97 199.5t249 70.5q198 -1 286 -84.5t82 -246.5q-127 0 -432 -4q18 -68 78 -68q52 0 71 46q68 -6 283 -11q-86 -184 -347 -184zM380 379q-74 0 -83 -88l161 6q-4 40 -21.5 61t-56.5 21zM362 552l-157 143q55 32 139 88
q33 -47 133 -162q-39 -20 -115 -69z" />
    <glyph glyph-name="eacute" unicode="&#xe9;" horiz-adv-x="749" 
d="M387 -21q-191 0 -279.5 74.5t-87.5 207.5q0 129 97 199.5t249 70.5q198 -1 286 -84.5t82 -246.5q-127 0 -432 -4q18 -68 78 -68q52 0 71 46q68 -6 283 -11q-86 -184 -347 -184zM380 379q-74 0 -83 -88l161 6q-4 40 -21.5 61t-56.5 21zM408 552l-62.5 39t-40.5 23l-12 7
l77 91l44 54l10 15l72 -45.5l52 -31.5l17 -9z" />
    <glyph glyph-name="ecircumflex" unicode="&#xea;" horiz-adv-x="749" 
d="M387 -21q-191 0 -279.5 74.5t-87.5 207.5q0 129 97 199.5t249 70.5q198 -1 286 -84.5t82 -246.5q-127 0 -432 -4q18 -68 78 -68q52 0 71 46q68 -6 283 -11q-86 -184 -347 -184zM380 379q-74 0 -83 -88l161 6q-4 40 -21.5 61t-56.5 21zM248 548l-80 92q60 39 140 103
q44 -1 139 4q43 -38 138 -107q-23 -22 -80 -91l-128 84q-43 -21 -129 -85z" />
    <glyph glyph-name="edieresis" unicode="&#xeb;" horiz-adv-x="749" 
d="M387 -21q-191 0 -279.5 74.5t-87.5 207.5q0 129 97 199.5t249 70.5q198 -1 286 -84.5t82 -246.5q-127 0 -432 -4q18 -68 78 -68q52 0 71 46q68 -6 283 -11q-86 -184 -347 -184zM380 379q-74 0 -83 -88l161 6q-4 40 -21.5 61t-56.5 21zM261 568q-51 0 -77 25.5t-26 63.5
q0 35 30 58t74 23q47 0 74.5 -22.5t27.5 -61.5q0 -44 -29.5 -65t-73.5 -21zM497 570q-45 0 -72 24t-27 64q0 36 27 58.5t74 22.5t72 -23.5t25 -60.5q0 -41 -28.5 -63t-70.5 -22z" />
    <glyph glyph-name="igrave" unicode="&#xec;" horiz-adv-x="342" 
d="M37 1q1 128 -3 494q105 0 269 2q1 -361 4 -495q-118 1 -270 -1zM155 547l-157 143q55 32 139 88q33 -47 133 -162q-39 -20 -115 -69z" />
    <glyph glyph-name="iacute" unicode="&#xed;" horiz-adv-x="342" 
d="M37 1q1 128 -3 494q105 0 269 2q1 -361 4 -495q-118 1 -270 -1zM202 547l-62.5 39l-40.5 24l-12 6l77 91t44 55l10 14l72 -45.5t52 -30.5l17 -10z" />
    <glyph glyph-name="icircumflex" unicode="&#xee;" horiz-adv-x="342" 
d="M37 1q1 128 -3 494q105 0 269 2q1 -361 4 -495q-118 1 -270 -1zM42 546l-80 92q60 39 140 103q44 -1 139 4q43 -38 138 -107q-23 -22 -80 -91l-128 84q-43 -21 -129 -85z" />
    <glyph glyph-name="idieresis" unicode="&#xef;" horiz-adv-x="342" 
d="M37 1q1 128 -3 494q105 0 269 2q1 -361 4 -495q-118 1 -270 -1zM54 563q-51 0 -77 25.5t-26 63.5q0 35 30 58t74 23q47 0 74.5 -22.5t27.5 -61.5q0 -44 -29.5 -65t-73.5 -21zM290 565q-45 0 -72 24t-27 64q0 36 27 58.5t74 22.5t72 -23.5t25 -60.5q0 -41 -28.5 -63
t-70.5 -22z" />
    <glyph glyph-name="eth" unicode="&#xf0;" horiz-adv-x="749" 
d="M378 -24q-170 0 -264 78t-94 217q0 118 75.5 190t198.5 72q97 0 159 -69q-29 78 -105 140l156 131q45 -30 76 -61l43 48q60 -82 141 -179q-26 -15 -65 -42q37 -91 37 -197q0 -158 -97 -243t-261 -85zM385 137q35 0 58.5 31t23.5 86q0 47 -22.5 81t-60.5 34
q-42 0 -65.5 -32.5t-23.5 -82.5q0 -55 22.5 -86t67.5 -31z" />
    <glyph glyph-name="ntilde" unicode="&#xf1;" 
d="M414 -18q1 13 1.5 36l2 94t-1.5 128q-3 74 -52 74q-29 0 -43 -19.5t-17 -61.5q-2 -31 -2.5 -86t0.5 -95l1 -40q-174 3 -273 0l2 484q129 -2 209 1l-1 -79q29 51 90.5 85t130.5 33q99 -2 156.5 -59t61.5 -164q2 -52 2.5 -134.5t0.5 -138.5l-1 -57zM270 571q-36 1 -116 -5
q-6 80 25.5 131.5t96.5 51.5q37 0 84.5 -26.5t62.5 -26.5q32 0 28 47q39 0 111 6q15 -83 -12.5 -132.5t-90.5 -49.5q-45 0 -92.5 24.5t-61.5 24.5q-18 0 -27.5 -12.5t-7.5 -32.5z" />
    <glyph glyph-name="ograve" unicode="&#xf2;" horiz-adv-x="758" 
d="M377 -13q-161 0 -259 69t-98 214q0 83 46.5 142.5t125.5 88.5t180 29q165 0 266 -70.5t100 -196.5q0 -73 -30 -128t-82 -86.5t-114.5 -46.5t-134.5 -15zM381 147q40 0 60.5 26t19.5 93q0 52 -21 80.5t-60 28.5q-38 0 -61 -27t-23 -76q0 -125 85 -125zM363 552l-157 143
q55 32 139 88q33 -47 133 -162q-39 -20 -115 -69z" />
    <glyph glyph-name="oacute" unicode="&#xf3;" horiz-adv-x="758" 
d="M377 -13q-161 0 -259 69t-98 214q0 83 46.5 142.5t125.5 88.5t180 29q165 0 266 -70.5t100 -196.5q0 -73 -30 -128t-82 -86.5t-114.5 -46.5t-134.5 -15zM381 147q40 0 60.5 26t19.5 93q0 52 -21 80.5t-60 28.5q-38 0 -61 -27t-23 -76q0 -125 85 -125zM410 552l-62.5 39
t-40.5 23l-12 7l77 91l44 54l10 15l72 -45.5l52 -31.5l17 -9z" />
    <glyph glyph-name="ocircumflex" unicode="&#xf4;" horiz-adv-x="758" 
d="M377 -13q-161 0 -259 69t-98 214q0 83 46.5 142.5t125.5 88.5t180 29q165 0 266 -70.5t100 -196.5q0 -73 -30 -128t-82 -86.5t-114.5 -46.5t-134.5 -15zM381 147q40 0 60.5 26t19.5 93q0 52 -21 80.5t-60 28.5q-38 0 -61 -27t-23 -76q0 -125 85 -125zM250 551l-80 92
q60 39 140 103q44 -1 139 4q43 -38 138 -107q-23 -22 -80 -91l-128 84q-43 -21 -129 -85z" />
    <glyph glyph-name="otilde" unicode="&#xf5;" horiz-adv-x="758" 
d="M377 -13q-161 0 -259 69t-98 214q0 83 46.5 142.5t125.5 88.5t180 29q165 0 266 -70.5t100 -196.5q0 -73 -30 -128t-82 -86.5t-114.5 -46.5t-134.5 -15zM381 147q40 0 60.5 26t19.5 93q0 52 -21 80.5t-60 28.5q-38 0 -61 -27t-23 -76q0 -125 85 -125zM288 571
q-36 1 -116 -5q-6 80 25.5 131.5t96.5 51.5q37 0 84.5 -26.5t62.5 -26.5q32 0 28 47q39 0 111 6q15 -83 -12.5 -132.5t-90.5 -49.5q-45 0 -92.5 24.5t-61.5 24.5q-18 0 -27.5 -12.5t-7.5 -32.5z" />
    <glyph glyph-name="odieresis" unicode="&#xf6;" horiz-adv-x="758" 
d="M377 -13q-161 0 -259 69t-98 214q0 83 46.5 142.5t125.5 88.5t180 29q165 0 266 -70.5t100 -196.5q0 -73 -30 -128t-82 -86.5t-114.5 -46.5t-134.5 -15zM381 147q40 0 60.5 26t19.5 93q0 52 -21 80.5t-60 28.5q-38 0 -61 -27t-23 -76q0 -125 85 -125zM263 568
q-51 0 -77 25.5t-26 63.5q0 35 30 58t74 23q47 0 74.5 -22.5t27.5 -61.5q0 -44 -29.5 -65t-73.5 -21zM499 570q-45 0 -72 24t-27 64q0 36 27 58.5t74 22.5t72 -23.5t25 -60.5q0 -41 -28.5 -63t-70.5 -22z" />
    <glyph glyph-name="divide" unicode="&#xf7;" horiz-adv-x="507" 
d="M10 437q92 -2 213.5 -2.5t197.5 -0.5l76 1l-3 -204q-113 2 -234 2t-185 -1l-64 -1zM249 674q52 0 83 -28t31 -77q0 -50 -31 -78t-85 -28q-56 0 -85 28t-29 78q0 105 116 105zM251 212q53 0 83.5 -28t30.5 -83q0 -46 -30.5 -72.5t-84.5 -26.5q-55 0 -84.5 26.5t-29.5 72.5
q0 58 32.5 84.5t82.5 26.5z" />
    <glyph glyph-name="oslash" unicode="&#xf8;" horiz-adv-x="762" 
d="M378 -14q-22 0 -32 1l-62 -142q-79 45 -210 108l70 85q-124 72 -124 233q0 115 95.5 187.5t268.5 72.5q17 0 47 -2q21 44 55 135q102 -51 213 -100q-30 -34 -75 -94q118 -76 118 -207q0 -130 -99.5 -203.5t-264.5 -73.5zM381 146q43 0 61.5 29.5t18.5 88.5q0 53 -20.5 83
t-60.5 30q-42 0 -63 -31t-21 -77q0 -55 21 -89t64 -34z" />
    <glyph glyph-name="ugrave" unicode="&#xf9;" 
d="M271 4q-136 0 -191 81.5t-55 245.5q0 87 13 183q59 -8 255 -19q-7 -72 -7 -119q0 -90 14 -128.5t47 -38.5q23 0 36.5 16.5t17.5 56.5q5 50 6 110.5t-1 96.5l-2 36q58 -3 266 -3q-2 -220 2 -526l-218 1q2 44 2 103q-30 -45 -79.5 -70.5t-105.5 -25.5zM333 547l-157 143
q55 32 139 88q33 -47 133 -162q-39 -20 -115 -69z" />
    <glyph glyph-name="uacute" unicode="&#xfa;" 
d="M271 4q-136 0 -191 81.5t-55 245.5q0 87 13 183q59 -8 255 -19q-7 -72 -7 -119q0 -90 14 -128.5t47 -38.5q23 0 36.5 16.5t17.5 56.5q5 50 6 110.5t-1 96.5l-2 36q58 -3 266 -3q-2 -220 2 -526l-218 1q2 44 2 103q-30 -45 -79.5 -70.5t-105.5 -25.5zM379 547l-62.5 39
l-40.5 24l-12 6l77 91t43 55l11 14l72 -45.5t52 -30.5l17 -10z" />
    <glyph glyph-name="ucircumflex" unicode="&#xfb;" 
d="M271 4q-136 0 -191 81.5t-55 245.5q0 87 13 183q59 -8 255 -19q-7 -72 -7 -119q0 -90 14 -128.5t47 -38.5q23 0 36.5 16.5t17.5 56.5q5 50 6 110.5t-1 96.5l-2 36q58 -3 266 -3q-2 -220 2 -526l-218 1q2 44 2 103q-30 -45 -79.5 -70.5t-105.5 -25.5zM220 546l-80 92
q60 39 140 103q44 -1 139 4q43 -38 138 -107q-23 -22 -80 -91l-128 84q-43 -21 -129 -85z" />
    <glyph glyph-name="udieresis" unicode="&#xfc;" 
d="M271 4q-136 0 -191 81.5t-55 245.5q0 87 13 183q59 -8 255 -19q-7 -72 -7 -119q0 -90 14 -128.5t47 -38.5q23 0 36.5 16.5t17.5 56.5q5 50 6 110.5t-1 96.5l-2 36q58 -3 266 -3q-2 -220 2 -526l-218 1q2 44 2 103q-30 -45 -79.5 -70.5t-105.5 -25.5zM232 563
q-51 0 -77 25.5t-26 63.5q0 35 30 58t74 23q47 0 74.5 -22.5t27.5 -61.5q0 -44 -29.5 -65t-73.5 -21zM468 565q-45 0 -72 24t-27 64q0 36 27 58.5t74 22.5t72 -23.5t25 -60.5q0 -41 -28.5 -63t-70.5 -22z" />
    <glyph glyph-name="yacute" unicode="&#xfd;" horiz-adv-x="686" 
d="M450 -253l-279 39l52 153l-223 551q87 2 158.5 6t99.5 7l27 3q15 -80 31.5 -155t25.5 -110l8 -35l39.5 170t26.5 122l8 39q105 -6 170.5 -9t78.5 -2h13zM375 547l-62.5 39l-40.5 24l-12 6l77 91t43 55l11 14l72 -45.5t52 -30.5l17 -10z" />
    <glyph glyph-name="thorn" unicode="&#xfe;" horiz-adv-x="759" 
d="M30 -216v900l277 1q-7 -129 -9 -229q67 73 178 73q123 0 193 -81.5t70 -190.5q1 -119 -76 -195.5t-198 -76.5q-115 0 -169 69l13 -269zM382 139q81 0 81 119q1 44 -20 77.5t-63 33.5q-39 0 -62 -29.5t-23 -85.5q0 -52 22.5 -83.5t64.5 -31.5z" />
    <glyph glyph-name="ydieresis" unicode="&#xff;" horiz-adv-x="686" 
d="M450 -253l-279 39l52 153l-223 551q87 2 158.5 6t99.5 7l27 3q15 -80 31.5 -155t25.5 -110l8 -35l39.5 170t26.5 122l8 39q105 -6 170.5 -9t78.5 -2h13zM227 563q-51 0 -77 25.5t-26 63.5q0 35 30 58t74 23q47 0 74.5 -22.5t27.5 -61.5q0 -44 -29.5 -65t-73.5 -21z
M463 565q-45 0 -72 24t-27 64q0 36 27 58.5t74 22.5t72 -23.5t25 -60.5q0 -41 -28.5 -63t-70.5 -22z" />
    <glyph glyph-name="Amacron" unicode="&#x100;" horiz-adv-x="811" 
d="M0 18l198 678l420 5l193 -720q-175 2 -291 0l-23 107q-96 2 -204 2l-15 -73zM394 542q-21 -86 -61 -265q31 -1 123 -1zM226 770q1 35 -2 125q87 -2 350 2l-2 -125q-92 2 -346 -2z" />
    <glyph glyph-name="amacron" unicode="&#x101;" horiz-adv-x="708" 
d="M235 -20q-102 0 -163.5 44t-61.5 118q0 159 273 159q53 0 118 -6q0 11 -1 18q-6 58 -56 58q-52 0 -61 -46q-90 7 -247 11q12 92 99.5 146t211.5 54q179 0 254 -67.5t80 -206.5q2 -73 2 -135t-1 -103l-2 -41q-116 1 -246 -2q3 24 5 72q-33 -36 -89 -54.5t-115 -18.5z
M336 123q36 1 54.5 20.5t19.5 69.5q-23 2 -33 2q-46 0 -69.5 -13.5t-23.5 -35.5q0 -43 52 -43zM191 593q1 35 -2 125q87 -2 350 2l-2 -125q-92 2 -346 -2z" />
    <glyph glyph-name="Abreve" unicode="&#x102;" horiz-adv-x="811" 
d="M0 18l198 678l420 5l193 -720q-175 2 -291 0l-23 107q-96 2 -204 2l-15 -73zM394 542q-21 -86 -61 -265q31 -1 123 -1zM394 750q-99 0 -149 42t-45 114q58 0 151 6q-2 -54 44 -54q23 0 35.5 16t6.5 48q49 -1 155 1q8 -91 -48 -132t-150 -41z" />
    <glyph glyph-name="abreve" unicode="&#x103;" horiz-adv-x="708" 
d="M235 -20q-102 0 -163.5 44t-61.5 118q0 159 273 159q53 0 118 -6q0 11 -1 18q-6 58 -56 58q-52 0 -61 -46q-90 7 -247 11q12 92 99.5 146t211.5 54q179 0 254 -67.5t80 -206.5q2 -73 2 -135t-1 -103l-2 -41q-116 1 -246 -2q3 24 5 72q-33 -36 -89 -54.5t-115 -18.5z
M336 123q36 1 54.5 20.5t19.5 69.5q-23 2 -33 2q-46 0 -69.5 -13.5t-23.5 -35.5q0 -43 52 -43zM362 574q-99 0 -149 42t-45 114q58 0 151 6q-2 -54 44 -54q23 0 35.5 16t6.5 48q49 -1 155 1q8 -91 -48 -132t-150 -41z" />
    <glyph glyph-name="Aogonek" unicode="&#x104;" horiz-adv-x="811" 
d="M621 -241q-103 -12 -155.5 17.5t-53.5 81.5q-1 39 27.5 77.5t77.5 59.5l-20 93q-96 2 -204 2l-15 -73l-278 1l198 678l420 5l193 -720l-208 1q-45 -29 -45 -61q0 -19 20 -31t56 -11q-8 -41 -13 -120zM394 542q-21 -86 -61 -265q31 -1 123 -1z" />
    <glyph glyph-name="aogonek" unicode="&#x105;" horiz-adv-x="708" 
d="M235 -20q-102 0 -163.5 44t-61.5 118q0 159 266 159q54 0 125 -6q0 11 -1 18q-6 58 -56 58q-52 0 -61 -46q-90 7 -247 11q12 92 99.5 146t211.5 54q179 0 254 -67.5t80 -206.5q2 -73 2 -135t-1 -103l-2 -41q-62 1 -144 0q-42 -27 -42 -59q0 -19 20 -31t56 -11
q-8 -41 -13 -120q-103 -12 -155.5 17.5t-53.5 81.5q-1 35 22.5 70t64.5 58l4 64q-33 -36 -89 -54.5t-115 -18.5zM336 123q36 1 54.5 20.5t19.5 69.5q-62 6 -94 -7.5t-32 -39.5q0 -43 52 -43z" />
    <glyph glyph-name="Cacute" unicode="&#x106;" horiz-adv-x="855" 
d="M441 -15q-85 0 -157.5 19.5t-133 60.5t-95.5 112.5t-35 166.5q0 165 112.5 262.5t297.5 97.5q169 0 278 -79.5t131 -208.5l-301 -17q-11 48 -38.5 78.5t-69.5 30.5q-56 0 -85.5 -44.5t-29.5 -117.5q0 -69 32 -114t86 -45q98 0 115 120q89 -3 164.5 -7t106.5 -6l31 -3
q-10 -139 -120.5 -222.5t-288.5 -83.5zM468 737l-62.5 39l-40.5 24l-12 6l77 91t44 55l10 14l72 -45.5t52 -30.5l17 -10z" />
    <glyph glyph-name="cacute" unicode="&#x107;" horiz-adv-x="704" 
d="M369 -17q-172 0 -260.5 70.5t-88.5 207.5q0 122 84.5 196t243.5 74q149 0 243 -62t104 -170l-288 -12q-1 30 -15 53.5t-41 23.5q-31 0 -47 -30t-16 -74q0 -51 16 -77t43 -26q21 0 36.5 15.5t19.5 47.5q99 -7 296 -14q-25 -107 -115 -165t-215 -58zM391 552l-62.5 39
t-40.5 23l-12 7l77 91t43 54l11 15l72 -45.5l52 -31.5l17 -9z" />
    <glyph glyph-name="Ccircumflex" unicode="&#x108;" horiz-adv-x="855" 
d="M441 -15q-85 0 -157.5 19.5t-133 60.5t-95.5 112.5t-35 166.5q0 165 112.5 262.5t297.5 97.5q169 0 278 -79.5t131 -208.5l-301 -17q-11 48 -38.5 78.5t-69.5 30.5q-56 0 -85.5 -44.5t-29.5 -117.5q0 -69 32 -114t86 -45q98 0 115 120q89 -3 164.5 -7t106.5 -6l31 -3
q-10 -139 -120.5 -222.5t-288.5 -83.5zM307 728l-80 92q60 39 140 103q44 -1 139 4q43 -38 138 -107q-23 -22 -80 -91l-128 84q-43 -21 -129 -85z" />
    <glyph glyph-name="ccircumflex" unicode="&#x109;" horiz-adv-x="704" 
d="M369 -17q-172 0 -260.5 70.5t-88.5 207.5q0 122 84.5 196t243.5 74q149 0 243 -62t104 -170l-288 -12q-1 30 -15 53.5t-41 23.5q-31 0 -47 -30t-16 -74q0 -51 16 -77t43 -26q21 0 36.5 15.5t19.5 47.5q99 -7 296 -14q-25 -107 -115 -165t-215 -58zM231 545l-80 92
q60 39 140 103q44 -1 139 4q43 -38 138 -107q-23 -22 -80 -91l-128 84q-43 -21 -129 -85z" />
    <glyph glyph-name="Ccaron" unicode="&#x10c;" horiz-adv-x="855" 
d="M441 -15q-85 0 -157.5 19.5t-133 60.5t-95.5 112.5t-35 166.5q0 165 112.5 262.5t297.5 97.5q169 0 278 -79.5t131 -208.5l-301 -17q-11 48 -38.5 78.5t-69.5 30.5q-56 0 -85.5 -44.5t-29.5 -117.5q0 -69 32 -114t86 -45q98 0 115 120q89 -3 164.5 -7t106.5 -6l31 -3
q-10 -139 -120.5 -222.5t-288.5 -83.5zM365 746q-43 38 -138 107q23 22 80 91l128 -84q43 21 129 85l80 -92q-60 -39 -140 -103q-44 1 -139 -4z" />
    <glyph glyph-name="ccaron" unicode="&#x10d;" horiz-adv-x="704" 
d="M369 -17q-172 0 -260.5 70.5t-88.5 207.5q0 122 84.5 196t243.5 74q149 0 243 -62t104 -170l-288 -12q-1 30 -15 53.5t-41 23.5q-31 0 -47 -30t-16 -74q0 -51 16 -77t43 -26q21 0 36.5 15.5t19.5 47.5q99 -7 296 -14q-25 -107 -115 -165t-215 -58zM289 561
q-43 38 -138 107q23 22 80 91l128 -84q43 21 129 85l80 -92q-60 -39 -140 -103q-44 1 -139 -4z" />
    <glyph glyph-name="Dcaron" unicode="&#x10e;" horiz-adv-x="837" 
d="M315 187q18 -1 27 -1q182 0 182 160q0 156 -170 156q-29 0 -45 -2zM40 -5q2 217 2.5 388.5t-0.5 234.5l-1 63q162 25 282 25q246 0 370 -91t124 -270q0 -364 -544 -364q-102 0 -233 14zM300 745q-43 38 -138 107q23 22 80 91l128 -84q43 21 129 85l80 -92
q-60 -39 -140 -103q-44 1 -139 -4z" />
    <glyph glyph-name="dcaron" unicode="&#x10f;" horiz-adv-x="747" 
d="M712 -25l-226 2q4 40 7 98q-28 -45 -84 -68.5t-114 -23.5q-121 0 -198 74t-77 196t67.5 198.5t184.5 76.5q107 0 173 -73l-5 238q51 -1 272 1q-2 -334 0 -719zM379 141q39 0 63 28.5t24 86.5q0 47 -22.5 80.5t-60.5 33.5q-43 0 -65 -32t-22 -80q0 -59 23.5 -88t59.5 -29z
M928 605q0 -42 -34.5 -83t-99.5 -72l-43 52q32 22 48 45q-25 7 -41 26t-16 42q0 33 26 56t68 23q43 0 67.5 -24.5t24.5 -64.5z" />
    <glyph glyph-name="Dcroat" unicode="&#x110;" horiz-adv-x="882" 
d="M85 -5l2 246l-87 -4q1 9 1.5 25t1.5 71.5t-1 112.5q29 -3 85 -5l-1 240q164 25 282 25q245 0 369.5 -91t124.5 -270q0 -364 -547 -364q-99 0 -230 14zM360 184q104 -5 156.5 37t52.5 125q0 160 -180 160q-23 0 -35 -1v-72h70q-3 -68 1 -182q-25 -1 -67 -2z" />
    <glyph glyph-name="dcroat" unicode="&#x111;" horiz-adv-x="800" 
d="M794 464l-83 4q0 -305 1 -493l-226 2q4 40 7 98q-28 -45 -84 -68.5t-114 -23.5q-121 0 -198 74t-77 196t67.5 198.5t184.5 76.5q107 0 173 -73l-5 238q51 -1 272 1q-1 -22 -1 -48l89 4q-3 -48 -4.5 -94.5t-1.5 -69.5v-22zM379 141q87 0 87 122q0 44 -21.5 76t-59.5 32
q-39 0 -63.5 -30t-24.5 -87q0 -53 22.5 -83t59.5 -30z" />
    <glyph glyph-name="Emacron" unicode="&#x112;" horiz-adv-x="700" 
d="M48 5q0 282 -8 686q243 8 630 11q-1 -68 2 -202q-99 -1 -361 -7v-59q89 0 284 2q-2 -41 1 -174l-280 1q0 -17 2 -59q97 -4 357 -6l-1 -207q-269 11 -626 14zM187 773q1 35 -2 125q87 -2 350 2l-2 -125q-91 2 -346 -2z" />
    <glyph glyph-name="emacron" unicode="&#x113;" horiz-adv-x="749" 
d="M387 -21q-191 0 -279.5 74.5t-87.5 207.5q0 129 97 199.5t249 70.5q198 -1 286 -84.5t82 -246.5q-127 0 -432 -4q18 -68 78 -68q52 0 71 46q68 -6 283 -11q-86 -184 -347 -184zM380 379q-74 0 -83 -88l161 6q-4 40 -21.5 61t-56.5 21zM204 588q1 35 -2 125q87 -2 350 2
l-2 -125q-91 2 -346 -2z" />
    <glyph glyph-name="Edotaccent" unicode="&#x116;" horiz-adv-x="700" 
d="M48 5q0 282 -8 686q243 8 630 11q-1 -68 2 -202q-99 -1 -361 -7v-59q89 0 284 2q-2 -41 1 -174l-280 1q0 -17 2 -59q97 -4 357 -6l-1 -207q-269 11 -626 14zM360 755q-55 0 -84.5 28.5t-29.5 71.5q0 40 31 66.5t83 26.5q54 0 84 -29t30 -67q0 -46 -31.5 -71.5
t-82.5 -25.5z" />
    <glyph glyph-name="edotaccent" unicode="&#x117;" horiz-adv-x="749" 
d="M387 -21q-191 0 -279.5 74.5t-87.5 207.5q0 129 97 199.5t249 70.5q198 -1 286 -84.5t82 -246.5q-127 0 -432 -4q18 -68 78 -68q52 0 71 46q68 -6 283 -11q-86 -184 -347 -184zM380 379q-74 0 -83 -88l161 6q-4 40 -21.5 61t-56.5 21zM377 570q-55 0 -84.5 28.5
t-29.5 71.5q0 40 31 66.5t83 26.5q54 0 84 -29t30 -67q0 -46 -31.5 -71.5t-82.5 -25.5z" />
    <glyph glyph-name="Eogonek" unicode="&#x118;" horiz-adv-x="700" 
d="M664 -240q-103 -12 -155.5 17.5t-53.5 81.5q-1 38 27.5 78t79.5 62q-43 0 -217.5 2.5t-296.5 3.5q0 282 -8 686q243 8 630 11q-1 -68 2 -202q-99 -1 -361 -7v-59q89 0 284 2q-2 -41 1 -174l-280 1q0 -17 2 -59q97 -4 357 -6l-1 -201q-35 -15 -54 -35.5t-19 -39.5t20 -31
t56 -11q-8 -41 -13 -120z" />
    <glyph glyph-name="eogonek" unicode="&#x119;" horiz-adv-x="749" 
d="M476 -227q-103 -12 -155.5 17.5t-53.5 81.5q-2 61 59 110q-159 12 -233 84.5t-73 194.5q0 129 97 199.5t249 70.5q198 -1 286 -84.5t82 -246.5q-127 0 -432 -4q18 -68 78 -68q52 0 71 46q68 -6 283 -11q-76 -164 -296 -182q-25 -22 -25 -46q0 -19 20 -31t56 -11
q-8 -41 -13 -120zM380 379q-74 0 -83 -88l161 6q-4 40 -21.5 61t-56.5 21z" />
    <glyph glyph-name="Ecaron" unicode="&#x11a;" horiz-adv-x="700" 
d="M48 5q0 282 -8 686q243 8 630 11q-1 -68 2 -202q-99 -1 -361 -7v-59q89 0 284 2q-2 -41 1 -174l-280 1q0 -17 2 -59q97 -4 357 -6l-1 -207q-269 11 -626 14zM289 740q-43 38 -138 107q23 22 80 91l128 -84q43 21 129 85l80 -92q-60 -39 -140 -103q-44 1 -139 -4z" />
    <glyph glyph-name="ecaron" unicode="&#x11b;" horiz-adv-x="749" 
d="M387 -21q-191 0 -279.5 74.5t-87.5 207.5q0 129 97 199.5t249 70.5q198 -1 286 -84.5t82 -246.5q-127 0 -432 -4q18 -68 78 -68q52 0 71 46q68 -6 283 -11q-86 -184 -347 -184zM380 379q-74 0 -83 -88l161 6q-4 40 -21.5 61t-56.5 21zM306 561q-43 38 -138 107
q23 22 80 91l128 -84q43 21 129 85l80 -92q-60 -39 -140 -103q-44 1 -139 -4z" />
    <glyph glyph-name="Gcircumflex" unicode="&#x11c;" horiz-adv-x="875" 
d="M441 -28q-184 -1 -302.5 99.5t-118.5 277.5q0 170 113.5 267t304.5 97q159 0 266.5 -64t135.5 -197q-134 -8 -289 -20q-11 37 -39.5 61.5t-72.5 24.5q-61 0 -97 -46t-36 -122q0 -81 41 -130t114 -49q86 0 128 53l-177 -5q3 43 0 169q186 -3 453 -5q0 -198 -114.5 -304.5
t-309.5 -106.5zM314 732l-80 92q60 39 140 103q44 -1 139 4q43 -38 138 -107q-23 -22 -80 -91l-128 84q-43 -21 -129 -85z" />
    <glyph glyph-name="gcircumflex" unicode="&#x11d;" horiz-adv-x="684" 
d="M340 194q63 0 63 91q0 86 -63 86q-62 0 -62 -88q0 -40 16 -64.5t46 -24.5zM448 -147q0 42 -102 48q-63 -16 -63 -53q0 -43 83 -42q34 0 58 13t24 34zM699 -114q0 -66 -57 -112t-138.5 -65.5t-177.5 -19.5q-147 0 -236.5 31.5t-89.5 99.5q0 39 37 63.5t101 30.5
q-49 8 -83.5 37t-34.5 65q0 82 122 118q-129 53 -129 181q0 80 48 131.5t117 70.5t160 19q74 0 131.5 -10.5t106 -34.5t74.5 -70.5t26 -112.5q0 -57 -28 -99t-76 -64.5t-102.5 -33t-117.5 -10.5q-33 0 -66 3q-3 -6 -3 -13q0 -16 25.5 -23.5t101.5 -11.5q158 -6 223.5 -48
t65.5 -122zM221 561l-80 92q60 39 140 103q44 -1 139 4q43 -38 138 -107q-23 -22 -80 -91l-128 84q-43 -21 -129 -85z" />
    <glyph glyph-name="Gbreve" unicode="&#x11e;" horiz-adv-x="875" 
d="M441 -28q-184 -1 -302.5 99.5t-118.5 277.5q0 170 113.5 267t304.5 97q159 0 266.5 -64t135.5 -197q-134 -8 -289 -20q-11 37 -39.5 61.5t-72.5 24.5q-61 0 -97 -46t-36 -122q0 -81 41 -130t114 -49q86 0 128 53l-177 -5q3 43 0 169q186 -3 453 -5q0 -198 -114.5 -304.5
t-309.5 -106.5zM440 746q-99 0 -149 42t-45 114q58 0 151 6q-2 -54 44 -54q23 0 35.5 16t6.5 48q49 -1 155 1q8 -91 -48 -132t-150 -41z" />
    <glyph glyph-name="gbreve" unicode="&#x11f;" horiz-adv-x="684" 
d="M340 194q63 0 63 91q0 86 -63 86q-62 0 -62 -88q0 -40 16 -64.5t46 -24.5zM448 -147q0 42 -102 48q-63 -16 -63 -53q0 -43 83 -42q34 0 58 13t24 34zM699 -114q0 -66 -57 -112t-138.5 -65.5t-177.5 -19.5q-147 0 -236.5 31.5t-89.5 99.5q0 39 37 63.5t101 30.5
q-49 8 -83.5 37t-34.5 65q0 82 122 118q-129 53 -129 181q0 80 48 131.5t117 70.5t160 19q74 0 131.5 -10.5t106 -34.5t74.5 -70.5t26 -112.5q0 -57 -28 -99t-76 -64.5t-102.5 -33t-117.5 -10.5q-33 0 -66 3q-3 -6 -3 -13q0 -16 25.5 -23.5t101.5 -11.5q158 -6 223.5 -48
t65.5 -122zM348 579q-99 0 -149 42t-45 114q58 0 151 6q-2 -54 44 -54q23 0 35.5 16t6.5 48q49 -1 155 1q8 -91 -48 -132t-150 -41z" />
    <glyph glyph-name="Gcommaaccent" unicode="&#x122;" horiz-adv-x="875" 
d="M441 -28q-184 -1 -302.5 99.5t-118.5 277.5q0 170 113.5 267t304.5 97q159 0 266.5 -64t135.5 -197q-134 -8 -289 -20q-11 37 -39.5 61.5t-72.5 24.5q-61 0 -97 -46t-36 -122q0 -81 41 -130t114 -49q86 0 128 53l-177 -5q3 43 0 169q186 -3 453 -5q0 -198 -114.5 -304.5
t-309.5 -106.5zM536 -145q0 -42 -34.5 -83t-99.5 -72l-43 52q32 22 48 45q-25 7 -41 26t-16 42q0 33 26 56t68 23q43 0 67.5 -24.5t24.5 -64.5z" />
    <glyph glyph-name="gcommaaccent" unicode="&#x123;" horiz-adv-x="684" 
d="M340 194q63 0 63 91q0 86 -63 86q-62 0 -62 -88q0 -40 16 -64.5t46 -24.5zM448 -147q0 42 -102 48q-63 -16 -63 -53q0 -43 83 -42q34 0 58 13t24 34zM699 -114q0 -66 -57 -112t-138.5 -65.5t-177.5 -19.5q-147 0 -236.5 31.5t-89.5 99.5q0 39 37 63.5t101 30.5
q-49 8 -83.5 37t-34.5 65q0 82 122 118q-129 53 -129 181q0 80 48 131.5t117 70.5t160 19q74 0 131.5 -10.5t106 -34.5t74.5 -70.5t26 -112.5q0 -57 -28 -99t-76 -64.5t-102.5 -33t-117.5 -10.5q-33 0 -66 3q-3 -6 -3 -13q0 -16 25.5 -23.5t101.5 -11.5q158 -6 223.5 -48
t65.5 -122zM257 665q0 42 34.5 83t99.5 72l43 -52q-32 -22 -48 -45q25 -7 41 -26t16 -42q0 -33 -26 -56t-68 -23q-43 0 -67.5 24.5t-24.5 64.5z" />
    <glyph glyph-name="Hcircumflex" unicode="&#x124;" horiz-adv-x="791" 
d="M480 -14v197q-53 0 -167 -1l3 -168q-134 1 -272 -1q1 277 -4 667q132 0 269 1q1 -110 2 -276q3 0 29.5 -0.5t55.5 -0.5h83l-3 306q129 -2 272 1q0 -319 3 -727zM267 741l-80 92q60 39 140 103q44 -1 139 4q43 -38 138 -107q-23 -22 -80 -91l-128 84q-43 -21 -129 -85z
" />
    <glyph glyph-name="hcircumflex" unicode="&#x125;" horiz-adv-x="709" 
d="M30 14q1 34 1.5 92t1.5 241t-1 337q99 0 271 1q-1 -92 -1 -226q30 33 75.5 54.5t94.5 21.5q94 0 149.5 -56t59.5 -150q3 -71 3 -157.5t-1 -137.5l-1 -51l-264 1q5 148 0 257q-4 73 -51 73q-32 0 -45.5 -21t-15.5 -61q-2 -44 -2.5 -98t0.5 -86l1 -33q-124 3 -275 -1z
M37 712l-80 92q60 39 140 103q44 -1 139 4q43 -38 138 -107q-23 -22 -80 -91l-128 84q-43 -21 -129 -85z" />
    <glyph glyph-name="Imacron" unicode="&#x12a;" horiz-adv-x="370" 
d="M49 -1q1 307 -4 695q99 0 275 1q2 -335 5 -695q-132 1 -276 -1zM12 768q1 35 -2 125q87 -2 350 2l-2 -125q-92 2 -346 -2z" />
    <glyph glyph-name="imacron" unicode="&#x12b;" horiz-adv-x="342" 
d="M37 1q1 128 -3 494q105 0 269 2q1 -361 4 -495q-118 1 -270 -1zM-3 583q1 35 -2 125q87 -2 350 2l-2 -125q-91 2 -346 -2z" />
    <glyph glyph-name="Iogonek" unicode="&#x12e;" horiz-adv-x="370" 
d="M251 -227q-103 -12 -155.5 17.5t-53.5 81.5q-1 35 22.5 70.5t64.5 57.5q-52 0 -80 -1q1 307 -4 695q99 0 275 1q2 -335 5 -695h-84q-53 -28 -53 -65q0 -19 20 -31t56 -11q-8 -41 -13 -120z" />
    <glyph glyph-name="iogonek" unicode="&#x12f;" horiz-adv-x="342" 
d="M37 1q1 128 -3 494q105 0 269 2q1 -361 4 -495h-73q-57 -28 -57 -67q0 -19 20 -31t56 -11q-8 -41 -13 -120q-103 -12 -155.5 17.5t-53.5 81.5q-1 36 24 72t67 58zM174 525q-84 0 -124 26.5t-40 83.5q0 50 40 78.5t122 28.5q160 0 160 -106q0 -111 -158 -111z" />
    <glyph glyph-name="Idotaccent" unicode="&#x130;" horiz-adv-x="370" 
d="M49 -1q1 307 -4 695q99 0 275 1q2 -335 5 -695q-132 1 -276 -1zM185 750q-55 0 -84.5 28.5t-29.5 71.5q0 40 31 66.5t83 26.5q54 0 84 -29t30 -67q0 -46 -31.5 -71.5t-82.5 -25.5z" />
    <glyph glyph-name="dotlessi" unicode="&#x131;" horiz-adv-x="342" 
d="M37 1q1 128 -3 494q105 0 269 2q1 -361 4 -495q-118 1 -270 -1z" />
    <glyph glyph-name="Jcircumflex" unicode="&#x134;" horiz-adv-x="708" 
d="M335 -11q-159 0 -244.5 75.5t-85.5 218.5q0 60 14 106q64 -10 255 -24q-4 -24 -4 -57q0 -105 64 -105q28 0 44.5 19.5t26 78t9.5 162.5q0 101 -20 237q83 0 272 13q22 -134 22 -256q0 -468 -353 -468zM397 737l-80 92q60 39 140 103q44 -1 139 4q43 -38 138 -107
q-23 -22 -80 -91l-128 84q-43 -21 -129 -85z" />
    <glyph glyph-name="jcircumflex" unicode="&#x135;" horiz-adv-x="340" 
d="M-100 -232q1 5 2 16t2 59t1 112q27 -4 51 -4q45 0 63 19t19 67q1 96 1 196.5t-1 178.5l-1 77q93 -2 152 -2t86 1l27 2q1 -19 2 -55.5t2 -161.5t0 -264q-1 -256 -267 -256q-64 0 -139 15zM41 556l-80 92q60 39 140 103q44 -1 139 4q43 -38 138 -107q-23 -22 -80 -91
l-128 84q-43 -21 -129 -85z" />
    <glyph glyph-name="Kcommaaccent" unicode="&#x136;" horiz-adv-x="805" 
d="M495 -23l-103 235l-86 -107l2 -98l-268 -1v681l267 -1q-1 -97 -1 -249l190 276l309 -12l-212 -283l201 -430q-92 -1 -166.5 -3.5t-103.5 -4.5zM489 -130q0 -42 -34.5 -83t-99.5 -72l-43 52q32 22 48 45q-25 7 -41 26t-16 42q0 33 26 56t68 23q43 0 67.5 -24.5t24.5 -64.5
z" />
    <glyph glyph-name="kcommaaccent" unicode="&#x137;" 
d="M422 -22l-68 174l-55 -75l1 -63q-71 2 -138.5 2t-99.5 -1l-32 -1q3 233 4 401t0 219l-1 51q81 -2 148 -2.5t94 -0.5l27 1q-1 -82 -2 -200t-1 -145l40.5 104.5l28.5 76.5l8 25q96 -4 174.5 -6t109.5 -2h31l-144 -209l160 -334q-97 -3 -168.5 -7t-94.5 -6zM436 -125
q0 -42 -34.5 -83t-99.5 -72l-43 52q32 22 48 45q-25 7 -41 26t-16 42q0 33 26 56t68 23q43 0 67.5 -24.5t24.5 -64.5z" />
    <glyph glyph-name="Lacute" unicode="&#x139;" horiz-adv-x="624" 
d="M46 2q0 409 -6 687q84 -3 271 0q-2 -77 4 -467l304 -2l-1 -221zM215 727l-62.5 39l-40.5 24l-12 6l77 91t43 55l11 14l72 -45.5t52 -30.5l17 -10z" />
    <glyph glyph-name="lacute" unicode="&#x13a;" horiz-adv-x="342" 
d="M305 0l-270 1q3 252 3.5 427t-0.5 224v48l269 -2zM202 733l-62.5 39l-40.5 24l-12 6l77 91t44 55l10 14l72 -45.5t52 -30.5l17 -10z" />
    <glyph glyph-name="Lcommaaccent" unicode="&#x13b;" horiz-adv-x="624" 
d="M46 2q0 409 -6 687q84 -3 271 0q-2 -77 4 -467l304 -2l-1 -221zM424 -125q0 -42 -34.5 -83t-99.5 -72l-43 52q32 22 48 45q-25 7 -41 26t-16 42q0 33 26 56t68 23q43 0 67.5 -24.5t24.5 -64.5z" />
    <glyph glyph-name="lcommaaccent" unicode="&#x13c;" horiz-adv-x="342" 
d="M305 0l-270 1q3 252 3.5 427t-0.5 224v48l269 -2zM264 -125q0 -42 -34.5 -83t-99.5 -72l-43 52q32 22 48 45q-25 7 -41 26t-16 42q0 33 26 56t68 23q43 0 67.5 -24.5t24.5 -64.5z" />
    <glyph glyph-name="Lcaron" unicode="&#x13d;" horiz-adv-x="624" 
d="M46 2q0 409 -6 687q84 -3 271 0q-2 -77 4 -467l304 -2l-1 -221zM562 659q0 -42 -34.5 -83t-99.5 -72l-43 52q32 22 48 45q-25 7 -41 26t-16 42q0 33 26 56t68 23q43 0 67.5 -24.5t24.5 -64.5z" />
    <glyph glyph-name="lcaron" unicode="&#x13e;" horiz-adv-x="342" 
d="M305 0l-270 1q3 252 3.5 427t-0.5 224v48l269 -2zM523 611q0 -42 -34.5 -83t-99.5 -72l-43 52q32 22 48 45q-25 7 -41 26t-16 42q0 33 26 56t68 23q43 0 67.5 -24.5t24.5 -64.5z" />
    <glyph glyph-name="Lslash" unicode="&#x141;" horiz-adv-x="624" 
d="M0 247q1 9 1.5 25t1.5 71.5t-1 112.5q14 2 41 7l-3 226q84 -3 271 0q-1 -39 0 -175l113 24q-3 -82 1 -196l-112 -23l2 -97l304 -2l-1 -221l-572 3q0 111 -1 256z" />
    <glyph glyph-name="lslash" unicode="&#x142;" horiz-adv-x="386" 
d="M3 259l-3 184q23 4 59 11v246l269 -2l-2 -189l60 14l-2 -186q-40 -8 -59 -11l1 -326l-270 1q2 208 2 270z" />
    <glyph glyph-name="Nacute" unicode="&#x143;" horiz-adv-x="801" 
d="M43 16q2 254 -3 659q130 5 258 8l195 -309q0 96 -11 338q137 0 265 -1q0 -273 14 -714q-130 -10 -265 -14l-198 314q0 -90 7 -283q-131 2 -262 2zM419 729l-62.5 39l-40.5 24l-12 6l77 91t43 55l11 14l72 -45.5t52 -30.5l17 -10z" />
    <glyph glyph-name="nacute" unicode="&#x144;" 
d="M414 -18q1 13 1.5 36l2 94t-1.5 128q-3 74 -52 74q-29 0 -43 -19.5t-17 -61.5q-2 -31 -2.5 -86t0.5 -95l1 -40q-174 3 -273 0l2 484q129 -2 209 1l-1 -79q29 51 90.5 85t130.5 33q99 -2 156.5 -59t61.5 -164q2 -52 2.5 -134.5t0.5 -138.5l-1 -57zM392 552l-62.5 39
t-40.5 23l-12 7l77 91l44 54l10 15l72 -45.5l52 -31.5l17 -9z" />
    <glyph glyph-name="Ncommaaccent" unicode="&#x145;" horiz-adv-x="801" 
d="M43 16q2 254 -3 659q130 5 258 8l195 -309q0 96 -11 338q137 0 265 -1q0 -273 14 -714q-130 -10 -265 -14l-198 314q0 -90 7 -283q-131 2 -262 2zM494 -125q0 -42 -34.5 -83t-99.5 -72l-43 52q32 22 48 45q-25 7 -41 26t-16 42q0 33 26 56t68 23q43 0 67.5 -24.5
t24.5 -64.5z" />
    <glyph glyph-name="ncommaaccent" unicode="&#x146;" 
d="M414 -18q1 13 1.5 36l2 94t-1.5 128q-3 74 -52 74q-29 0 -43 -19.5t-17 -61.5q-2 -31 -2.5 -86t0.5 -95l1 -40q-174 3 -273 0l2 484q129 -2 209 1l-1 -79q29 51 90.5 85t130.5 33q99 -2 156.5 -59t61.5 -164q2 -52 2.5 -134.5t0.5 -138.5l-1 -57zM454 -130
q0 -42 -34.5 -83t-99.5 -72l-43 52q32 22 48 45q-25 7 -41 26t-16 42q0 33 26 56t68 23q43 0 67.5 -24.5t24.5 -64.5z" />
    <glyph glyph-name="Ncaron" unicode="&#x147;" horiz-adv-x="801" 
d="M43 16q2 254 -3 659q130 5 258 8l195 -309q0 96 -11 338q137 0 265 -1q0 -273 14 -714q-130 -10 -265 -14l-198 314q0 -90 7 -283q-131 2 -262 2zM330 756q-43 38 -138 107q23 22 80 91l128 -84q43 21 129 85l80 -92q-60 -39 -140 -103q-44 1 -139 -4z" />
    <glyph glyph-name="ncaron" unicode="&#x148;" 
d="M414 -18q1 13 1.5 36l2 94t-1.5 128q-3 74 -52 74q-29 0 -43 -19.5t-17 -61.5q-2 -31 -2.5 -86t0.5 -95l1 -40q-174 3 -273 0l2 484q129 -2 209 1l-1 -79q29 51 90.5 85t130.5 33q99 -2 156.5 -59t61.5 -164q2 -52 2.5 -134.5t0.5 -138.5l-1 -57zM290 561
q-43 38 -138 107q23 22 80 91l128 -84q43 21 129 85l80 -92q-60 -39 -140 -103q-44 1 -139 -4z" />
    <glyph glyph-name="Omacron" unicode="&#x14c;" horiz-adv-x="878" 
d="M439 -18q-190 1 -303.5 96t-115.5 268q-2 88 32.5 158.5t94 114t134 67t156.5 23.5q197 0 309.5 -95.5t111.5 -266.5q0 -91 -33.5 -162t-91 -115t-132.5 -66t-162 -22zM439 180q58 0 91 41t33 122q0 84 -33 127t-92 43q-57 0 -90 -44.5t-33 -124.5q-1 -71 32.5 -117.5
t91.5 -46.5zM265 763q1 35 -2 125q87 -2 350 2l-2 -125q-92 2 -346 -2z" />
    <glyph glyph-name="omacron" unicode="&#x14d;" horiz-adv-x="758" 
d="M377 -13q-161 0 -259 69t-98 214q0 83 46.5 142.5t125.5 88.5t180 29q165 0 266 -70.5t100 -196.5q0 -73 -30 -128t-82 -86.5t-114.5 -46.5t-134.5 -15zM381 147q40 0 60.5 26t19.5 93q0 52 -21 80.5t-60 28.5q-38 0 -61 -27t-23 -76q0 -125 85 -125zM206 588
q1 35 -2 125q87 -2 350 2l-2 -125q-92 2 -346 -2z" />
    <glyph glyph-name="Ohungarumlaut" unicode="&#x150;" horiz-adv-x="878" 
d="M439 -18q-190 1 -303.5 96t-115.5 268q-2 88 32.5 158.5t94 114t134 67t156.5 23.5q197 0 309.5 -95.5t111.5 -266.5q0 -91 -33.5 -162t-91 -115t-132.5 -66t-162 -22zM439 180q58 0 91 41t33 122q0 84 -33 127t-92 43q-57 0 -90 -44.5t-33 -124.5q-1 -71 32.5 -117.5
t91.5 -46.5zM562 735l-111 58l68.5 97.5t37.5 57.5l9 14l139 -70zM352 744q-34 20 -62 34.5l-38 19.5l-11 4l68.5 97.5t37.5 57.5l9 15l139 -71z" />
    <glyph glyph-name="ohungarumlaut" unicode="&#x151;" horiz-adv-x="758" 
d="M377 -13q-161 0 -259 69t-98 214q0 83 46.5 142.5t125.5 88.5t180 29q165 0 266 -70.5t100 -196.5q0 -73 -30 -128t-82 -86.5t-114.5 -46.5t-134.5 -15zM381 147q40 0 60.5 26t19.5 93q0 52 -21 80.5t-60 28.5q-38 0 -61 -27t-23 -76q0 -125 85 -125zM502 561l-111 58
l68.5 97.5t37.5 57.5l9 14l139 -70zM292 570q-34 20 -62 34.5l-38 19.5l-11 4l68.5 97.5t37.5 57.5l9 15l139 -71z" />
    <glyph glyph-name="OE" unicode="&#x152;" horiz-adv-x="1235" 
d="M1128 262l-279 2q0 -16 2 -60q15 -1 43.5 -2t122 -2.5t193.5 -0.5q-4 -98 -4 -210q-183 12 -585 18q-84 -27 -184 -27q-195 0 -306 100t-111 271q0 114 59.5 197t152.5 122.5t205 39.5q73 0 155 -29q169 0 605 17q0 -96 6 -201q-142 3 -356 -3q-1 -25 -1 -61q146 0 280 2
q-2 -74 2 -173zM444 178q55 0 87 43.5t32 128.5q0 77 -31.5 120.5t-92.5 43.5q-59 0 -91 -46.5t-32 -117.5q0 -81 33.5 -126.5t94.5 -45.5z" />
    <glyph glyph-name="oe" unicode="&#x153;" horiz-adv-x="1193" 
d="M839 -21q-177 0 -256 73q-82 -64 -226 -64q-157 0 -247 71.5t-90 209.5q0 120 91 190t242 70q165 0 249 -69q86 70 234 70q166 0 258 -80.5t83 -249.5q-130 1 -432 -4q17 -69 77 -69q53 0 71 50q134 -14 284 -17q-38 -84 -124.5 -132.5t-213.5 -48.5zM380 147
q40 0 60 26.5t20 89.5q0 48 -20 80.5t-60 32.5t-62.5 -27.5t-22.5 -79.5q0 -122 85 -122zM822 380q-71 0 -81 -89q69 2 161 7q-12 82 -80 82z" />
    <glyph glyph-name="Racute" unicode="&#x154;" horiz-adv-x="776" 
d="M495 -24l-121 207q-23 -1 -71 -1q0 -30 1.5 -98.5t1.5 -82.5q-159 2 -266 -1q1 29 1.5 83t1.5 231t1 364q167 37 307 37q192 0 303.5 -72.5t110.5 -199.5q-1 -151 -134 -212l145 -218q-122 -13 -281 -37zM300 356q31 -4 65 -4q139 0 139 86q0 38 -32 62t-93 24
q-37 0 -80 -10zM407 747l-62.5 39l-40.5 24l-12 6l77 91t43 55l11 14l72 -45.5t52 -30.5l17 -10z" />
    <glyph glyph-name="racute" unicode="&#x155;" horiz-adv-x="532" 
d="M32 1q0 272 -2 495q87 0 217 1q-1 -35 -1 -78q35 63 106.5 92t174.5 10q-4 -105 -6 -236q-47 0 -81 2.5t-58 -5.5t-39.5 -17.5t-24.5 -32.5t-13 -51t-5 -73l2 -106q-108 1 -270 -1zM339 542l-62.5 39t-40.5 23l-12 7l77 91t43 54l11 15l72 -45.5l52 -31.5l17 -9z" />
    <glyph glyph-name="Rcommaaccent" unicode="&#x156;" horiz-adv-x="776" 
d="M495 -24l-121 207q-23 -1 -71 -1q0 -30 1.5 -98.5t1.5 -82.5q-159 2 -266 -1q1 29 1.5 83t1.5 231t1 364q167 37 307 37q192 0 303.5 -72.5t110.5 -199.5q-1 -151 -134 -212l145 -218q-122 -13 -281 -37zM300 356q31 -4 65 -4q139 0 139 86q0 38 -32 62t-93 24
q-37 0 -80 -10zM469 -125q0 -42 -34.5 -83t-99.5 -72l-43 52q32 22 48 45q-25 7 -41 26t-16 42q0 33 26 56t68 23q43 0 67.5 -24.5t24.5 -64.5z" />
    <glyph glyph-name="rcommaaccent" unicode="&#x157;" horiz-adv-x="532" 
d="M32 1q0 272 -2 495q87 0 217 1q-1 -35 -1 -78q35 63 106.5 92t174.5 10q-4 -105 -6 -236q-47 0 -81 2.5t-58 -5.5t-39.5 -17.5t-24.5 -32.5t-13 -51t-5 -73l2 -106q-108 1 -270 -1zM271 -125q0 -42 -34.5 -83t-99.5 -72l-43 52q32 22 48 45q-25 7 -41 26t-16 42
q0 33 26 56t68 23q43 0 67.5 -24.5t24.5 -64.5z" />
    <glyph glyph-name="Rcaron" unicode="&#x158;" horiz-adv-x="776" 
d="M495 -24l-121 207q-23 -1 -71 -1q0 -30 1.5 -98.5t1.5 -82.5q-159 2 -266 -1q1 29 1.5 83t1.5 231t1 364q167 37 307 37q192 0 303.5 -72.5t110.5 -199.5q-1 -151 -134 -212l145 -218q-122 -13 -281 -37zM300 356q31 -4 65 -4q139 0 139 86q0 38 -32 62t-93 24
q-37 0 -80 -10zM305 756q-43 38 -138 107q23 22 80 91l128 -84q43 21 129 85l80 -92q-60 -39 -140 -103q-44 1 -139 -4z" />
    <glyph glyph-name="rcaron" unicode="&#x159;" horiz-adv-x="532" 
d="M32 1q0 272 -2 495q87 0 217 1q-1 -35 -1 -78q35 63 106.5 92t174.5 10q-4 -105 -6 -236q-47 0 -81 2.5t-58 -5.5t-39.5 -17.5t-24.5 -32.5t-13 -51t-5 -73l2 -106q-108 1 -270 -1zM236 551q-43 38 -138 107q23 22 80 91l128 -84q43 21 129 85l80 -92q-60 -39 -140 -103
q-44 1 -139 -4z" />
    <glyph glyph-name="Sacute" unicode="&#x15a;" horiz-adv-x="808" 
d="M412 -23q-171 0 -279.5 69t-127.5 195q106 -1 293 9q9 -39 38.5 -64.5t78.5 -25.5q38 0 59.5 13.5t21.5 36.5q0 26 -32.5 39t-127.5 20q-77 6 -130.5 18t-97 36.5t-65 66.5t-21.5 103q0 102 98.5 162.5t263.5 60.5q168 1 274.5 -68.5t131.5 -198.5l-281 3q-15 79 -103 79
q-40 0 -63.5 -14.5t-23.5 -37.5q0 -30 39.5 -44t136.5 -21q169 -12 239 -60t69 -141q-1 -112 -107 -174t-284 -62zM436 742l-62.5 39t-40.5 23l-12 7l77 91l44 54l10 15l72 -45.5l52 -31.5l17 -9z" />
    <glyph glyph-name="sacute" unicode="&#x15b;" horiz-adv-x="661" 
d="M349 -36q-150 0 -242 55.5t-107 162.5q66 -2 255 1q6 -23 27 -36.5t52 -13.5q60 0 60 28q0 15 -27.5 23.5t-106.5 15.5q-122 11 -181.5 49t-59.5 115q0 85 83 132.5t212 47.5q154 0 245 -60t102 -150q-74 0 -247 -12q-19 50 -74 50q-52 0 -52 -28q0 -17 24.5 -27
t92.5 -14q139 -8 197.5 -44.5t58.5 -109.5q0 -87 -84 -136t-228 -49zM362 562l-62.5 39t-40.5 23l-12 7l77 91l44 54l10 15l72 -45.5l52 -31.5l17 -9z" />
    <glyph glyph-name="Scircumflex" unicode="&#x15c;" horiz-adv-x="808" 
d="M412 -23q-171 0 -279.5 69t-127.5 195q106 -1 293 9q9 -39 38.5 -64.5t78.5 -25.5q38 0 59.5 13.5t21.5 36.5q0 26 -32.5 39t-127.5 20q-77 6 -130.5 18t-97 36.5t-65 66.5t-21.5 103q0 102 98.5 162.5t263.5 60.5q168 1 274.5 -68.5t131.5 -198.5l-281 3q-15 79 -103 79
q-40 0 -63.5 -14.5t-23.5 -37.5q0 -30 39.5 -44t136.5 -21q169 -12 239 -60t69 -141q-1 -112 -107 -174t-284 -62zM275 737l-80 92q60 39 140 103q44 -1 139 4q43 -38 138 -107q-23 -22 -80 -91l-128 84q-43 -21 -129 -85z" />
    <glyph glyph-name="scircumflex" unicode="&#x15d;" horiz-adv-x="661" 
d="M349 -36q-150 0 -242 55.5t-107 162.5q66 -2 255 1q6 -23 27 -36.5t52 -13.5q60 0 60 28q0 15 -27.5 23.5t-106.5 15.5q-122 11 -181.5 49t-59.5 115q0 85 83 132.5t212 47.5q154 0 245 -60t102 -150q-74 0 -247 -12q-19 50 -74 50q-52 0 -52 -28q0 -17 24.5 -27
t92.5 -14q139 -8 197.5 -44.5t58.5 -109.5q0 -87 -84 -136t-228 -49zM203 561l-80 92q60 39 140 103q44 -1 139 4q43 -38 138 -107q-23 -22 -80 -91l-128 84q-43 -21 -129 -85z" />
    <glyph glyph-name="Scedilla" unicode="&#x15e;" horiz-adv-x="808" 
d="M496 210q0 26 -32.5 39t-127.5 20q-77 6 -130.5 18t-97 36.5t-65 66.5t-21.5 103q0 102 98.5 162.5t263.5 60.5q168 1 274.5 -68.5t131.5 -198.5l-281 3q-15 79 -103 79q-40 0 -63.5 -14.5t-23.5 -37.5q0 -30 39.5 -44t136.5 -21q169 -12 239 -60t69 -141
q-1 -103 -91 -164t-246 -70q0 -16 1 -35q71 -1 106.5 -24.5t35.5 -63.5q0 -47 -52 -75t-154 -28q-64 0 -128 23q7 36 12 80q48 -21 88 -21q53 0 53 27q0 33 -86 28q8 37 17 89q-150 11 -243.5 78.5t-110.5 183.5q106 -1 293 9q9 -39 38.5 -64.5t78.5 -25.5q38 0 59.5 13.5
t21.5 36.5z" />
    <glyph glyph-name="scedilla" unicode="&#x15f;" horiz-adv-x="661" 
d="M394 161q0 15 -27.5 23.5t-106.5 15.5q-122 11 -181.5 49t-59.5 115q0 85 83 132.5t212 47.5q154 0 245 -60t102 -150q-74 0 -247 -12q-19 50 -74 50q-52 0 -52 -28q0 -17 24.5 -27t92.5 -14q139 -8 197.5 -44.5t58.5 -109.5q0 -80 -71 -128t-196 -56q0 -16 1 -36
q71 -1 106.5 -24.5t35.5 -63.5q0 -47 -52 -75t-154 -28q-64 0 -128 23q7 36 12 80q48 -21 88 -21q53 0 53 27q0 33 -86 28q9 38 18 92q-125 11 -200 65t-88 150q66 -2 255 1q6 -23 27 -36.5t52 -13.5q60 0 60 28z" />
    <glyph glyph-name="Scaron" unicode="&#x160;" horiz-adv-x="808" 
d="M412 -23q-171 0 -279.5 69t-127.5 195q106 -1 293 9q9 -39 38.5 -64.5t78.5 -25.5q38 0 59.5 13.5t21.5 36.5q0 26 -32.5 39t-127.5 20q-77 6 -130.5 18t-97 36.5t-65 66.5t-21.5 103q0 102 98.5 162.5t263.5 60.5q168 1 274.5 -68.5t131.5 -198.5l-281 3q-15 79 -103 79
q-40 0 -63.5 -14.5t-23.5 -37.5q0 -30 39.5 -44t136.5 -21q169 -12 239 -60t69 -141q-1 -112 -107 -174t-284 -62zM333 751q-43 38 -138 107q23 22 80 91l128 -84q43 21 129 85l80 -92q-60 -39 -140 -103q-44 1 -139 -4z" />
    <glyph glyph-name="scaron" unicode="&#x161;" horiz-adv-x="661" 
d="M349 -36q-150 0 -242 55.5t-107 162.5q66 -2 255 1q6 -23 27 -36.5t52 -13.5q60 0 60 28q0 15 -27.5 23.5t-106.5 15.5q-122 11 -181.5 49t-59.5 115q0 85 83 132.5t212 47.5q154 0 245 -60t102 -150q-74 0 -247 -12q-19 50 -74 50q-52 0 -52 -28q0 -17 24.5 -27
t92.5 -14q139 -8 197.5 -44.5t58.5 -109.5q0 -87 -84 -136t-228 -49zM261 571q-43 38 -138 107q23 22 80 91l128 -84q43 21 129 85l80 -92q-60 -39 -140 -103q-44 1 -139 -4z" />
    <glyph glyph-name="Tcommaaccent" unicode="&#x162;" horiz-adv-x="677" 
d="M12 458l-2 238q489 -1 657 -1q-2 -126 -2 -237h-188q0 -204 4 -459q-133 0 -278 -1q0 176 -2 460h-189zM433 -125q0 -42 -34.5 -83t-99.5 -72l-43 52q32 22 48 45q-25 7 -41 26t-16 42q0 33 26 56t68 23q43 0 67.5 -24.5t24.5 -64.5z" />
    <glyph glyph-name="tcommaaccent" unicode="&#x163;" horiz-adv-x="560" 
d="M545 19q-115 -27 -202 -27q-123 0 -184.5 64.5t-65.5 207.5l-2 91l-90 -1q1 75 1 118t-1 60l-1 16l92 -2l3 117l268 2q-2 -51 -4 -121l177 1l-1 -193l-176 3l3 -61q2 -41 21.5 -59t63.5 -18q31 0 81 9zM437 -125q0 -42 -34.5 -83t-99.5 -72l-43 52q32 22 48 45
q-25 7 -41 26t-16 42q0 33 26 56t68 23q43 0 67.5 -24.5t24.5 -64.5z" />
    <glyph glyph-name="Tcaron" unicode="&#x164;" horiz-adv-x="677" 
d="M12 458l-2 238q489 -1 657 -1q-2 -126 -2 -237h-188q0 -204 4 -459q-133 0 -278 -1q0 176 -2 460h-189zM268 741q-43 38 -138 107q23 22 80 91l128 -84q43 21 129 85l80 -92q-60 -39 -140 -103q-44 1 -139 -4z" />
    <glyph glyph-name="tcaron" unicode="&#x165;" horiz-adv-x="560" 
d="M545 19q-115 -27 -202 -27q-123 0 -184.5 64.5t-65.5 207.5l-2 91l-90 -1q1 75 1 118t-1 60l-1 16l92 -2l3 117l268 2q-2 -51 -4 -121l177 1l-1 -193l-176 3l3 -61q2 -41 21.5 -59t63.5 -18q31 0 81 9zM585 734q0 -42 -34.5 -83t-99.5 -72l-43 52q32 22 48 45
q-25 7 -41 26t-16 42q0 33 26 56t68 23q43 0 67.5 -24.5t24.5 -64.5z" />
    <glyph glyph-name="Umacron" unicode="&#x16a;" horiz-adv-x="781" 
d="M391 -14q-371 0 -371 428q0 131 29 275q84 -13 269 -32q-22 -123 -22 -213q0 -229 91 -229q48 0 71.5 51t23.5 174q0 116 -18 264q85 1 273 9q24 -154 24 -271q0 -456 -370 -456zM217 768q1 35 -2 125q87 -2 350 2l-2 -125q-91 2 -346 -2z" />
    <glyph glyph-name="umacron" unicode="&#x16b;" 
d="M271 4q-136 0 -191 81.5t-55 245.5q0 87 13 183q59 -8 255 -19q-7 -72 -7 -119q0 -90 14 -128.5t47 -38.5q23 0 36.5 16.5t17.5 56.5q5 50 6 110.5t-1 96.5l-2 36q58 -3 266 -3q-2 -220 2 -526l-218 1q2 44 2 103q-30 -45 -79.5 -70.5t-105.5 -25.5zM175 583q1 35 -2 125
q87 -2 350 2l-2 -125q-91 2 -346 -2z" />
    <glyph glyph-name="Ubreve" unicode="&#x16c;" horiz-adv-x="781" 
d="M391 -14q-371 0 -371 428q0 131 29 275q84 -13 269 -32q-22 -123 -22 -213q0 -229 91 -229q48 0 71.5 51t23.5 174q0 116 -18 264q85 1 273 9q24 -154 24 -271q0 -456 -370 -456zM388 739q-99 0 -149 42t-45 114q58 0 151 6q-2 -54 44 -54q23 0 35.5 16t6.5 48
q49 -1 155 1q8 -91 -48 -132t-150 -41z" />
    <glyph glyph-name="ubreve" unicode="&#x16d;" 
d="M271 4q-136 0 -191 81.5t-55 245.5q0 87 13 183q59 -8 255 -19q-7 -72 -7 -119q0 -90 14 -128.5t47 -38.5q23 0 36.5 16.5t17.5 56.5q5 50 6 110.5t-1 96.5l-2 36q58 -3 266 -3q-2 -220 2 -526l-218 1q2 44 2 103q-30 -45 -79.5 -70.5t-105.5 -25.5zM346 557
q-99 0 -149 42t-45 114q58 0 151 6q-2 -54 44 -54q23 0 35.5 16t6.5 48q49 -1 155 1q8 -91 -48 -132t-150 -41z" />
    <glyph glyph-name="Uring" unicode="&#x16e;" horiz-adv-x="781" 
d="M391 -14q-371 0 -371 428q0 131 29 275q84 -13 269 -32q-22 -123 -22 -213q0 -229 91 -229q48 0 71.5 51t23.5 174q0 116 -18 264q85 1 273 9q24 -154 24 -271q0 -456 -370 -456zM388 741q-69 0 -107 31t-38 78q0 51 41.5 78.5t104.5 27.5q69 0 109 -30t40 -76
q0 -56 -42.5 -82.5t-107.5 -26.5zM392 805q21 0 35 12t14 33q0 19 -13.5 33t-35.5 14q-23 0 -36.5 -13t-13.5 -32q0 -21 14 -34t36 -13z" />
    <glyph glyph-name="uring" unicode="&#x16f;" 
d="M271 4q-136 0 -191 81.5t-55 245.5q0 87 13 183q59 -8 255 -19q-7 -72 -7 -119q0 -90 14 -128.5t47 -38.5q23 0 36.5 16.5t17.5 56.5q5 50 6 110.5t-1 96.5l-2 36q58 -3 266 -3q-2 -220 2 -526l-218 1q2 44 2 103q-30 -45 -79.5 -70.5t-105.5 -25.5zM346 556
q-69 0 -107 31t-38 78q0 51 41.5 78.5t104.5 27.5q69 0 109 -30t40 -76q0 -56 -42.5 -82.5t-107.5 -26.5zM350 620q21 0 35 12t14 33q0 19 -13.5 33t-35.5 14q-23 0 -36.5 -13t-13.5 -32q0 -21 14 -34t36 -13z" />
    <glyph glyph-name="Uhungarumlaut" unicode="&#x170;" horiz-adv-x="781" 
d="M391 -14q-371 0 -371 428q0 131 29 275q84 -13 269 -32q-22 -123 -22 -213q0 -229 91 -229q48 0 71.5 51t23.5 174q0 116 -18 264q85 1 273 9q24 -154 24 -271q0 -456 -370 -456zM514 741l-111 58l68.5 97.5t37.5 57.5l9 14l139 -70zM304 750q-34 20 -62 34.5l-38 19.5
l-11 4l68.5 97.5t37.5 57.5l9 15l139 -71z" />
    <glyph glyph-name="uhungarumlaut" unicode="&#x171;" 
d="M271 4q-136 0 -191 81.5t-55 245.5q0 87 13 183q59 -8 255 -19q-7 -72 -7 -119q0 -90 14 -128.5t47 -38.5q23 0 36.5 16.5t17.5 56.5q5 50 6 110.5t-1 96.5l-2 36q58 -3 266 -3q-2 -220 2 -526l-218 1q2 44 2 103q-30 -45 -79.5 -70.5t-105.5 -25.5zM471 556l-111 58
l68.5 97.5l37.5 56.5l9 15l139 -70zM261 565q-34 20 -62 34.5t-39 18.5l-10 5l68.5 97.5t37.5 57.5l9 15l139 -71z" />
    <glyph glyph-name="Uogonek" unicode="&#x172;" horiz-adv-x="781" 
d="M479 -227q-103 -12 -155.5 17.5t-53.5 81.5q-1 31 17.5 62t51.5 54q-319 28 -319 426q0 131 29 275q84 -13 269 -32q-22 -123 -22 -213q0 -229 91 -229q48 0 71.5 51t23.5 174q0 116 -18 264q85 1 273 9q24 -154 24 -271q0 -418 -310 -453q-35 -25 -35 -54q0 -19 20 -31
t56 -11q-8 -41 -13 -120z" />
    <glyph glyph-name="uogonek" unicode="&#x173;" 
d="M271 4q-136 0 -191 81.5t-55 245.5q0 87 13 183q59 -8 255 -19q-7 -72 -7 -119q0 -90 14 -128.5t47 -38.5q23 0 36.5 16.5t17.5 56.5q5 50 6 110.5t-1 96.5l-2 36q58 -3 266 -3q-2 -220 2 -526q-46 2 -121 2q-42 -29 -42 -59q0 -19 20 -31t56 -11q-8 -41 -13 -120
q-103 -12 -155.5 17.5t-53.5 81.5q-1 36 24 72t67 58q2 30 2 94q-30 -45 -79.5 -70.5t-105.5 -25.5z" />
    <glyph glyph-name="Ydieresis" unicode="&#x178;" horiz-adv-x="800" 
d="M265 -10q-3 99 -8 156l-257 529q89 2 305 11q15 -63 92 -270l104 298q76 -4 299 -5l-264 -564q-3 -18 1 -154zM284 758q-51 0 -77 25.5t-26 63.5q0 35 30 58t74 23q47 0 74.5 -22.5t27.5 -61.5q0 -44 -29.5 -65t-73.5 -21zM520 760q-45 0 -72 24t-27 64q0 36 27 58.5
t74 22.5t72 -23.5t25 -60.5q0 -41 -28.5 -63t-70.5 -22z" />
    <glyph glyph-name="Zacute" unicode="&#x179;" horiz-adv-x="701" 
d="M674 -3l-648 6l1 188l297 281l-285 -6l-1 230q191 -1 330 0t217 2l78 1l3 -195l-305 -280l315 1zM383 732l-62.5 39t-40.5 23l-12 7l77 91t43 54l11 15l72 -45.5l52 -31.5l17 -9z" />
    <glyph glyph-name="zacute" unicode="&#x17a;" horiz-adv-x="628" 
d="M606 -3q-220 5 -366.5 7t-183.5 2l-36 -1l2 153l142.5 94l89.5 62l25 19q-81 -2 -143 -5.5t-84 -5.5l-21 -2q1 74 0.5 118t-1.5 62l-1 17q183 0 325.5 1t193.5 2l50 2l1 -159l-142 -94t-86 -60l-23 -17q60 0 125 2.5t100 5.5l35 2zM347 542l-62.5 39t-40.5 23l-12 7
l77 91t43 54l11 15l72 -45.5l52 -31.5l17 -9z" />
    <glyph glyph-name="Zdotaccent" unicode="&#x17b;" horiz-adv-x="701" 
d="M674 -3l-648 6l1 188l297 281l-285 -6l-1 230q191 -1 330 0t217 2l78 1l3 -195l-305 -280l315 1zM352 750q-55 0 -84.5 28.5t-29.5 71.5q0 40 31 66.5t83 26.5q54 0 84 -29t30 -67q0 -46 -31.5 -71.5t-82.5 -25.5z" />
    <glyph glyph-name="zdotaccent" unicode="&#x17c;" horiz-adv-x="628" 
d="M606 -3q-220 5 -366.5 7t-183.5 2l-36 -1l2 153l142.5 94l89.5 62l25 19q-81 -2 -143 -5.5t-84 -5.5l-21 -2q1 74 0.5 118t-1.5 62l-1 17q183 0 325.5 1t193.5 2l50 2l1 -159l-142 -94t-86 -60l-23 -17q60 0 125 2.5t100 5.5l35 2zM314 560q-55 0 -84.5 28.5t-29.5 71.5
q0 40 31 66.5t83 26.5q54 0 84 -29t30 -67q0 -46 -31.5 -71.5t-82.5 -25.5z" />
    <glyph glyph-name="Zcaron" unicode="&#x17d;" horiz-adv-x="701" 
d="M674 -3l-648 6l1 188l297 281l-285 -6l-1 230q191 -1 330 0t217 2l78 1l3 -195l-305 -280l315 1zM282 741q-43 38 -138 107q23 22 80 91l128 -84q43 21 129 85l80 -92q-60 -39 -140 -103q-44 1 -139 -4z" />
    <glyph glyph-name="zcaron" unicode="&#x17e;" horiz-adv-x="628" 
d="M606 -3q-220 5 -366.5 7t-183.5 2l-36 -1l2 153l142.5 94l89.5 62l25 19q-81 -2 -143 -5.5t-84 -5.5l-21 -2q1 74 0.5 118t-1.5 62l-1 17q183 0 325.5 1t193.5 2l50 2l1 -159l-142 -94t-86 -60l-23 -17q60 0 125 2.5t100 5.5l35 2zM244 551q-43 38 -138 107q23 22 80 91
l128 -84q43 21 129 85l80 -92q-60 -39 -140 -103q-44 1 -139 -4z" />
    <glyph glyph-name="florin" unicode="&#x192;" horiz-adv-x="680" 
d="M612 223l-140 4q-29 -117 -49 -180q-38 -124 -105 -178t-179 -54q-57 0 -129 12q7 62 7 180q24 -2 32 -2q49 0 76 21t44 74q25 76 41 129l-82 -1l2 179q43 -2 129 -4l17 71q28 118 86 171t167 53q57 0 141 -14q-7 -51 -12 -98t-6 -69l-2 -22q-19 4 -38 4q-61 0 -82 -61
q-7 -18 -12 -37l92 2q-1 -65 -0.5 -105t1.5 -58z" />
    <glyph glyph-name="Scommaaccent" unicode="&#x218;" horiz-adv-x="808" 
d="M412 -23q-171 0 -279.5 69t-127.5 195q106 -1 293 9q9 -39 38.5 -64.5t78.5 -25.5q38 0 59.5 13.5t21.5 36.5q0 26 -32.5 39t-127.5 20q-77 6 -130.5 18t-97 36.5t-65 66.5t-21.5 103q0 102 98.5 162.5t263.5 60.5q168 1 274.5 -68.5t131.5 -198.5l-281 3q-15 79 -103 79
q-40 0 -63.5 -14.5t-23.5 -37.5q0 -30 39.5 -44t136.5 -21q169 -12 239 -60t69 -141q-1 -112 -107 -174t-284 -62zM497 -135q0 -42 -34.5 -83t-99.5 -72l-43 52q32 22 48 45q-25 7 -41 26t-16 42q0 33 26 56t68 23q43 0 67.5 -24.5t24.5 -64.5z" />
    <glyph glyph-name="scommaaccent" unicode="&#x219;" horiz-adv-x="661" 
d="M349 -36q-150 0 -242 55.5t-107 162.5q66 -2 255 1q6 -23 27 -36.5t52 -13.5q60 0 60 28q0 15 -27.5 23.5t-106.5 15.5q-122 11 -181.5 49t-59.5 115q0 85 83 132.5t212 47.5q154 0 245 -60t102 -150q-74 0 -247 -12q-19 50 -74 50q-52 0 -52 -28q0 -17 24.5 -27
t92.5 -14q139 -8 197.5 -44.5t58.5 -109.5q0 -87 -84 -136t-228 -49zM425 -150q0 -42 -34.5 -83t-99.5 -72l-43 52q32 22 48 45q-25 7 -41 26t-16 42q0 33 26 56t68 23q43 0 67.5 -24.5t24.5 -64.5z" />
    <glyph glyph-name="uni0237" unicode="&#x237;" horiz-adv-x="340" 
d="M-100 -232q1 5 2 16t2 59t1 112q27 -4 51 -4q45 0 63 19t19 67q1 96 1 196.5t-1 178.5l-1 77q93 -2 152 -2t86 1l27 2q1 -19 2 -55.5t2 -161.5t0 -264q-1 -256 -267 -256q-64 0 -139 15z" />
    <glyph glyph-name="circumflex" unicode="&#x2c6;" horiz-adv-x="758" 
d="M251 541l-80 92q60 39 140 103q44 -1 139 4q43 -38 138 -107q-23 -22 -80 -91l-128 84q-43 -21 -129 -85z" />
    <glyph glyph-name="caron" unicode="&#x2c7;" horiz-adv-x="758" 
d="M309 551q-43 38 -138 107q23 22 80 91l128 -84q43 21 129 85l80 -92q-60 -39 -140 -103q-44 1 -139 -4z" />
    <glyph glyph-name="breve" unicode="&#x2d8;" horiz-adv-x="758" 
d="M377 559q-99 0 -149 42t-45 114q58 0 151 6q-2 -54 44 -54q23 0 35.5 16t6.5 48q49 -1 155 1q8 -91 -48 -132t-150 -41z" />
    <glyph glyph-name="dotaccent" unicode="&#x2d9;" horiz-adv-x="758" 
d="M379 560q-55 0 -84.5 28.5t-29.5 71.5q0 40 31 66.5t83 26.5q54 0 84 -29t30 -67q0 -46 -31.5 -71.5t-82.5 -25.5z" />
    <glyph glyph-name="ring" unicode="&#x2da;" horiz-adv-x="758" 
d="M377 551q-69 0 -107 31t-38 78q0 51 41.5 78.5t104.5 27.5q69 0 109 -30t40 -76q0 -56 -42.5 -82.5t-107.5 -26.5zM381 615q21 0 35 12t14 33q0 19 -13.5 33t-35.5 14q-23 0 -36.5 -13t-13.5 -32q0 -21 14 -34t36 -13z" />
    <glyph glyph-name="ogonek" unicode="&#x2db;" horiz-adv-x="758" 
d="M477 -227q-103 -12 -155.5 17.5t-53.5 81.5q-1 41 30.5 80.5t83.5 59.5l105 -2q-35 -15 -54 -35.5t-19 -39.5t20 -31t56 -11q-8 -41 -13 -120z" />
    <glyph glyph-name="tilde" unicode="&#x2dc;" horiz-adv-x="758" 
d="M289 561q-36 1 -116 -5q-6 80 25.5 131.5t96.5 51.5q37 0 84.5 -26.5t62.5 -26.5q32 0 28 47q39 0 111 6q15 -83 -12.5 -132.5t-90.5 -49.5q-45 0 -92.5 24.5t-61.5 24.5q-18 0 -27.5 -12.5t-7.5 -32.5z" />
    <glyph glyph-name="hungarumlaut" unicode="&#x2dd;" horiz-adv-x="758" 
d="M468 551l-111 58l68.5 97.5t37.5 57.5l9 14l139 -70zM258 560q-34 20 -62 34.5l-38 19.5l-11 4l68.5 97.5t37.5 57.5l9 15l139 -71z" />
    <glyph glyph-name="endash" unicode="&#x2013;" horiz-adv-x="466" 
d="M454 227q-212 3 -443 0q4 38 -1 220q167 -6 446 1q-1 -7 -1.5 -22t-1.5 -71t1 -128z" />
    <glyph glyph-name="emdash" unicode="&#x2014;" horiz-adv-x="564" 
d="M10 228q2 81 2.5 136t-0.5 70l-1 14h543l-3 -222q-124 3 -259.5 3.5t-208.5 -0.5z" />
    <glyph glyph-name="quoteleft" unicode="&#x2018;" horiz-adv-x="286" 
d="M146 376q-64 0 -100 40t-36 102q0 56 45 116t124 105l102 -74q-53 -37 -77 -73q34 -11 53.5 -38.5t19.5 -62.5q0 -51 -38.5 -83t-92.5 -32z" />
    <glyph glyph-name="quoteright" unicode="&#x2019;" horiz-adv-x="295" 
d="M116 350l-111 73q52 34 83 73q-34 11 -52 37.5t-18 59.5q0 52 38 85.5t93 33.5q58 0 97 -40.5t39 -102.5q0 -56 -45.5 -117.5t-123.5 -101.5z" />
    <glyph glyph-name="quotesinglbase" unicode="&#x201a;" horiz-adv-x="295" 
d="M116 -149l-111 73q56 38 83 74q-33 10 -51.5 36.5t-18.5 59.5q0 52 38 85.5t93 33.5q58 0 97 -40.5t39 -102.5q0 -56 -45.5 -117.5t-123.5 -101.5z" />
    <glyph glyph-name="quotedblleft" unicode="&#x201c;" horiz-adv-x="584" 
d="M143 377q-61 0 -97 40t-36 104q0 120 166 218l111 -73q-55 -41 -80 -70q33 -12 53 -39.5t20 -59.5q0 -55 -39 -87.5t-98 -32.5zM435 350q-58 0 -97 40.5t-39 102.5q0 56 45.5 117.5t123.5 101.5l111 -73q-56 -38 -83 -74q33 -11 51.5 -37t18.5 -59q0 -52 -38 -85.5
t-93 -33.5z" />
    <glyph glyph-name="quotedblright" unicode="&#x201d;" horiz-adv-x="575" 
d="M401 386l-105 75q54 40 75 72q-34 11 -54.5 40t-20.5 64q0 52 38.5 83.5t94.5 31.5q63 0 99.5 -40t36.5 -104q0 -120 -164 -222zM107 376l-102 74q56 40 76 73q-34 11 -53 38.5t-19 62.5q0 51 38.5 83t92.5 32q64 0 100 -40t36 -102q0 -56 -45 -116t-124 -105z" />
    <glyph glyph-name="quotedblbase" unicode="&#x201e;" horiz-adv-x="575" 
d="M401 -143l-105 75q55 42 75 72q-34 11 -54.5 40t-20.5 64q0 52 38.5 83.5t94.5 31.5q63 0 99.5 -40t36.5 -104q0 -120 -164 -222zM107 -153l-102 74q56 40 76 73q-34 11 -53 38.5t-19 62.5q0 51 38.5 83t92.5 32q64 0 100 -40t36 -102q0 -56 -45 -116t-124 -105z" />
    <glyph glyph-name="dagger" unicode="&#x2020;" horiz-adv-x="411" 
d="M10 440l2 159q39 -1 109 -2q1 47 0 107q32 -2 171 2q-1 -48 -1 -110h109q-2 -39 1 -159q-35 1 -109 2q0 -117 3 -240q-5 0 -16.5 0.5t-56 1.5t-105.5 0q2 100 3 239h-110z" />
    <glyph glyph-name="daggerdbl" unicode="&#x2021;" horiz-adv-x="411" 
d="M121 201v77l-109 -2l-2 139h110q1 25 0 72l-110 -1l1 140h107l-1 78q66 -1 105.5 -0.5t55.5 1.5l17 1l-2 -80l106 2l-1 -140h-106q-1 -49 -1 -72l110 2l-1 -139h-109l1 -80z" />
    <glyph glyph-name="bullet" unicode="&#x2022;" horiz-adv-x="355" 
d="M179 193q-82 0 -125.5 45.5t-43.5 128.5q0 78 46.5 124.5t119.5 46.5q72 0 120.5 -48.5t48.5 -120.5q0 -83 -43 -129.5t-123 -46.5z" />
    <glyph glyph-name="ellipsis" unicode="&#x2026;" horiz-adv-x="965" 
d="M153 -11q-70 0 -109 39.5t-39 106.5q0 63 40.5 102t106.5 39q64 0 105.5 -39.5t40.5 -100.5q-2 -68 -39.5 -107.5t-105.5 -39.5zM481 -36q-69 0 -109 38.5t-40 106.5q0 62 41.5 100.5t106.5 38.5t106.5 -38.5t40.5 -99.5q-2 -68 -39.5 -107t-106.5 -39zM811 -16
q-73 0 -113 37t-40 108q0 62 43 100.5t108 38.5q67 0 110 -39.5t41 -98.5q-2 -68 -40.5 -107t-108.5 -39z" />
    <glyph glyph-name="perthousand" unicode="&#x2030;" horiz-adv-x="1339" 
d="M223 435q36 0 36 94q0 90 -37 90t-37 -89q0 -95 38 -95zM221 325q-107 0 -161.5 60.5t-54.5 155.5q0 83 61 138t157 55q105 0 161 -54.5t56 -152.5q0 -104 -60 -153t-159 -49zM201 -29l-92 14l554 713l95 -12zM658 71q36 0 36 90t-37 90q-17 0 -27 -23t-10 -60
q0 -97 38 -97zM655 -44q-98 0 -156.5 58t-58.5 150q0 86 58 146.5t161 60.5q100 0 158 -56.5t58 -150.5q0 -98 -63 -153t-157 -55zM1115 80q38 0 38 95q0 89 -37 89t-37 -90q0 -94 36 -94zM1118 -30q-42 0 -79.5 11.5t-69.5 35t-51 63.5t-19 92q0 92 59 149.5t158 57.5
q96 0 157 -54t61 -139q0 -97 -54 -156.5t-162 -59.5z" />
    <glyph glyph-name="guilsinglleft" unicode="&#x2039;" horiz-adv-x="299" 
d="M102 103l-97 238q50 97 109 228q51 -5 175 -6q-46 -83 -109 -226q34 -89 96 -228q-70 1 -174 -6z" />
    <glyph glyph-name="guilsinglright" unicode="&#x203a;" horiz-adv-x="292" 
d="M190 116q-82 4 -175 5q44 85 98 204l-103 232q84 -2 176 2l101 -241z" />
    <glyph glyph-name="fraction" unicode="&#x2044;" horiz-adv-x="678" 
d="M146 -32q-50 8 -166 21l289.5 360.5t198.5 262.5l62 86l168 -20l-303 -377.5t-193 -254.5z" />
    <glyph glyph-name="Euro" unicode="&#x20ac;" horiz-adv-x="915" 
d="M0 350q1 10 0 77h94q28 132 138 211t264 79q151 0 259.5 -69.5t145.5 -180.5q-52 0 -128 -2.5t-126 -5.5l-50 -3q-27 64 -90 64q-90 0 -114 -91q165 2 350 6l-2 -78q-154 0 -357 -1q-2 -14 0 -29q183 2 372 6q-2 -18 0 -77q-154 0 -361 -1q25 -85 110 -85q73 0 102 64
l303 -12q-23 -119 -134.5 -184.5t-278.5 -63.5q-160 0 -266 71.5t-135 204.5l-92 -1q1 6 1 78h81q-1 12 0 24z" />
    <glyph glyph-name="servicemark" unicode="&#x2120;" horiz-adv-x="847" 
d="M387 396q1 13 2 36.5t2.5 99.5t-3.5 145q72 -3 198 2q6 -72 19 -156q10 93 16 179q11 -1 30.5 -2t70.5 -2t93 -1q3 -125 17 -318q-74 0 -129 -4q0 101 -6 235q-11 -77 -19 -183q-105 0 -142 2q-5 67 -27 183q0 -118 6 -218zM195 371q-77 0 -126.5 31.5t-58.5 87.5
q58 -2 142 2q5 -22 15.5 -30t29.5 -8q30 0 30 22q0 14 -13.5 20t-62.5 10q-67 5 -98 26.5t-31 68.5q0 46 43.5 74.5t116.5 28.5q77 0 125 -31t58 -90l-134 1q-3 18 -10.5 27t-24.5 9q-33 0 -33 -23q0 -27 69 -30q78 -3 109.5 -23t31.5 -65q0 -50 -49 -79t-129 -29z" />
    <glyph glyph-name="trademark" unicode="&#x2122;" horiz-adv-x="736" 
d="M270 396q9 103 12 275q67 -3 193 2q6 -69 19 -151q10 91 16 174q11 -1 30.5 -2t70.5 -2t93 -1q3 -119 17 -312q-74 0 -129 -4q0 97 -6 231q-11 -74 -19 -179q-105 0 -142 2q-5 62 -27 177q0 -111 6 -212zM5 578q2 43 2 114q87 -2 259 3l-1 -117q-27 0 -62 1q0 -88 4 -200
q-68 2 -133 0l1 200z" />
    <glyph glyph-name="minus" unicode="&#x2212;" horiz-adv-x="507" 
d="M496 437l1 -206q-92 2 -213.5 2.5t-197.5 0.5l-76 -1l3 204q113 -2 234 -2t185 1z" />
    <glyph glyph-name="Pcircle" unicode="&#x24c5;" horiz-adv-x="919" 
d="M471 707q209 0 318.5 -101t109.5 -281q0 -164 -119.5 -257.5t-330.5 -93.5q-191 0 -310 93t-119 267q0 102 37 177t102 116.5t142.5 60.5t169.5 19zM465 629q-357 0 -357 -293q0 -135 86 -209.5t259 -74.5q175 0 266 75.5t91 209.5q0 145 -93 218.5t-252 73.5zM237 127
l2 420q110 17 183 17q308 0 308 -177q0 -48 -21 -82.5t-58.5 -53.5t-80.5 -27.5t-95 -8.5q-15 0 -43 2q0 -21 2 -89q-130 1 -197 -1zM430 440q-1 -35 0 -112q19 -1 27 -1q85 0 85 62q0 54 -75 54q-16 0 -37 -3z" />
    <glyph glyph-name="Pcircle" unicode="&#x24df;" horiz-adv-x="919" 
d="M471 707q209 0 318.5 -101t109.5 -281q0 -164 -119.5 -257.5t-330.5 -93.5q-191 0 -310 93t-119 267q0 102 37 177t102 116.5t142.5 60.5t169.5 19zM465 629q-357 0 -357 -293q0 -135 86 -209.5t259 -74.5q175 0 266 75.5t91 209.5q0 145 -93 218.5t-252 73.5zM237 127
l2 420q110 17 183 17q308 0 308 -177q0 -48 -21 -82.5t-58.5 -53.5t-80.5 -27.5t-95 -8.5q-15 0 -43 2q0 -21 2 -89q-130 1 -197 -1zM430 440q-1 -35 0 -112q19 -1 27 -1q85 0 85 62q0 54 -75 54q-16 0 -37 -3z" />
    <glyph glyph-name="commaaccent" horiz-adv-x="758" 
d="M472 -125q0 -42 -34.5 -83t-99.5 -72l-43 52q32 22 48 45q-25 7 -41 26t-16 42q0 33 26 56t68 23q43 0 67.5 -24.5t24.5 -64.5z" />
    <glyph glyph-name="L_A" horiz-adv-x="1303" 
d="M46 -18q0 409 -6 687q84 -3 271 0q-2 -77 4 -467q163 -3 226 -3q48 173 149 506l420 5l193 -720q-175 2 -291 0l-23 107q-96 2 -204 2l-15 -73q-73 1 -153 1l1 -48zM886 551q-21 -86 -61 -265q31 -1 123 -1z" />
    <glyph glyph-name="L_Aacute" horiz-adv-x="1303" 
d="M46 -18q0 409 -6 687q84 -3 271 0q-2 -77 4 -467q163 -3 226 -3q48 173 149 506l420 5l193 -720q-175 2 -291 0l-23 107q-96 2 -204 2l-15 -73q-73 1 -153 1l1 -48zM886 551q-21 -86 -61 -265q31 -1 123 -1zM923 747l-62.5 39l-40.5 24l-12 6l77 91t43 55l11 14l72 -45.5
t52 -30.5l17 -10z" />
    <glyph glyph-name="L_Abreve" horiz-adv-x="1303" 
d="M46 -18q0 409 -6 687q84 -3 271 0q-2 -77 4 -467q163 -3 226 -3q48 173 149 506l420 5l193 -720q-175 2 -291 0l-23 107q-96 2 -204 2l-15 -73q-73 1 -153 1l1 -48zM886 551q-21 -86 -61 -265q31 -1 123 -1zM889 762q-99 0 -149 42t-45 114q58 0 151 6q-2 -54 44 -54
q23 0 35.5 16t6.5 48q49 -1 155 1q8 -91 -48 -132t-150 -41z" />
    <glyph glyph-name="L_Acircumflex" horiz-adv-x="1303" 
d="M46 -18q0 409 -6 687q84 -3 271 0q-2 -77 4 -467q163 -3 226 -3q48 173 149 506l420 5l193 -720q-175 2 -291 0l-23 107q-96 2 -204 2l-15 -73q-73 1 -153 1l1 -48zM886 551q-21 -86 -61 -265q31 -1 123 -1zM762 740l-80 92q60 39 140 103q44 -1 139 4q43 -38 138 -107
q-23 -22 -80 -91l-128 84q-43 -21 -129 -85z" />
    <glyph glyph-name="L_Adieresis" horiz-adv-x="1303" 
d="M46 -18q0 409 -6 687q84 -3 271 0q-2 -77 4 -467q163 -3 226 -3q48 173 149 506l420 5l193 -720q-175 2 -291 0l-23 107q-96 2 -204 2l-15 -73q-73 1 -153 1l1 -48zM886 551q-21 -86 -61 -265q31 -1 123 -1zM775 763q-51 0 -77 25.5t-26 63.5q0 35 30 58t74 23
q47 0 74.5 -22.5t27.5 -61.5q0 -44 -29.5 -65t-73.5 -21zM1011 765q-45 0 -72 24t-27 64q0 36 27 58.5t74 22.5t72 -23.5t25 -60.5q0 -41 -28.5 -63t-70.5 -22z" />
    <glyph glyph-name="L_Agrave" horiz-adv-x="1303" 
d="M46 -18q0 409 -6 687q84 -3 271 0q-2 -77 4 -467q163 -3 226 -3q48 173 149 506l420 5l193 -720q-175 2 -291 0l-23 107q-96 2 -204 2l-15 -73q-73 1 -153 1l1 -48zM886 551q-21 -86 -61 -265q31 -1 123 -1zM875 747l-157 143q55 32 139 88q33 -47 133 -162
q-39 -20 -115 -69z" />
    <glyph glyph-name="L_Amacron" horiz-adv-x="1303" 
d="M46 -18q0 409 -6 687q84 -3 271 0q-2 -77 4 -467q163 -3 226 -3q48 173 149 506l420 5l193 -720q-175 2 -291 0l-23 107q-96 2 -204 2l-15 -73q-73 1 -153 1l1 -48zM886 551q-21 -86 -61 -265q31 -1 123 -1zM718 783q1 35 -2 125q87 -2 350 2l-2 -125q-91 2 -346 -2z" />
    <glyph glyph-name="L_Aogonek" horiz-adv-x="1303" 
d="M1112 -229q-103 -12 -155.5 17.5t-53.5 81.5q-1 39 28 77t77 59q-1 8 -7.5 38l-11.5 53q-96 2 -204 2l-15 -73q-73 1 -153 1l1 -48l-572 3q0 409 -6 687q84 -3 271 0q-2 -77 4 -467q163 -3 226 -3q48 173 149 506l420 5l193 -720l-213 1q-41 -26 -41 -58q0 -19 20 -31
t56 -11q-8 -41 -13 -120zM886 551q-21 -86 -61 -265q31 -1 123 -1z" />
    <glyph glyph-name="L_Aring" horiz-adv-x="1303" 
d="M46 -18q0 409 -6 687q84 -3 271 0q-2 -77 4 -467q163 -3 226 -3q48 173 149 506l420 5l193 -720q-175 2 -291 0l-23 107q-96 2 -204 2l-15 -73q-73 1 -153 1l1 -48zM886 551q-21 -86 -61 -265q31 -1 123 -1zM889 750q-69 0 -107 31t-38 78q0 51 41.5 78.5t104.5 27.5
q69 0 109 -30t40 -76q0 -56 -42.5 -82.5t-107.5 -26.5zM893 814q21 0 35 12t14 33q0 19 -13.5 33t-35.5 14q-23 0 -36.5 -13t-13.5 -32q0 -21 14 -34t36 -13z" />
    <glyph glyph-name="L_Atilde" horiz-adv-x="1303" 
d="M46 -18q0 409 -6 687q84 -3 271 0q-2 -77 4 -467q163 -3 226 -3q48 173 149 506l420 5l193 -720q-175 2 -291 0l-23 107q-96 2 -204 2l-15 -73q-73 1 -153 1l1 -48zM886 551q-21 -86 -61 -265q31 -1 123 -1zM800 766q-36 1 -116 -5q-6 80 25.5 131.5t96.5 51.5
q37 0 84.5 -26.5t62.5 -26.5q32 0 28 47q39 0 111 6q15 -83 -12.5 -132.5t-90.5 -49.5q-45 0 -92.5 24.5t-61.5 24.5q-18 0 -27.5 -12.5t-7.5 -32.5z" />
    <glyph glyph-name="T_h" horiz-adv-x="1322" 
d="M916 695q-1 -100 -1 -236q30 33 75.5 54.5t94.5 21.5q94 0 149.5 -56t59.5 -150q3 -71 3 -157.5t-1 -137.5l-1 -51l-264 1q5 148 0 257q-4 73 -51 73q-32 0 -45.5 -21t-15.5 -61q-2 -44 -2.5 -98t0.5 -86l1 -33q-124 3 -275 -1q1 12 1.5 40t1.5 138.5t-1 264.5
q-70 4 -168 0q0 -203 4 -458q-133 0 -278 -1q0 176 -2 460q-79 4 -189 0l-2 238q738 -1 906 -1z" />
    <glyph glyph-name="zero.numerator" horiz-adv-x="534" 
d="M266 298q-120 0 -188 61.5t-68 160.5q0 109 71.5 162.5t184.5 53.5q128 0 193 -57t65 -158q0 -107 -72.5 -165t-185.5 -58zM268 428q60 0 60 95q0 43 -15.5 66.5t-41.5 23.5q-63 0 -63 -93q0 -41 16 -66.5t44 -25.5z" />
    <glyph glyph-name="one.numerator" horiz-adv-x="352" 
d="M122 313q1 126 1 225l-70 -31l-48 144l168 80l130 -9l4 -408z" />
    <glyph glyph-name="two.numerator" horiz-adv-x="493" 
d="M474 314l-452 4l-5 159q272 38 272 114q0 17 -10 27.5t-28 10.5q-64 0 -58 -85q-80 3 -183 3q-6 97 59 147.5t190 50.5q107 0 165.5 -40t58.5 -108q0 -64 -65.5 -104t-173.5 -52l229 12z" />
    <glyph glyph-name="three.numerator" horiz-adv-x="526" 
d="M268 297q-128 0 -196 42t-67 126q86 -4 208 -7q1 -21 17 -31.5t41 -10.5t40 8t15 22q0 23 -38 30q-45 7 -125 0q0 36 -3 92q80 -4 118 2q47 8 47 30q0 30 -49 30q-28 0 -45 -13t-18 -35l-199 5q-1 74 64 114t191 40q117 0 181 -35t64 -94q0 -36 -25 -59.5t-64 -30.5
q45 -7 70.5 -33.5t25.5 -61.5q0 -62 -69.5 -96t-183.5 -34z" />
    <glyph glyph-name="four.numerator" horiz-adv-x="527" 
d="M294 314l1 63q-123 0 -288 -3q-1 38 -2 128l183 233q80 -3 150.5 -4.5t101.5 -0.5h30q-1 -100 -1 -229q36 0 53 1q-1 -52 -1 -125h-51l1 -62zM189 501q11 0 47 -0.5t60 -0.5v141z" />
    <glyph glyph-name="five.numerator" horiz-adv-x="518" 
d="M260 299q-108 0 -174 40t-76 116l192 3q4 -20 20 -32t39 -12q24 0 40 11t16 29q0 39 -56 39q-40 0 -53 -21q-81 6 -186 10q4 106 5 249q123 -1 452 5q-1 -46 -1 -128q-94 0 -281 -5v-51q56 29 120 29q94 0 145 -37t51 -95q0 -77 -72.5 -113.5t-180.5 -36.5z" />
    <glyph glyph-name="six.numerator" horiz-adv-x="546" 
d="M281 298q-124 0 -197.5 57.5t-73.5 162.5q0 108 75 165.5t195 57.5q102 0 168.5 -39t75.5 -103q-54 0 -105 -1.5t-75 -3.5l-24 -1q-14 31 -47 31q-31 0 -49 -24.5t-20 -66.5q26 20 67.5 32.5t79.5 12.5q185 0 185 -122q0 -75 -73.5 -116.5t-181.5 -41.5zM284 490
q-39 0 -72 -25q18 -49 66 -49q59 0 59 37q0 16 -14.5 26.5t-38.5 10.5z" />
    <glyph glyph-name="seven.numerator" horiz-adv-x="457" 
d="M99 314q3 188 139 275l-233 -5l1 145l445 5l1 -159q-159 -81 -157 -268z" />
    <glyph glyph-name="eight.numerator" horiz-adv-x="539" 
d="M279 301q-133 0 -203.5 36t-70.5 101q0 74 96 87q-81 27 -81 97q0 56 63 88.5t189 32.5q119 0 186 -33.5t67 -89.5q0 -68 -75 -91q39 -10 61.5 -33.5t22.5 -54.5q0 -70 -70.5 -105t-184.5 -35zM275 411q25 0 43 9.5t18 26.5q0 16 -20.5 27t-51.5 14q-64 -8 -64 -39
q0 -17 20 -27.5t55 -10.5zM284 563q51 10 51 39q0 33 -66 33q-33 0 -48 -9.5t-15 -21.5q0 -16 22 -27.5t56 -13.5z" />
    <glyph glyph-name="nine.numerator" horiz-adv-x="537" 
d="M260 302q-101 0 -167 39t-83 117h197q11 -34 60 -34q67 0 71 85q-53 -34 -134 -34q-90 0 -140 31.5t-50 91.5q0 70 67.5 107.5t185.5 37.5q123 0 191.5 -58.5t68.5 -167.5q0 -60 -21.5 -103t-60 -66.5t-84.5 -34.5t-101 -11zM270 547q34 0 65 15q-12 62 -68 62
q-26 0 -40.5 -11t-14.5 -27q0 -18 15.5 -28.5t42.5 -10.5z" />
    <glyph glyph-name="zero.denominator" horiz-adv-x="534" 
d="M266 -19q-120 0 -188 61.5t-68 160.5q0 109 71.5 162.5t184.5 53.5q128 0 193 -57t65 -158q0 -107 -72.5 -165t-185.5 -58zM268 111q60 0 60 95q0 43 -15.5 66.5t-41.5 23.5q-63 0 -63 -93q0 -41 16 -66.5t44 -25.5z" />
    <glyph glyph-name="one.denominator" horiz-adv-x="352" 
d="M122 -4q1 126 1 225l-70 -31l-48 144l168 80l130 -9l4 -408z" />
    <glyph glyph-name="two.denominator" horiz-adv-x="493" 
d="M474 -3l-452 4l-5 159q272 38 272 114q0 17 -10 27.5t-28 10.5q-64 0 -58 -85q-80 3 -183 3q-6 97 59 147.5t190 50.5q107 0 165.5 -40t58.5 -108q0 -64 -65.5 -104t-173.5 -52l229 12z" />
    <glyph glyph-name="three.denominator" horiz-adv-x="526" 
d="M268 -20q-128 0 -196 42t-67 126q86 -4 208 -7q1 -21 17 -31.5t41 -10.5t40 8.5t15 21.5q0 23 -38 30q-45 7 -125 0q0 36 -3 92q80 -4 118 2q47 8 47 30q0 30 -49 30q-28 0 -45 -13t-18 -35l-199 5q-1 74 64 114t191 40q117 0 181 -35t64 -94q0 -36 -25 -59.5t-64 -30.5
q45 -7 70.5 -33.5t25.5 -61.5q0 -62 -69.5 -96t-183.5 -34z" />
    <glyph glyph-name="four.denominator" horiz-adv-x="527" 
d="M294 -3l1 63q-123 0 -288 -3q-1 38 -2 128l183 233q80 -3 150.5 -4.5t101.5 -1.5l30 1q-1 -100 -1 -229q36 0 53 1q-1 -52 -1 -125h-51l1 -62zM189 184q11 0 47 -0.5t60 -0.5v141z" />
    <glyph glyph-name="five.denominator" horiz-adv-x="518" 
d="M260 -18q-108 0 -174 40t-76 116l192 3q4 -20 20 -32t39 -12q24 0 40 11t16 29q0 39 -56 39q-40 0 -53 -21q-81 6 -186 10q4 106 5 249q123 -1 452 5q-1 -46 -1 -128q-94 0 -281 -5v-51q56 29 120 29q94 0 145 -37t51 -95q0 -77 -72.5 -113.5t-180.5 -36.5z" />
    <glyph glyph-name="six.denominator" horiz-adv-x="546" 
d="M281 -19q-124 0 -197.5 57.5t-73.5 162.5q0 108 75 165.5t195 57.5q102 0 168.5 -39t75.5 -103q-54 0 -105 -1.5t-75 -2.5l-24 -2q-14 31 -47 31q-31 0 -49 -24.5t-20 -66.5q26 20 67.5 32.5t79.5 12.5q185 0 185 -122q0 -75 -73.5 -116.5t-181.5 -41.5zM284 173
q-39 0 -72 -25q18 -49 66 -49q59 0 59 37q0 16 -14.5 26.5t-38.5 10.5z" />
    <glyph glyph-name="seven.denominator" horiz-adv-x="457" 
d="M99 -3q3 188 139 275l-233 -5l1 145l445 5l1 -159q-159 -81 -157 -268z" />
    <glyph glyph-name="eight.denominator" horiz-adv-x="539" 
d="M279 -16q-133 0 -203.5 36t-70.5 101q0 73 96 87q-81 27 -81 97q0 56 63 88.5t189 32.5q119 0 186 -33.5t67 -89.5q0 -68 -75 -91q39 -10 61.5 -33.5t22.5 -54.5q0 -70 -70.5 -105t-184.5 -35zM275 94q25 0 43 9.5t18 26.5q0 16 -20.5 27t-51.5 14q-64 -8 -64 -39
q0 -17 20 -27.5t55 -10.5zM284 246q51 10 51 39q0 33 -66 33q-33 0 -48 -9.5t-15 -21.5q0 -16 22 -27.5t56 -13.5z" />
    <glyph glyph-name="nine.denominator" horiz-adv-x="537" 
d="M260 -15q-101 0 -167 39t-83 117h197q11 -34 60 -34q67 0 71 85q-53 -34 -134 -34q-90 0 -140 31.5t-50 91.5q0 70 67.5 107.5t185.5 37.5q123 0 191.5 -58.5t68.5 -167.5q0 -60 -21.5 -103t-60 -66.5t-84.5 -34.5t-101 -11zM270 230q34 0 65 15q-12 62 -68 62
q-26 0 -40.5 -11t-14.5 -27q0 -18 15.5 -28.5t42.5 -10.5z" />
    <glyph glyph-name="dollar.titling" horiz-adv-x="601" 
d="M398 127l-194 1q3 28 6 93q-82 16 -134 56t-56 99q114 -2 215 1q4 -22 23 -35t45 -13q51 0 51 30q0 13 -23.5 21t-87.5 14q-109 10 -160 42t-51 93q0 50 46.5 87t127.5 50l-8 102h205q-5 -44 -10 -106q75 -16 124.5 -56t61.5 -98q-94 1 -215 -6q-9 48 -56 48
q-49 0 -49 -30q0 -36 97 -41q123 -6 174 -34.5t51 -88.5q0 -57 -50 -92t-136 -47z" />
    <glyph glyph-name="cent.titling" horiz-adv-x="611" 
d="M212 126q4 28 7 100q-92 19 -145.5 76t-53.5 145q0 87 50 142t146 72l-10 106h197l-11 -108q84 -18 137.5 -63.5t58.5 -111.5l-239 -9q-9 71 -51 71q-52 0 -52 -93q0 -53 12.5 -74.5t40.5 -21.5q39 0 50 63q96 -5 242 -11q-28 -156 -199 -185l6 -98q-62 4 -186 0z" />
    <glyph glyph-name="Euro.titling" horiz-adv-x="734" 
d="M22 435l-2 52h60q19 105 102.5 163.5t211.5 58.5q115 0 200.5 -48.5t112.5 -129.5l-238 -8q-15 38 -67 38q-69 0 -87 -72q184 2 264 4l-2 -53q-115 0 -267 -1q-1 -12 0 -26q85 0 279 4q-2 -9 0 -53q-116 0 -271 -1q18 -64 82 -64q59 0 77 38l237 -9q-17 -88 -104 -133
t-216 -43q-126 0 -208 52.5t-103 155.5l-58 -1q2 22 0 53h51q-1 11 0 24z" />
    <glyph glyph-name="sterling.titling" horiz-adv-x="689" 
d="M46 376q1 29 1 46t-1 24l-1 6q15 -1 45 -1q-26 56 -26 90q0 167 286 167q141 0 227 -60.5t87 -158.5q-84 -1 -233 -11q0 31 -17.5 53t-51.5 22q-64 0 -64 -51q0 -18 21 -54l217 3v-84q-148 4 -204 5q-9 -22 -35 -43q88 -4 357 5q-1 -7 -1.5 -20t-1.5 -58t0 -94
q-279 10 -605 10l2 148q41 11 52 56h-54z" />
    <glyph glyph-name="yen.titling" horiz-adv-x="650" 
d="M56 358q1 28 -3 92h79l-117 237q83 -1 233 6q22 -86 78 -222q39 101 79 244q11 -1 30.5 -2t82 -2.5t117.5 0.5l-122 -257q27 0 83 2l-1 -91h-122l-14 -32l138 3q0 -22 1 -88h-167q0 -4 3 -77q-100 2 -210 -1q2 3 0 76q-4 0 -172 -3q1 28 1 88h136l-14 30z" />
    <glyph glyph-name="zero.titling" horiz-adv-x="672" 
d="M335 155q-143 0 -232 78t-89 202q0 135 90 204.5t231 69.5q156 0 239.5 -71t83.5 -201q0 -133 -90 -207.5t-233 -74.5zM338 322q39 0 62.5 29.5t23.5 87.5q0 51 -23.5 81.5t-60.5 30.5q-88 0 -88 -115q0 -49 22 -81.5t64 -32.5z" />
    <glyph glyph-name="one.titling" horiz-adv-x="419" 
d="M144 172q1 238 0 293l-82 -38l-59 176l205 98l153 -11l5 -517z" />
    <glyph glyph-name="two.titling" horiz-adv-x="611" 
d="M590 168q-190 4 -331 5t-187 1l-46 -1l-6 198q340 52 340 148q0 21 -13 34.5t-38 13.5q-77 0 -70 -108q-98 4 -229 4q-7 121 75 185.5t237 64.5q137 0 208 -49.5t71 -133.5q0 -81 -78.5 -131t-215.5 -68q67 1 137.5 5t107.5 8l36 3z" />
    <glyph glyph-name="three.titling" horiz-adv-x="648" 
d="M329 147q-156 0 -242.5 53.5t-83.5 160.5q133 -5 255 -9q-1 -26 19.5 -40t54.5 -14q31 0 51.5 10.5t20.5 27.5q0 29 -48 38q-52 9 -147 0q0 46 -4 117q88 -6 138 3q60 8 60 37q0 17 -17.5 27.5t-48.5 10.5q-37 0 -58.5 -17t-20.5 -43l-244 6q-1 93 81 144t238 51
q139 0 220 -45.5t81 -120.5q0 -42 -30.5 -70.5t-79.5 -38.5q54 -11 86.5 -43t32.5 -76q0 -83 -87.5 -126t-226.5 -43z" />
    <glyph glyph-name="four.titling" horiz-adv-x="646" 
d="M358 168q0 54 1 80l-351 -4q-2 48 -3 162l222 295q102 -4 187.5 -5.5t120.5 -1.5l35 1q-1 -118 -1 -291l72 2q-1 -66 -1 -158h-70l2 -79zM234 405q30 -1 126 -1v68.5v63.5v44q-88 -119 -126 -175z" />
    <glyph glyph-name="five.titling" horiz-adv-x="639" 
d="M323 149q-135 0 -217.5 51t-95.5 147l237 3q5 -24 25 -38.5t51 -14.5q30 0 49.5 12.5t19.5 36.5q0 48 -71 48q-51 0 -67 -26q-96 7 -229 12q5 135 6 316q143 -1 560 6q-2 -58 -2 -162q-113 0 -349 -6v-58q64 31 152 31q117 0 179.5 -47t62.5 -121q0 -51 -25 -89
t-69.5 -59.5t-98.5 -31.5t-118 -10z" />
    <glyph glyph-name="six.titling" horiz-adv-x="670" 
d="M342 147q-152 0 -240 72.5t-88 206.5q0 138 91 210.5t243 72.5q128 0 208 -49.5t91 -130.5q-68 0 -131 -2t-92 -4l-29 -2q-15 37 -57 37q-37 0 -59.5 -30.5t-25.5 -79.5q33 24 83.5 39t98.5 15q227 0 227 -152q0 -66 -44.5 -112.5t-115.5 -68.5t-160 -22zM352 390
q-46 0 -87 -30q24 -60 83 -60q33 0 51 12t18 33q0 20 -17 32.5t-48 12.5z" />
    <glyph glyph-name="seven.titling" horiz-adv-x="563" 
d="M122 168q0 231 176 350l-293 -6l1 181l550 7q-1 -74 -0.5 -118.5t1.5 -63.5l1 -20q-104 -53 -149 -135.5t-43 -203.5z" />
    <glyph glyph-name="eight.titling" horiz-adv-x="666" 
d="M345 151q-168 0 -254 45.5t-86 128.5q0 44 31.5 73.5t91.5 37.5q-48 16 -76 48t-28 74q0 69 77.5 111t234.5 42q150 0 232 -43.5t82 -111.5q0 -86 -101 -116q52 -12 82 -41.5t30 -69.5q0 -90 -89.5 -134t-226.5 -44zM340 291q32 0 55 12t23 33t-26 34.5t-66 17.5
q-81 -9 -81 -49q0 -22 25 -35t70 -13zM351 483q65 13 65 49q0 20 -22 31.5t-61 11.5q-43 0 -62 -12t-19 -28q0 -19 28.5 -34t70.5 -18z" />
    <glyph glyph-name="nine.titling" horiz-adv-x="660" 
d="M325 152q-129 0 -213 51.5t-104 146.5q68 -2 122 -1.5t87 1.5l33 2q16 -44 79 -44q78 0 85 104q-58 -42 -168 -42t-171 39t-61 114q0 91 85 139.5t226 48.5q150 0 235.5 -75t85.5 -211q0 -139 -89.5 -206t-231.5 -67zM329 463q43 0 82 20q-16 77 -83 77
q-34 0 -52.5 -13.5t-18.5 -34.5q0 -49 72 -49z" />
    <glyph glyph-name="questiondown.cap" horiz-adv-x="792" 
d="M401 -46q-177 0 -286.5 59t-109.5 170q0 98 75.5 151t203.5 58l1 24q95 -1 156 -0.5t90 1.5l29 1l3 -150q-139 13 -200.5 -1t-61.5 -62q0 -28 25 -45.5t69 -17.5q50 0 75.5 28.5t31.5 71.5q116 -12 290 -16q-26 -130 -126.5 -201t-264.5 -71zM415 443q-83 0 -127 34.5
t-44 99.5q0 60 45 94t122 34q89 0 133 -36t44 -97q0 -60 -47.5 -94.5t-125.5 -34.5z" />
    <glyph glyph-name="exclamdown.cap" horiz-adv-x="356" 
d="M22 -7q14 120 29 413q109 -2 245 5q4 -108 36 -422q-21 1 -53.5 2t-122.5 2.5t-134 -0.5zM176 443q-75 0 -118 35.5t-43 94.5q0 60 46.5 93.5t111.5 33.5q80 0 124 -35t44 -96q0 -57 -41.5 -91.5t-123.5 -34.5z" />
    <glyph glyph-name="parenleft.cap" horiz-adv-x="411" 
d="M179 -126q-149 225 -149 453q0 135 40.5 260t117.5 217l212 -84q-100 -186 -100 -384q0 -159 111 -381q-57 -17 -115 -37.5l-88 -31.5z" />
    <glyph glyph-name="parenright.cap" horiz-adv-x="412" 
d="M235 -136q-106 44 -235 83q111 222 111 381q0 198 -100 384q91 33 218 90q75 -92 114 -217.5t39 -256.5q0 -216 -147 -464z" />
    <glyph glyph-name="bracketleft.cap" horiz-adv-x="427" 
d="M412 -103q-22 1 -57.5 1.5t-140 1.5t-170.5 0q4 297 -4 887q180 -2 368 2q-1 -85 3 -180q-61 0 -98 -3q-4 -255 0 -517q62 -2 104 -2q-5 -86 -5 -190z" />
    <glyph glyph-name="bracketright.cap" horiz-adv-x="425" 
d="M17 -99l-7 189l106 2q2 136 1.5 251t-1.5 191l-2 76l-96 2l1 183l366 -2q-4 -263 -4.5 -484.5t1.5 -311.5l1 -90q-75 1 -166.5 -0.5t-145.5 -3.5z" />
    <glyph glyph-name="braceleft.cap" horiz-adv-x="472" 
d="M462 -97q-77 -24 -155 -24q-99 0 -145.5 40.5t-46.5 135.5q0 16 1.5 45.5t1.5 42.5q0 55 -24.5 79.5t-88.5 18.5l2 220q57 -7 83 7t26 57q0 15 -4.5 56t-4.5 64q0 82 46 118.5t139 38.5q73 0 153 -20q0 -54 1 -98.5t2 -61.5l1 -18q-43 3 -60 -9t-17 -44q0 -10 2 -36.5
t2 -40.5q0 -52 -22.5 -81t-76.5 -41q51 -14 71.5 -47.5t20.5 -88.5l-2 -65q0 -43 18.5 -56.5t67.5 -7.5q1 -61 3.5 -107t3.5 -62z" />
    <glyph glyph-name="braceright.cap" horiz-adv-x="471" 
d="M10 -100q5 42 8 179q48 -8 68.5 4.5t20.5 52.5q0 10 -2 35.5t-2 39.5q0 104 96 127q-103 19 -103 130q0 12 1.5 36t1.5 34q0 35 -15.5 48t-61.5 10q1 7 1.5 20t1.5 60t1 101q81 17 148 17q104 0 147 -39t43 -116q0 -21 -4 -61t-4 -56q0 -46 26 -61t82 -8l2 -214
q-60 5 -85.5 -17t-25.5 -75q0 -15 2.5 -49.5t2.5 -53.5q0 -90 -45.5 -129.5t-145.5 -39.5q-81 0 -159 25z" />
    <glyph glyph-name="slash.cap" horiz-adv-x="509" 
d="M-5 -56l139.5 399.5l99.5 298.5l31 100q61 -2 123 -2t94 1l32 1l-270 -798h-249z" />
    <glyph glyph-name="backslash.cap" horiz-adv-x="509" 
d="M514 -52q-120 3 -249 0l-270 798q112 -4 249 0q108 -349 270 -798z" />
    <glyph glyph-name="bar.cap" horiz-adv-x="361" 
d="M63 -59q3 384 -3 806l241 -3q-1 -35 -1.5 -98.5t-1.5 -276t0 -426.5q-85 3 -235 -2z" />
    <glyph glyph-name="at.cap" horiz-adv-x="918" 
d="M592 -17q-87 -19 -167 -21t-155 18t-130 62.5t-88 118.5t-33 179q0 177 114 281t334 104q432 0 432 -372q0 -133 -47 -190.5t-136 -57.5q-41 0 -76.5 17.5t-55.5 50.5q-58 -66 -207 -66q-100 0 -150 39.5t-50 103.5t59.5 99t201.5 35q18 0 66 -2q0 15 -1 26q-5 45 -49 45
q-19 0 -36 -10.5t-21 -29.5q-93 1 -215 -2q4 85 80 132t214 47q124 0 188.5 -48t69.5 -131q2 -41 -3 -135q-3 -50 31 -50q20 0 29.5 22.5t9.5 90.5q0 152 -77.5 227.5t-254.5 75.5q-184 0 -268.5 -76t-84.5 -227q0 -181 117 -253t340 -17q3 -26 19 -86zM446 227
q27 0 46.5 14t19.5 46v26q-14 1 -24 1q-97 0 -97 -46q0 -41 55 -41z" />
    <glyph glyph-name="A.alt" horiz-adv-x="812" 
d="M0 1l203 676l420 5l189 -673q-175 2 -291 0q-6 23 -16 69q-98 2 -210 2l-17 -80zM399 524l-62 -257q31 -1 123 -1z" />
    <glyph glyph-name="B.alt" horiz-adv-x="799" 
d="M49 4q-2 308 -9 673q190 26 316 26q398 0 398 -195q0 -56 -37.5 -98t-109.5 -58q181 -28 181 -158q0 -103 -95.5 -157.5t-312.5 -54.5q-140 0 -331 22zM303 150q43 -7 81 -7q60 0 90 19.5t29 51.5q0 62 -126 62q-37 0 -76 -4zM299 522v-105q36 -4 70 -4q109 0 109 59
q0 56 -103 56q-33 0 -76 -6z" />
    <glyph glyph-name="C.alt" horiz-adv-x="856" 
d="M441 -9q-122 0 -214.5 35.5t-149.5 115t-57 196.5q0 159 112.5 253.5t297.5 94.5q170 0 278.5 -78t130.5 -206q-93 2 -170 2.5t-107 -0.5l-30 -1q-21 87 -102 87q-55 0 -85 -40.5t-30 -109.5t34 -108t84 -39q44 0 75.5 26t38.5 76q90 0 166 1.5t107 3.5l31 1
q-10 -139 -121.5 -224.5t-288.5 -85.5z" />
    <glyph glyph-name="D.alt" horiz-adv-x="837" 
d="M315 182q17 -1 25 -1q184 0 184 152q0 145 -175 145q-26 0 -40 -1zM40 -1q2 217 2.5 383t-0.5 224l-1 57q157 20 276 20q500 0 500 -346q0 -173 -145 -260t-427 -87q-95 0 -205 9z" />
    <glyph glyph-name="E.alt" horiz-adv-x="700" 
d="M48 8q0 272 -8 676q243 3 630 6q-1 -63 2 -197q-99 2 -361 -4q0 -29 1 -72q88 0 283 2q-2 -36 1 -169l-280 1q0 -15 2 -49l357 3l-1 -202q-266 5 -626 5z" />
    <glyph glyph-name="F.alt" horiz-adv-x="659" 
d="M48 16q-1 263 -8 665q293 -2 604 3q1 -96 5 -229q-180 3 -337 -2q-1 -22 0 -90q98 0 252 2q-2 -65 1 -210q-99 1 -249 1l3 -139z" />
    <glyph glyph-name="G.alt" horiz-adv-x="875" 
d="M441 -22q-186 -1 -303.5 98t-117.5 267q0 159 110 256t308 97q337 0 402 -250q-133 0 -292 -11q-28 66 -109 66q-62 0 -97.5 -44t-35.5 -113q0 -81 41 -130t114 -49q82 0 124 48l-151 -4q3 37 0 163q164 -3 431 -5q0 -179 -112.5 -284t-311.5 -105z" />
    <glyph glyph-name="H.alt" horiz-adv-x="791" 
d="M480 -2v166q-53 0 -167 -1l3 -172q-134 1 -272 -1q1 319 -4 709q132 0 269 1q1 -130 2 -314q3 0 29.5 -0.5t55.5 -0.5h83l-3 310q129 -2 272 1q0 -292 3 -700z" />
    <glyph glyph-name="I.alt" horiz-adv-x="370" 
d="M49 18q1 268 -4 656q99 0 275 1q2 -296 5 -656q-132 1 -276 -1z" />
    <glyph glyph-name="J.alt" horiz-adv-x="708" 
d="M335 4q-152 0 -241 71t-89 216q0 60 10 117q71 -4 262 -18q-7 -27 -7 -82q0 -90 64 -90q27 0 44 20.5t26.5 75t9.5 149.5q0 107 -12 223q81 -1 272 9q14 -131 14 -238q0 -227 -91.5 -340t-261.5 -113z" />
    <glyph glyph-name="K.alt" horiz-adv-x="805" 
d="M493 -19q-58 151 -93 234l-93 -119l1 -101l-268 -1v703l267 -1q-1 -103 -1 -267l188 284q78 -8 152 -14t109 -8l35 -2l-187 -262l180 -417q-90 -6 -162.5 -13.5t-100.5 -11.5z" />
    <glyph glyph-name="L.alt" horiz-adv-x="624" 
d="M46 18q0 381 -6 659q84 -3 271 0q-2 -49 4 -439l304 6l-1 -221z" />
    <glyph glyph-name="M.alt" horiz-adv-x="1039" 
d="M25 -2q20 332 33 690q192 4 389 15q23 -149 75 -401l81 405q166 -6 369 -7l42 -693q-143 1 -276 -2q1 21 2 59.5t2 157t1 237.5q-47 -200 -83 -388l-283 -1l-85 418q0 -272 7 -493q-133 2 -274 3z" />
    <glyph glyph-name="N.alt" horiz-adv-x="801" 
d="M43 -8q2 291 -3 696q130 5 258 8l195 -320q-3 147 -11 328q137 0 265 -1q-1 -244 13 -685q-102 -5 -264 -17l-198 301q0 -125 7 -312q-131 2 -262 2z" />
    <glyph glyph-name="O.alt" horiz-adv-x="878" 
d="M439 694q187 -1 302 -90.5t117 -263.5q3 -158 -111 -255.5t-306 -98.5q-110 0 -193.5 28.5t-132 78t-72 111.5t-23.5 135q1 171 115 263.5t304 91.5zM439 496q-60 0 -92 -40t-32 -113q0 -75 30.5 -118t94.5 -43q59 0 91 44t32 116q1 71 -34.5 112.5t-89.5 41.5z" />
    <glyph glyph-name="P.alt" horiz-adv-x="754" 
d="M40 11q1 27 1.5 77.5t1.5 221t1 357.5q158 15 260 15q219 0 332 -62t113 -207q0 -74 -28.5 -127t-80 -82.5t-113 -42.5t-137.5 -13q-38 0 -75 3l3 -139q-171 1 -278 -1zM311 499q-1 -52 1 -170q34 -4 52 -4q121 0 121 92q0 84 -129 84q-13 0 -45 -2z" />
    <glyph glyph-name="Q.alt" horiz-adv-x="879" 
d="M561 -183q-40 108 -69 178q-27 -3 -56 -3q-191 0 -303.5 93.5t-112.5 255.5q0 165 113.5 256.5t308.5 91.5q197 0 306.5 -96.5t110.5 -254.5q-1 -172 -142 -267l118 -116zM439 497q-124 0 -124 -160q0 -68 33.5 -110.5t89.5 -42.5t90.5 37.5t34.5 116.5q0 71 -32 115
t-92 44z" />
    <glyph glyph-name="R.alt" horiz-adv-x="775" 
d="M506 -41l-126 215q-25 -1 -77 -1q0 -25 0.5 -56.5t1.5 -71t1 -62.5q-159 2 -266 -1q1 29 1.5 84.5t1.5 233.5t1 365q157 23 289 23q218 0 325.5 -67t107.5 -193q0 -136 -132 -201l141 -213zM300 346q36 -2 51 -2q80 0 116.5 21.5t36.5 67.5q0 86 -138 86q-25 0 -67 -5z
" />
    <glyph glyph-name="S.alt" horiz-adv-x="808" 
d="M412 -20q-168 0 -274.5 61t-129.5 181q108 5 290 21q18 -80 117 -80q81 0 81 42q0 26 -35.5 39.5t-139.5 22.5q-152 12 -225.5 59.5t-73.5 148.5q0 102 99 163t263 61q171 1 272.5 -57t131.5 -185q-101 -1 -279 -12q-20 69 -110 69q-40 0 -60 -13t-20 -33q0 -30 39 -44.5
t135 -19.5q168 -9 238.5 -53.5t70.5 -135.5q0 -76 -53 -130t-139.5 -79.5t-197.5 -25.5z" />
    <glyph glyph-name="T.alt" horiz-adv-x="677" 
d="M12 443l-2 238q489 -1 657 -1q-2 -126 -2 -237h-188q0 -67 4 -433q-133 0 -278 -1q0 158 -2 434h-189z" />
    <glyph glyph-name="U.alt" horiz-adv-x="781" 
d="M391 -14q-371 0 -371 428q0 130 29 299q89 -8 273 -19q-26 -156 -26 -250q0 -229 91 -229q48 0 71.5 51t23.5 174q0 56 -14 252q85 1 273 9q20 -139 20 -259q0 -456 -370 -456z" />
    <glyph glyph-name="V.alt" horiz-adv-x="800" 
d="M202 -1l-98.5 341.5l-77.5 255.5l-26 86l301 1q42 -197 108 -457l108 462h283l-188 -685q-186 2 -410 -4z" />
    <glyph glyph-name="W.alt" horiz-adv-x="1043" 
d="M568 -7q-23 241 -47 457l-49 -446q-127 0 -228.5 -2t-139.5 -4l-39 -2q-17 307 -55 708l258 2q11 -240 30 -501l57 416l337 -1q23 -171 59 -408l30 488l252 -3l-53 -718q-107 5 -210 8.5t-152 4.5z" />
    <glyph glyph-name="X.alt" horiz-adv-x="851" 
d="M331 -8l-331 8l204 328l-190 362l316 11l94 -225l102 218l311 -11l-192 -341l111.5 -196.5t73.5 -120.5l21 -33l-332 -8l-98 206z" />
    <glyph glyph-name="Y.alt" horiz-adv-x="803" 
d="M273 -31q-4 117 -8 167l-265 555q89 -1 309 6q19 -84 96 -291l99 297q76 -4 299 -5l-259 -563q-3 -29 1 -165z" />
    <glyph glyph-name="Z.alt" horiz-adv-x="706" 
d="M679 9l-653 6l1 188l289 256l-277 -4l-1 230q193 -2 333 -1.5t219 1.5l78 1l3 -195l-296 -255l306 1z" />
    <glyph glyph-name="a.alt" horiz-adv-x="708" 
d="M235 -30q-102 0 -163.5 44t-61.5 118q0 169 278 169q50 0 113 -6q0 11 -1 18q-5 49 -56 49q-46 0 -61 -37q-89 12 -245 21q17 90 100 135.5t209 45.5q95 0 160.5 -19.5t102 -57.5t53 -85t18.5 -111q2 -74 2 -137t-1 -105l-2 -42q-116 1 -246 -2q3 32 5 84
q-34 -38 -90.5 -60t-113.5 -22zM336 113q73 2 74 99q-9 1 -25 1q-50 0 -75.5 -16.5t-25.5 -40.5q0 -43 52 -43z" />
    <glyph glyph-name="b.alt" horiz-adv-x="743" 
d="M32 -1q1 229 -2 704q7 0 24.5 -0.5t85.5 -1.5t164 1q-5 -92 -8 -259q67 74 173 74q120 0 187 -74t67 -190q0 -120 -77 -190.5t-200 -70.5q-139 0 -195 83q1 -8 2.5 -33.5t3.5 -41.5q-137 3 -225 -1zM362 147q85 0 85 110q0 42 -21.5 70.5t-64.5 28.5q-39 0 -61 -28.5
t-22 -69.5q0 -53 22 -82t62 -29z" />
    <glyph glyph-name="c.alt" horiz-adv-x="704" 
d="M369 -14q-169 0 -259 67t-90 201q0 114 83.5 187t244.5 73q157 0 247.5 -60.5t100.5 -167.5l-289 6q-7 55 -56 55q-32 0 -47.5 -26t-15.5 -68q0 -93 59 -93q49 0 56 53q99 -6 296 -9q-23 -98 -113.5 -158t-216.5 -60z" />
    <glyph glyph-name="d.alt" horiz-adv-x="747" 
d="M712 -3l-226 2q5 23 8 81q-28 -42 -83 -68t-116 -26q-116 0 -195.5 71.5t-79.5 188.5q0 110 65 187.5t187 77.5q105 0 173 -74q-4 238 -5 274q51 -1 272 1q-2 -330 0 -715zM379 144q39 0 63 26t24 79q0 46 -22 75t-61 29q-43 0 -65 -28.5t-22 -73.5q0 -54 23.5 -80.5
t59.5 -26.5z" />
    <glyph glyph-name="e.alt" horiz-adv-x="749" 
d="M387 -18q-182 0 -275 68.5t-92 203.5q0 122 95 191t251 69q201 -1 287.5 -83.5t80.5 -237.5q-127 3 -432 -1q18 -65 82 -65q47 0 67 40q69 -11 275 -28q-90 -157 -339 -157zM380 362q-38 0 -58 -17.5t-25 -59.5q107 3 161 5q-4 38 -21 55t-57 17z" />
    <glyph glyph-name="f.alt" horiz-adv-x="586" 
d="M556 227q-57 1 -169 2l3 -211q-119 2 -269 -1q-3 97 -4 212h-96q0 56 -1 203q37 -1 97 -3v14q0 55 12.5 97t43 78t88.5 55.5t141 19.5q86 0 184 -18q-4 -74 -8 -192q-53 5 -81 5q-61 0 -82.5 -14.5t-23.5 -43.5v-7l166 -2z" />
    <glyph glyph-name="g.alt" horiz-adv-x="679" 
d="M321 -306q-159 0 -240 30t-81 97q0 39 38 65t97 33q-50 7 -79.5 34t-29.5 61q0 38 30 68.5t88 48.5q-136 48 -136 175q1 104 85 157.5t240 53.5l35 -1q6 83 7 202l286 -95l-107 -141q117 -51 117 -183q0 -97 -84.5 -147t-239.5 -50l-62 2q-7 -7 -7 -18q0 -17 31 -24.5
t111 -9.5q148 -4 211 -42t63 -115q0 -66 -56.5 -113t-139 -67.5t-177.5 -20.5zM335 195q63 0 63 81q0 76 -63 76q-62 0 -62 -78q0 -39 18 -59t44 -20zM443 -142q0 42 -105 48q-60 -17 -60 -53q0 -43 83 -42q34 0 58 13t24 34z" />
    <glyph glyph-name="h.alt" horiz-adv-x="709" 
d="M30 -6q1 38 1.5 101t1.5 257.5t-1 345.5q99 0 271 1q-1 -104 -1 -240q30 33 75.5 54.5t94.5 21.5q94 0 149.5 -56t59.5 -150q3 -71 3 -152.5t-1 -127.5l-1 -46l-264 1q5 128 0 237q-4 73 -51 73q-32 0 -45.5 -21t-15.5 -61q-2 -44 -2.5 -103t0.5 -97l1 -37
q-124 3 -275 -1z" />
    <glyph glyph-name="i.alt" horiz-adv-x="342" 
d="M37 16q1 98 -3 464q105 0 269 2q1 -331 4 -465q-118 1 -270 -1zM174 510q-164 0 -164 115q0 51 39.5 81t120.5 30t121.5 -29.5t40.5 -80.5q0 -54 -38.5 -85t-119.5 -31z" />
    <glyph glyph-name="j.alt" horiz-adv-x="340" 
d="M177 506q-166 0 -166 118q0 50 40.5 81.5t120.5 31.5q77 0 117.5 -31.5t40.5 -82.5q0 -117 -153 -117zM-100 -220q1 5 2 16t2 59t1 112q27 -4 53 -4q43 0 61 19.5t19 66.5q1 95 1 188.5t-1 163.5l-1 70q93 -2 152 -2t86 1l27 2q1 -16 2 -47.5t2 -148t0 -255.5
q-1 -256 -264 -256q-66 0 -142 15z" />
    <glyph glyph-name="k.alt" horiz-adv-x="706" 
d="M427 -32l-70 200q-48 -63 -58 -78l1 -95q-71 2 -138.5 2t-99.5 -1l-32 -1q3 233 4 409.5t0 235.5l-1 60q81 -2 148 -2.5t94 0.5h27q-1 -81 -2 -201.5t-1 -146.5l74 184q96 -4 174.5 -6t109.5 -2h31l-136 -186l154 -345q-97 -7 -166.5 -13.5t-91.5 -9.5z" />
    <glyph glyph-name="l.alt" horiz-adv-x="342" 
d="M305 -15l-270 1q3 252 3.5 433.5t-0.5 236.5v55l269 -2q-2 -255 -2.5 -436t-0.5 -235z" />
    <glyph glyph-name="m.alt" horiz-adv-x="1082" 
d="M33 1q3 201 -3 480q90 -3 208 0q-2 -32 -2 -76q35 54 93 88t122 34q154 0 205 -116q73 73 190 73q59 0 101 -20.5t63.5 -55t31 -68.5t12.5 -74q3 -61 2.5 -120t-2.5 -102l-2 -43l-263 2q7 78 -3 191q-5 66 -47 66q-28 0 -41.5 -19.5t-16.5 -61.5q-2 -23 -2 -71t1 -84
l1 -37q-116 2 -270 -1q1 17 3 43.5t4 99.5t-3 107q-6 67 -52 67q-52 0 -59 -80q-4 -43 -4.5 -98t0.5 -89l1 -34q-100 2 -268 -1z" />
    <glyph glyph-name="n.alt" 
d="M414 2q1 9 1.5 26.5t2 76t-1.5 118.5q-3 74 -52 74q-29 0 -43 -19.5t-17 -61.5q-2 -31 -2.5 -86.5t0.5 -95.5l1 -40q-174 3 -273 0l2 489q129 -2 209 1q-2 -40 0 -83q28 50 90 84.5t130 33.5q99 -2 156.5 -59t61.5 -164q2 -52 2.5 -125.5t0.5 -120.5l-1 -47z" />
    <glyph glyph-name="o.alt" horiz-adv-x="758" 
d="M381 514q171 0 264 -73t93 -200q1 -114 -99 -182t-253 -68q-171 0 -269 70t-97 190q0 121 95 192t266 71zM380 354q-84 0 -83 -104q0 -49 22 -76.5t60 -27.5t60.5 26t22.5 72q0 110 -82 110z" />
    <glyph glyph-name="p.alt" horiz-adv-x="759" 
d="M30 -228v759l240 1q-1 -29 -1 -112q31 40 83.5 66.5t113.5 26.5q127 0 200 -79.5t73 -182.5q1 -117 -73.5 -189.5t-200.5 -72.5q-51 0 -96.5 19t-72.5 52l13 -287zM382 140q81 0 81 112q1 43 -19.5 73.5t-63.5 30.5q-40 0 -62.5 -28.5t-22.5 -79.5t22.5 -79.5t64.5 -28.5
z" />
    <glyph glyph-name="q.alt" horiz-adv-x="759" 
d="M446 -235q9 157 14 297q-24 -35 -72.5 -58t-106.5 -23q-115 0 -188 75t-73 190q0 119 71.5 195t183.5 76q62 0 121 -29.5t90 -75.5l-4 123q80 -2 140.5 -2t81.5 1l20 1q-2 -198 -2 -390.5t1 -285.5l1 -93zM379 136q40 0 62 31.5t22 81.5q0 47 -21.5 76t-60.5 29
q-45 0 -65.5 -30t-20.5 -76q0 -54 21.5 -83t62.5 -29z" />
    <glyph glyph-name="r.alt" horiz-adv-x="522" 
d="M32 14q0 247 -2 470q87 0 217 1q-1 -36 -1 -78q35 71 107 106t164 25q-2 -110 -4 -241q-46 0 -79 1.5t-56.5 -8.5t-38 -20.5t-23 -35.5t-12 -53t-4.5 -73l2 -93q-108 1 -270 -1z" />
    <glyph glyph-name="s.alt" horiz-adv-x="662" 
d="M350 -32q-311 0 -350 201q72 1 256 8q10 -39 79 -39q60 0 60 25q0 10 -8 15.5t-37 11t-84 9.5q-132 9 -189 45t-57 106q0 85 82.5 131.5t212.5 46.5q142 0 232.5 -50t113.5 -142q-73 -8 -246 -20q-15 40 -74 40q-52 0 -52 -26q0 -15 25.5 -23.5t93.5 -11.5
q135 -6 194.5 -40t59.5 -104q0 -87 -83.5 -135t-228.5 -48z" />
    <glyph glyph-name="t.alt" horiz-adv-x="560" 
d="M545 3q-114 -20 -193 -20q-131 0 -193 63t-66 202l-2 90l-90 -1q1 75 1 118t-1 59l-1 17l92 -2l3 124l268 2q-2 -54 -4 -128l177 1l-1 -193l-176 3l3 -60q2 -38 23.5 -56t72.5 -18q30 0 70 6z" />
    <glyph glyph-name="u.alt" 
d="M271 19q-127 0 -186.5 73t-59.5 239q0 86 12 174q59 -8 255 -19q-6 -62 -6 -110q0 -85 15 -118.5t46 -33.5q47 0 54 73q5 50 6 103.5t-1 81.5l-2 29q58 -3 266 -3q-2 -191 2 -497l-218 1q2 44 2 103q-30 -45 -79.5 -70.5t-105.5 -25.5z" />
    <glyph glyph-name="v.alt" horiz-adv-x="701" 
d="M535 30q-114 1 -192 0t-118 -3l-40 -2l-185 490l279 11q20 -102 38 -182.5t26 -109.5l8 -30l77 329l273 -6l-90.5 -284t-58.5 -169z" />
    <glyph glyph-name="w.alt" horiz-adv-x="959" 
d="M538 9l-34.5 143.5t-19.5 72.5l-5 15l-52 -237q-114 3 -198.5 3t-112.5 -1l-27 -1l-89 515q93 -2 150 -1t82 2l25 2q5 -85 11.5 -167t11.5 -122l4 -40l81 294q65 -2 122 -2.5t81 -0.5l24 1q29 -87 52 -150t31 -83l8 -20l24 296l252 -4l-93 -517q-88 2 -170 2.5t-120 0.5z
" />
    <glyph glyph-name="x.alt" horiz-adv-x="765" 
d="M754 521l-158 -267l169 -270q-92 0 -167 -1.5t-104 -2.5l-28 -2l-83 168l-79 -159l-304 4q126 201 168 274l-80 127l-63 96l-22 33l305 7q32 -78 80 -176l79 183q86 -6 157.5 -9.5t100.5 -3.5z" />
    <glyph glyph-name="y.alt" horiz-adv-x="691" 
d="M453 -269l-279 39l57 169l-231 570q87 2 158.5 6t99.5 7l27 3q15 -80 33.5 -160t29.5 -119l10 -40l39 167.5t25 117.5l7 37q105 -6 170.5 -9t78.5 -3l13 1z" />
    <glyph glyph-name="z.alt" horiz-adv-x="628" 
d="M606 5q-220 5 -366.5 7t-183.5 2l-36 -1l2 153l144 85.5t88 56.5l25 16q-81 -2 -143 -5.5t-84 -5.5l-21 -2q1 74 0.5 117t-1.5 60l-1 17q183 0 325.5 1t193.5 2l50 2l1 -159l-144 -84.5t-85 -54.5l-22 -15q60 0 125 2.5t100 4.5l35 3z" />
    <glyph glyph-name="dotlessi.alt" horiz-adv-x="342" 
d="M37 16q1 98 -3 464q105 0 269 2q1 -331 4 -465q-118 1 -270 -1z" />
    <glyph glyph-name="Aacute.alt" horiz-adv-x="812" 
d="M0 1l203 676l420 5l189 -673q-175 2 -291 0q-6 23 -16 69q-98 2 -210 2l-17 -80zM399 524l-62 -257q31 -1 123 -1zM438 720l-62.5 39t-40.5 23l-12 7l77 91l44 54l10 15l72 -45.5l52 -31.5l17 -9z" />
    <glyph glyph-name="Abreve.alt" horiz-adv-x="812" 
d="M0 1l203 676l420 5l189 -673q-175 2 -291 0q-6 23 -16 69q-98 2 -210 2l-17 -80zM399 524l-62 -257q31 -1 123 -1zM403 736q-99 0 -149 42t-45 114q58 0 151 6q-2 -54 44 -54q23 0 35.5 16t6.5 48q49 -1 155 1q8 -91 -48 -132t-150 -41z" />
    <glyph glyph-name="Acircumflex.alt" horiz-adv-x="812" 
d="M0 1l203 676l420 5l189 -673q-175 2 -291 0q-6 23 -16 69q-98 2 -210 2l-17 -80zM399 524l-62 -257q31 -1 123 -1zM277 723l-80 92q60 39 140 103q44 -1 139 4q43 -38 138 -107q-23 -22 -80 -91l-128 84q-43 -21 -129 -85z" />
    <glyph glyph-name="Adieresis.alt" horiz-adv-x="812" 
d="M0 1l203 676l420 5l189 -673q-175 2 -291 0q-6 23 -16 69q-98 2 -210 2l-17 -80zM399 524l-62 -257q31 -1 123 -1zM290 735q-51 0 -77 25.5t-26 63.5q0 35 30 58t74 23q47 0 74.5 -22.5t27.5 -61.5q0 -44 -29.5 -65t-73.5 -21zM526 737q-45 0 -72 24t-27 64q0 36 27 58.5
t74 22.5t72 -23.5t25 -60.5q0 -41 -28.5 -63t-70.5 -22z" />
    <glyph glyph-name="Agrave.alt" horiz-adv-x="812" 
d="M0 1l203 676l420 5l189 -673q-175 2 -291 0q-6 23 -16 69q-98 2 -210 2l-17 -80zM399 524l-62 -257q31 -1 123 -1zM391 720l-157 143q55 32 139 88q33 -47 133 -162q-39 -20 -115 -69z" />
    <glyph glyph-name="Amacron.alt" horiz-adv-x="812" 
d="M0 1l203 676l420 5l189 -673q-175 2 -291 0q-6 23 -16 69q-98 2 -210 2l-17 -80zM399 524l-62 -257q31 -1 123 -1zM233 756q1 35 -2 125q87 -2 350 2l-2 -125q-92 2 -346 -2z" />
    <glyph glyph-name="Aogonek.alt" horiz-adv-x="812" 
d="M629 -214q-103 -12 -155.5 17.5t-53.5 81.5q-1 38 25.5 75t72.5 58l-5.5 23t-7.5 37q-98 2 -210 2l-17 -80l-278 1l203 676l420 5l189 -673q-100 1 -199 1q-47 -28 -47 -62q0 -19 20 -31t56 -11q-8 -41 -13 -120zM399 524l-62 -257q31 -1 123 -1z" />
    <glyph glyph-name="Aring.alt" horiz-adv-x="812" 
d="M0 1l203 676l420 5l189 -673q-175 2 -291 0q-6 23 -16 69q-98 2 -210 2l-17 -80zM399 524l-62 -257q31 -1 123 -1zM404 731q-69 0 -107 31t-38 78q0 51 41.5 78.5t104.5 27.5q69 0 109 -30t40 -76q0 -56 -42.5 -82.5t-107.5 -26.5zM408 795q21 0 35 12t14 33
q0 19 -13.5 33t-35.5 14q-23 0 -36.5 -13t-13.5 -32q0 -21 14 -34t36 -13z" />
    <glyph glyph-name="Atilde.alt" horiz-adv-x="812" 
d="M0 1l203 676l420 5l189 -673q-175 2 -291 0q-6 23 -16 69q-98 2 -210 2l-17 -80zM399 524l-62 -257q31 -1 123 -1zM315 740q-36 1 -116 -5q-6 80 25.5 131.5t96.5 51.5q37 0 84.5 -26.5t62.5 -26.5q32 0 28 47q39 0 111 6q15 -83 -12.5 -132.5t-90.5 -49.5
q-45 0 -92.5 24.5t-61.5 24.5q-18 0 -27.5 -12.5t-7.5 -32.5z" />
    <glyph glyph-name="Cacute.alt" horiz-adv-x="856" 
d="M441 -9q-122 0 -214.5 35.5t-149.5 115t-57 196.5q0 159 112.5 253.5t297.5 94.5q170 0 278.5 -78t130.5 -206q-93 2 -170 2.5t-107 -0.5l-30 -1q-21 87 -102 87q-55 0 -85 -40.5t-30 -109.5t34 -108t84 -39q44 0 75.5 26t38.5 76q90 0 166 1.5t107 3.5l31 1
q-10 -139 -121.5 -224.5t-288.5 -85.5zM467 727l-62.5 39l-40.5 24l-12 6l77 91t43 55l11 14l72 -45.5t52 -30.5l17 -10z" />
    <glyph glyph-name="Ccaron.alt" horiz-adv-x="856" 
d="M441 -9q-122 0 -214.5 35.5t-149.5 115t-57 196.5q0 159 112.5 253.5t297.5 94.5q170 0 278.5 -78t130.5 -206q-93 2 -170 2.5t-107 -0.5l-30 -1q-21 87 -102 87q-55 0 -85 -40.5t-30 -109.5t34 -108t84 -39q44 0 75.5 26t38.5 76q90 0 166 1.5t107 3.5l31 1
q-10 -139 -121.5 -224.5t-288.5 -85.5zM364 730q-43 38 -138 107q23 22 80 91l128 -84q43 21 129 85l80 -92q-60 -39 -140 -103q-44 1 -139 -4z" />
    <glyph glyph-name="Ccedilla.alt" horiz-adv-x="856" 
d="M851 301q-9 -127 -104 -210.5t-249 -96.5q0 -34 1 -47q71 -1 106.5 -24.5t35.5 -63.5q0 -47 -52 -75t-154 -28q-64 0 -128 23q7 36 12 80q48 -21 88 -21q53 0 53 27q0 33 -86 28q10 42 19 100q-169 10 -271 96.5t-102 248.5q0 159 112.5 253.5t297.5 94.5
q170 0 278.5 -78t130.5 -206q-93 2 -170 2.5t-107 -0.5l-30 -1q-21 87 -102 87q-55 0 -85 -40.5t-30 -109.5t34 -108t84 -39q44 0 75.5 26t38.5 76q90 0 166 1.5t107 3.5z" />
    <glyph glyph-name="Ccircumflex.alt" horiz-adv-x="856" 
d="M441 -9q-122 0 -214.5 35.5t-149.5 115t-57 196.5q0 159 112.5 253.5t297.5 94.5q170 0 278.5 -78t130.5 -206q-93 2 -170 2.5t-107 -0.5l-30 -1q-21 87 -102 87q-55 0 -85 -40.5t-30 -109.5t34 -108t84 -39q44 0 75.5 26t38.5 76q90 0 166 1.5t107 3.5l31 1
q-10 -139 -121.5 -224.5t-288.5 -85.5zM306 719l-80 92q60 39 140 103q44 -1 139 4q43 -38 138 -107q-23 -22 -80 -91l-128 84q-43 -21 -129 -85z" />
    <glyph glyph-name="Dcaron.alt" horiz-adv-x="837" 
d="M315 182q17 -1 25 -1q184 0 184 152q0 145 -175 145q-26 0 -40 -1zM40 -1q2 217 2.5 383t-0.5 224l-1 57q157 20 276 20q500 0 500 -346q0 -173 -145 -260t-427 -87q-95 0 -205 9zM298 730q-43 38 -138 107q23 22 80 91l128 -84q43 21 129 85l80 -92q-60 -39 -140 -103
q-44 1 -139 -4z" />
    <glyph glyph-name="Eacute.alt" horiz-adv-x="700" 
d="M48 8q0 272 -8 676q243 3 630 6q-1 -63 2 -197q-99 2 -361 -4q0 -29 1 -72q88 0 283 2q-2 -36 1 -169l-280 1q0 -15 2 -49l357 3l-1 -202q-266 5 -626 5zM404 727l-62.5 39l-40.5 24l-12 6l77 91t44 55l10 14l72 -45.5t52 -30.5l17 -10z" />
    <glyph glyph-name="Ecaron.alt" horiz-adv-x="700" 
d="M48 8q0 272 -8 676q243 3 630 6q-1 -63 2 -197q-99 2 -361 -4q0 -29 1 -72q88 0 283 2q-2 -36 1 -169l-280 1q0 -15 2 -49l357 3l-1 -202q-266 5 -626 5zM303 736q-43 38 -138 107q23 22 80 91l128 -84q43 21 129 85l80 -92q-60 -39 -140 -103q-44 1 -139 -4z" />
    <glyph glyph-name="Ecircumflex.alt" horiz-adv-x="700" 
d="M48 8q0 272 -8 676q243 3 630 6q-1 -63 2 -197q-99 2 -361 -4q0 -29 1 -72q88 0 283 2q-2 -36 1 -169l-280 1q0 -15 2 -49l357 3l-1 -202q-266 5 -626 5zM245 726l-80 92q60 39 140 103q44 -1 139 4q43 -38 138 -107q-23 -22 -80 -91l-128 84q-43 -21 -129 -85z" />
    <glyph glyph-name="Edieresis.alt" horiz-adv-x="700" 
d="M48 8q0 272 -8 676q243 3 630 6q-1 -63 2 -197q-99 2 -361 -4q0 -29 1 -72q88 0 283 2q-2 -36 1 -169l-280 1q0 -15 2 -49l357 3l-1 -202q-266 5 -626 5zM257 743q-51 0 -77 25.5t-26 63.5q0 35 30 58t74 23q47 0 74.5 -22.5t27.5 -61.5q0 -44 -29.5 -65t-73.5 -21z
M493 745q-45 0 -72 24t-27 64q0 36 27 58.5t74 22.5t72 -23.5t25 -60.5q0 -41 -28.5 -63t-70.5 -22z" />
    <glyph glyph-name="Edotaccent.alt" horiz-adv-x="700" 
d="M48 8q0 272 -8 676q243 3 630 6q-1 -63 2 -197q-99 2 -361 -4q0 -29 1 -72q88 0 283 2q-2 -36 1 -169l-280 1q0 -15 2 -49l357 3l-1 -202q-266 5 -626 5zM373 745q-55 0 -84.5 28.5t-29.5 71.5q0 40 31 66.5t83 26.5q54 0 84 -29t30 -67q0 -46 -31.5 -71.5t-82.5 -25.5z
" />
    <glyph glyph-name="Egrave.alt" horiz-adv-x="700" 
d="M48 8q0 272 -8 676q243 3 630 6q-1 -63 2 -197q-99 2 -361 -4q0 -29 1 -72q88 0 283 2q-2 -36 1 -169l-280 1q0 -15 2 -49l357 3l-1 -202q-266 5 -626 5zM358 727l-157 143q55 32 139 88q33 -47 133 -162q-39 -20 -115 -69z" />
    <glyph glyph-name="Emacron.alt" horiz-adv-x="700" 
d="M48 8q0 272 -8 676q243 3 630 6q-1 -63 2 -197q-99 2 -361 -4q0 -29 1 -72q88 0 283 2q-2 -36 1 -169l-280 1q0 -15 2 -49l357 3l-1 -202q-266 5 -626 5zM200 763q1 35 -2 125q87 -2 350 2l-2 -125q-91 2 -346 -2z" />
    <glyph glyph-name="Eogonek.alt" horiz-adv-x="700" 
d="M664 -234q-103 -12 -155.5 17.5t-53.5 81.5q-1 40 29 78.5t83 61.5q-327 3 -519 3q0 272 -8 676q243 3 630 6q-1 -63 2 -197q-99 2 -361 -4q0 -29 1 -72q88 0 283 2q-2 -36 1 -169l-280 1q0 -15 2 -49l357 3l-1 -202q-35 -15 -54 -35.5t-19 -39.5t20 -31t56 -11
q-8 -41 -13 -120z" />
    <glyph glyph-name="Gbreve.alt" horiz-adv-x="875" 
d="M441 -22q-186 -1 -303.5 98t-117.5 267q0 159 110 256t308 97q337 0 402 -250q-133 0 -292 -11q-28 66 -109 66q-62 0 -97.5 -44t-35.5 -113q0 -81 41 -130t114 -49q82 0 124 48l-151 -4q3 37 0 163q164 -3 431 -5q0 -179 -112.5 -284t-311.5 -105zM440 738
q-99 0 -149 42t-45 114q58 0 151 6q-2 -54 44 -54q23 0 35.5 16t6.5 48q49 -1 155 1q8 -91 -48 -132t-150 -41z" />
    <glyph glyph-name="Gcircumflex.alt" horiz-adv-x="875" 
d="M441 -22q-186 -1 -303.5 98t-117.5 267q0 159 110 256t308 97q337 0 402 -250q-133 0 -292 -11q-28 66 -109 66q-62 0 -97.5 -44t-35.5 -113q0 -81 41 -130t114 -49q82 0 124 48l-151 -4q3 37 0 163q164 -3 431 -5q0 -179 -112.5 -284t-311.5 -105zM314 726l-80 92
q60 39 140 103q44 -1 139 4q43 -38 138 -107q-23 -22 -80 -91l-128 84q-43 -21 -129 -85z" />
    <glyph glyph-name="Gcommaaccent.alt" horiz-adv-x="875" 
d="M441 -22q-186 -1 -303.5 98t-117.5 267q0 159 110 256t308 97q337 0 402 -250q-133 0 -292 -11q-28 66 -109 66q-62 0 -97.5 -44t-35.5 -113q0 -81 41 -130t114 -49q82 0 124 48l-151 -4q3 37 0 163q164 -3 431 -5q0 -179 -112.5 -284t-311.5 -105zM536 -140
q0 -42 -34.5 -83t-99.5 -72l-43 52q32 22 48 45q-25 7 -41 26t-16 42q0 33 26 56t68 23q43 0 67.5 -24.5t24.5 -64.5z" />
    <glyph glyph-name="Hcircumflex.alt" horiz-adv-x="791" 
d="M480 -2v166q-53 0 -167 -1l3 -172q-134 1 -272 -1q1 319 -4 709q132 0 269 1q1 -130 2 -314q3 0 29.5 -0.5t55.5 -0.5h83l-3 310q129 -2 272 1q0 -292 3 -700zM267 736l-80 92q60 39 140 103q44 -1 139 4q43 -38 138 -107q-23 -22 -80 -91l-128 84q-43 -21 -129 -85z" />
    <glyph glyph-name="Iacute.alt" horiz-adv-x="370" 
d="M49 18q1 268 -4 656q99 0 275 1q2 -296 5 -656q-132 1 -276 -1zM218 712l-62.5 39t-40.5 23l-12 7l77 91l44 54l10 15l72 -45.5l52 -31.5l17 -9z" />
    <glyph glyph-name="Icircumflex.alt" horiz-adv-x="370" 
d="M49 18q1 268 -4 656q99 0 275 1q2 -296 5 -656q-132 1 -276 -1zM57 711l-80 92q60 39 140 103q44 -1 139 4q43 -38 138 -107q-23 -22 -80 -91l-128 84q-43 -21 -129 -85z" />
    <glyph glyph-name="Idieresis.alt" horiz-adv-x="370" 
d="M49 18q1 268 -4 656q99 0 275 1q2 -296 5 -656q-132 1 -276 -1zM69 728q-51 0 -77 25.5t-26 63.5q0 35 30 58t74 23q47 0 74.5 -22.5t27.5 -61.5q0 -44 -29.5 -65t-73.5 -21zM305 730q-45 0 -72 24t-27 64q0 36 27 58.5t74 22.5t72 -23.5t25 -60.5q0 -41 -28.5 -63
t-70.5 -22z" />
    <glyph glyph-name="Idotaccent.alt" horiz-adv-x="370" 
d="M49 18q1 268 -4 656q99 0 275 1q2 -296 5 -656q-132 1 -276 -1zM185 730q-55 0 -84.5 28.5t-29.5 71.5q0 40 31 66.5t83 26.5q54 0 84 -29t30 -67q0 -46 -31.5 -71.5t-82.5 -25.5z" />
    <glyph glyph-name="Igrave.alt" horiz-adv-x="370" 
d="M49 18q1 268 -4 656q99 0 275 1q2 -296 5 -656q-132 1 -276 -1zM170 712l-157 143q55 32 139 88q33 -47 133 -162q-39 -20 -115 -69z" />
    <glyph glyph-name="Imacron.alt" horiz-adv-x="370" 
d="M49 18q1 268 -4 656q99 0 275 1q2 -296 5 -656q-132 1 -276 -1zM12 748q1 35 -2 125q87 -2 350 2l-2 -125q-92 2 -346 -2z" />
    <glyph glyph-name="Iogonek.alt" horiz-adv-x="370" 
d="M265 -207q-103 -12 -155.5 17.5t-53.5 81.5q-1 35 22 70t64 57l-93 -1q1 268 -4 656q99 0 275 1q2 -296 5 -656h-72q-51 -29 -51 -64q0 -19 20 -31t56 -11q-8 -41 -13 -120z" />
    <glyph glyph-name="Jcircumflex.alt" horiz-adv-x="708" 
d="M335 4q-152 0 -241 71t-89 216q0 60 10 117q71 -4 262 -18q-7 -27 -7 -82q0 -90 64 -90q27 0 44 20.5t26.5 75t9.5 149.5q0 107 -12 223q81 -1 272 9q14 -131 14 -238q0 -227 -91.5 -340t-261.5 -113zM406 723l-80 92q60 39 140 103q44 -1 139 4q43 -38 138 -107
q-23 -22 -80 -91l-128 84q-43 -21 -129 -85z" />
    <glyph glyph-name="Kcommaaccent.alt" horiz-adv-x="805" 
d="M493 -19q-58 151 -93 234l-93 -119l1 -101l-268 -1v703l267 -1q-1 -103 -1 -267l188 284q78 -8 152 -14t109 -8l35 -2l-187 -262l180 -417q-90 -6 -162.5 -13.5t-100.5 -11.5zM478 -135q0 -42 -34.5 -83t-99.5 -72l-43 52q32 22 48 45q-25 7 -41 26t-16 42q0 33 26 56
t68 23q43 0 67.5 -24.5t24.5 -64.5z" />
    <glyph glyph-name="Lacute.alt" horiz-adv-x="624" 
d="M46 18q0 381 -6 659q84 -3 271 0q-2 -49 4 -439l304 6l-1 -221zM206 714l-62.5 39t-40.5 23l-12 7l77 91l44 54l10 15l72 -45.5l52 -31.5l17 -9z" />
    <glyph glyph-name="Lcaron.alt" horiz-adv-x="624" 
d="M46 18q0 381 -6 659q84 -3 271 0q-2 -49 4 -439l304 6l-1 -221zM561 659q0 -42 -34.5 -83t-99.5 -72l-43 52q32 22 48 45q-25 7 -41 26t-16 42q0 33 26 56t68 23q43 0 67.5 -24.5t24.5 -64.5z" />
    <glyph glyph-name="Lcommaaccent.alt" horiz-adv-x="624" 
d="M46 18q0 381 -6 659q84 -3 271 0q-2 -49 4 -439l304 6l-1 -221zM424 -115q0 -42 -34.5 -83t-99.5 -72l-43 52q32 22 48 45q-25 7 -41 26t-16 42q0 33 26 56t68 23q43 0 67.5 -24.5t24.5 -64.5z" />
    <glyph glyph-name="Nacute.alt" horiz-adv-x="801" 
d="M43 -8q2 291 -3 696q130 5 258 8l195 -320q-3 147 -11 328q137 0 265 -1q-1 -244 13 -685q-102 -5 -264 -17l-198 301q0 -125 7 -312q-131 2 -262 2zM426 724l-62.5 39t-40.5 23l-12 7l77 91l44 54l10 15l72 -45.5l52 -31.5l17 -9z" />
    <glyph glyph-name="Ncaron.alt" horiz-adv-x="801" 
d="M43 -8q2 291 -3 696q130 5 258 8l195 -320q-3 147 -11 328q137 0 265 -1q-1 -244 13 -685q-102 -5 -264 -17l-198 301q0 -125 7 -312q-131 2 -262 2zM329 751q-43 38 -138 107q23 22 80 91l128 -84q43 21 129 85l80 -92q-60 -39 -140 -103q-44 1 -139 -4z" />
    <glyph glyph-name="Ncommaaccent.alt" horiz-adv-x="801" 
d="M43 -8q2 291 -3 696q130 5 258 8l195 -320q-3 147 -11 328q137 0 265 -1q-1 -244 13 -685q-102 -5 -264 -17l-198 301q0 -125 7 -312q-131 2 -262 2zM493 -125q0 -42 -34.5 -83t-99.5 -72l-43 52q32 22 48 45q-25 7 -41 26t-16 42q0 33 26 56t68 23q43 0 67.5 -24.5
t24.5 -64.5z" />
    <glyph glyph-name="Ntilde.alt" horiz-adv-x="801" 
d="M43 -8q2 291 -3 696q130 5 258 8l195 -320q-3 147 -11 328q137 0 265 -1q-1 -244 13 -685q-102 -5 -264 -17l-198 301q0 -125 7 -312q-131 2 -262 2zM309 761q-36 1 -116 -5q-6 80 25.5 131.5t96.5 51.5q37 0 84.5 -26.5t62.5 -26.5q32 0 28 47q39 0 111 6
q15 -83 -12.5 -132.5t-90.5 -49.5q-45 0 -92.5 24.5t-61.5 24.5q-18 0 -27.5 -12.5t-7.5 -32.5z" />
    <glyph glyph-name="Oacute.alt" horiz-adv-x="878" 
d="M439 694q187 -1 302 -90.5t117 -263.5q3 -158 -111 -255.5t-306 -98.5q-110 0 -193.5 28.5t-132 78t-72 111.5t-23.5 135q1 171 115 263.5t304 91.5zM439 496q-60 0 -92 -40t-32 -113q0 -75 30.5 -118t94.5 -43q59 0 91 44t32 116q1 71 -34.5 112.5t-89.5 41.5zM471 727
l-62.5 39l-40.5 24l-12 6l77 91t43 55l11 14l72 -45.5t52 -30.5l17 -10z" />
    <glyph glyph-name="Ocircumflex.alt" horiz-adv-x="878" 
d="M439 694q187 -1 302 -90.5t117 -263.5q3 -158 -111 -255.5t-306 -98.5q-110 0 -193.5 28.5t-132 78t-72 111.5t-23.5 135q1 171 115 263.5t304 91.5zM439 496q-60 0 -92 -40t-32 -113q0 -75 30.5 -118t94.5 -43q59 0 91 44t32 116q1 71 -34.5 112.5t-89.5 41.5zM310 721
l-80 92q60 39 140 103q44 -1 139 4q43 -38 138 -107q-23 -22 -80 -91l-128 84q-43 -21 -129 -85z" />
    <glyph glyph-name="Odieresis.alt" horiz-adv-x="878" 
d="M439 694q187 -1 302 -90.5t117 -263.5q3 -158 -111 -255.5t-306 -98.5q-110 0 -193.5 28.5t-132 78t-72 111.5t-23.5 135q1 171 115 263.5t304 91.5zM439 496q-60 0 -92 -40t-32 -113q0 -75 30.5 -118t94.5 -43q59 0 91 44t32 116q1 71 -34.5 112.5t-89.5 41.5zM323 739
q-51 0 -77 25.5t-26 63.5q0 35 30 58t74 23q47 0 74.5 -22.5t27.5 -61.5q0 -44 -29.5 -65t-73.5 -21zM559 741q-45 0 -72 24t-27 64q0 36 27 58.5t74 22.5t72 -23.5t25 -60.5q0 -41 -28.5 -63t-70.5 -22z" />
    <glyph glyph-name="Ograve.alt" horiz-adv-x="878" 
d="M439 694q187 -1 302 -90.5t117 -263.5q3 -158 -111 -255.5t-306 -98.5q-110 0 -193.5 28.5t-132 78t-72 111.5t-23.5 135q1 171 115 263.5t304 91.5zM439 496q-60 0 -92 -40t-32 -113q0 -75 30.5 -118t94.5 -43q59 0 91 44t32 116q1 71 -34.5 112.5t-89.5 41.5zM423 727
l-157 143q55 32 139 88q33 -47 133 -162q-39 -20 -115 -69z" />
    <glyph glyph-name="Ohungarumlaut.alt" horiz-adv-x="878" 
d="M439 694q187 -1 302 -90.5t117 -263.5q3 -158 -111 -255.5t-306 -98.5q-110 0 -193.5 28.5t-132 78t-72 111.5t-23.5 135q1 171 115 263.5t304 91.5zM439 496q-60 0 -92 -40t-32 -113q0 -75 30.5 -118t94.5 -43q59 0 91 44t32 116q1 71 -34.5 112.5t-89.5 41.5zM562 723
l-111 58l68.5 97.5t37.5 57.5l9 14l139 -70zM352 732q-34 20 -62 34.5l-38 19.5l-11 4l68.5 97.5t37.5 57.5l9 15l139 -71z" />
    <glyph glyph-name="Omacron.alt" horiz-adv-x="878" 
d="M439 694q187 -1 302 -90.5t117 -263.5q3 -158 -111 -255.5t-306 -98.5q-110 0 -193.5 28.5t-132 78t-72 111.5t-23.5 135q1 171 115 263.5t304 91.5zM439 496q-60 0 -92 -40t-32 -113q0 -75 30.5 -118t94.5 -43q59 0 91 44t32 116q1 71 -34.5 112.5t-89.5 41.5zM266 758
q1 35 -2 125q87 -2 350 2l-2 -125q-92 2 -346 -2z" />
    <glyph glyph-name="Otilde.alt" horiz-adv-x="878" 
d="M439 694q187 -1 302 -90.5t117 -263.5q3 -158 -111 -255.5t-306 -98.5q-110 0 -193.5 28.5t-132 78t-72 111.5t-23.5 135q1 171 115 263.5t304 91.5zM439 496q-60 0 -92 -40t-32 -113q0 -75 30.5 -118t94.5 -43q59 0 91 44t32 116q1 71 -34.5 112.5t-89.5 41.5zM348 741
q-36 1 -116 -5q-6 80 25.5 131.5t96.5 51.5q37 0 84.5 -26.5t62.5 -26.5q32 0 28 47q39 0 111 6q15 -83 -12.5 -132.5t-90.5 -49.5q-45 0 -92.5 24.5t-61.5 24.5q-18 0 -27.5 -12.5t-7.5 -32.5z" />
    <glyph glyph-name="Racute.alt" horiz-adv-x="775" 
d="M506 -41l-126 215q-25 -1 -77 -1q0 -25 0.5 -56.5t1.5 -71t1 -62.5q-159 2 -266 -1q1 29 1.5 84.5t1.5 233.5t1 365q157 23 289 23q218 0 325.5 -67t107.5 -193q0 -136 -132 -201l141 -213zM300 346q36 -2 51 -2q80 0 116.5 21.5t36.5 67.5q0 86 -138 86q-25 0 -67 -5z
M395 727l-62.5 39l-40.5 24l-12 6l77 91t43 55l11 14l72 -45.5t52 -30.5l17 -10z" />
    <glyph glyph-name="Rcaron.alt" horiz-adv-x="775" 
d="M506 -41l-126 215q-25 -1 -77 -1q0 -25 0.5 -56.5t1.5 -71t1 -62.5q-159 2 -266 -1q1 29 1.5 84.5t1.5 233.5t1 365q157 23 289 23q218 0 325.5 -67t107.5 -193q0 -136 -132 -201l141 -213zM300 346q36 -2 51 -2q80 0 116.5 21.5t36.5 67.5q0 86 -138 86q-25 0 -67 -5z
M294 736q-43 38 -138 107q23 22 80 91l128 -84q43 21 129 85l80 -92q-60 -39 -140 -103q-44 1 -139 -4z" />
    <glyph glyph-name="Rcommaaccent.alt" horiz-adv-x="775" 
d="M506 -41l-126 215q-25 -1 -77 -1q0 -25 0.5 -56.5t1.5 -71t1 -62.5q-159 2 -266 -1q1 29 1.5 84.5t1.5 233.5t1 365q157 23 289 23q218 0 325.5 -67t107.5 -193q0 -136 -132 -201l141 -213zM300 346q36 -2 51 -2q80 0 116.5 21.5t36.5 67.5q0 86 -138 86q-25 0 -67 -5z
M472 -135q0 -42 -34.5 -83t-99.5 -72l-43 52q32 22 48 45q-25 7 -41 26t-16 42q0 33 26 56t68 23q43 0 67.5 -24.5t24.5 -64.5z" />
    <glyph glyph-name="Sacute.alt" horiz-adv-x="808" 
d="M412 -20q-168 0 -274.5 61t-129.5 181q108 5 290 21q18 -80 117 -80q81 0 81 42q0 26 -35.5 39.5t-139.5 22.5q-152 12 -225.5 59.5t-73.5 148.5q0 102 99 163t263 61q171 1 272.5 -57t131.5 -185q-101 -1 -279 -12q-20 69 -110 69q-40 0 -60 -13t-20 -33q0 -30 39 -44.5
t135 -19.5q168 -9 238.5 -53.5t70.5 -135.5q0 -76 -53 -130t-139.5 -79.5t-197.5 -25.5zM437 737l-62.5 39l-40.5 24l-12 6l77 91t43 55l11 14l72 -45.5t52 -30.5l17 -10z" />
    <glyph glyph-name="Scaron.alt" horiz-adv-x="808" 
d="M412 -20q-168 0 -274.5 61t-129.5 181q108 5 290 21q18 -80 117 -80q81 0 81 42q0 26 -35.5 39.5t-139.5 22.5q-152 12 -225.5 59.5t-73.5 148.5q0 102 99 163t263 61q171 1 272.5 -57t131.5 -185q-101 -1 -279 -12q-20 69 -110 69q-40 0 -60 -13t-20 -33q0 -30 39 -44.5
t135 -19.5q168 -9 238.5 -53.5t70.5 -135.5q0 -76 -53 -130t-139.5 -79.5t-197.5 -25.5zM334 746q-43 38 -138 107q23 22 80 91l128 -84q43 21 129 85l80 -92q-60 -39 -140 -103q-44 1 -139 -4z" />
    <glyph glyph-name="Scedilla.alt" horiz-adv-x="808" 
d="M496 205q0 26 -35.5 39.5t-139.5 22.5q-152 12 -225.5 59.5t-73.5 148.5q0 102 99 163t263 61q171 1 272.5 -57t131.5 -185q-101 -1 -279 -12q-20 69 -110 69q-40 0 -60 -13t-20 -33q0 -30 39 -44.5t135 -19.5q168 -9 238.5 -53.5t70.5 -135.5q0 -103 -92.5 -163
t-242.5 -70q0 -32 1 -45q71 -1 106.5 -24.5t35.5 -63.5q0 -47 -52 -75t-154 -28q-64 0 -128 23q7 36 12 80q48 -21 88 -21q53 0 53 27q0 33 -86 28q9 42 19 99q-148 8 -240.5 68.5t-113.5 171.5q108 5 290 21q18 -80 117 -80q81 0 81 42z" />
    <glyph glyph-name="Scircumflex.alt" horiz-adv-x="808" 
d="M412 -20q-168 0 -274.5 61t-129.5 181q108 5 290 21q18 -80 117 -80q81 0 81 42q0 26 -35.5 39.5t-139.5 22.5q-152 12 -225.5 59.5t-73.5 148.5q0 102 99 163t263 61q171 1 272.5 -57t131.5 -185q-101 -1 -279 -12q-20 69 -110 69q-40 0 -60 -13t-20 -33q0 -30 39 -44.5
t135 -19.5q168 -9 238.5 -53.5t70.5 -135.5q0 -76 -53 -130t-139.5 -79.5t-197.5 -25.5zM276 729l-80 92q60 39 140 103q44 -1 139 4q43 -38 138 -107q-23 -22 -80 -91l-128 84q-43 -21 -129 -85z" />
    <glyph glyph-name="Scommaaccent.alt" horiz-adv-x="808" 
d="M412 -20q-168 0 -274.5 61t-129.5 181q108 5 290 21q18 -80 117 -80q81 0 81 42q0 26 -35.5 39.5t-139.5 22.5q-152 12 -225.5 59.5t-73.5 148.5q0 102 99 163t263 61q171 1 272.5 -57t131.5 -185q-101 -1 -279 -12q-20 69 -110 69q-40 0 -60 -13t-20 -33q0 -30 39 -44.5
t135 -19.5q168 -9 238.5 -53.5t70.5 -135.5q0 -76 -53 -130t-139.5 -79.5t-197.5 -25.5zM498 -125q0 -42 -34.5 -83t-99.5 -72l-43 52q32 22 48 45q-25 7 -41 26t-16 42q0 33 26 56t68 23q43 0 67.5 -24.5t24.5 -64.5z" />
    <glyph glyph-name="Tcaron.alt" horiz-adv-x="677" 
d="M12 443l-2 238q489 -1 657 -1q-2 -126 -2 -237h-188q0 -67 4 -433q-133 0 -278 -1q0 158 -2 434h-189zM268 721q-43 38 -138 107q23 22 80 91l128 -84q43 21 129 85l80 -92q-60 -39 -140 -103q-44 1 -139 -4z" />
    <glyph glyph-name="Tcommaaccent.alt" horiz-adv-x="677" 
d="M12 443l-2 238q489 -1 657 -1q-2 -126 -2 -237h-188q0 -67 4 -433q-133 0 -278 -1q0 158 -2 434h-189zM433 -115q0 -42 -34.5 -83t-99.5 -72l-43 52q32 22 48 45q-25 7 -41 26t-16 42q0 33 26 56t68 23q43 0 67.5 -24.5t24.5 -64.5z" />
    <glyph glyph-name="Uacute.alt" horiz-adv-x="781" 
d="M391 -14q-371 0 -371 428q0 130 29 299q89 -8 273 -19q-26 -156 -26 -250q0 -229 91 -229q48 0 71.5 51t23.5 174q0 56 -14 252q85 1 273 9q20 -139 20 -259q0 -456 -370 -456zM432 723l-62.5 39l-40.5 24l-12 6l77 91t44 55l10 14l72 -45.5t52 -30.5l17 -10z" />
    <glyph glyph-name="Ubreve.alt" horiz-adv-x="781" 
d="M391 -14q-371 0 -371 428q0 130 29 299q89 -8 273 -19q-26 -156 -26 -250q0 -229 91 -229q48 0 71.5 51t23.5 174q0 56 -14 252q85 1 273 9q20 -139 20 -259q0 -456 -370 -456zM398 747q-99 0 -149 42t-45 114q58 0 151 6q-2 -54 44 -54q23 0 35.5 16t6.5 48q49 -1 155 1
q8 -91 -48 -132t-150 -41z" />
    <glyph glyph-name="Ucircumflex.alt" horiz-adv-x="781" 
d="M391 -14q-371 0 -371 428q0 130 29 299q89 -8 273 -19q-26 -156 -26 -250q0 -229 91 -229q48 0 71.5 51t23.5 174q0 56 -14 252q85 1 273 9q20 -139 20 -259q0 -456 -370 -456zM272 736l-80 92q60 39 140 103q44 -1 139 4q43 -38 138 -107q-23 -22 -80 -91l-128 84
q-43 -21 -129 -85z" />
    <glyph glyph-name="Udieresis.alt" horiz-adv-x="781" 
d="M391 -14q-371 0 -371 428q0 130 29 299q89 -8 273 -19q-26 -156 -26 -250q0 -229 91 -229q48 0 71.5 51t23.5 174q0 56 -14 252q85 1 273 9q20 -139 20 -259q0 -456 -370 -456zM284 753q-51 0 -77 25.5t-26 63.5q0 35 30 58t74 23q47 0 74.5 -22.5t27.5 -61.5
q0 -44 -29.5 -65t-73.5 -21zM520 755q-45 0 -72 24t-27 64q0 36 27 58.5t74 22.5t72 -23.5t25 -60.5q0 -41 -28.5 -63t-70.5 -22z" />
    <glyph glyph-name="Ugrave.alt" horiz-adv-x="781" 
d="M391 -14q-371 0 -371 428q0 130 29 299q89 -8 273 -19q-26 -156 -26 -250q0 -229 91 -229q48 0 71.5 51t23.5 174q0 56 -14 252q85 1 273 9q20 -139 20 -259q0 -456 -370 -456zM386 729l-157 143q55 32 139 88q33 -47 133 -162q-39 -20 -115 -69z" />
    <glyph glyph-name="Uhungarumlaut.alt" horiz-adv-x="781" 
d="M391 -14q-371 0 -371 428q0 130 29 299q89 -8 273 -19q-26 -156 -26 -250q0 -229 91 -229q48 0 71.5 51t23.5 174q0 56 -14 252q85 1 273 9q20 -139 20 -259q0 -456 -370 -456zM524 746l-111 58l68.5 97.5l37.5 56.5l9 15l139 -70zM314 755q-34 20 -62 34.5t-38 18.5
l-11 5l68.5 97.5t37.5 57.5l9 15l139 -71z" />
    <glyph glyph-name="Umacron.alt" horiz-adv-x="781" 
d="M391 -14q-371 0 -371 428q0 130 29 299q89 -8 273 -19q-26 -156 -26 -250q0 -229 91 -229q48 0 71.5 51t23.5 174q0 56 -14 252q85 1 273 9q20 -139 20 -259q0 -456 -370 -456zM227 773q1 35 -2 125q87 -2 350 2l-2 -125q-92 2 -346 -2z" />
    <glyph glyph-name="Uogonek.alt" horiz-adv-x="781" 
d="M485 -227q-103 -12 -155.5 17.5t-53.5 81.5q-1 31 17.5 62t50.5 54q-324 25 -324 426q0 130 29 299q89 -8 273 -19q-26 -156 -26 -250q0 -229 91 -229q48 0 71.5 51t23.5 174q0 56 -14 252q85 1 273 9q20 -139 20 -259q0 -414 -303 -452q-36 -25 -36 -55q0 -19 20 -31
t56 -11q-8 -41 -13 -120z" />
    <glyph glyph-name="Uring.alt" horiz-adv-x="781" 
d="M391 -14q-371 0 -371 428q0 130 29 299q89 -8 273 -19q-26 -156 -26 -250q0 -229 91 -229q48 0 71.5 51t23.5 174q0 56 -14 252q85 1 273 9q20 -139 20 -259q0 -456 -370 -456zM398 737q-69 0 -107 31t-38 78q0 51 41.5 78.5t104.5 27.5q69 0 109 -30t40 -76
q0 -56 -42.5 -82.5t-107.5 -26.5zM402 801q21 0 35 12t14 33q0 19 -13.5 33t-35.5 14q-23 0 -36.5 -13t-13.5 -32q0 -21 14 -34t36 -13z" />
    <glyph glyph-name="Yacute.alt" horiz-adv-x="803" 
d="M273 -31q-4 117 -8 167l-265 555q89 -1 309 6q19 -84 96 -291l99 297q76 -4 299 -5l-259 -563q-3 -29 1 -165zM433 737l-62.5 39l-40.5 24l-12 6l77 91t43 55l11 14l72 -45.5t52 -30.5l17 -10z" />
    <glyph glyph-name="Ydieresis.alt" horiz-adv-x="803" 
d="M273 -31q-4 117 -8 167l-265 555q89 -1 309 6q19 -84 96 -291l99 297q76 -4 299 -5l-259 -563q-3 -29 1 -165zM285 753q-51 0 -77 25.5t-26 63.5q0 35 30 58t74 23q47 0 74.5 -22.5t27.5 -61.5q0 -44 -29.5 -65t-73.5 -21zM521 755q-45 0 -72 24t-27 64q0 36 27 58.5
t74 22.5t72 -23.5t25 -60.5q0 -41 -28.5 -63t-70.5 -22z" />
    <glyph glyph-name="Zacute.alt" horiz-adv-x="706" 
d="M679 9l-653 6l1 188l289 256l-277 -4l-1 230q193 -2 333 -1.5t219 1.5l78 1l3 -195l-296 -255l306 1zM385 727l-62.5 39l-40.5 24l-12 6l77 91t43 55l11 14l72 -45.5t52 -30.5l17 -10z" />
    <glyph glyph-name="Zcaron.alt" horiz-adv-x="706" 
d="M679 9l-653 6l1 188l289 256l-277 -4l-1 230q193 -2 333 -1.5t219 1.5l78 1l3 -195l-296 -255l306 1zM283 736q-43 38 -138 107q23 22 80 91l128 -84q43 21 129 85l80 -92q-60 -39 -140 -103q-44 1 -139 -4z" />
    <glyph glyph-name="Zdotaccent.alt" horiz-adv-x="706" 
d="M679 9l-653 6l1 188l289 256l-277 -4l-1 230q193 -2 333 -1.5t219 1.5l78 1l3 -195l-296 -255l306 1zM354 745q-55 0 -84.5 28.5t-29.5 71.5q0 40 31 66.5t83 26.5q54 0 84 -29t30 -67q0 -46 -31.5 -71.5t-82.5 -25.5z" />
    <glyph glyph-name="aacute.alt" horiz-adv-x="708" 
d="M235 -30q-102 0 -163.5 44t-61.5 118q0 169 278 169q50 0 113 -6q0 11 -1 18q-5 49 -56 49q-46 0 -61 -37q-89 12 -245 21q17 90 100 135.5t209 45.5q95 0 160.5 -19.5t102 -57.5t53 -85t18.5 -111q2 -74 2 -137t-1 -105l-2 -42q-116 1 -246 -2q3 32 5 84
q-34 -38 -90.5 -60t-113.5 -22zM336 113q73 2 74 99q-9 1 -25 1q-50 0 -75.5 -16.5t-25.5 -40.5q0 -43 52 -43zM379 547l-62.5 39l-40.5 24l-12 6l77 91t43 55l11 14l72 -45.5t52 -30.5l17 -10z" />
    <glyph glyph-name="abreve.alt" horiz-adv-x="708" 
d="M235 -30q-102 0 -163.5 44t-61.5 118q0 169 278 169q50 0 113 -6q0 11 -1 18q-5 49 -56 49q-46 0 -61 -37q-89 12 -245 21q17 90 100 135.5t209 45.5q95 0 160.5 -19.5t102 -57.5t53 -85t18.5 -111q2 -74 2 -137t-1 -105l-2 -42q-116 1 -246 -2q3 32 5 84
q-34 -38 -90.5 -60t-113.5 -22zM336 113q73 2 74 99q-9 1 -25 1q-50 0 -75.5 -16.5t-25.5 -40.5q0 -43 52 -43zM346 564q-99 0 -149 42t-45 114q58 0 151 6q-2 -54 44 -54q23 0 35.5 16t6.5 48q49 -1 155 1q8 -91 -48 -132t-150 -41z" />
    <glyph glyph-name="acircumflex.alt" horiz-adv-x="708" 
d="M235 -30q-102 0 -163.5 44t-61.5 118q0 169 278 169q50 0 113 -6q0 11 -1 18q-5 49 -56 49q-46 0 -61 -37q-89 12 -245 21q17 90 100 135.5t209 45.5q95 0 160.5 -19.5t102 -57.5t53 -85t18.5 -111q2 -74 2 -137t-1 -105l-2 -42q-116 1 -246 -2q3 32 5 84
q-34 -38 -90.5 -60t-113.5 -22zM336 113q73 2 74 99q-9 1 -25 1q-50 0 -75.5 -16.5t-25.5 -40.5q0 -43 52 -43zM219 546l-80 92q60 39 140 103q44 -1 139 4q43 -38 138 -107q-23 -22 -80 -91l-128 84q-43 -21 -129 -85z" />
    <glyph glyph-name="adieresis.alt" horiz-adv-x="708" 
d="M235 -30q-102 0 -163.5 44t-61.5 118q0 169 278 169q50 0 113 -6q0 11 -1 18q-5 49 -56 49q-46 0 -61 -37q-89 12 -245 21q17 90 100 135.5t209 45.5q95 0 160.5 -19.5t102 -57.5t53 -85t18.5 -111q2 -74 2 -137t-1 -105l-2 -42q-116 1 -246 -2q3 32 5 84
q-34 -38 -90.5 -60t-113.5 -22zM336 113q73 2 74 99q-9 1 -25 1q-50 0 -75.5 -16.5t-25.5 -40.5q0 -43 52 -43zM232 563q-51 0 -77 25.5t-26 63.5q0 35 30 58t74 23q47 0 74.5 -22.5t27.5 -61.5q0 -44 -29.5 -65t-73.5 -21zM468 565q-45 0 -72 24t-27 64q0 36 27 58.5
t74 22.5t72 -23.5t25 -60.5q0 -41 -28.5 -63t-70.5 -22z" />
    <glyph glyph-name="agrave.alt" horiz-adv-x="708" 
d="M235 -30q-102 0 -163.5 44t-61.5 118q0 169 278 169q50 0 113 -6q0 11 -1 18q-5 49 -56 49q-46 0 -61 -37q-89 12 -245 21q17 90 100 135.5t209 45.5q95 0 160.5 -19.5t102 -57.5t53 -85t18.5 -111q2 -74 2 -137t-1 -105l-2 -42q-116 1 -246 -2q3 32 5 84
q-34 -38 -90.5 -60t-113.5 -22zM336 113q73 2 74 99q-9 1 -25 1q-50 0 -75.5 -16.5t-25.5 -40.5q0 -43 52 -43zM332 547l-157 143q55 32 139 88q33 -47 133 -162q-39 -20 -115 -69z" />
    <glyph glyph-name="amacron.alt" horiz-adv-x="708" 
d="M235 -30q-102 0 -163.5 44t-61.5 118q0 169 278 169q50 0 113 -6q0 11 -1 18q-5 49 -56 49q-46 0 -61 -37q-89 12 -245 21q17 90 100 135.5t209 45.5q95 0 160.5 -19.5t102 -57.5t53 -85t18.5 -111q2 -74 2 -137t-1 -105l-2 -42q-116 1 -246 -2q3 32 5 84
q-34 -38 -90.5 -60t-113.5 -22zM336 113q73 2 74 99q-9 1 -25 1q-50 0 -75.5 -16.5t-25.5 -40.5q0 -43 52 -43zM175 578q1 35 -2 125q87 -2 350 2l-2 -125q-91 2 -346 -2z" />
    <glyph glyph-name="aogonek.alt" horiz-adv-x="708" 
d="M235 -30q-102 0 -163.5 44t-61.5 118q0 169 277 169q51 0 114 -6q0 11 -1 18q-5 49 -56 49q-46 0 -61 -37q-89 12 -245 21q17 90 100 135.5t209 45.5q95 0 160.5 -19.5t102 -57.5t53 -85t18.5 -111q2 -74 2 -137t-1 -105l-2 -42q-62 1 -143 0q-41 -26 -41 -58
q0 -19 20 -31t56 -11q-8 -41 -13 -120q-103 -12 -155.5 17.5t-53.5 81.5q-1 35 22 69.5t63 57.5l4 76q-34 -38 -90.5 -60t-113.5 -22zM336 113q73 2 74 99q-8 1 -24 1q-51 -1 -76.5 -17t-25.5 -40q0 -43 52 -43z" />
    <glyph glyph-name="aring.alt" horiz-adv-x="708" 
d="M235 -30q-102 0 -163.5 44t-61.5 118q0 169 278 169q50 0 113 -6q0 11 -1 18q-5 49 -56 49q-46 0 -61 -37q-89 12 -245 21q17 90 100 135.5t209 45.5q95 0 160.5 -19.5t102 -57.5t53 -85t18.5 -111q2 -74 2 -137t-1 -105l-2 -42q-116 1 -246 -2q3 32 5 84
q-34 -38 -90.5 -60t-113.5 -22zM336 113q73 2 74 99q-9 1 -25 1q-50 0 -75.5 -16.5t-25.5 -40.5q0 -43 52 -43zM346 556q-69 0 -107 31t-38 78q0 51 41.5 78.5t104.5 27.5q69 0 109 -30t40 -76q0 -56 -42.5 -82.5t-107.5 -26.5zM350 620q21 0 35 12t14 33q0 19 -13.5 33
t-35.5 14q-23 0 -36.5 -13t-13.5 -32q0 -21 14 -34t36 -13z" />
    <glyph glyph-name="atilde.alt" horiz-adv-x="708" 
d="M235 -30q-102 0 -163.5 44t-61.5 118q0 169 278 169q50 0 113 -6q0 11 -1 18q-5 49 -56 49q-46 0 -61 -37q-89 12 -245 21q17 90 100 135.5t209 45.5q95 0 160.5 -19.5t102 -57.5t53 -85t18.5 -111q2 -74 2 -137t-1 -105l-2 -42q-116 1 -246 -2q3 32 5 84
q-34 -38 -90.5 -60t-113.5 -22zM336 113q73 2 74 99q-9 1 -25 1q-50 0 -75.5 -16.5t-25.5 -40.5q0 -43 52 -43zM257 566q-36 1 -116 -5q-6 80 25.5 131.5t96.5 51.5q37 0 84.5 -26.5t62.5 -26.5q32 0 28 47q39 0 111 6q15 -83 -12.5 -132.5t-90.5 -49.5q-45 0 -92.5 24.5
t-61.5 24.5q-18 0 -27.5 -12.5t-7.5 -32.5z" />
    <glyph glyph-name="cacute.alt" horiz-adv-x="704" 
d="M369 -14q-169 0 -259 67t-90 201q0 114 83.5 187t244.5 73q157 0 247.5 -60.5t100.5 -167.5l-289 6q-7 55 -56 55q-32 0 -47.5 -26t-15.5 -68q0 -93 59 -93q49 0 56 53q99 -6 296 -9q-23 -98 -113.5 -158t-216.5 -60zM391 542l-62.5 39t-40.5 23l-12 7l77 91t43 54l11 15
l72 -45.5l52 -31.5l17 -9z" />
    <glyph glyph-name="ccaron.alt" horiz-adv-x="704" 
d="M369 -14q-169 0 -259 67t-90 201q0 114 83.5 187t244.5 73q157 0 247.5 -60.5t100.5 -167.5l-289 6q-7 55 -56 55q-32 0 -47.5 -26t-15.5 -68q0 -93 59 -93q49 0 56 53q99 -6 296 -9q-23 -98 -113.5 -158t-216.5 -60zM289 551q-43 38 -138 107q23 22 80 91l128 -84
q43 21 129 85l80 -92q-60 -39 -140 -103q-44 1 -139 -4z" />
    <glyph glyph-name="ccedilla.alt" horiz-adv-x="704" 
d="M699 204q-21 -90 -99 -148t-190 -68q0 -29 1 -41q71 -1 106.5 -24.5t35.5 -63.5q0 -47 -52 -75t-154 -28q-64 0 -128 23q7 36 12 80q48 -21 88 -21q53 0 53 27q0 33 -86 28q9 40 18 96q-138 11 -211 77.5t-73 187.5q0 114 83.5 187t244.5 73q157 0 247.5 -60.5
t100.5 -167.5l-289 6q-7 55 -56 55q-32 0 -47.5 -26t-15.5 -68q0 -93 59 -93q49 0 56 53q99 -6 296 -9z" />
    <glyph glyph-name="ccircumflex.alt" horiz-adv-x="704" 
d="M369 -14q-169 0 -259 67t-90 201q0 114 83.5 187t244.5 73q157 0 247.5 -60.5t100.5 -167.5l-289 6q-7 55 -56 55q-32 0 -47.5 -26t-15.5 -68q0 -93 59 -93q49 0 56 53q99 -6 296 -9q-23 -98 -113.5 -158t-216.5 -60zM231 541l-80 92q60 39 140 103q44 -1 139 4
q43 -38 138 -107q-23 -22 -80 -91l-128 84q-43 -21 -129 -85z" />
    <glyph glyph-name="dcaron.alt" horiz-adv-x="747" 
d="M712 -3l-226 2q5 23 8 81q-28 -42 -83 -68t-116 -26q-116 0 -195.5 71.5t-79.5 188.5q0 110 65 187.5t187 77.5q105 0 173 -74q-4 238 -5 274q51 -1 272 1q-2 -330 0 -715zM379 144q39 0 63 26t24 79q0 46 -22 75t-61 29q-43 0 -65 -28.5t-22 -73.5q0 -54 23.5 -80.5
t59.5 -26.5zM933 623q0 -42 -34.5 -83t-99.5 -72l-43 52q32 22 48 45q-25 7 -41 26t-16 42q0 33 26 56t68 23q43 0 67.5 -24.5t24.5 -64.5z" />
    <glyph glyph-name="eacute.alt" horiz-adv-x="749" 
d="M387 -18q-182 0 -275 68.5t-92 203.5q0 122 95 191t251 69q201 -1 287.5 -83.5t80.5 -237.5q-127 3 -432 -1q18 -65 82 -65q47 0 67 40q69 -11 275 -28q-90 -157 -339 -157zM380 362q-38 0 -58 -17.5t-25 -59.5q107 3 161 5q-4 38 -21 55t-57 17zM408 542l-62.5 39
t-40.5 23l-12 7l77 91l44 54l10 15l72 -45.5l52 -31.5l17 -9z" />
    <glyph glyph-name="ecaron.alt" horiz-adv-x="749" 
d="M387 -18q-182 0 -275 68.5t-92 203.5q0 122 95 191t251 69q201 -1 287.5 -83.5t80.5 -237.5q-127 3 -432 -1q18 -65 82 -65q47 0 67 40q69 -11 275 -28q-90 -157 -339 -157zM380 362q-38 0 -58 -17.5t-25 -59.5q107 3 161 5q-4 38 -21 55t-57 17zM306 551
q-43 38 -138 107q23 22 80 91l128 -84q43 21 129 85l80 -92q-60 -39 -140 -103q-44 1 -139 -4z" />
    <glyph glyph-name="ecircumflex.alt" horiz-adv-x="749" 
d="M387 -18q-182 0 -275 68.5t-92 203.5q0 122 95 191t251 69q201 -1 287.5 -83.5t80.5 -237.5q-127 3 -432 -1q18 -65 82 -65q47 0 67 40q69 -11 275 -28q-90 -157 -339 -157zM380 362q-38 0 -58 -17.5t-25 -59.5q107 3 161 5q-4 38 -21 55t-57 17zM248 537l-80 92
q60 39 140 103q44 -1 139 4q43 -38 138 -107q-23 -22 -80 -91l-128 84q-43 -21 -129 -85z" />
    <glyph glyph-name="edieresis.alt" horiz-adv-x="749" 
d="M387 -18q-182 0 -275 68.5t-92 203.5q0 122 95 191t251 69q201 -1 287.5 -83.5t80.5 -237.5q-127 3 -432 -1q18 -65 82 -65q47 0 67 40q69 -11 275 -28q-90 -157 -339 -157zM380 362q-38 0 -58 -17.5t-25 -59.5q107 3 161 5q-4 38 -21 55t-57 17zM261 552q-51 0 -77 25.5
t-26 63.5q0 35 30 58t74 23q47 0 74.5 -22.5t27.5 -61.5q0 -44 -29.5 -65t-73.5 -21zM497 554q-45 0 -72 24t-27 64q0 36 27 58.5t74 22.5t72 -23.5t25 -60.5q0 -41 -28.5 -63t-70.5 -22z" />
    <glyph glyph-name="edotaccent.alt" horiz-adv-x="749" 
d="M387 -18q-182 0 -275 68.5t-92 203.5q0 122 95 191t251 69q201 -1 287.5 -83.5t80.5 -237.5q-127 3 -432 -1q18 -65 82 -65q47 0 67 40q69 -11 275 -28q-90 -157 -339 -157zM380 362q-38 0 -58 -17.5t-25 -59.5q107 3 161 5q-4 38 -21 55t-57 17zM377 560
q-55 0 -84.5 28.5t-29.5 71.5q0 40 31 66.5t83 26.5q54 0 84 -29t30 -67q0 -46 -31.5 -71.5t-82.5 -25.5z" />
    <glyph glyph-name="egrave.alt" horiz-adv-x="749" 
d="M387 -18q-182 0 -275 68.5t-92 203.5q0 122 95 191t251 69q201 -1 287.5 -83.5t80.5 -237.5q-127 3 -432 -1q18 -65 82 -65q47 0 67 40q69 -11 275 -28q-90 -157 -339 -157zM380 362q-38 0 -58 -17.5t-25 -59.5q107 3 161 5q-4 38 -21 55t-57 17zM362 542l-157 143
q55 32 139 88q33 -47 133 -162q-39 -20 -115 -69z" />
    <glyph glyph-name="emacron.alt" horiz-adv-x="749" 
d="M387 -18q-182 0 -275 68.5t-92 203.5q0 122 95 191t251 69q201 -1 287.5 -83.5t80.5 -237.5q-127 3 -432 -1q18 -65 82 -65q47 0 67 40q69 -11 275 -28q-90 -157 -339 -157zM380 362q-38 0 -58 -17.5t-25 -59.5q107 3 161 5q-4 38 -21 55t-57 17zM204 570q1 35 -2 125
q87 -2 350 2l-2 -125q-91 2 -346 -2z" />
    <glyph glyph-name="eogonek.alt" horiz-adv-x="749" 
d="M476 -227q-103 -12 -155.5 17.5t-53.5 81.5q-1 30 16 60t47 52q-154 11 -232.5 78.5t-77.5 191.5q0 122 95 191t251 69q201 -1 287.5 -83.5t80.5 -237.5q-127 3 -432 -1q18 -65 82 -65q47 0 67 40q69 -11 275 -28q-79 -138 -284 -155q-29 -23 -29 -49q0 -19 20 -31
t56 -11q-8 -41 -13 -120zM380 362q-38 0 -58 -17.5t-25 -59.5q107 3 161 5q-4 38 -21 55t-57 17z" />
    <glyph glyph-name="gbreve.alt" horiz-adv-x="679" 
d="M335 195q63 0 63 81q0 76 -63 76q-62 0 -62 -78q0 -39 18 -59t44 -20zM443 -142q0 42 -105 48q-60 -17 -60 -53q0 -43 83 -42q34 0 58 13t24 34zM694 -105q0 -66 -56.5 -113t-139 -67.5t-177.5 -20.5q-159 0 -240 30t-81 97q0 39 38 65t97 33q-50 7 -79.5 34t-29.5 61
q0 38 30 68.5t88 48.5q-136 48 -136 175q1 104 85 157.5t240 53.5q175 0 256.5 -54t81.5 -164q0 -97 -84.5 -147t-239.5 -50l-62 2q-7 -7 -7 -18q0 -17 31 -24.5t111 -9.5q148 -4 211 -42t63 -115zM345 554q-99 0 -149 42t-45 114q58 0 151 6q-2 -54 44 -54q23 0 35.5 16
t6.5 48q49 -1 155 1q8 -91 -48 -132t-150 -41z" />
    <glyph glyph-name="gcircumflex.alt" horiz-adv-x="679" 
d="M335 195q63 0 63 81q0 76 -63 76q-62 0 -62 -78q0 -39 18 -59t44 -20zM443 -142q0 42 -105 48q-60 -17 -60 -53q0 -43 83 -42q34 0 58 13t24 34zM694 -105q0 -66 -56.5 -113t-139 -67.5t-177.5 -20.5q-159 0 -240 30t-81 97q0 39 38 65t97 33q-50 7 -79.5 34t-29.5 61
q0 38 30 68.5t88 48.5q-136 48 -136 175q1 104 85 157.5t240 53.5q175 0 256.5 -54t81.5 -164q0 -97 -84.5 -147t-239.5 -50l-62 2q-7 -7 -7 -18q0 -17 31 -24.5t111 -9.5q148 -4 211 -42t63 -115zM218 539l-80 92q60 39 140 103q44 -1 139 4q43 -38 138 -107
q-23 -22 -80 -91l-128 84q-43 -21 -129 -85z" />
    <glyph glyph-name="gcommaaccent.alt" horiz-adv-x="679" 
d="M335 195q63 0 63 81q0 76 -63 76q-62 0 -62 -78q0 -39 18 -59t44 -20zM443 -142q0 42 -105 48q-60 -17 -60 -53q0 -43 83 -42q34 0 58 13t24 34zM694 -105q0 -66 -56.5 -113t-139 -67.5t-177.5 -20.5q-159 0 -240 30t-81 97q0 39 38 65t97 33q-50 7 -79.5 34t-29.5 61
q0 38 30 68.5t88 48.5q-136 48 -136 175q1 104 85 157.5t240 53.5q175 0 256.5 -54t81.5 -164q0 -97 -84.5 -147t-239.5 -50l-62 2q-7 -7 -7 -18q0 -17 31 -24.5t111 -9.5q148 -4 211 -42t63 -115zM230 642q0 42 34.5 83t99.5 72l43 -52q-32 -22 -48 -45q25 -7 41 -26
t16 -42q0 -33 -26 -56t-68 -23q-43 0 -67.5 24.5t-24.5 64.5z" />
    <glyph glyph-name="hcircumflex.alt" horiz-adv-x="709" 
d="M30 -6q1 38 1.5 101t1.5 257.5t-1 345.5q99 0 271 1q-1 -104 -1 -240q30 33 75.5 54.5t94.5 21.5q94 0 149.5 -56t59.5 -150q3 -71 3 -152.5t-1 -127.5l-1 -46l-264 1q5 128 0 237q-4 73 -51 73q-32 0 -45.5 -21t-15.5 -61q-2 -44 -2.5 -103t0.5 -97l1 -37
q-124 3 -275 -1zM40 726l-80 92q60 39 140 103q44 -1 139 4q43 -38 138 -107q-23 -22 -80 -91l-128 84q-43 -21 -129 -85z" />
    <glyph glyph-name="iacute.alt" horiz-adv-x="342" 
d="M37 16q1 98 -3 464q105 0 269 2q1 -331 4 -465q-118 1 -270 -1zM188 542l-62.5 39t-40.5 23l-12 7l77 91l44 54l10 15l72 -45.5l52 -31.5l17 -9z" />
    <glyph glyph-name="icircumflex.alt" horiz-adv-x="342" 
d="M37 16q1 98 -3 464q105 0 269 2q1 -331 4 -465q-118 1 -270 -1zM43 541l-80 92q60 39 140 103q44 -1 139 4q43 -38 138 -107q-23 -22 -80 -91l-128 84q-43 -21 -129 -85z" />
    <glyph glyph-name="idieresis.alt" horiz-adv-x="342" 
d="M37 16q1 98 -3 464q105 0 269 2q1 -331 4 -465q-118 1 -270 -1zM55 558q-51 0 -77 25.5t-26 63.5q0 35 30 58t74 23q47 0 74.5 -22.5t27.5 -61.5q0 -44 -29.5 -65t-73.5 -21zM291 560q-45 0 -72 24t-27 64q0 36 27 58.5t74 22.5t72 -23.5t25 -60.5q0 -41 -28.5 -63
t-70.5 -22z" />
    <glyph glyph-name="igrave.alt" horiz-adv-x="342" 
d="M37 16q1 98 -3 464q105 0 269 2q1 -331 4 -465q-118 1 -270 -1zM174 542l-157 143q55 32 139 88q33 -47 133 -162q-39 -20 -115 -69z" />
    <glyph glyph-name="imacron.alt" horiz-adv-x="342" 
d="M37 16q1 98 -3 464q105 0 269 2q1 -331 4 -465q-118 1 -270 -1zM-4 578q1 35 -2 125q87 -2 350 2l-2 -125q-91 2 -346 -2z" />
    <glyph glyph-name="iogonek.alt" horiz-adv-x="342" 
d="M37 16q1 98 -3 464q105 0 269 2q1 -331 4 -465h-70q-53 -28 -53 -65q0 -19 20 -31t56 -11q-8 -41 -13 -120q-103 -12 -155.5 17.5t-53.5 81.5q-1 35 22.5 70.5t64.5 57.5zM174 510q-164 0 -164 115q0 51 39.5 81t120.5 30t121.5 -29.5t40.5 -80.5q0 -54 -38.5 -85
t-119.5 -31z" />
    <glyph glyph-name="jcircumflex.alt" horiz-adv-x="340" 
d="M-100 -220q1 5 2 16t2 59t1 112q27 -4 53 -4q43 0 61 19.5t19 66.5q1 95 1 188.5t-1 163.5l-1 70q93 -2 152 -2t86 1l27 2q1 -16 2 -47.5t2 -148t0 -255.5q-1 -256 -264 -256q-66 0 -142 15zM40 541l-80 92q60 39 140 103q44 -1 139 4q43 -38 138 -107q-23 -22 -80 -91
l-128 84q-43 -21 -129 -85z" />
    <glyph glyph-name="kcommaaccent.alt" horiz-adv-x="706" 
d="M427 -32l-70 200q-48 -63 -58 -78l1 -95q-71 2 -138.5 2t-99.5 -1l-32 -1q3 233 4 409.5t0 235.5l-1 60q81 -2 148 -2.5t94 0.5h27q-1 -81 -2 -201.5t-1 -146.5l74 184q96 -4 174.5 -6t109.5 -2h31l-136 -186l154 -345q-97 -7 -166.5 -13.5t-91.5 -9.5zM462 -145
q0 -42 -34.5 -83t-99.5 -72l-43 52q32 22 48 45q-25 7 -41 26t-16 42q0 33 26 56t68 23q43 0 67.5 -24.5t24.5 -64.5z" />
    <glyph glyph-name="lacute.alt" horiz-adv-x="342" 
d="M305 -15l-270 1q3 252 3.5 433.5t-0.5 236.5v55l269 -2q-2 -255 -2.5 -436t-0.5 -235zM203 740l-62.5 39t-40.5 23l-12 7l77 91t43 54l11 15l72 -45.5l52 -31.5l17 -9z" />
    <glyph glyph-name="lcaron.alt" horiz-adv-x="342" 
d="M305 -15l-270 1q3 252 3.5 433.5t-0.5 236.5v55l269 -2q-2 -255 -2.5 -436t-0.5 -235zM528 622q0 -42 -34.5 -83t-99.5 -72l-43 52q32 22 48 45q-25 7 -41 26t-16 42q0 33 26 56t68 23q43 0 67.5 -24.5t24.5 -64.5z" />
    <glyph glyph-name="lcommaaccent.alt" horiz-adv-x="342" 
d="M305 -15l-270 1q3 252 3.5 433.5t-0.5 236.5v55l269 -2q-2 -255 -2.5 -436t-0.5 -235zM264 -125q0 -42 -34.5 -83t-99.5 -72l-43 52q32 22 48 45q-25 7 -41 26t-16 42q0 33 26 56t68 23q43 0 67.5 -24.5t24.5 -64.5z" />
    <glyph glyph-name="nacute.alt" 
d="M414 2q1 9 1.5 26.5t2 76t-1.5 118.5q-3 74 -52 74q-29 0 -43 -19.5t-17 -61.5q-2 -31 -2.5 -86.5t0.5 -95.5l1 -40q-174 3 -273 0l2 489q129 -2 209 1q-2 -40 0 -83q28 50 90 84.5t130 33.5q99 -2 156.5 -59t61.5 -164q2 -52 2.5 -125.5t0.5 -120.5l-1 -47zM402 547
l-62.5 39l-40.5 24l-12 6l77 91t44 55l10 14l72 -45.5t52 -30.5l17 -10z" />
    <glyph glyph-name="ncaron.alt" 
d="M414 2q1 9 1.5 26.5t2 76t-1.5 118.5q-3 74 -52 74q-29 0 -43 -19.5t-17 -61.5q-2 -31 -2.5 -86.5t0.5 -95.5l1 -40q-174 3 -273 0l2 489q129 -2 209 1q-2 -40 0 -83q28 50 90 84.5t130 33.5q99 -2 156.5 -59t61.5 -164q2 -52 2.5 -125.5t0.5 -120.5l-1 -47zM300 556
q-43 38 -138 107q23 22 80 91l128 -84q43 21 129 85l80 -92q-60 -39 -140 -103q-44 1 -139 -4z" />
    <glyph glyph-name="ncommaaccent.alt" 
d="M414 2q1 9 1.5 26.5t2 76t-1.5 118.5q-3 74 -52 74q-29 0 -43 -19.5t-17 -61.5q-2 -31 -2.5 -86.5t0.5 -95.5l1 -40q-174 3 -273 0l2 489q129 -2 209 1q-2 -40 0 -83q28 50 90 84.5t130 33.5q99 -2 156.5 -59t61.5 -164q2 -52 2.5 -125.5t0.5 -120.5l-1 -47zM464 -125
q0 -42 -34.5 -83t-99.5 -72l-43 52q32 22 48 45q-25 7 -41 26t-16 42q0 33 26 56t68 23q43 0 67.5 -24.5t24.5 -64.5z" />
    <glyph glyph-name="ntilde.alt" 
d="M414 2q1 9 1.5 26.5t2 76t-1.5 118.5q-3 74 -52 74q-29 0 -43 -19.5t-17 -61.5q-2 -31 -2.5 -86.5t0.5 -95.5l1 -40q-174 3 -273 0l2 489q129 -2 209 1q-2 -40 0 -83q28 50 90 84.5t130 33.5q99 -2 156.5 -59t61.5 -164q2 -52 2.5 -125.5t0.5 -120.5l-1 -47zM280 566
q-36 1 -116 -5q-6 80 25.5 131.5t96.5 51.5q37 0 84.5 -26.5t62.5 -26.5q32 0 28 47q39 0 111 6q15 -83 -12.5 -132.5t-90.5 -49.5q-45 0 -92.5 24.5t-61.5 24.5q-18 0 -27.5 -12.5t-7.5 -32.5z" />
    <glyph glyph-name="oacute.alt" horiz-adv-x="758" 
d="M381 514q171 0 264 -73t93 -200q1 -114 -99 -182t-253 -68q-171 0 -269 70t-97 190q0 121 95 192t266 71zM380 354q-84 0 -83 -104q0 -49 22 -76.5t60 -27.5t60.5 26t22.5 72q0 110 -82 110zM410 542l-62.5 39t-40.5 23l-12 7l77 91l44 54l10 15l72 -45.5l52 -31.5l17 -9
z" />
    <glyph glyph-name="ocircumflex.alt" horiz-adv-x="758" 
d="M381 514q171 0 264 -73t93 -200q1 -114 -99 -182t-253 -68q-171 0 -269 70t-97 190q0 121 95 192t266 71zM380 354q-84 0 -83 -104q0 -49 22 -76.5t60 -27.5t60.5 26t22.5 72q0 110 -82 110zM250 539l-80 92q60 39 140 103q44 -1 139 4q43 -38 138 -107q-23 -22 -80 -91
l-128 84q-43 -21 -129 -85z" />
    <glyph glyph-name="odieresis.alt" horiz-adv-x="758" 
d="M381 514q171 0 264 -73t93 -200q1 -114 -99 -182t-253 -68q-171 0 -269 70t-97 190q0 121 95 192t266 71zM380 354q-84 0 -83 -104q0 -49 22 -76.5t60 -27.5t60.5 26t22.5 72q0 110 -82 110zM263 552q-51 0 -77 25.5t-26 63.5q0 35 30 58t74 23q47 0 74.5 -22.5
t27.5 -61.5q0 -44 -29.5 -65t-73.5 -21zM499 554q-45 0 -72 24t-27 64q0 36 27 58.5t74 22.5t72 -23.5t25 -60.5q0 -41 -28.5 -63t-70.5 -22z" />
    <glyph glyph-name="ograve.alt" horiz-adv-x="758" 
d="M381 514q171 0 264 -73t93 -200q1 -114 -99 -182t-253 -68q-171 0 -269 70t-97 190q0 121 95 192t266 71zM380 354q-84 0 -83 -104q0 -49 22 -76.5t60 -27.5t60.5 26t22.5 72q0 110 -82 110zM363 542l-157 143q55 32 139 88q33 -47 133 -162q-39 -20 -115 -69z" />
    <glyph glyph-name="ohungarumlaut.alt" horiz-adv-x="758" 
d="M381 514q171 0 264 -73t93 -200q1 -114 -99 -182t-253 -68q-171 0 -269 70t-97 190q0 121 95 192t266 71zM380 354q-84 0 -83 -104q0 -49 22 -76.5t60 -27.5t60.5 26t22.5 72q0 110 -82 110zM502 536l-111 58l68.5 97.5l37.5 56.5l9 15l139 -70zM292 545q-34 20 -62 34.5
t-38 18.5l-11 5l68.5 97.5t37.5 57.5l9 15l139 -71z" />
    <glyph glyph-name="omacron.alt" horiz-adv-x="758" 
d="M381 514q171 0 264 -73t93 -200q1 -114 -99 -182t-253 -68q-171 0 -269 70t-97 190q0 121 95 192t266 71zM380 354q-84 0 -83 -104q0 -49 22 -76.5t60 -27.5t60.5 26t22.5 72q0 110 -82 110zM206 571q1 35 -2 125q87 -2 350 2l-2 -125q-92 2 -346 -2z" />
    <glyph glyph-name="otilde.alt" horiz-adv-x="758" 
d="M381 514q171 0 264 -73t93 -200q1 -114 -99 -182t-253 -68q-171 0 -269 70t-97 190q0 121 95 192t266 71zM380 354q-84 0 -83 -104q0 -49 22 -76.5t60 -27.5t60.5 26t22.5 72q0 110 -82 110zM288 561q-36 1 -116 -5q-6 80 25.5 131.5t96.5 51.5q37 0 84.5 -26.5
t62.5 -26.5q32 0 28 47q39 0 111 6q15 -83 -12.5 -132.5t-90.5 -49.5q-45 0 -92.5 24.5t-61.5 24.5q-18 0 -27.5 -12.5t-7.5 -32.5z" />
    <glyph glyph-name="racute.alt" horiz-adv-x="522" 
d="M32 14q0 247 -2 470q87 0 217 1q-1 -36 -1 -78q35 71 107 106t164 25q-2 -110 -4 -241q-46 0 -79 1.5t-56.5 -8.5t-38 -20.5t-23 -35.5t-12 -53t-4.5 -73l2 -93q-108 1 -270 -1zM291 542l-62.5 39t-40.5 23l-12 7l77 91t43 54l11 15l72 -45.5l52 -31.5l17 -9z" />
    <glyph glyph-name="rcaron.alt" horiz-adv-x="522" 
d="M32 14q0 247 -2 470q87 0 217 1q-1 -36 -1 -78q35 71 107 106t164 25q-2 -110 -4 -241q-46 0 -79 1.5t-56.5 -8.5t-38 -20.5t-23 -35.5t-12 -53t-4.5 -73l2 -93q-108 1 -270 -1zM189 551q-43 38 -138 107q23 22 80 91l128 -84q43 21 129 85l80 -92q-60 -39 -140 -103
q-44 1 -139 -4z" />
    <glyph glyph-name="rcommaaccent.alt" horiz-adv-x="522" 
d="M32 14q0 247 -2 470q87 0 217 1q-1 -36 -1 -78q35 71 107 106t164 25q-2 -110 -4 -241q-46 0 -79 1.5t-56.5 -8.5t-38 -20.5t-23 -35.5t-12 -53t-4.5 -73l2 -93q-108 1 -270 -1zM266 -125q0 -42 -34.5 -83t-99.5 -72l-43 52q32 22 48 45q-25 7 -41 26t-16 42q0 33 26 56
t68 23q43 0 67.5 -24.5t24.5 -64.5z" />
    <glyph glyph-name="sacute.alt" horiz-adv-x="662" 
d="M350 -32q-311 0 -350 201q72 1 256 8q10 -39 79 -39q60 0 60 25q0 10 -8 15.5t-37 11t-84 9.5q-132 9 -189 45t-57 106q0 85 82.5 131.5t212.5 46.5q142 0 232.5 -50t113.5 -142q-73 -8 -246 -20q-15 40 -74 40q-52 0 -52 -26q0 -15 25.5 -23.5t93.5 -11.5
q135 -6 194.5 -40t59.5 -104q0 -87 -83.5 -135t-228.5 -48zM363 552l-62.5 39t-40.5 23l-12 7l77 91t43 54l11 15l72 -45.5l52 -31.5l17 -9z" />
    <glyph glyph-name="scaron.alt" horiz-adv-x="662" 
d="M350 -32q-311 0 -350 201q72 1 256 8q10 -39 79 -39q60 0 60 25q0 10 -8 15.5t-37 11t-84 9.5q-132 9 -189 45t-57 106q0 85 82.5 131.5t212.5 46.5q142 0 232.5 -50t113.5 -142q-73 -8 -246 -20q-15 40 -74 40q-52 0 -52 -26q0 -15 25.5 -23.5t93.5 -11.5
q135 -6 194.5 -40t59.5 -104q0 -87 -83.5 -135t-228.5 -48zM261 561q-43 38 -138 107q23 22 80 91l128 -84q43 21 129 85l80 -92q-60 -39 -140 -103q-44 1 -139 -4z" />
    <glyph glyph-name="scedilla.alt" horiz-adv-x="662" 
d="M395 163q0 10 -8 15.5t-37 11t-84 9.5q-132 9 -189 45t-57 106q0 85 82.5 131.5t212.5 46.5q142 0 232.5 -50t113.5 -142q-73 -8 -246 -20q-15 40 -74 40q-52 0 -52 -26q0 -15 25.5 -23.5t93.5 -11.5q135 -6 194.5 -40t59.5 -104q0 -80 -71 -127t-197 -55q0 -14 1 -30
q71 -1 106.5 -24.5t35.5 -63.5q0 -47 -52 -75t-154 -28q-64 0 -128 23q7 36 12 80q48 -21 88 -21q53 0 53 27q0 33 -86 28q8 36 17 86q-254 20 -287 198q72 1 256 8q10 -39 79 -39q60 0 60 25z" />
    <glyph glyph-name="scircumflex.alt" horiz-adv-x="662" 
d="M350 -32q-311 0 -350 201q72 1 256 8q10 -39 79 -39q60 0 60 25q0 10 -8 15.5t-37 11t-84 9.5q-132 9 -189 45t-57 106q0 85 82.5 131.5t212.5 46.5q142 0 232.5 -50t113.5 -142q-73 -8 -246 -20q-15 40 -74 40q-52 0 -52 -26q0 -15 25.5 -23.5t93.5 -11.5
q135 -6 194.5 -40t59.5 -104q0 -87 -83.5 -135t-228.5 -48zM203 546l-80 92q60 39 140 103q44 -1 139 4q43 -38 138 -107q-23 -22 -80 -91l-128 84q-43 -21 -129 -85z" />
    <glyph glyph-name="scommaaccent.alt" horiz-adv-x="662" 
d="M350 -32q-311 0 -350 201q72 1 256 8q10 -39 79 -39q60 0 60 25q0 10 -8 15.5t-37 11t-84 9.5q-132 9 -189 45t-57 106q0 85 82.5 131.5t212.5 46.5q142 0 232.5 -50t113.5 -142q-73 -8 -246 -20q-15 40 -74 40q-52 0 -52 -26q0 -15 25.5 -23.5t93.5 -11.5
q135 -6 194.5 -40t59.5 -104q0 -87 -83.5 -135t-228.5 -48zM425 -140q0 -42 -34.5 -83t-99.5 -72l-43 52q32 22 48 45q-25 7 -41 26t-16 42q0 33 26 56t68 23q43 0 67.5 -24.5t24.5 -64.5z" />
    <glyph glyph-name="tcaron.alt" horiz-adv-x="560" 
d="M545 3q-114 -20 -193 -20q-131 0 -193 63t-66 202l-2 90l-90 -1q1 75 1 118t-1 59l-1 17l92 -2l3 124l268 2q-2 -54 -4 -128l177 1l-1 -193l-176 3l3 -60q2 -38 23.5 -56t72.5 -18q30 0 70 6zM591 713q0 -42 -34.5 -83t-99.5 -72l-43 52q32 22 48 45q-25 7 -41 26t-16 42
q0 33 26 56t68 23q43 0 67.5 -24.5t24.5 -64.5z" />
    <glyph glyph-name="tcommaaccent.alt" horiz-adv-x="560" 
d="M545 3q-114 -20 -193 -20q-131 0 -193 63t-66 202l-2 90l-90 -1q1 75 1 118t-1 59l-1 17l92 -2l3 124l268 2q-2 -54 -4 -128l177 1l-1 -193l-176 3l3 -60q2 -38 23.5 -56t72.5 -18q30 0 70 6zM432 -135q0 -42 -34.5 -83t-99.5 -72l-43 52q32 22 48 45q-25 7 -41 26
t-16 42q0 33 26 56t68 23q43 0 67.5 -24.5t24.5 -64.5z" />
    <glyph glyph-name="uacute.alt" 
d="M271 19q-127 0 -186.5 73t-59.5 239q0 86 12 174q59 -8 255 -19q-6 -62 -6 -110q0 -85 15 -118.5t46 -33.5q47 0 54 73q5 50 6 103.5t-1 81.5l-2 29q58 -3 266 -3q-2 -191 2 -497l-218 1q2 44 2 103q-30 -45 -79.5 -70.5t-105.5 -25.5zM379 537l-62.5 39l-40.5 24l-12 6
l77 91t43 55l11 14l72 -45.5t52 -30.5l17 -10z" />
    <glyph glyph-name="ubreve.alt" 
d="M271 19q-127 0 -186.5 73t-59.5 239q0 86 12 174q59 -8 255 -19q-6 -62 -6 -110q0 -85 15 -118.5t46 -33.5q47 0 54 73q5 50 6 103.5t-1 81.5l-2 29q58 -3 266 -3q-2 -191 2 -497l-218 1q2 44 2 103q-30 -45 -79.5 -70.5t-105.5 -25.5zM346 547q-99 0 -149 42t-45 114
q58 0 151 6q-2 -54 44 -54q23 0 35.5 16t6.5 48q49 -1 155 1q8 -91 -48 -132t-150 -41z" />
    <glyph glyph-name="ucircumflex.alt" 
d="M271 19q-127 0 -186.5 73t-59.5 239q0 86 12 174q59 -8 255 -19q-6 -62 -6 -110q0 -85 15 -118.5t46 -33.5q47 0 54 73q5 50 6 103.5t-1 81.5l-2 29q58 -3 266 -3q-2 -191 2 -497l-218 1q2 44 2 103q-30 -45 -79.5 -70.5t-105.5 -25.5zM220 536l-80 92q60 39 140 103
q44 -1 139 4q43 -38 138 -107q-23 -22 -80 -91l-128 84q-43 -21 -129 -85z" />
    <glyph glyph-name="udieresis.alt" 
d="M271 19q-127 0 -186.5 73t-59.5 239q0 86 12 174q59 -8 255 -19q-6 -62 -6 -110q0 -85 15 -118.5t46 -33.5q47 0 54 73q5 50 6 103.5t-1 81.5l-2 29q58 -3 266 -3q-2 -191 2 -497l-218 1q2 44 2 103q-30 -45 -79.5 -70.5t-105.5 -25.5zM232 553q-51 0 -77 25.5t-26 63.5
q0 35 30 58t74 23q47 0 74.5 -22.5t27.5 -61.5q0 -44 -29.5 -65t-73.5 -21zM468 555q-45 0 -72 24t-27 64q0 36 27 58.5t74 22.5t72 -23.5t25 -60.5q0 -41 -28.5 -63t-70.5 -22z" />
    <glyph glyph-name="ugrave.alt" 
d="M271 19q-127 0 -186.5 73t-59.5 239q0 86 12 174q59 -8 255 -19q-6 -62 -6 -110q0 -85 15 -118.5t46 -33.5q47 0 54 73q5 50 6 103.5t-1 81.5l-2 29q58 -3 266 -3q-2 -191 2 -497l-218 1q2 44 2 103q-30 -45 -79.5 -70.5t-105.5 -25.5zM333 537l-157 143q55 32 139 88
q33 -47 133 -162q-39 -20 -115 -69z" />
    <glyph glyph-name="uhungarumlaut.alt" 
d="M271 19q-127 0 -186.5 73t-59.5 239q0 86 12 174q59 -8 255 -19q-6 -62 -6 -110q0 -85 15 -118.5t46 -33.5q47 0 54 73q5 50 6 103.5t-1 81.5l-2 29q58 -3 266 -3q-2 -191 2 -497l-218 1q2 44 2 103q-30 -45 -79.5 -70.5t-105.5 -25.5zM471 546l-111 58l68.5 97.5
l37.5 56.5l9 15l139 -70zM261 555q-34 20 -62 34.5t-39 18.5l-10 5l68.5 97.5t37.5 57.5l9 15l139 -71z" />
    <glyph glyph-name="umacron.alt" 
d="M271 19q-127 0 -186.5 73t-59.5 239q0 86 12 174q59 -8 255 -19q-6 -62 -6 -110q0 -85 15 -118.5t46 -33.5q47 0 54 73q5 50 6 103.5t-1 81.5l-2 29q58 -3 266 -3q-2 -191 2 -497l-218 1q2 44 2 103q-30 -45 -79.5 -70.5t-105.5 -25.5zM175 573q1 35 -2 125q87 -2 350 2
l-2 -125q-91 2 -346 -2z" />
    <glyph glyph-name="uogonek.alt" 
d="M271 19q-127 0 -186.5 73t-59.5 239q0 86 12 174q59 -8 255 -19q-6 -62 -6 -110q0 -85 15 -118.5t46 -33.5q47 0 54 73q5 50 6 103.5t-1 81.5l-2 29q58 -3 266 -3q-2 -191 2 -497q-47 1 -124 1q-53 -28 -53 -65q0 -19 20 -31t56 -11q-8 -41 -13 -120
q-103 -12 -155.5 17.5t-53.5 81.5q-1 39 28 77t77 59q2 30 2 95q-30 -45 -79.5 -70.5t-105.5 -25.5z" />
    <glyph glyph-name="uring.alt" 
d="M271 19q-127 0 -186.5 73t-59.5 239q0 86 12 174q59 -8 255 -19q-6 -62 -6 -110q0 -85 15 -118.5t46 -33.5q47 0 54 73q5 50 6 103.5t-1 81.5l-2 29q58 -3 266 -3q-2 -191 2 -497l-218 1q2 44 2 103q-30 -45 -79.5 -70.5t-105.5 -25.5zM346 546q-69 0 -107 31t-38 78
q0 51 41.5 78.5t104.5 27.5q69 0 109 -30t40 -76q0 -56 -42.5 -82.5t-107.5 -26.5zM350 610q21 0 35 12t14 33q0 19 -13.5 33t-35.5 14q-23 0 -36.5 -13t-13.5 -32q0 -21 14 -34t36 -13z" />
    <glyph glyph-name="yacute.alt" horiz-adv-x="691" 
d="M453 -269l-279 39l57 169l-231 570q87 2 158.5 6t99.5 7l27 3q15 -80 33.5 -160t29.5 -119l10 -40l39 167.5t25 117.5l7 37q105 -6 170.5 -9t78.5 -3l13 1zM376 557l-62.5 39l-40.5 24l-12 6l77 91t44 55l10 14l72 -45.5t52 -30.5l17 -10z" />
    <glyph glyph-name="ydieresis.alt" horiz-adv-x="691" 
d="M453 -269l-279 39l57 169l-231 570q87 2 158.5 6t99.5 7l27 3q15 -80 33.5 -160t29.5 -119l10 -40l39 167.5t25 117.5l7 37q105 -6 170.5 -9t78.5 -3l13 1zM229 573q-51 0 -77 25.5t-26 63.5q0 35 30 58t74 23q47 0 74.5 -22.5t27.5 -61.5q0 -44 -29.5 -65t-73.5 -21z
M465 575q-45 0 -72 24t-27 64q0 36 27 58.5t74 22.5t72 -23.5t25 -60.5q0 -41 -28.5 -63t-70.5 -22z" />
    <glyph glyph-name="zacute.alt" horiz-adv-x="628" 
d="M606 5q-220 5 -366.5 7t-183.5 2l-36 -1l2 153l144 85.5t88 56.5l25 16q-81 -2 -143 -5.5t-84 -5.5l-21 -2q1 74 0.5 117t-1.5 60l-1 17q183 0 325.5 1t193.5 2l50 2l1 -159l-144 -84.5t-85 -54.5l-22 -15q60 0 125 2.5t100 4.5l35 3zM346 542l-62.5 39t-40.5 23l-12 7
l77 91l44 54l10 15l72 -45.5l52 -31.5l17 -9z" />
    <glyph glyph-name="zcaron.alt" horiz-adv-x="628" 
d="M606 5q-220 5 -366.5 7t-183.5 2l-36 -1l2 153l144 85.5t88 56.5l25 16q-81 -2 -143 -5.5t-84 -5.5l-21 -2q1 74 0.5 117t-1.5 60l-1 17q183 0 325.5 1t193.5 2l50 2l1 -159l-144 -84.5t-85 -54.5l-22 -15q60 0 125 2.5t100 4.5l35 3zM243 551q-43 38 -138 107
q23 22 80 91l128 -84q43 21 129 85l80 -92q-60 -39 -140 -103q-44 1 -139 -4z" />
    <glyph glyph-name="zdotaccent.alt" horiz-adv-x="628" 
d="M606 5q-220 5 -366.5 7t-183.5 2l-36 -1l2 153l144 85.5t88 56.5l25 16q-81 -2 -143 -5.5t-84 -5.5l-21 -2q1 74 0.5 117t-1.5 60l-1 17q183 0 325.5 1t193.5 2l50 2l1 -159l-144 -84.5t-85 -54.5l-22 -15q60 0 125 2.5t100 4.5l35 3zM314 560q-55 0 -84.5 28.5
t-29.5 71.5q0 40 31 66.5t83 26.5q54 0 84 -29t30 -67q0 -46 -31.5 -71.5t-82.5 -25.5z" />
    <glyph glyph-name="uni0237.alt" horiz-adv-x="340" 
d="M-100 -220q1 5 2 16t2 59t1 112q27 -4 53 -4q43 0 61 19.5t19 66.5q1 95 1 188.5t-1 163.5l-1 70q93 -2 152 -2t86 1l27 2q1 -16 2 -47.5t2 -148t0 -255.5q-1 -256 -264 -256q-66 0 -142 15z" />
    <glyph glyph-name="zero.alt" horiz-adv-x="880" 
d="M441 688q186 0 302.5 -103t116.5 -257q0 -163 -115.5 -257t-303.5 -94q-119 0 -213.5 40.5t-151 120.5t-56.5 187q0 166 117.5 264.5t303.5 98.5zM437 465q-56 0 -90 -38.5t-34 -103.5q0 -63 37 -98.5t87 -35.5q56 0 91 34.5t35 103.5q0 60 -33.5 99t-92.5 39z" />
    <glyph glyph-name="one.alt" horiz-adv-x="520" 
d="M176 7q2 244 2 378l-103 -49l-75 224l261 114l188 -7l6 -659z" />
    <glyph glyph-name="two.alt" horiz-adv-x="788" 
d="M764 2q-251 4 -434 5.5t-241 0.5h-58l-7 258q241 39 342 77.5t101 97.5q0 27 -18 45.5t-52 18.5q-49 0 -71 -39t-17 -103l-298 4q-9 152 97.5 241t307.5 89q182 0 272 -66t90 -170q0 -89 -86.5 -150.5t-279.5 -94.5q91 2 178 7t129 9l42 5q-1 -72 0 -124t2 -81z" />
    <glyph glyph-name="three.alt" horiz-adv-x="832" 
d="M421 -25q-95 0 -170 13t-134 41.5t-89.5 79t-27.5 121.5q131 2 324 9q-4 -34 23.5 -54.5t76.5 -20.5q41 0 69 14t28 36q0 37 -64 49q-69 12 -178 0q-1 51 -6 144q96 -6 168 4q78 11 78 49q0 23 -25 36.5t-65 13.5q-51 0 -79 -22.5t-25 -56.5q-86 4 -163.5 6t-111.5 2h-35
q-1 121 106 189t307 68q172 0 279.5 -61.5t107.5 -160.5q0 -50 -39.5 -86.5t-101.5 -51.5q69 -12 111 -46t42 -91q0 -105 -111.5 -164.5t-294.5 -59.5z" />
    <glyph glyph-name="four.alt" horiz-adv-x="825" 
d="M453 11l1 82q-101 0 -445 -4q-3 62 -4 212l280 379q134 -5 243 -7t151 -1h42q-2 -292 -1 -378q34 0 100 2l-1 -202h-98l2 -82q-79 -2 -146.5 -2.5t-95.5 0.5zM298 294q38 -1 158 -1v226z" />
    <glyph glyph-name="five.alt" horiz-adv-x="820" 
d="M418 -24q-172 0 -282 57.5t-126 176.5q88 1 164 4t108 5l32 2q7 -26 35 -41.5t67 -15.5q41 0 65 16t24 42q0 24 -23 40.5t-70 16.5q-68 0 -88 -34q-120 7 -295 10q8 183 9 421q172 -1 721 9q-3 -77 -3 -214q-141 1 -452 -8v-69q81 36 201 36q150 0 230 -61.5t80 -152.5
q0 -81 -53 -136t-140 -79.5t-204 -24.5z" />
    <glyph glyph-name="six.alt" horiz-adv-x="857" 
d="M434 -26q-184 0 -299 92t-115 265q0 172 112 267t317 95q170 0 269 -67.5t113 -169.5q-89 0 -170 -2t-117 -4l-36 -3q-20 45 -72 45q-45 0 -74.5 -39.5t-34.5 -98.5q42 30 106.5 48.5t126.5 18.5q144 0 218 -54t74 -146q0 -121 -116.5 -184t-301.5 -63zM455 284
q-62 0 -113 -39q35 -77 112 -77q39 0 61 17t22 42q0 24 -20.5 40.5t-61.5 16.5z" />
    <glyph glyph-name="seven.alt" horiz-adv-x="722" 
d="M157 9q-2 133 58.5 246.5t173.5 192.5l-384 -9l2 237l707 9q-1 -97 0 -156t2 -85l1 -25q-136 -71 -191.5 -170t-53.5 -252z" />
    <glyph glyph-name="eight.alt" horiz-adv-x="857" 
d="M445 -18q-207 0 -323.5 56.5t-116.5 161.5q0 53 42.5 93t118.5 52q-137 44 -137 158q0 90 100.5 143t303.5 53q195 0 299.5 -62t104.5 -143q0 -48 -34 -86t-104 -57q72 -18 112.5 -57.5t40.5 -88.5q0 -101 -116 -162t-291 -61zM437 165q43 0 73 16t30 44q0 51 -122 64
q-105 -13 -105 -61q0 -28 33 -45.5t91 -17.5zM452 403q86 19 86 56q0 26 -28 43t-82 17q-55 0 -80.5 -16.5t-25.5 -40.5q0 -48 130 -59z" />
    <glyph glyph-name="nine.alt" horiz-adv-x="845" 
d="M422 -18q-162 0 -276.5 63t-137.5 178q76 0 153 3.5t115 7.5l39 3q9 -25 38 -41.5t68 -16.5q97 0 107 131q-74 -54 -218 -54q-135 0 -216 49.5t-81 141.5q0 122 110 186t290 64q186 0 299 -96.5t113 -269.5q0 -89 -31.5 -157t-87.5 -109.5t-127.5 -62t-156.5 -20.5z
M418 381q54 0 106 26q-19 102 -105 102q-46 0 -70 -17.5t-24 -45.5q0 -65 93 -65z" />
    <glyph glyph-name="period.alt" horiz-adv-x="318" 
d="M159 268q67 0 111 -38.5t43 -97.5q-2 -68 -41 -105.5t-111 -37.5q-76 0 -116 38t-40 104q0 63 43.5 100t110.5 37z" />
    <glyph glyph-name="question.alt" horiz-adv-x="792" 
d="M232 256l-3 149q144 -14 203 1t59 59q0 22 -23 39t-71 17q-49 0 -75.5 -26t-31.5 -64q-116 12 -290 16q31 125 132.5 193.5t258.5 68.5q185 0 290.5 -60.5t105.5 -163.5q0 -94 -77.5 -146t-201.5 -58l-1 -23q-95 1 -156 0.5t-90 -1.5zM375 -22q-83 0 -127 34.5t-44 99.5
q0 60 45 94t122 34q89 0 133 -36t44 -97q0 -60 -47.5 -94.5t-125.5 -34.5z" />
    <glyph glyph-name="exclam.alt" horiz-adv-x="356" 
d="M183 -1q-80 0 -124 35t-44 96q0 57 41.5 91.5t123.5 34.5q75 0 118 -35.5t43 -94.5q0 -60 -46.5 -93.5t-111.5 -33.5zM60 288q-4 83 -36 397q21 -1 53.5 -2t122.5 -2.5t134 0.5q-14 -95 -29 -388q-109 2 -245 -5z" />
    </font>
</defs>
</svg>
