<?xml version="1.0" standalone="no"?>
<!DOCTYPE svg PUBLIC "-//W3C//DTD SVG 1.1//EN" "http://www.w3.org/Graphics/SVG/1.1/DTD/svg11.dtd" >
<svg xmlns="http://www.w3.org/2000/svg" xmlns:xlink="http://www.w3.org/1999/xlink" version="1.1">
<metadata></metadata>
<defs>
<font id="digitalsansef-boldregular" horiz-adv-x="1024" >
<font-face units-per-em="2048" ascent="1638" descent="-410" />
<missing-glyph horiz-adv-x="438" />
<glyph horiz-adv-x="0" />
<glyph horiz-adv-x="682" />
<glyph unicode=" "  horiz-adv-x="438" />
<glyph unicode="&#x09;" horiz-adv-x="438" />
<glyph unicode="&#xa0;" horiz-adv-x="438" />
<glyph unicode="!" horiz-adv-x="555" d="M117 143q0 68 47 118t115 50q67 0 114 -49t47 -117q0 -67 -47 -113t-114 -46q-66 0 -114 45.5t-48 111.5zM129 373v993h297v-993h-297z" />
<glyph unicode="&#x22;" horiz-adv-x="899" d="M117 1366h286l-49 -547h-190zM496 1366h286l-49 -547h-190z" />
<glyph unicode="#" horiz-adv-x="1284" d="M47 375l39 233h207l29 176h-205l39 234h204l60 348h266l-59 -348h178l59 348h266l-59 -348h207l-39 -234h-207l-28 -176h206l-41 -233h-204l-64 -375h-266l63 375h-178l-63 -375h-267l64 375h-207zM561 608h178l29 176h-178z" />
<glyph unicode="$" horiz-adv-x="997" d="M61 807v289q0 62 29 127.5t76 99.5q23 16 51.5 26t66 13.5t61 4.5t69 0t57.5 -1v109h68v-109h397v-295h-397v-237h125q125 0 198.5 -72.5t73.5 -198.5v-274q0 -135 -79 -212t-214 -77h-104v-150h-68v150h-408v293h408v246h-135q-114 0 -194.5 77.5t-80.5 190.5zM354 911 q0 -44 25 -60.5t72 -16.5h20v237h-25q-92 0 -92 -67v-93zM539 293q49 4 76.5 19.5t27.5 60.5v98q0 30 -17 49t-46 19h-41v-246z" />
<glyph unicode="%" horiz-adv-x="1724" d="M43 719v459q0 93 58 140.5t153 47.5h219q95 0 152 -48t57 -140v-459q0 -187 -211 -187h-217q-99 0 -155 45.5t-56 141.5zM262 776q0 -28 8 -35.5t37 -7.5h113q28 0 35.5 7.5t7.5 35.5v346q0 28 -7.5 35.5t-35.5 7.5h-113q-29 0 -37 -7.5t-8 -35.5v-346zM346 0l772 1366 h260l-774 -1366h-258zM1042 186v459q0 92 57.5 140.5t151.5 48.5h219q95 0 152 -48t57 -141v-459q0 -186 -211 -186h-217q-209 0 -209 186zM1260 244q0 -27 8.5 -35t36.5 -8h112q29 0 37 7.5t8 35.5v346q0 27 -8.5 35t-36.5 8h-112q-28 0 -36.5 -8t-8.5 -35v-346z" />
<glyph unicode="&#x26;" horiz-adv-x="1335" d="M61 289v145q0 42 15 92.5t39 87.5q15 26 40.5 48t45.5 34t55 31q-21 29 -34.5 51.5t-24.5 39.5t-17 38t-10 32t-5 37.5t-1.5 38t0 51.5t0.5 60q0 137 80.5 214t218.5 77h184q72 0 123.5 -18.5t93.5 -67.5q31 -36 51.5 -83t20.5 -89v-141q0 -92 -50 -171.5t-132 -115.5 l-56 -25l138 -151v143h301l-2 -201q0 -38 -10.5 -75.5t-20.5 -58.5t-35 -68l219 -244h-385l-41 49q-63 -30 -103 -39.5t-106 -9.5h-262q-136 0 -233 78.5t-97 210.5zM350 428q0 -12 1 -35.5t1 -36.5q1 -34 31 -54.5t66 -20.5h141q34 0 61 8l-211 233q-5 -3 -19.5 -9.5 t-19.5 -9t-15.5 -9t-15 -12t-10.5 -14t-8 -18.5t-2 -22zM453 987q0 -27 9.5 -51.5t20.5 -39t33 -40.5q6 3 33.5 16.5t38.5 20.5t29 21.5t25 31.5t7 39v35q0 32 -19 53t-50 21h-60q-28 0 -47.5 -20t-19.5 -48v-39z" />
<glyph unicode="'" horiz-adv-x="520" d="M117 1366h286l-49 -547h-190z" />
<glyph unicode="(" horiz-adv-x="638" d="M117 -102v1284q0 77 31.5 139.5t93.5 138.5h321q-60 -67 -89 -111.5t-44.5 -103t-15.5 -143.5v-1127q0 -124 29.5 -189.5t119.5 -168.5h-321q-61 78 -93 141.5t-32 139.5z" />
<glyph unicode=")" horiz-adv-x="638" d="M76 -383q50 59 71.5 87.5t43 71.5t28 87.5t6.5 111.5v1127q0 85 -15.5 143.5t-44.5 103t-89 111.5h321q125 -156 125 -278v-1284q0 -71 -33 -136.5t-92 -144.5h-321z" />
<glyph unicode="*" horiz-adv-x="835" d="M72 1106l49 145l223 -84l-6 240h158l-7 -240l222 84l53 -145l-225 -74l139 -188l-121 -92l-143 196l-135 -196l-127 92l143 188z" />
<glyph unicode="+" d="M68 575v240h315v315h258v-315h315v-240h-315v-315h-258v315h-315z" />
<glyph unicode="," horiz-adv-x="425" d="M47 -201l96 201q-94 100 -94 154q0 67 48 115t116 48q69 0 117.5 -52t48.5 -122q0 -39 -21 -86l-125 -258h-186z" />
<glyph unicode="-" horiz-adv-x="430" d="M0 494v260h430v-260h-430z" />
<glyph unicode="." horiz-adv-x="473" d="M76 143q0 68 47 118t115 50q67 0 114 -49t47 -117q0 -67 -47 -113t-114 -46q-66 0 -114 45.5t-48 111.5z" />
<glyph unicode="/" horiz-adv-x="1128" d="M47 0l764 1366h270l-764 -1366h-270z" />
<glyph unicode="0" horiz-adv-x="1150" d="M96 293v778q0 151 99 232q47 37 93 50t113 13h349q67 0 113 -13t93 -50q99 -81 99 -232v-778q0 -70 -24.5 -134.5t-74.5 -103.5q-67 -55 -208 -55h-347q-305 0 -305 293zM389 389q0 -55 20.5 -75.5t75.5 -20.5h181q56 0 76 20.5t20 75.5v588q0 55 -20 74.5t-76 19.5h-181 q-56 0 -76 -19.5t-20 -74.5v-588z" />
<glyph unicode="1" horiz-adv-x="1150" d="M238 1071v295h567v-1366h-295v1071h-272z" />
<glyph unicode="2" horiz-adv-x="1150" d="M133 0v514q0 129 73 212t200 83h204q29 0 39.5 0.5t29 4t25 11.5t12.5 23t7 39q0 17 1 52t1 52q0 27 -7 44t-23.5 24.5t-31.5 9.5t-42 2h-488v295h574q149 0 230 -75t81 -222q0 -52 -1 -155.5t-1 -155.5q-1 -112 -83.5 -181t-195.5 -69h-209q-52 0 -77 -15.5t-25 -64.5 v-135h592v-293h-885z" />
<glyph unicode="3" horiz-adv-x="1150" d="M119 0v293q10 0 74.5 -0.5t136.5 -0.5h148t128 0.5t58 2.5q14 2 31.5 17t17.5 28v31q0 11 1 38t1 40t-4 33.5t-12.5 30.5t-25.5 18t-42 8h-221v288h221q25 0 42 7.5t25.5 17t12.5 30t4 33t-1 40t-1 38.5v33q0 15 -21 31q-7 5 -13 8.5t-14 4.5l-12 1.5t-15 0t-15 -0.5 h-504v295h583q85 0 129 -12t95 -62q80 -80 80 -180v-219q0 -37 -17 -80q-20 -50 -48 -76t-85 -55q150 -72 150 -209v-219q0 -108 -80 -182q-49 -46 -91.5 -59t-119.5 -13h-596z" />
<glyph unicode="4" horiz-adv-x="1150" d="M68 584q0 42 20 90l283 692h317l-285 -696h316v696h295v-1366h-295v377h-383q-82 0 -130.5 15t-90.5 69q-47 57 -47 123z" />
<glyph unicode="5" horiz-adv-x="1150" d="M127 0v293h502q42 0 63 17.5t21 58.5v127q0 38 -21.5 62t-58.5 24h-506v784h883v-295h-588v-192h293q59 0 118 -19.5t99 -56.5q74 -66 74 -219v-291q0 -135 -76.5 -214t-210.5 -79h-592z" />
<glyph unicode="6" horiz-adv-x="1150" d="M88 315v756q0 159 79 227t243 68h575v-295h-510q-28 0 -47.5 -9.5t-28.5 -21t-13.5 -35t-4.5 -38.5t1 -45t1 -41h420q73 0 116.5 -13t81.5 -59q62 -75 62 -213v-320q0 -116 -82 -204q-41 -43 -88.5 -57.5t-116.5 -14.5h-381q-163 0 -235 75.5t-72 239.5zM383 389 q0 -51 22.5 -73.5t73.5 -22.5h205q86 0 86 78v127q0 77 -92 77h-197q-43 0 -70.5 -22.5t-27.5 -65.5v-98z" />
<glyph unicode="7" horiz-adv-x="1150" d="M104 1071v295h689q92 0 159.5 -50.5t67.5 -139.5q0 -47 -21 -105l-385 -1071h-313l387 1071h-584z" />
<glyph unicode="8" horiz-adv-x="1150" d="M92 291v192q0 73 37 121.5t107 89.5q-144 77 -144 209v195q0 146 82 207t232 61h339q150 0 232 -61t82 -207v-195q0 -73 -36.5 -121.5t-107.5 -87.5q52 -29 72 -47q33 -29 52.5 -74t19.5 -90v-192q0 -76 -16.5 -128.5t-65.5 -94.5q-51 -43 -101 -55.5t-131 -12.5h-339 q-56 0 -87 3t-71.5 18.5t-73.5 46.5q-49 47 -65.5 96.5t-16.5 126.5zM385 362q0 -26 15 -47.5t40 -21.5h271q25 0 40 21.5t15 47.5v119q0 32 -25.5 50t-58.5 18h-213q-32 0 -58 -18t-26 -50v-119zM385 891q0 -47 86 -47h209q86 0 86 45v110q0 35 -24.5 52.5t-61.5 17.5h-209 q-37 0 -61.5 -17.5t-24.5 -52.5v-108z" />
<glyph unicode="9" horiz-adv-x="1150" d="M88 770v317q0 122 82 207q41 43 88.5 57.5t116.5 14.5h381q163 0 235 -75.5t72 -239.5v-758q0 -159 -79.5 -226t-242.5 -67h-575v293h510q29 0 48.5 9.5t29 21.5t14 36t4.5 39t-1 45t-1 41h-422q-74 0 -116.5 12.5t-81.5 59.5q-62 75 -62 213zM383 866q0 -78 90 -78h197 q45 0 72.5 23.5t27.5 67.5v98q0 50 -24 72t-74 22h-205q-84 0 -84 -76v-129z" />
<glyph unicode=":" horiz-adv-x="473" d="M76 143q0 68 47 118t115 50q67 0 114 -49t47 -117q0 -67 -47 -113t-114 -46q-66 0 -114 45.5t-48 111.5zM76 856q0 68 47 118t115 50q67 0 114 -49t47 -117q0 -66 -47.5 -112t-113.5 -46q-65 0 -113.5 45.5t-48.5 110.5z" />
<glyph unicode=";" horiz-adv-x="425" d="M49 154q0 68 49 115.5t117 47.5q69 0 116.5 -52t47.5 -122q0 -39 -21 -86l-125 -258h-184l94 201q-94 100 -94 154zM51 856q0 68 47 118t115 50t115 -49t47 -117q0 -66 -48 -112t-114 -46q-65 0 -113.5 45.5t-48.5 110.5z" />
<glyph unicode="&#x3c;" d="M68 575v218l888 450v-258l-614 -303l614 -303v-254z" />
<glyph unicode="=" d="M68 393v240h888v-240h-888zM68 758v239h888v-239h-888z" />
<glyph unicode="&#x3e;" d="M68 125v256l614 303l-614 303v256l888 -450v-220z" />
<glyph unicode="?" d="M47 1071v295h612q147 0 211 -82q66 -84 66 -215v-303q0 -52 -25.5 -106.5t-64.5 -90.5q-22 -20 -48.5 -32.5t-62 -16.5t-57.5 -5.5t-66.5 0t-56.5 1.5v-143h-293v192q0 97 69.5 157t168.5 60h51q45 0 68.5 13.5t23.5 54.5v151q0 70 -82 70h-514zM244 143q0 68 47 118 t115 50q67 0 114 -49t47 -117q0 -67 -47 -113t-114 -46q-66 0 -114 45.5t-48 111.5z" />
<glyph unicode="@" horiz-adv-x="1501" d="M68 344q0 148 57 280.5t153 227.5t229.5 151t280.5 56q175 0 322 -73.5t235.5 -212t88.5 -314.5q0 -105 -35 -201q-41 -108 -121 -189t-180 -81q-54 0 -99.5 30.5t-60.5 81.5q-42 -61 -110 -95t-144 -34q-127 0 -207 95t-80 225q0 73 26.5 146t72.5 131t114 94t144 36 q62 0 115.5 -25t84.5 -75l17 80l176 -2l-76 -387q-12 -58 -12 -88q0 -68 47 -68q26 0 51 21q57 44 89 133.5t32 171.5q0 134 -65.5 235.5t-174 153t-241.5 51.5q-154 0 -281.5 -73.5t-200.5 -201.5t-73 -282q0 -108 39 -210t112 -177q138 -143 402 -143q194 0 374 61 l41 -160q-180 -61 -409 -61q-161 0 -289 43q-202 68 -323 250t-121 399zM598 301q0 -64 36.5 -106.5t98.5 -42.5q81 0 128.5 71t47.5 156q0 58 -36.5 96.5t-94.5 38.5q-77 0 -128.5 -67t-51.5 -146z" />
<glyph unicode="A" horiz-adv-x="1202" d="M-6 0l377 1196q27 86 85 134t146 48q87 0 144.5 -48t84.5 -134l377 -1196h-307l-92 293h-416l-92 -293h-307zM481 571h240l-139 443z" />
<glyph unicode="B" horiz-adv-x="1157" d="M88 0v1366h707q148 0 221 -92q23 -29 34.5 -66t13 -62t1.5 -73v-16v-111q0 -48 -10 -110q-10 -54 -33 -84.5t-74 -65.5q26 -13 47 -31q38 -32 56 -91.5t18 -119.5v-137q0 -143 -73.5 -225t-215.5 -82h-692zM383 293h307q82 0 82 78v88q0 80 -88 80h-301v-246zM383 834 h324q31 0 49 20.5t18 52.5v90q0 29 -19.5 51.5t-47.5 22.5h-324v-237z" />
<glyph unicode="C" horiz-adv-x="1042" d="M88 303v752q0 59 3 93t20 78t51 77q23 23 51 37t68 19t59.5 6t69.5 1h571v-295h-489q-109 0 -109 -59v-598q0 -72 20.5 -96.5t90.5 -24.5h487v-293h-616q-53 0 -107 24t-94 62q-76 73 -76 217z" />
<glyph unicode="D" horiz-adv-x="1169" d="M88 0v1366h698q153 0 223 -74.5t70 -228.5v-762q0 -140 -72 -220.5t-210 -80.5h-709zM383 293h301q64 0 83 25t19 94v596q0 33 -33 48t-69 15h-301v-778z" />
<glyph unicode="E" horiz-adv-x="1054" d="M88 285v784q0 137 74.5 217t210.5 80h608v-295h-481h-49q-33 0 -50.5 -27.5t-17.5 -60.5v-149h598v-295h-598v-152q0 -34 7 -53.5t25 -28t35 -10.5t52 -2h479v-293h-565q-154 0 -241 68.5t-87 216.5z" />
<glyph unicode="F" horiz-adv-x="1026" d="M88 0v1087q0 147 84 220q33 29 73 42.5t66 15t86 1.5h582v-295h-496q-49 0 -74.5 -19.5t-25.5 -66.5v-151h596v-295h-596v-539h-295z" />
<glyph unicode="G" horiz-adv-x="1155" d="M88 365v663q0 43 0.5 59.5t3 50t8.5 50.5t16.5 41.5t28.5 44t43 39.5q34 25 72.5 37.5t65.5 14t81 1.5h17h553v-295h-488q-3 0 -23 0.5t-26 0t-21 -3.5t-20 -9t-10.5 -17.5t-5.5 -27.5v-664q0 -20 21 -38.5t42 -18.5h232q62 0 78 19t16 79v393h293v-438q0 -62 -2 -92 t-16 -72t-43 -80q-48 -62 -100 -82t-140 -20h-338q-94 0 -153 16.5t-113 73.5q-59 63 -68 139q-4 30 -4 136z" />
<glyph unicode="H" horiz-adv-x="1177" d="M88 0v1366h295v-532h414v532h293v-1366h-293v539h-414v-539h-295z" />
<glyph unicode="I" horiz-adv-x="471" d="M88 0v1366h295v-1366h-295z" />
<glyph unicode="J" horiz-adv-x="622" d="M35 0v293h61q6 0 25.5 -0.5t28.5 0t25.5 2t25.5 6t19 12t15 20t5 29.5v62v942h292v-1036q0 -64 -3 -97.5t-21 -77.5t-55 -79q-49 -45 -96.5 -60.5t-120.5 -15.5h-201z" />
<glyph unicode="K" horiz-adv-x="1081" d="M88 0v1366h295v-1366h-295zM389 696q0 18 6 37t10.5 28t19 32.5t17.5 29.5l299 543h336l-370 -672l380 -694h-335l-306 547q-2 4 -9.5 17t-10 18t-9 17.5t-9.5 19.5t-7.5 18.5t-6.5 19.5t-3.5 18.5t-1.5 20.5z" />
<glyph unicode="L" horiz-adv-x="1009" d="M88 334v1032h295v-948v-62q0 -19 18 -41q9 -11 24.5 -16.5t24.5 -6.5t32.5 0t27.5 1h465v-293h-545q-170 0 -264 84q-35 31 -53 76t-21.5 81t-3.5 93z" />
<glyph unicode="M" horiz-adv-x="1550" d="M88 0v1124q0 121 72 189.5t194 68.5q89 0 155.5 -47t84.5 -131l172 -788l188 788q21 87 85.5 132.5t156.5 45.5q121 0 192.5 -69t71.5 -189v-1124h-278v977l-213 -823q-51 -185 -193 -185q-147 0 -196 185l-211 823v-977h-281z" />
<glyph unicode="N" horiz-adv-x="1165" d="M88 0v1094q0 127 62.5 206.5t185.5 79.5q101 0 165.5 -60.5t90.5 -162.5l205 -790v999h280v-1130q0 -106 -70 -180t-176 -74q-192 0 -253 229l-209 784v-995h-281z" />
<glyph unicode="O" horiz-adv-x="1140" d="M88 293v778q0 70 26 135.5t76 106.5q64 53 207 53h348q155 0 230.5 -71t75.5 -224v-778q0 -151 -78 -222t-230 -71h-346q-147 0 -211 53q-47 38 -72.5 105.5t-25.5 134.5zM383 389q0 -53 22.5 -74.5t75.5 -21.5h181q54 0 75 17t21 69v598q0 55 -20 74.5t-76 19.5h-181 q-57 0 -77.5 -19t-20.5 -75v-588z" />
<glyph unicode="P" horiz-adv-x="1112" d="M88 0v1366h684q130 0 211.5 -72.5t81.5 -199.5v-334q0 -124 -73 -196t-197 -72h-412v-492h-295zM383 793h287q28 0 42 1.5t30.5 8t23 22t6.5 41.5v123q0 45 -23.5 64.5t-70.5 19.5l-295 -2v-278z" />
<glyph unicode="Q" horiz-adv-x="1144" d="M88 293v778q0 153 76 224t231 71h348q153 0 229.5 -71.5t76.5 -223.5v-778q0 -139 -70 -217q-28 -31 -54.5 -44.5t-70.5 -21.5l201 -209h-406l-196 199h-58q-154 0 -230.5 70.5t-76.5 222.5zM383 389q0 -55 20.5 -75.5t75.5 -20.5h178q54 0 76.5 17t22.5 69v598 q0 56 -21 75t-78 19h-178q-56 0 -76 -19t-20 -75v-588z" />
<glyph unicode="R" horiz-adv-x="1132" d="M88 1366h688q132 0 207.5 -72.5t75.5 -203.5v-275q0 -119 -72 -197.5t-190 -78.5q-10 0 -30 1t-30 1l334 -541h-348l-309 508q-23 39 -23 92q0 85 47 135.5t131 50.5h117q42 0 61 18.5t19 59.5v125q0 41 -25 61.5t-67 20.5h-291v-1071h-293z" />
<glyph unicode="S" horiz-adv-x="1026" d="M76 807v289q0 63 28 128t76 99q60 43 174 43h596v-295h-475q-24 0 -41 -3t-29 -7t-19.5 -13.5t-11.5 -17t-5 -23.5t-1 -26.5t0.5 -33t0.5 -36.5q0 -44 24.5 -60.5t71.5 -16.5h213q125 0 198.5 -73.5t73.5 -197.5v-274q0 -134 -79.5 -211.5t-213.5 -77.5h-579v293h475 q24 0 41.5 4t29 9.5t19 17t11 21t4.5 26.5t1 29.5t-1 34.5t-1 36q0 24 -7.5 38.5t-23 20.5t-29 7.5t-36.5 1.5h-211q-113 0 -193.5 77.5t-80.5 190.5z" />
<glyph unicode="T" horiz-adv-x="921" d="M20 1071v295h881v-295h-295v-1071h-293v1071h-293z" />
<glyph unicode="U" horiz-adv-x="1165" d="M88 340v1026h295v-975q0 -63 18 -80.5t82 -17.5h199q60 0 80 17.5t20 74.5v981h293v-1024q0 -67 -2.5 -99t-19.5 -75.5t-52 -81.5q-48 -51 -99.5 -68.5t-129.5 -17.5h-379q-80 0 -131.5 17t-99.5 69q-35 38 -52 81.5t-19.5 75t-2.5 97.5z" />
<glyph unicode="V" horiz-adv-x="1171" d="M-20 1366h309l295 -971l297 971h311l-401 -1214q-55 -168 -205 -168t-205 168z" />
<glyph unicode="W" horiz-adv-x="1607" d="M20 1366h285l176 -948l97 747q12 99 71 159t156 60q96 0 154 -60.5t71 -158.5l96 -747l177 948h284l-219 -1192q-15 -87 -79.5 -142t-151.5 -55q-89 0 -153.5 55.5t-76.5 143.5l-112 807l-95 -807q-10 -87 -76 -143t-153 -56t-150.5 55.5t-78.5 141.5z" />
<glyph unicode="X" horiz-adv-x="1173" d="M-20 0l448 698l-426 668h350l228 -383l241 383h348l-424 -668l449 -698h-348l-271 418l-247 -418h-348z" />
<glyph unicode="Y" horiz-adv-x="1167" d="M-20 1366h335l258 -510l281 510h334l-459 -836v-530h-293v530z" />
<glyph unicode="Z" horiz-adv-x="1040" d="M47 199q0 60 43 120l520 752h-540v295h723q87 0 143.5 -54t56.5 -141q0 -59 -24 -98l-545 -780h530v-293h-645q-78 0 -123 14q-58 19 -98.5 72.5t-40.5 112.5z" />
<glyph unicode="[" horiz-adv-x="614" d="M158 -383v1843h340v-205h-82v-1433h82v-205h-340z" />
<glyph unicode="\" d="M55 1460h254l627 -1843h-252z" />
<glyph unicode="]" horiz-adv-x="614" d="M117 -178h82v1433h-82v205h340v-1843h-340v205z" />
<glyph unicode="^" d="M12 682l330 684h340l330 -684h-271l-229 477l-229 -477h-271z" />
<glyph unicode="_" d="M0 -96h1024v-240h-1024v240z" />
<glyph unicode="`" d="M342 1407h231l109 -246h-199z" />
<glyph unicode="a" horiz-adv-x="1034" d="M88 231v209q0 117 67 180.5t185 63.5h346v25q0 33 -17 44t-53 11h-524v260h590q121 0 191.5 -62t70.5 -180v-542q0 -102 -66.5 -171t-168.5 -69h-357q-119 0 -191.5 58t-72.5 173zM348 311q0 -24 21.5 -37.5t46.5 -13.5h200q29 0 49.5 12t20.5 39v72q0 59 -72 59h-198 q-40 0 -54 -13.5t-14 -53.5v-64z" />
<glyph unicode="b" horiz-adv-x="1040" d="M88 274v1133h260v-383h369q106 0 169.5 -73t63.5 -181v-512q0 -110 -63 -184t-172 -74h-369q-122 0 -196 80q-38 41 -50 84.5t-12 109.5zM348 319q0 -25 19 -42t45 -17h213q21 0 44 11.5t23 31.5v387q0 30 -19.5 52t-49.5 22h-199q-33 0 -54.5 -19.5t-21.5 -52.5v-373z " />
<glyph unicode="c" horiz-adv-x="839" d="M88 264v518q0 111 54 176.5t163 65.5h471v-260h-350q-6 0 -16 0.5t-14.5 0.5t-11.5 -1.5t-12.5 -5t-11.5 -10.5q-12 -12 -12 -27v-389q0 -31 20.5 -51.5t51.5 -20.5h358v-260h-418q-138 0 -205 63.5t-67 200.5z" />
<glyph unicode="d" horiz-adv-x="1040" d="M88 258v512q0 106 65 180t169 74h370v383h258v-1133q0 -69 -10.5 -111.5t-48.5 -82.5q-74 -80 -197 -80h-368q-109 0 -173.5 73.5t-64.5 184.5zM348 303q0 -20 23 -31.5t45 -11.5h211q26 0 45.5 17t19.5 42v373q0 33 -21.5 52.5t-54.5 19.5h-198q-30 0 -50 -22t-20 -52 v-387z" />
<glyph unicode="e" horiz-adv-x="1015" d="M88 784q0 113 69.5 176.5t184.5 63.5h352q117 0 181.5 -65.5t64.5 -182.5v-205l-588 -223v-16q0 -46 20 -59t64 -13h502v-260h-569q-74 0 -118 11t-87 52q-46 43 -60 86.5t-14 116.5q0 86 -1 259t-1 259zM348 594l328 119v6q0 20 -20 32.5t-42 12.5h-182q-32 0 -58 -18 t-26 -48v-104z" />
<glyph unicode="f" horiz-adv-x="538" d="M88 0v1171q0 109 83 171.5t196 62.5h165v-250q-8 0 -35 1t-41.5 1t-38 -4t-36.5 -11.5t-23 -23.5t-10 -39v-55h184v-260h-184v-764h-260z" />
<glyph unicode="g" horiz-adv-x="1042" d="M88 -123h528q23 0 38.5 6.5t23 15t11.5 26.5t4.5 28.5t0.5 34.5v12h-338q-110 0 -186 62.5t-76 170.5v510q0 147 59 214t203 67h346q139 0 195.5 -54.5t56.5 -191.5v-897q0 -117 -73.5 -190.5t-190.5 -73.5h-602v260zM352 328q0 -27 22.5 -47.5t49.5 -20.5h203 q31 0 49 18.5t18 49.5v358q0 78 -67 78h-207q-29 0 -48.5 -19.5t-19.5 -48.5v-368z" />
<glyph unicode="h" horiz-adv-x="1028" d="M88 0v1407h260v-383h352q101 0 170.5 -66.5t69.5 -166.5v-791h-260v686q0 44 -11.5 61t-54.5 17h-192q-28 0 -51 -11t-23 -36v-33l2 -684h-262z" />
<glyph unicode="i" horiz-adv-x="438" d="M57 1286q0 68 47 118t115 50t115 -49t47 -117q0 -67 -47.5 -112.5t-114.5 -45.5q-65 0 -113.5 45.5t-48.5 110.5zM90 0v1024h258v-1024h-258z" />
<glyph unicode="j" horiz-adv-x="436" d="M-88 -123h98q37 0 57.5 19.5t20.5 56.5v1071h258v-1141q0 -128 -71.5 -197t-200.5 -69h-162v260zM51 1286q0 68 47 118t115 50t115 -49t47 -117q0 -67 -47.5 -112.5t-114.5 -45.5q-65 0 -113.5 45.5t-48.5 110.5z" />
<glyph unicode="k" horiz-adv-x="974" d="M88 0v1407h260v-1407h-260zM356 526q0 44 27 90l240 408h303l-293 -496l321 -528h-305l-272 453q-21 35 -21 73z" />
<glyph unicode="l" horiz-adv-x="436" d="M88 0v1407h260v-1407h-260z" />
<glyph unicode="m" horiz-adv-x="1458" d="M88 778q0 111 64.5 178.5t175.5 67.5h198q76 0 120 -17.5t83 -72.5q36 52 83.5 71t119.5 19h198q111 0 175.5 -67.5t64.5 -178.5v-778h-260v686q0 78 -70 78h-114q-29 0 -48.5 -18.5t-19.5 -47.5v-698h-258v698q0 31 -18.5 48.5t-49.5 17.5h-114q-34 0 -53 -21.5 t-19 -56.5l2 -686h-258z" />
<glyph unicode="n" horiz-adv-x="1026" d="M88 0v778q0 118 64 182t182 64h358q118 0 182 -64t64 -182v-778h-260v692q0 40 -21.5 56t-62.5 16h-162q-41 0 -62.5 -16t-21.5 -56v-692h-260z" />
<glyph unicode="o" horiz-adv-x="1042" d="M88 229v566q0 106 82 178q38 32 77 41.5t101 9.5h348q62 0 101 -9.5t77 -41.5t59 -79.5t21 -98.5v-566q0 -105 -80 -178q-36 -32 -76 -41.5t-102 -9.5h-348q-62 0 -101 9.5t-77 41.5q-82 72 -82 178zM348 330q0 -70 82 -70h184q80 0 80 72v362q0 35 -22 52.5t-58 17.5 h-184q-82 0 -82 -70v-364z" />
<glyph unicode="p" horiz-adv-x="1032" d="M88 -383v1135q0 54 15.5 112t46.5 90q29 30 79.5 50t92.5 20h372q121 0 185.5 -70t64.5 -192v-531q0 -91 -76 -161t-168 -70h-352v-383h-260zM348 336q0 -34 23.5 -55t58.5 -21h186q26 0 47 18.5t21 43.5v380q0 25 -16.5 43.5t-42.5 18.5h-203q-32 0 -53 -22.5t-21 -53.5 v-352z" />
<glyph unicode="q" horiz-adv-x="1032" d="M88 231v531q0 122 64.5 192t185.5 70h373q42 0 92.5 -20t79.5 -50q31 -32 46 -89.5t15 -112.5v-1135h-260v383h-352q-92 0 -168 70t-76 161zM348 322q0 -25 21 -43.5t47 -18.5h186q35 0 58.5 21t23.5 55v352q0 31 -21 53.5t-53 22.5h-202q-26 0 -43 -18.5t-17 -43.5v-380 z" />
<glyph unicode="r" horiz-adv-x="536" d="M88 0v760q0 264 264 264h178v-260q-6 0 -23 1t-31.5 1t-34 -0.5t-35 -4t-29.5 -9.5t-21.5 -16.5t-7.5 -24.5v-31v-680h-260z" />
<glyph unicode="s" horiz-adv-x="931" d="M76 0v260h450q37 0 50.5 17.5t13.5 54.5q0 13 -6 22q-3 6 -6.5 10.5t-6 8t-7 5.5t-6.5 3t-8.5 1.5t-8.5 0.5h-10h-11h-196q-92 0 -168 63.5t-76 153.5v193q0 112 70.5 171.5t183.5 59.5h522v-260h-442q-46 0 -62 -14.5t-16 -57.5q0 -49 78 -49h217q89 0 157 -69t68 -158 v-189q0 -77 -74 -159q-38 -41 -75 -54.5t-97 -13.5h-534z" />
<glyph unicode="t" horiz-adv-x="528" d="M88 0v1407h260v-383h174v-260h-174v-764h-260z" />
<glyph unicode="u" horiz-adv-x="1026" d="M88 246v778h260v-692q0 -40 21.5 -56t62.5 -16h162q41 0 62.5 16t21.5 56v692h260v-778q0 -118 -64 -182t-182 -64h-358q-118 0 -182 64t-64 182z" />
<glyph unicode="v" horiz-adv-x="993" d="M-20 1024h264l250 -694l256 694h264l-344 -928q-20 -52 -67 -81t-105 -29t-106 29t-68 81z" />
<glyph unicode="w" horiz-adv-x="1374" d="M20 1024h252l142 -717l88 551q13 78 61.5 129t124.5 51t123.5 -51t60.5 -129l89 -551l143 717h250l-168 -850q-18 -86 -75 -139t-142 -53q-81 0 -138 51.5t-69 130.5l-82 518l-68 -518q-11 -78 -69.5 -130t-136.5 -52q-85 0 -141.5 53.5t-74.5 138.5z" />
<glyph unicode="x" horiz-adv-x="925" d="M-6 0l325 539l-292 485h301l129 -229l141 229h299l-291 -485l326 -539h-303l-170 281l-162 -281h-303z" />
<glyph unicode="y" horiz-adv-x="1030" d="M88 -123h520q26 0 50 18.5t24 43.5v24v37h-334q-67 0 -105.5 13t-80.5 57q-43 43 -58.5 84.5t-15.5 105.5v764h260v-682q0 -82 70 -82h184q28 0 54 18.5t26 45.5v28v672h258v-1128q0 -117 -64.5 -198t-179.5 -81h-608v260z" />
<glyph unicode="z" horiz-adv-x="1017" d="M49 193q0 69 62 124l489 447h-524v260h659q104 0 167 -47.5t63 -147.5q0 -33 -11.5 -69t-33.5 -55l-510 -445h518v-260h-658q-94 0 -157.5 51t-63.5 142z" />
<glyph unicode="{" horiz-adv-x="641" d="M33 440v215q61 11 86.5 49.5t25.5 104.5v362q0 88 20 145.5t64.5 88.5t102.5 43t145 12q45 0 131 -4v-223h-39h-30.5t-26 -0.5t-25 -2t-20.5 -4.5t-19 -7t-14.5 -10.5t-12.5 -15t-7.5 -19.5t-6 -25.5t-1.5 -32.5v-325q0 -85 -25 -150q-9 -23 -26 -42.5t-31 -30.5t-41 -29 q73 -47 98 -103.5t25 -150.5v-324q0 -28 3.5 -48.5t14.5 -33t20 -19.5t31 -10t36.5 -3.5t45.5 -0.5h5.5h4.5h41v-225q-102 -4 -151 -4q-163 0 -237.5 65.5t-74.5 225.5v358q0 75 -23 118.5t-89 55.5z" />
<glyph unicode="|" d="M383 -383v1749h258v-1749h-258z" />
<glyph unicode="}" horiz-adv-x="641" d="M33 -154h41h42t34.5 2t31.5 6.5t23 12.5t19 20t9.5 30.5t4.5 43.5v326q0 88 24 151q8 24 25.5 44t30 29.5t42.5 29.5q-74 45 -98 100.5t-24 151.5v325q0 34 -8 56.5t-18 34t-33.5 17t-40.5 6.5t-54 1h-10h-41v223q147 6 151 6q165 0 238.5 -64.5t73.5 -226.5v-360 q0 -75 23 -118.5t89 -55.5v-215q-61 -11 -86.5 -49.5t-25.5 -104.5v-362q0 -87 -20 -144.5t-63.5 -89t-101.5 -43.5t-145 -12q-22 0 -66.5 2t-66.5 2v225z" />
<glyph unicode="~" horiz-adv-x="1366" d="M84 582q5 9 16.5 27.5t16.5 27.5q3 4 7 13q49 84 86 122l13 12q92 86 223 86q44 0 96.5 -12t83 -23t91.5 -34q18 -6 51.5 -18.5t50.5 -18.5q57 -23 115 -23q65 0 102.5 29t77.5 94l166 -94q-28 -48 -41 -68.5t-39 -55t-53 -58.5q-108 -94 -250 -94q-16 0 -34.5 2 t-31.5 3.5t-34.5 7.5t-30.5 8.5t-34 11.5t-29.5 10.5t-33.5 12.5t-30 11q-10 4 -48 19t-55.5 21t-48 13t-55.5 7q-36 0 -63.5 -10t-51 -34.5t-35.5 -41.5t-36 -56z" />
<glyph unicode="&#xa1;" horiz-adv-x="555" d="M117 879q0 66 46.5 112.5t112.5 46.5q67 0 115.5 -45t48.5 -112q0 -69 -46.5 -118.5t-114.5 -49.5t-115 49t-47 117zM129 -342v993h297v-993h-297z" />
<glyph unicode="&#xa2;" horiz-adv-x="837" d="M88 264v518q0 111 54 176.5t163 65.5h195v154h67v-154h209v-260h-209v-504h211v-260h-211v-113h-67v113h-38q-30 -1 -59 0t-56.5 1.5t-53.5 4.5t-49 9.5t-44 16t-38 24t-31 33.5t-23.5 45t-14.5 58t-5 72zM348 332q0 -31 20.5 -51.5t51.5 -20.5h80v504h-117 q-11 0 -23 -16t-12 -27v-389z" />
<glyph unicode="&#xa3;" horiz-adv-x="1273" d="M47 0v293q58 11 95.5 26t66.5 48q57 64 57 180h-217v293h219v202q0 153 77 238.5t228 85.5h181q79 0 135 -18t102 -70q72 -80 72 -205v-121h-301q0 115 -64 115h-53q-34 0 -56 -20.5t-22 -53.5v-153h330v-293h-330q-6 -81 -24 -137.5t-62 -116.5h373q14 6 35.5 14.5 t28 12t16.5 11t12 18.5t4 28t2 45h301v-105q0 -95 -50 -168.5t-130 -111t-174 -37.5h-852z" />
<glyph unicode="&#xa4;" horiz-adv-x="1366" d="M43 1264l141 141l213 -211q140 90 287 90q144 0 283 -88l209 207l139 -139l-207 -209q48 -74 71 -140t23 -145q0 -144 -90 -281l209 -210l-139 -140l-209 209q-140 -94 -291 -94q-136 0 -287 92l-209 -207l-141 140l211 208q-92 139 -92 283q0 143 92 283zM401 770 q0 -117 82 -201t199 -84q118 0 200.5 83t82.5 202q0 117 -82 200t-199 83t-200 -83t-83 -200z" />
<glyph unicode="&#xa5;" horiz-adv-x="1222" d="M6 1366h336l258 -510l281 510h336l-320 -598h299v-164h-389l-47 -74v-65h436v-164h-436v-301h-297l2 301h-426v164h426l-2 65l-35 78h-387v160h297z" />
<glyph unicode="&#xa6;" d="M383 313h258v-696h-258v696zM383 657v709h258v-709h-258z" />
<glyph unicode="&#xa7;" horiz-adv-x="1144" d="M61 582q0 100 54.5 172.5t150.5 105.5q-84 84 -84 197q0 79 35 142t93 101t128.5 58t145.5 20q172 0 284 -97t115 -267h-238q-5 78 -45 122t-116 44q-62 0 -105 -32t-43 -91q0 -44 35 -82q38 -40 154 -94q204 -104 288 -158t126 -114.5t42 -149.5q0 -98 -53 -173.5 t-145 -109.5q55 -48 79.5 -98t24.5 -121q0 -109 -60 -188t-151 -115.5t-198 -36.5q-191 0 -307.5 98t-116.5 285h237q9 -88 53 -132t131 -44q66 0 111 33.5t45 97.5q0 52 -45 94q-55 50 -155 100l-203 101.5t-162 101.5q-49 43 -77 104t-28 126zM291 606q0 -58 59 -100 q69 -50 244 -137q16 -8 46 -25t55 -29.5t48 -21.5q44 12 75.5 48.5t31.5 80.5q0 15 -3 28.5t-11 25.5t-14 19.5t-20 18t-20.5 15t-24 15l-22.5 13.5q-12 7 -35.5 21.5t-35.5 21.5q-167 94 -267 137q-47 -14 -76.5 -48.5t-29.5 -82.5z" />
<glyph unicode="&#xa8;" d="M152 1286q0 69 46.5 118.5t114.5 49.5t115 -49t47 -117q0 -66 -47 -112t-113 -46t-114.5 45.5t-48.5 110.5zM549 1286q0 68 47 118t115 50q67 0 114 -49t47 -117q0 -67 -47 -112.5t-114 -45.5q-65 0 -113.5 45.5t-48.5 110.5z" />
<glyph unicode="&#xa9;" horiz-adv-x="1536" d="M68 684q0 143 55.5 273t150 224t225 149.5t273.5 55.5q142 0 271.5 -56.5t222 -151t147.5 -224.5t55 -272t-55 -271.5t-148.5 -224t-223 -150.5t-271.5 -56t-272.5 56t-224.5 150.5t-149.5 224.5t-55.5 273zM205 684q0 -155 74 -288.5t204.5 -213.5t286.5 -80 q155 0 284.5 80t203 213t73.5 287t-73.5 287t-203 213t-284.5 80t-285.5 -79t-205 -211.5t-74.5 -287.5zM424 438v445q0 117 49.5 156.5t169.5 39.5h377v-200h-326q-42 0 -49 -14q-2 -5 -2 -11v-350q0 -38 8.5 -48t44.5 -10h324v-200h-406q-86 0 -138 53.5t-52 138.5z" />
<glyph unicode="&#xaa;" horiz-adv-x="708" d="M82 592v135h545v-135h-545zM98 950v105q0 68 44 103.5t114 35.5h170v4q0 10 -3 12t-15 2h-310v154h346q71 0 117.5 -35.5t46.5 -103.5v-273q0 -61 -43.5 -99t-105.5 -38h-197q-71 0 -117.5 32.5t-46.5 100.5zM281 989q0 -8 14 -8h117q14 0 16 9t-2 20.5t2 21.5 q-3 6 -14 6h-119q-10 0 -14 -2v-47z" />
<glyph unicode="&#xab;" horiz-adv-x="1026" d="M55 508q0 46 45 102l277 332h215l-356 -426l358 -428h-225l-263 311q-18 22 -27 34.5t-16.5 32.5t-7.5 42zM432 508q0 44 47 102l277 332h215l-357 -426l359 -428h-225l-265 311q-18 22 -27 34.5t-16.5 32.5t-7.5 42z" />
<glyph unicode="&#xac;" d="M68 307v240h888v-547h-260v307h-628z" />
<glyph unicode="&#xad;" horiz-adv-x="430" d="M0 494v260h430v-260h-430z" />
<glyph unicode="&#xae;" d="M82 1126q0 178 126 302t304 124t304 -124t126 -302t-126 -302t-304 -124q-176 0 -303 125t-127 301zM182 1126q0 -136 96.5 -232.5t233.5 -96.5t233.5 96.5t96.5 232.5t-97 233t-233 97t-233 -97t-97 -233zM358 932v434h240q47 0 77 -24.5t30 -69.5v-82q0 -42 -28 -65.5 t-71 -28.5l111 -164h-144l-75 117v141q3 0 18 -0.5t26.5 -0.5t24 1t15.5 4q2 43 2 47q0 16 -19 16h-86v-325h-121z" />
<glyph unicode="&#xaf;" d="M254 1141v178h516v-178h-516z" />
<glyph unicode="&#xb0;" horiz-adv-x="847" d="M109 1077q0 128 93.5 218.5t221.5 90.5q129 0 221 -90t92 -219t-92 -219t-221 -90q-128 0 -221.5 90.5t-93.5 218.5zM264 1077q0 -65 47.5 -111t112.5 -46t112.5 46t47.5 111t-47.5 110.5t-112.5 45.5t-112.5 -45.5t-47.5 -110.5z" />
<glyph unicode="&#xb1;" d="M68 102v240h888v-240h-888zM68 727v240h315v317h258v-317h315v-240h-315v-315h-258v315h-315z" />
<glyph unicode="&#xb2;" horiz-adv-x="724" d="M68 532v318q0 83 51.5 134.5t134.5 51.5h131h10.5h9.5t7.5 0.5t7.5 1t6 2.5t5 4t3 5.5t3 8.5t1 11q0 10 1 30.5t1 30.5q0 6 -0.5 11.5t-2.5 9t-3 6t-5 4t-5.5 2.5t-7 1.5t-7.5 0.5h-9h-9h-323v201h376q97 0 155 -47t58 -141q0 -30 -1 -92t-1 -93q-1 -73 -58 -116 t-132 -43h-131q-20 0 -31.5 -4t-15.5 -15t-4.5 -19.5t1 -29.5t1.5 -33h372v-201h-589z" />
<glyph unicode="&#xb3;" horiz-adv-x="724" d="M57 532v201h336q28 0 33.5 4.5t5.5 28.5q0 7 1 22.5t0.5 23.5t-3 18.5t-11 15t-22.5 4.5h-155v199h155q15 0 23.5 4.5t11 14t3 17.5t-1 24t-1.5 24q0 24 -5 28t-34 4h-336v201h385q55 0 86.5 -7.5t65.5 -37.5q55 -49 55 -119v-129q0 -79 -80 -125q80 -46 80 -123v-129 q0 -72 -55 -118q-36 -30 -66.5 -38t-85.5 -8h-385z" />
<glyph unicode="&#xb4;" d="M342 1161l109 246h231l-141 -246h-199z" />
<glyph unicode="&#xb5;" d="M57 -342v1319h258v-516q0 -44 1 -68t10 -59t26 -62q28 -41 72 -64.5t94 -23.5q105 0 160 90q17 28 26 64t10 61t1 70v508h256v-977h-256v119q-37 -68 -84 -103.5t-119 -35.5q-68 0 -115 31t-82 93v-446h-258z" />
<glyph unicode="&#xb6;" horiz-adv-x="1355" d="M123 1004q0 362 473 362h678v-201h-148v-1548h-221v1548h-172v-1548h-219v1040q-4 0 -12.5 -1t-12.5 -1q-160 0 -263 95t-103 254z" />
<glyph unicode="&#xb7;" horiz-adv-x="473" d="M76 625q0 68 47 118t115 50q67 0 114 -49t47 -117q0 -67 -47.5 -113.5t-113.5 -46.5t-114 46t-48 112z" />
<glyph unicode="&#xb8;" d="M289 -381l37 80q86 -33 149 -33q41 0 69.5 17t28.5 55q0 34 -26.5 53t-61.5 19q-11 0 -73 -15l-39 37l112 168h93l-80 -123q42 10 71 10q70 0 119 -36t49 -103q0 -58 -37.5 -98.5t-88.5 -57t-107 -16.5q-97 0 -215 43z" />
<glyph unicode="&#xb9;" horiz-adv-x="724" d="M254 532v834h217v-834h-217z" />
<glyph unicode="&#xba;" horiz-adv-x="708" d="M82 592v135h545v-135h-545zM94 948v285q0 66 46.5 99.5t115.5 33.5h193q69 0 116 -33.5t47 -99.5v-285q0 -66 -47 -98.5t-116 -32.5h-193q-69 0 -115.5 32.5t-46.5 98.5zM276 999q0 -18 27 -18h100q27 0 27 18v185q0 18 -27 18h-100q-27 0 -27 -18v-185z" />
<glyph unicode="&#xbb;" horiz-adv-x="1026" d="M55 942h224l264 -309q18 -22 27 -34.5t16.5 -32.5t7.5 -42q0 -49 -45 -104l-279 -332h-213l357 426zM432 942h225l265 -309q18 -22 27 -34.5t16.5 -32.5t7.5 -42q0 -47 -47 -104l-277 -332h-215l357 426z" />
<glyph unicode="&#xbc;" horiz-adv-x="1613" d="M145 532v834h217v-834h-217zM236 0l774 1366h260l-774 -1366h-260zM915 352q0 24 15 58l182 424h193l-138 -412h158v412h219v-834h-219v223h-225q-79 0 -119 25q-66 43 -66 104z" />
<glyph unicode="&#xbd;" horiz-adv-x="1613" d="M145 532v834h217v-834h-217zM154 0l774 1366h260l-774 -1366h-260zM956 0v317q0 84 52.5 135.5t136.5 51.5h129h11.5h11t9 0.5t8.5 1.5t6.5 3.5t5 6t2.5 9t1 12.5v61q0 13 -3 21t-11.5 10.5t-13.5 3t-21 0.5h-324v201h379q97 0 155 -47.5t58 -141.5q0 -31 -1 -92.5 t-1 -91.5q-1 -74 -58.5 -117t-133.5 -43h-131q-20 0 -31.5 -4t-15.5 -15t-4.5 -19.5t1 -29.5t1.5 -32h372v-201h-590z" />
<glyph unicode="&#xbe;" horiz-adv-x="1724" d="M57 532v201h336q28 0 33.5 4.5t5.5 28.5q0 7 1 22.5t0.5 23.5t-3 18.5t-11 15t-22.5 4.5h-155v199h155q15 0 23.5 4.5t11 14t3 17.5t-1 24t-1.5 24q0 24 -5 28t-34 4h-336v201h385q55 0 86.5 -7.5t65.5 -37.5q55 -49 55 -119v-129q0 -79 -80 -125q80 -46 80 -123v-129 q0 -72 -55 -118q-36 -30 -66.5 -38t-85.5 -8h-385zM373 0l774 1366h258l-772 -1366h-260zM1026 350q0 33 12 60l183 424h194l-139 -412h160v412h217v-834h-217v223h-226q-53 0 -88 9.5t-63 41.5q-33 37 -33 76z" />
<glyph unicode="&#xbf;" d="M88 -45v303q0 52 25.5 106.5t64.5 90.5q22 20 48.5 32.5t62.5 16.5t58 5.5t66 0t56 -1.5v141h293v-190q0 -97 -69 -157t-167 -60h-53q-44 0 -67 -13.5t-23 -54.5v-151q0 -70 80 -70h514v-295h-612q-146 0 -209 82q-33 41 -50.5 100t-17.5 115zM459 879q0 66 46.5 112.5 t112.5 46.5t115 -46t49 -111q0 -69 -46.5 -118.5t-114.5 -49.5t-115 49t-47 117z" />
<glyph unicode="&#xc0;" horiz-adv-x="1202" d="M-6 0l377 1196q27 86 85 134t146 48q87 0 144.5 -48t84.5 -134l377 -1196h-307l-92 293h-416l-92 -293h-307zM432 1720h232l108 -245h-199zM481 571h240l-139 443z" />
<glyph unicode="&#xc1;" horiz-adv-x="1202" d="M-6 0l377 1196q27 86 85 134t146 48q87 0 144.5 -48t84.5 -134l377 -1196h-307l-92 293h-416l-92 -293h-307zM432 1475l109 245h231l-141 -245h-199zM481 571h240l-139 443z" />
<glyph unicode="&#xc2;" horiz-adv-x="1202" d="M-6 0l377 1196q27 86 85 134t146 48q87 0 144.5 -48t84.5 -134l377 -1196h-307l-92 293h-416l-92 -293h-307zM305 1475l137 206h306l151 -206h-194l-115 153l-94 -153h-191zM481 571h240l-139 443z" />
<glyph unicode="&#xc3;" horiz-adv-x="1202" d="M-6 0l377 1196q27 86 85 134t146 48q87 0 144.5 -48t84.5 -134l377 -1196h-307l-92 293h-416l-92 -293h-307zM252 1470v166q11 3 48.5 12.5t61 15.5t56 11.5t53.5 5.5q60 0 188 -36q54 -13 64 -13q19 0 102 19q51 12 127 26v-166q-17 -4 -49.5 -11t-48.5 -11 q-12 -3 -40.5 -10.5t-48.5 -11t-40 -3.5q-43 0 -125.5 27t-124.5 27q-16 0 -50 -6.5t-62.5 -13.5t-66.5 -17t-44 -11zM481 571h240l-139 443z" />
<glyph unicode="&#xc4;" horiz-adv-x="1202" d="M-6 0l377 1196q27 86 85 134t146 48q87 0 144.5 -48t84.5 -134l377 -1196h-307l-92 293h-416l-92 -293h-307zM242 1630q0 69 46.5 118.5t114.5 49.5t115 -49t47 -117q0 -66 -46.5 -111.5t-112.5 -45.5t-115 45t-49 110zM481 571h240l-139 443zM639 1630q0 68 47 118 t115 50q67 0 114.5 -49t47.5 -117q0 -67 -47.5 -112t-114.5 -45q-66 0 -114 45t-48 110z" />
<glyph unicode="&#xc5;" horiz-adv-x="1202" d="M-6 0l377 1196q27 86 85 134t146 48q87 0 144.5 -48t84.5 -134l377 -1196h-307l-92 293h-416l-92 -293h-307zM375 1708q0 92 66.5 158.5t158.5 66.5q93 0 160 -66t67 -159t-66 -160t-159 -67q-94 0 -160.5 66.5t-66.5 160.5zM481 571h240l-139 443zM492 1708 q0 -46 32 -78.5t78 -32.5q45 0 77 33t32 78q0 44 -32.5 76.5t-76.5 32.5q-45 0 -77.5 -32t-32.5 -77z" />
<glyph unicode="&#xc6;" horiz-adv-x="1753" d="M-6 0l557 1196q47 99 119.5 134.5t191.5 35.5h815v-293h-518q-34 0 -54 -21.5t-20 -56.5v-155h592v-293h-592v-172q0 -36 18.5 -59t53.5 -23h520v-293h-592q-64 0 -107 15t-89 55q-92 82 -92 188v35h-359l-119 -293h-325zM565 569h228v539z" />
<glyph unicode="&#xc7;" horiz-adv-x="1042" d="M88 303v752q0 59 3 93t20 78t51 77q24 23 52 37t67.5 19t59 6t69.5 1h571v-295h-489q-109 0 -109 -59v-598q0 -72 20.5 -96.5t90.5 -24.5h487v-293h-340l-80 -123q42 10 74 10q70 0 119 -36t49 -103q0 -59 -38.5 -99.5t-89.5 -56.5t-108 -16q-100 0 -215 43l37 80 q86 -33 150 -33q41 0 70.5 17t29.5 55q0 34 -27 53t-63 19q-11 0 -74 -15l-39 37l113 168h-184q-53 0 -107 24t-94 62q-76 73 -76 217z" />
<glyph unicode="&#xc8;" horiz-adv-x="1054" d="M88 285v784q0 137 74.5 217t210.5 80h608v-295h-481h-49q-33 0 -50.5 -27.5t-17.5 -60.5v-149h598v-295h-598v-152q0 -34 7 -53.5t25 -28t35 -10.5t52 -2h479v-293h-565q-154 0 -241 68.5t-87 216.5zM432 1720h232l108 -245h-199z" />
<glyph unicode="&#xc9;" horiz-adv-x="1054" d="M88 285v784q0 137 74.5 217t210.5 80h608v-295h-481h-49q-33 0 -50.5 -27.5t-17.5 -60.5v-149h598v-295h-598v-152q0 -34 7 -53.5t25 -28t35 -10.5t52 -2h479v-293h-565q-154 0 -241 68.5t-87 216.5zM432 1475l109 245h231l-141 -245h-199z" />
<glyph unicode="&#xca;" horiz-adv-x="1054" d="M88 285v784q0 137 74.5 217t210.5 80h608v-295h-481h-49q-33 0 -50.5 -27.5t-17.5 -60.5v-149h598v-295h-598v-152q0 -34 7 -53.5t25 -28t35 -10.5t52 -2h479v-293h-565q-154 0 -241 68.5t-87 216.5zM305 1475l137 206h306l151 -206h-194l-115 153l-94 -153h-191z" />
<glyph unicode="&#xcb;" horiz-adv-x="1054" d="M88 285v784q0 137 74.5 217t210.5 80h608v-295h-481h-49q-33 0 -50.5 -27.5t-17.5 -60.5v-149h598v-295h-598v-152q0 -34 7 -53.5t25 -28t35 -10.5t52 -2h479v-293h-565q-154 0 -241 68.5t-87 216.5zM215 1630q0 68 47 118t115 50t115 -49t47 -117q0 -66 -47 -111.5 t-113 -45.5t-115 45t-49 110zM612 1630q0 68 47 118t115 50q67 0 114.5 -49t47.5 -117q0 -67 -47.5 -112t-114.5 -45q-66 0 -114 45t-48 110z" />
<glyph unicode="&#xcc;" horiz-adv-x="471" d="M66 1720h231l109 -245h-199zM88 0v1366h295v-1366h-295z" />
<glyph unicode="&#xcd;" horiz-adv-x="471" d="M66 1475l108 245h232l-142 -245h-198zM88 0v1366h295v-1366h-295z" />
<glyph unicode="&#xce;" horiz-adv-x="471" d="M-2 1475l111 208h243l121 -208h-156l-92 155l-75 -155h-152zM88 0v1366h295v-1366h-295z" />
<glyph unicode="&#xcf;" horiz-adv-x="471" d="M-14 1632q0 36 11.5 72.5t39.5 65t65 28.5q55 0 86 -52.5t31 -111.5q0 -57 -30.5 -108t-84.5 -51q-55 0 -86.5 49.5t-31.5 107.5zM88 0v1366h295v-1366h-295zM252 1632q0 60 30.5 113t86.5 53q55 0 85.5 -53t30.5 -111q0 -57 -31 -108t-85 -51t-85.5 50t-31.5 107z" />
<glyph unicode="&#xd0;" horiz-adv-x="1169" d="M0 539v295h88v532h698q153 0 223 -74.5t70 -228.5v-762q0 -140 -72 -220.5t-210 -80.5h-709v539h-88zM383 293h301q64 0 83 25t19 94v596q0 33 -33 48t-69 15h-301v-237h156v-295h-156v-246z" />
<glyph unicode="&#xd1;" horiz-adv-x="1165" d="M88 0v1094q0 127 62.5 206.5t185.5 79.5q101 0 165.5 -60.5t90.5 -162.5l205 -790v999h280v-1130q0 -106 -70 -180t-176 -74q-192 0 -253 229l-209 784v-995h-281zM233 1470v166q10 2 48 12t62 16t56.5 11.5t53.5 5.5q60 0 188 -36q54 -13 64 -13q19 0 102 19 q51 12 127 26v-166q-16 -4 -48.5 -11t-49.5 -11q-12 -3 -40.5 -10.5t-48.5 -11t-40 -3.5q-43 0 -125.5 27t-124.5 27q-16 0 -50.5 -6.5t-62.5 -13.5t-67 -17t-44 -11z" />
<glyph unicode="&#xd2;" horiz-adv-x="1140" d="M88 293v778q0 70 26 135.5t76 106.5q64 53 207 53h348q155 0 230.5 -71t75.5 -224v-778q0 -151 -78 -222t-230 -71h-346q-147 0 -211 53q-47 38 -72.5 105.5t-25.5 134.5zM383 389q0 -53 22.5 -74.5t75.5 -21.5h181q54 0 75 17t21 69v598q0 55 -20 74.5t-76 19.5h-181 q-57 0 -77.5 -19t-20.5 -75v-588zM399 1720h232l108 -245h-198z" />
<glyph unicode="&#xd3;" horiz-adv-x="1140" d="M88 293v778q0 70 26 135.5t76 106.5q64 53 207 53h348q155 0 230.5 -71t75.5 -224v-778q0 -151 -78 -222t-230 -71h-346q-147 0 -211 53q-47 38 -72.5 105.5t-25.5 134.5zM383 389q0 -53 22.5 -74.5t75.5 -21.5h181q54 0 75 17t21 69v598q0 55 -20 74.5t-76 19.5h-181 q-57 0 -77.5 -19t-20.5 -75v-588zM399 1475l109 245h231l-141 -245h-199z" />
<glyph unicode="&#xd4;" horiz-adv-x="1140" d="M88 293v778q0 70 26 135.5t76 106.5q64 53 207 53h348q155 0 230.5 -71t75.5 -224v-778q0 -151 -78 -222t-230 -71h-346q-147 0 -211 53q-47 38 -72.5 105.5t-25.5 134.5zM272 1475l138 206h305l151 -206h-194l-115 153l-94 -153h-191zM383 389q0 -53 22.5 -74.5 t75.5 -21.5h181q54 0 75 17t21 69v598q0 55 -20 74.5t-76 19.5h-181q-57 0 -77.5 -19t-20.5 -75v-588z" />
<glyph unicode="&#xd5;" horiz-adv-x="1140" d="M88 293v778q0 70 26 135.5t76 106.5q64 53 207 53h348q155 0 230.5 -71t75.5 -224v-778q0 -151 -78 -222t-230 -71h-346q-147 0 -211 53q-47 38 -72.5 105.5t-25.5 134.5zM219 1470v166q11 3 48.5 12.5t61 15.5t56 11.5t53.5 5.5q61 0 189 -36q7 -2 20 -6t22.5 -5.5 t20.5 -1.5q20 0 103 19q51 12 127 26v-166q-17 -4 -50 -11t-49 -11q-12 -3 -40.5 -10.5t-48.5 -11t-40 -3.5q-43 0 -125.5 27t-124.5 27q-16 0 -50 -6.5t-62.5 -13.5t-66.5 -17t-44 -11zM383 389q0 -53 22.5 -74.5t75.5 -21.5h181q54 0 75 17t21 69v598q0 55 -20 74.5 t-76 19.5h-181q-57 0 -77.5 -19t-20.5 -75v-588z" />
<glyph unicode="&#xd6;" horiz-adv-x="1140" d="M88 293v778q0 70 26 135.5t76 106.5q64 53 207 53h348q155 0 230.5 -71t75.5 -224v-778q0 -151 -78 -222t-230 -71h-346q-147 0 -211 53q-47 38 -72.5 105.5t-25.5 134.5zM209 1630q0 68 47 118t115 50t114.5 -49t46.5 -117q0 -66 -46.5 -111.5t-112.5 -45.5t-115 45 t-49 110zM383 389q0 -53 22.5 -74.5t75.5 -21.5h181q54 0 75 17t21 69v598q0 55 -20 74.5t-76 19.5h-181q-57 0 -77.5 -19t-20.5 -75v-588zM606 1630q0 68 47 118t115 50q67 0 114.5 -49t47.5 -117q0 -67 -47.5 -112t-114.5 -45q-66 0 -114 45t-48 110z" />
<glyph unicode="&#xd7;" d="M66 418l276 278l-276 277l170 170l276 -279l276 279l170 -170l-276 -277l276 -278l-170 -168l-276 276l-276 -276z" />
<glyph unicode="&#xd8;" horiz-adv-x="1140" d="M90 0l62 94q-62 85 -62 199v778q0 69 25.5 135t74.5 107q64 53 207 53h348q65 0 109.5 -8.5t87.5 -36.5l29 45h82l-60 -92q60 -80 60 -203v-778q0 -293 -310 -293h-346q-131 0 -196 43l-29 -43h-82zM383 453l371 573q-11 22 -25 32t-26 11.5t-41 1.5h-179 q-57 0 -78.5 -19t-21.5 -75v-524zM391 340q14 -31 33 -39t59 -8h179q54 0 75 17t21 69v522z" />
<glyph unicode="&#xd9;" horiz-adv-x="1165" d="M88 340v1026h295v-975q0 -63 18 -80.5t82 -17.5h199q60 0 80 17.5t20 74.5v981h293v-1024q0 -67 -2.5 -99t-19.5 -75.5t-52 -81.5q-48 -51 -99.5 -68.5t-129.5 -17.5h-379q-80 0 -131.5 17t-99.5 69q-35 38 -52 81.5t-19.5 75t-2.5 97.5zM412 1720h231l109 -245h-199z " />
<glyph unicode="&#xda;" horiz-adv-x="1165" d="M88 340v1026h295v-975q0 -63 18 -80.5t82 -17.5h199q60 0 80 17.5t20 74.5v981h293v-1024q0 -67 -2.5 -99t-19.5 -75.5t-52 -81.5q-48 -51 -99.5 -68.5t-129.5 -17.5h-379q-80 0 -131.5 17t-99.5 69q-35 38 -52 81.5t-19.5 75t-2.5 97.5zM412 1475l108 245h232l-142 -245 h-198z" />
<glyph unicode="&#xdb;" horiz-adv-x="1165" d="M88 340v1026h295v-975q0 -63 18 -80.5t82 -17.5h199q60 0 80 17.5t20 74.5v981h293v-1024q0 -67 -2.5 -99t-19.5 -75.5t-52 -81.5q-48 -51 -99.5 -68.5t-129.5 -17.5h-379q-80 0 -131.5 17t-99.5 69q-35 38 -52 81.5t-19.5 75t-2.5 97.5zM285 1475l137 206h305l152 -206 h-195l-115 153l-94 -153h-190z" />
<glyph unicode="&#xdc;" horiz-adv-x="1165" d="M88 340v1026h295v-975q0 -63 18 -80.5t82 -17.5h199q60 0 80 17.5t20 74.5v981h293v-1024q0 -67 -2.5 -99t-19.5 -75.5t-52 -81.5q-48 -51 -99.5 -68.5t-129.5 -17.5h-379q-80 0 -131.5 17t-99.5 69q-35 38 -52 81.5t-19.5 75t-2.5 97.5zM221 1630q0 68 47 118t115 50 t115 -49t47 -117q0 -66 -47 -111.5t-113 -45.5t-115 45t-49 110zM618 1630q0 68 47 118t115 50q67 0 114.5 -49t47.5 -117q0 -67 -47.5 -112t-114.5 -45q-66 0 -114 45t-48 110z" />
<glyph unicode="&#xdd;" horiz-adv-x="1167" d="M-20 1366h335l258 -510l281 510h334l-459 -836v-530h-293v530zM414 1475l108 245h234l-144 -245h-198z" />
<glyph unicode="&#xde;" horiz-adv-x="1112" d="M88 0v1366h295v-205h389q130 0 211.5 -72.5t81.5 -199.5v-334q0 -124 -73 -196t-197 -72h-412v-287h-295zM383 588h299q48 0 69 14t21 60v122q0 45 -23.5 64.5t-70.5 19.5l-295 -2v-278z" />
<glyph unicode="&#xdf;" horiz-adv-x="1077" d="M90 0v1071q0 61 20 123.5t58 103.5q65 68 201 68h209q109 0 184.5 -71.5t75.5 -178.5v-129q0 -106 -90 -172q89 -30 135 -70q43 -37 73.5 -100t30.5 -119v-243q0 -135 -88 -217q-43 -40 -88.5 -53t-114.5 -13h-295v260h242q44 0 67 17.5t23 60.5v174q0 44 -28.5 67 t-73.5 23h-230v254h26q29 0 42 -0.5t32.5 2t26.5 2.5t19 7t14.5 10t8.5 16t6.5 20.5l2 30t1.5 36.5v47v1.5v1.5q0 30 -22 53t-52 23h-74q-35 0 -58.5 -21t-23.5 -55v-1030h-260z" />
<glyph unicode="&#xe0;" horiz-adv-x="1034" d="M88 231v209q0 117 67 180.5t185 63.5h346v25q0 33 -17 44t-53 11h-524v260h590q121 0 191.5 -62t70.5 -180v-542q0 -102 -66.5 -171t-168.5 -69h-357q-119 0 -191.5 58t-72.5 173zM346 1407h232l108 -246h-199zM348 311q0 -24 21.5 -37.5t46.5 -13.5h200q29 0 49.5 12 t20.5 39v72q0 59 -72 59h-198q-40 0 -54 -13.5t-14 -53.5v-64z" />
<glyph unicode="&#xe1;" horiz-adv-x="1034" d="M88 231v209q0 117 67 180.5t185 63.5h346v25q0 33 -17 44t-53 11h-524v260h590q121 0 191.5 -62t70.5 -180v-542q0 -102 -66.5 -171t-168.5 -69h-357q-119 0 -191.5 58t-72.5 173zM346 1161l109 246h231l-141 -246h-199zM348 311q0 -24 21.5 -37.5t46.5 -13.5h200 q29 0 49.5 12t20.5 39v72q0 59 -72 59h-198q-40 0 -54 -13.5t-14 -53.5v-64z" />
<glyph unicode="&#xe2;" horiz-adv-x="1034" d="M88 231v209q0 117 67 180.5t185 63.5h346v25q0 33 -17 44t-53 11h-524v260h590q121 0 191.5 -62t70.5 -180v-542q0 -102 -66.5 -171t-168.5 -69h-357q-119 0 -191.5 58t-72.5 173zM219 1204l137 207h306l151 -207h-195l-114 154l-94 -154h-191zM348 311q0 -24 21.5 -37.5 t46.5 -13.5h200q29 0 49.5 12t20.5 39v72q0 59 -72 59h-198q-40 0 -54 -13.5t-14 -53.5v-64z" />
<glyph unicode="&#xe3;" horiz-adv-x="1034" d="M88 231v209q0 117 67 180.5t185 63.5h346v25q0 33 -17 44t-53 11h-524v260h590q121 0 191.5 -62t70.5 -180v-542q0 -102 -66.5 -171t-168.5 -69h-357q-119 0 -191.5 58t-72.5 173zM166 1210v166q11 3 48.5 12.5t61 15.5t56 11.5t53.5 5.5q56 0 188 -37q50 -12 64 -12 q19 0 102 19q51 12 127 26v-166q-16 -4 -48.5 -11t-49.5 -11q-12 -3 -40.5 -10.5t-48.5 -11t-40 -3.5q-43 0 -125.5 26.5t-124.5 26.5q-16 0 -50.5 -6.5t-61 -13t-68 -16.5t-43.5 -11zM348 311q0 -24 21.5 -37.5t46.5 -13.5h200q29 0 49.5 12t20.5 39v72q0 59 -72 59h-198 q-40 0 -54 -13.5t-14 -53.5v-64z" />
<glyph unicode="&#xe4;" horiz-adv-x="1034" d="M88 231v209q0 117 67 180.5t185 63.5h346v25q0 33 -17 44t-53 11h-524v260h590q121 0 191.5 -62t70.5 -180v-542q0 -102 -66.5 -171t-168.5 -69h-357q-119 0 -191.5 58t-72.5 173zM156 1286q0 69 46.5 118.5t114.5 49.5t115 -49t47 -117q0 -66 -47 -112t-113 -46 t-114.5 45.5t-48.5 110.5zM348 311q0 -24 21.5 -37.5t46.5 -13.5h200q29 0 49.5 12t20.5 39v72q0 59 -72 59h-198q-40 0 -54 -13.5t-14 -53.5v-64zM553 1286q0 68 47 118t115 50q67 0 114.5 -49t47.5 -117q0 -67 -47.5 -112.5t-114.5 -45.5q-65 0 -113.5 45.5t-48.5 110.5z " />
<glyph unicode="&#xe5;" horiz-adv-x="1034" d="M88 231v209q0 117 67 180.5t185 63.5h346v25q0 33 -17 44t-53 11h-524v260h590q121 0 191.5 -62t70.5 -180v-542q0 -102 -66.5 -171t-168.5 -69h-357q-119 0 -191.5 58t-72.5 173zM285 1366q0 97 67 164t164 67q95 0 163.5 -68t68.5 -163t-68.5 -163t-163.5 -68 q-97 0 -164 67t-67 164zM348 311q0 -24 21.5 -37.5t46.5 -13.5h200q29 0 49.5 12t20.5 39v72q0 59 -72 59h-198q-40 0 -54 -13.5t-14 -53.5v-64zM393 1366q0 -51 36 -87t87 -36t87 36t36 87t-36 87t-87 36t-87 -36t-36 -87z" />
<glyph unicode="&#xe6;" horiz-adv-x="1626" d="M94 197v264q0 41 33 93t70 81q60 47 180 47h311v33q0 30 -24.5 46.5t-55.5 16.5h-514v246h524q70 0 117 -22.5t86 -77.5q66 100 205 100h236q83 0 138.5 -22t96.5 -82q55 -78 55 -189v-151l-606 -234v-22q0 -14 8 -27q5 -9 9 -14t10 -8t9 -4t14 -2.5t16 -2.5q30 -6 35 -6 h505v-260h-516q-81 0 -122 19.5t-87 82.5q-38 -49 -79 -75.5t-97 -26.5h-268q-48 0 -67 1t-51.5 9t-59.5 25q-41 26 -76 73t-35 89zM362 303q0 -20 13 -30t25.5 -11.5t35.5 -1.5h209q16 0 35.5 7t19.5 20v84q0 30 -20.5 45.5t-52.5 15.5h-181q-36 0 -60 -16.5t-24 -50.5v-62 zM946 575l338 127v11q0 22 -23 33.5t-47 11.5h-188q-32 0 -56 -17t-24 -49v-117z" />
<glyph unicode="&#xe7;" horiz-adv-x="839" d="M88 264v518q0 111 54 176.5t163 65.5h471v-260h-350q-6 0 -16 0.5t-14.5 0.5t-11.5 -1.5t-12.5 -5t-11.5 -10.5q-12 -12 -12 -27v-389q0 -31 20.5 -51.5t51.5 -20.5h358v-260h-239l-80 -123q42 10 73 10q70 0 119 -36t49 -103q0 -59 -38 -99.5t-89 -56.5t-108 -16 q-100 0 -215 43l37 80q90 -33 151 -33q41 0 70 17t29 55q0 34 -27.5 53t-63.5 19q-28 0 -71 -15l-41 37l115 168h-89q-138 0 -205 63.5t-67 200.5z" />
<glyph unicode="&#xe8;" horiz-adv-x="1015" d="M88 784q0 113 69.5 176.5t184.5 63.5h352q117 0 181.5 -65.5t64.5 -182.5v-205l-588 -223v-16q0 -46 20 -59t64 -13h502v-260h-569q-74 0 -118 11t-87 52q-46 43 -60 86.5t-14 116.5q0 86 -1 259t-1 259zM344 1407h231l109 -246h-199zM348 594l328 119v6q0 20 -20 32.5 t-42 12.5h-182q-32 0 -58 -18t-26 -48v-104z" />
<glyph unicode="&#xe9;" horiz-adv-x="1015" d="M88 784q0 113 69.5 176.5t184.5 63.5h352q117 0 181.5 -65.5t64.5 -182.5v-205l-588 -223v-16q0 -46 20 -59t64 -13h502v-260h-569q-74 0 -118 11t-87 52q-46 43 -60 86.5t-14 116.5q0 86 -1 259t-1 259zM344 1161l109 246h231l-141 -246h-199zM348 594l328 119v6 q0 20 -20 32.5t-42 12.5h-182q-32 0 -58 -18t-26 -48v-104z" />
<glyph unicode="&#xea;" horiz-adv-x="1015" d="M88 784q0 113 69.5 176.5t184.5 63.5h352q117 0 181.5 -65.5t64.5 -182.5v-205l-588 -223v-16q0 -46 20 -59t64 -13h502v-260h-569q-74 0 -118 11t-87 52q-46 43 -60 86.5t-14 116.5q0 86 -1 259t-1 259zM217 1204l137 207h305l152 -207h-195l-114 154l-94 -154h-191z M348 594l328 119v6q0 20 -20 32.5t-42 12.5h-182q-32 0 -58 -18t-26 -48v-104z" />
<glyph unicode="&#xeb;" horiz-adv-x="1015" d="M88 784q0 113 69.5 176.5t184.5 63.5h352q117 0 181.5 -65.5t64.5 -182.5v-205l-588 -223v-16q0 -46 20 -59t64 -13h502v-260h-569q-74 0 -118 11t-87 52q-46 43 -60 86.5t-14 116.5q0 86 -1 259t-1 259zM154 1286q0 69 46.5 118.5t114.5 49.5t115 -49t47 -117 q0 -66 -47 -112t-113 -46t-114.5 45.5t-48.5 110.5zM348 594l328 119v6q0 20 -20 32.5t-42 12.5h-182q-32 0 -58 -18t-26 -48v-104zM551 1286q0 68 47 118t115 50q67 0 114 -49t47 -117q0 -67 -47 -112.5t-114 -45.5q-65 0 -113.5 45.5t-48.5 110.5z" />
<glyph unicode="&#xec;" horiz-adv-x="438" d="M49 1407h232l108 -246h-199zM90 0v1024h258v-1024h-258z" />
<glyph unicode="&#xed;" horiz-adv-x="438" d="M49 1161l109 246h231l-141 -246h-199zM90 0v1024h258v-1024h-258z" />
<glyph unicode="&#xee;" horiz-adv-x="438" d="M-18 1204l110 207h244l121 -207h-156l-92 154l-76 -154h-151zM90 0v1024h258v-1024h-258z" />
<glyph unicode="&#xef;" horiz-adv-x="438" d="M-23 1286q0 60 29.5 114t83.5 54q37 0 64 -28.5t38 -65t11 -72.5q0 -58 -29.5 -108t-83.5 -50q-52 0 -82.5 50.5t-30.5 105.5zM90 0v1024h258v-1024h-258zM236 1286q0 60 29 114t83 54q37 0 64 -28.5t38 -65t11 -72.5q0 -58 -29.5 -108t-83.5 -50q-52 0 -82 50.5 t-30 105.5z" />
<glyph unicode="&#xf0;" horiz-adv-x="1040" d="M88 258v512q0 106 65 180t169 74h370v37q0 39 -2 59l-184 -33l-29 164l166 29q-36 58 -98 127h282q49 -65 60 -84l172 31l28 -164l-139 -25q2 -10 2 -32v-859q0 -69 -10.5 -111.5t-48.5 -82.5q-74 -80 -197 -80h-368q-109 0 -173.5 73.5t-64.5 184.5zM348 303 q0 -20 23 -31.5t45 -11.5h211q26 0 45.5 17t19.5 42v373q0 33 -21.5 52.5t-54.5 19.5h-198q-30 0 -50 -22t-20 -52v-387z" />
<glyph unicode="&#xf1;" horiz-adv-x="1026" d="M88 0v778q0 118 64 182t182 64h358q118 0 182 -64t64 -182v-778h-260v692q0 40 -21.5 56t-62.5 16h-162q-41 0 -62.5 -16t-21.5 -56v-692h-260zM164 1210v166q11 3 48.5 12.5t61 15.5t56 11.5t53.5 5.5q56 0 188 -37q50 -12 64 -12q19 0 102 19q51 12 127 26v-166 q-16 -4 -48.5 -11t-49.5 -11q-12 -3 -40.5 -10.5t-48.5 -11t-40 -3.5q-43 0 -125.5 26.5t-124.5 26.5q-16 0 -50.5 -6.5t-61 -13t-68 -16.5t-43.5 -11z" />
<glyph unicode="&#xf2;" horiz-adv-x="1042" d="M88 229v566q0 106 82 178q38 32 77 41.5t101 9.5h348q62 0 101 -9.5t77 -41.5t59 -79.5t21 -98.5v-566q0 -105 -80 -178q-36 -32 -76 -41.5t-102 -9.5h-348q-62 0 -101 9.5t-77 41.5q-82 72 -82 178zM348 330q0 -70 82 -70h184q80 0 80 72v362q0 35 -22 52.5t-58 17.5 h-184q-82 0 -82 -70v-364zM352 1407h232l108 -246h-198z" />
<glyph unicode="&#xf3;" horiz-adv-x="1042" d="M88 229v566q0 106 82 178q38 32 77 41.5t101 9.5h348q62 0 101 -9.5t77 -41.5t59 -79.5t21 -98.5v-566q0 -105 -80 -178q-36 -32 -76 -41.5t-102 -9.5h-348q-62 0 -101 9.5t-77 41.5q-82 72 -82 178zM348 330q0 -70 82 -70h184q80 0 80 72v362q0 35 -22 52.5t-58 17.5 h-184q-82 0 -82 -70v-364zM352 1161l109 246h231l-141 -246h-199z" />
<glyph unicode="&#xf4;" horiz-adv-x="1042" d="M88 229v566q0 106 82 178q38 32 77 41.5t101 9.5h348q62 0 101 -9.5t77 -41.5t59 -79.5t21 -98.5v-566q0 -105 -80 -178q-36 -32 -76 -41.5t-102 -9.5h-348q-62 0 -101 9.5t-77 41.5q-82 72 -82 178zM225 1204l137 207h306l151 -207h-194l-115 154l-94 -154h-191z M348 330q0 -70 82 -70h184q80 0 80 72v362q0 35 -22 52.5t-58 17.5h-184q-82 0 -82 -70v-364z" />
<glyph unicode="&#xf5;" horiz-adv-x="1042" d="M88 229v566q0 106 82 178q38 32 77 41.5t101 9.5h348q62 0 101 -9.5t77 -41.5t59 -79.5t21 -98.5v-566q0 -105 -80 -178q-36 -32 -76 -41.5t-102 -9.5h-348q-62 0 -101 9.5t-77 41.5q-82 72 -82 178zM172 1210v166q11 3 48.5 12.5t61 15.5t56 11.5t53.5 5.5q57 0 189 -37 q50 -12 63 -12q19 0 102 19q51 12 127 26v-166q-16 -4 -48.5 -11t-49.5 -11q-12 -3 -40.5 -10.5t-48.5 -11t-40 -3.5q-43 0 -125.5 26.5t-124.5 26.5q-16 0 -50.5 -6.5t-61 -13t-68 -16.5t-43.5 -11zM348 330q0 -70 82 -70h184q80 0 80 72v362q0 35 -22 52.5t-58 17.5h-184 q-82 0 -82 -70v-364z" />
<glyph unicode="&#xf6;" horiz-adv-x="1042" d="M88 229v566q0 106 82 178q38 32 77 41.5t101 9.5h348q62 0 101 -9.5t77 -41.5t59 -79.5t21 -98.5v-566q0 -105 -80 -178q-36 -32 -76 -41.5t-102 -9.5h-348q-62 0 -101 9.5t-77 41.5q-82 72 -82 178zM162 1286q0 68 47 118t115 50t114.5 -49t46.5 -117q0 -66 -46.5 -112 t-112.5 -46t-115 45.5t-49 110.5zM348 330q0 -70 82 -70h184q80 0 80 72v362q0 35 -22 52.5t-58 17.5h-184q-82 0 -82 -70v-364zM559 1286q0 68 47 118t115 50q67 0 114.5 -49t47.5 -117q0 -67 -47.5 -112.5t-114.5 -45.5q-65 0 -113.5 45.5t-48.5 110.5z" />
<glyph unicode="&#xf7;" d="M68 575v240h888v-240h-888zM362 346q0 62 44 105t106 43t106 -43.5t44 -104.5t-44 -105t-106 -44t-106 44t-44 105zM362 1044q0 62 44 106t106 44t106 -44t44 -106q0 -61 -44 -105t-106 -44t-106 44t-44 105z" />
<glyph unicode="&#xf8;" horiz-adv-x="1058" d="M88 0l62 78q-54 74 -54 151v566q0 105 80 178q36 32 76 41.5t102 9.5h348q55 0 90.5 -6.5t71.5 -30.5l31 37h74l-62 -78q56 -72 56 -151v-566q0 -106 -82 -178q-38 -32 -77.5 -41.5t-101.5 -9.5h-348q-56 0 -90.5 7t-70.5 32l-29 -39h-76zM356 340l322 408 q-14 11 -22 13.5t-27 2.5h-193q-36 0 -58 -17.5t-22 -52.5v-354zM381 276q18 -16 47 -16h193q81 0 81 72v352z" />
<glyph unicode="&#xf9;" horiz-adv-x="1026" d="M88 246v778h260v-692q0 -40 21.5 -56t62.5 -16h162q41 0 62.5 16t21.5 56v692h260v-778q0 -118 -64 -182t-182 -64h-358q-118 0 -182 64t-64 182zM344 1407h231l109 -246h-199z" />
<glyph unicode="&#xfa;" horiz-adv-x="1026" d="M88 246v778h260v-692q0 -40 21.5 -56t62.5 -16h162q41 0 62.5 16t21.5 56v692h260v-778q0 -118 -64 -182t-182 -64h-358q-118 0 -182 64t-64 182zM344 1161l109 246h231l-141 -246h-199z" />
<glyph unicode="&#xfb;" horiz-adv-x="1026" d="M88 246v778h260v-692q0 -40 21.5 -56t62.5 -16h162q41 0 62.5 16t21.5 56v692h260v-778q0 -118 -64 -182t-182 -64h-358q-118 0 -182 64t-64 182zM217 1204l137 207h305l152 -207h-195l-114 154l-94 -154h-191z" />
<glyph unicode="&#xfc;" horiz-adv-x="1026" d="M88 246v778h260v-692q0 -40 21.5 -56t62.5 -16h162q41 0 62.5 16t21.5 56v692h260v-778q0 -118 -64 -182t-182 -64h-358q-118 0 -182 64t-64 182zM154 1286q0 69 46.5 118.5t114.5 49.5t115 -49t47 -117q0 -66 -47 -112t-113 -46t-114.5 45.5t-48.5 110.5zM551 1286 q0 68 47 118t115 50q67 0 114 -49t47 -117q0 -67 -47 -112.5t-114 -45.5q-65 0 -113.5 45.5t-48.5 110.5z" />
<glyph unicode="&#xfd;" horiz-adv-x="1030" d="M88 -123h520q26 0 50 18.5t24 43.5v24v37h-334q-67 0 -105.5 13t-80.5 57q-43 43 -58.5 84.5t-15.5 105.5v764h260v-682q0 -82 70 -82h184q28 0 54 18.5t26 45.5v28v672h258v-1128q0 -117 -64.5 -198t-179.5 -81h-608v260zM344 1161l109 246h233l-141 -246h-201z" />
<glyph unicode="&#xfe;" horiz-adv-x="1032" d="M88 -383v1790h260v-383h346q121 0 185.5 -70t64.5 -192v-531q0 -91 -76 -161t-168 -70h-352v-383h-260zM348 336q0 -34 23.5 -55t58.5 -21h186q26 0 47 18.5t21 43.5v380q0 25 -16.5 43.5t-42.5 18.5h-203q-32 0 -53 -22.5t-21 -53.5v-352z" />
<glyph unicode="&#xff;" horiz-adv-x="1030" d="M88 -123h520q26 0 50 18.5t24 43.5v24v37h-334q-67 0 -105.5 13t-80.5 57q-43 43 -58.5 84.5t-15.5 105.5v764h260v-682q0 -82 70 -82h184q28 0 54 18.5t26 45.5v28v672h258v-1128q0 -117 -64.5 -198t-179.5 -81h-608v260zM154 1286q0 69 46.5 118.5t114.5 49.5t115 -49 t47 -117q0 -66 -47 -112t-113 -46t-114.5 45.5t-48.5 110.5zM551 1286q0 68 47 118t115 50q67 0 114 -49t47 -117q0 -67 -47 -112.5t-114 -45.5q-65 0 -113.5 45.5t-48.5 110.5z" />
<glyph unicode="&#x152;" horiz-adv-x="1732" d="M88 293v778q0 130 79.5 212.5t209.5 82.5h309q84 0 133.5 -27t95.5 -98q53 73 108 99t148 26h486v-295h-508q-36 0 -56 -17.5t-25 -40t-5 -57.5v-116h594v-293h-594v-137q0 -34 2 -50.5t9.5 -34.5t25.5 -25t49 -7h508v-293h-486q-93 0 -148 26t-108 99q-46 -71 -95.5 -98 t-133.5 -27h-309q-132 0 -210.5 80.5t-78.5 212.5zM385 352q0 -32 29 -45.5t65 -13.5h199q36 0 65 13.5t29 45.5v662q0 31 -29 44t-65 13h-199q-35 0 -64.5 -13t-29.5 -44v-662z" />
<glyph unicode="&#x153;" horiz-adv-x="1605" d="M88 260v488q0 148 71.5 212t221.5 64h217q79 0 126.5 -19t86.5 -77q21 37 31 45q24 24 69.5 37.5t85.5 13.5h250q150 0 216.5 -72.5t66.5 -224.5v-158l-590 -225v-16q0 -17 5 -28t17.5 -18t21 -9.5t26.5 -6.5q1 0 11 -3t11 -3h498v-260h-502q-81 0 -128.5 22t-86.5 87 q-74 -109 -188 -109h-267q-123 0 -196.5 69t-73.5 191zM342 340q0 -80 88 -80h154q88 0 88 80v356q0 25 -4 39.5t-16.5 20.5t-23 7t-35.5 1h-9h-164q-44 0 -61 -12t-17 -56v-356zM938 575l334 121v13q0 25 -22 40t-48 15h-184q-34 0 -57 -21.5t-23 -56.5v-111z" />
<glyph unicode="&#x178;" horiz-adv-x="1167" d="M-20 1366h335l258 -510l281 510h334l-459 -836v-530h-293v530zM223 1630q0 68 47 118t115 50t115 -49t47 -117q0 -66 -47 -111.5t-113 -45.5t-115 45t-49 110zM621 1630q0 69 46.5 118.5t114.5 49.5q67 0 114.5 -49t47.5 -117q0 -67 -47.5 -112t-114.5 -45q-65 0 -113 45 t-48 110z" />
<glyph unicode="&#x2c6;" d="M215 1204l137 207h305l152 -207h-195l-114 154l-94 -154h-191z" />
<glyph unicode="&#x2dc;" d="M162 1210v166q11 3 48.5 12.5t61 15.5t56 11.5t53.5 5.5q56 0 188 -37q50 -12 64 -12q19 0 102 19q51 12 127 26v-166q-16 -4 -48.5 -11t-49.5 -11q-12 -3 -40.5 -10.5t-48.5 -11t-40 -3.5q-43 0 -125.5 26.5t-124.5 26.5q-16 0 -50.5 -6.5t-61 -13t-68 -16.5t-43.5 -11z " />
<glyph unicode="&#x2000;" horiz-adv-x="966" />
<glyph unicode="&#x2001;" horiz-adv-x="1933" />
<glyph unicode="&#x2002;" horiz-adv-x="966" />
<glyph unicode="&#x2003;" horiz-adv-x="1933" />
<glyph unicode="&#x2004;" horiz-adv-x="644" />
<glyph unicode="&#x2005;" horiz-adv-x="483" />
<glyph unicode="&#x2006;" horiz-adv-x="322" />
<glyph unicode="&#x2007;" horiz-adv-x="322" />
<glyph unicode="&#x2008;" horiz-adv-x="241" />
<glyph unicode="&#x2009;" horiz-adv-x="386" />
<glyph unicode="&#x200a;" horiz-adv-x="107" />
<glyph unicode="&#x2010;" horiz-adv-x="430" d="M0 494v260h430v-260h-430z" />
<glyph unicode="&#x2011;" horiz-adv-x="430" d="M0 494v260h430v-260h-430z" />
<glyph unicode="&#x2012;" horiz-adv-x="430" d="M0 494v260h430v-260h-430z" />
<glyph unicode="&#x2013;" horiz-adv-x="1026" d="M88 494v260h850v-260h-850z" />
<glyph unicode="&#x2014;" horiz-adv-x="1458" d="M88 494v260h1282v-260h-1282z" />
<glyph unicode="&#x2018;" horiz-adv-x="425" d="M47 1034q0 39 21 86l125 258h184l-94 -200q94 -100 94 -154q0 -68 -49 -116t-117 -48q-69 0 -116.5 52t-47.5 122z" />
<glyph unicode="&#x2019;" horiz-adv-x="425" d="M47 860l96 203q-94 94 -94 151q0 68 48.5 116t115.5 48q70 0 118 -51t48 -121q0 -39 -21 -86l-125 -260h-186z" />
<glyph unicode="&#x201a;" horiz-adv-x="425" d="M47 -201l96 201q-94 100 -94 154q0 67 48 115t116 48q69 0 117.5 -52t48.5 -122q0 -39 -21 -86l-125 -258h-186z" />
<glyph unicode="&#x201c;" horiz-adv-x="804" d="M47 1034q0 39 21 86l125 258h184l-94 -200q94 -100 94 -154q0 -68 -49 -116t-117 -48q-69 0 -116.5 52t-47.5 122zM428 1034q0 39 21 86l122 258h187l-96 -200q94 -94 94 -154q0 -68 -48 -116t-116 -48q-69 0 -116.5 52t-47.5 122z" />
<glyph unicode="&#x201d;" horiz-adv-x="804" d="M47 860l96 203q-94 94 -94 151q0 68 48.5 116t115.5 48q70 0 118 -51t48 -121q0 -39 -21 -86l-125 -260h-186zM428 860l96 203q-94 89 -94 151q0 68 48 116t116 48q69 0 116.5 -51t47.5 -121q0 -39 -21 -86l-125 -260h-184z" />
<glyph unicode="&#x201e;" horiz-adv-x="804" d="M47 -201l96 201q-94 100 -94 154q0 67 48 115t116 48q69 0 117.5 -52t48.5 -122q0 -39 -21 -86l-125 -258h-186zM428 -201l96 201q-94 94 -94 154q0 67 48 115t116 48q69 0 116.5 -52t47.5 -122q0 -39 -21 -86l-125 -258h-184z" />
<glyph unicode="&#x2022;" horiz-adv-x="563" d="M0 696q0 118 82.5 202.5t200.5 84.5t199 -84.5t81 -202.5q0 -116 -82 -201t-198 -85q-118 0 -200.5 84t-82.5 202z" />
<glyph unicode="&#x2026;" horiz-adv-x="1421" d="M76 143q0 68 47 118t115 50q67 0 114 -49t47 -117q0 -67 -47 -113t-114 -46q-66 0 -114 45.5t-48 111.5zM549 143q0 68 47 118t115 50t114.5 -49t46.5 -117q0 -67 -47 -113t-114 -46q-65 0 -113.5 46t-48.5 111zM1022 143q0 68 47 118t115 50t115 -49t47 -117 q0 -66 -47 -112.5t-113 -46.5q-67 0 -115.5 45t-48.5 112z" />
<glyph unicode="&#x202f;" horiz-adv-x="386" />
<glyph unicode="&#x2039;" horiz-adv-x="649" d="M55 506q0 52 45 104l277 332h215l-356 -428l358 -426h-225l-263 309q-18 22 -27 34.5t-16.5 32.5t-7.5 42z" />
<glyph unicode="&#x203a;" horiz-adv-x="649" d="M55 942h224l264 -309q27 -30 39 -53.5t12 -55.5q0 -46 -45 -102l-279 -334h-213l357 428z" />
<glyph unicode="&#x205f;" horiz-adv-x="483" />
<glyph unicode="&#x20ac;" horiz-adv-x="1150" d="M61 494l70 163h86v97h-156l70 164h86v137q0 60 3 94t20 77.5t51 76.5q23 23 50.5 37t67 19t59 6t69.5 1h512v-295h-428q-111 0 -111 -59v-35v-59h401l-69 -164h-332v-97h291l-70 -163h-221v-80q0 -72 21.5 -96.5t91.5 -24.5h426v-293h-555q-55 0 -109.5 23.5t-93.5 62.5 q-74 74 -74 217v191h-156z" />
<glyph unicode="&#x2122;" horiz-adv-x="1630" d="M27 1165v201h587v-201h-184v-633h-219v633h-184zM651 532v676q0 80 51 123t132 43q60 0 107 -28.5t60 -83.5l93 -402l104 402q14 56 60.5 84t107.5 28q80 0 131 -43.5t51 -122.5v-676h-209v469l-102 -368q-31 -119 -137 -119q-108 0 -139 119l-101 368v-469h-209z" />
<glyph unicode="&#x25fc;" d="M0 0v1024h1024v-1024h-1024z" />
<glyph unicode="&#xfb01;" horiz-adv-x="976" d="M88 0v1171q0 109 83 171.5t196 62.5h165v-250q-8 0 -35 1t-41.5 1t-38 -4t-36.5 -11.5t-23 -23.5t-10 -39v-55h184v-260h-184v-764h-260zM596 1286q0 68 47 118t115 50t115 -49t47 -117q0 -67 -47.5 -112.5t-114.5 -45.5q-65 0 -113.5 45.5t-48.5 110.5zM629 0v1024h258 v-1024h-258z" />
<glyph unicode="&#xfb02;" horiz-adv-x="974" d="M88 0v1171q0 109 83 171.5t196 62.5h165v-250q-8 0 -35 1t-41.5 1t-38 -4t-36.5 -11.5t-23 -23.5t-10 -39v-55h184v-260h-184v-764h-260zM627 0v1407h260v-1407h-260z" />
</font>
</defs>
</svg>
