<?xml version="1.0" standalone="no"?>
<!DOCTYPE svg PUBLIC "-//W3C//DTD SVG 1.1//EN" "http://www.w3.org/Graphics/SVG/1.1/DTD/svg11.dtd" >
<svg>
<metadata>
Created by FontForge 20090622 at Thu Sep 28 22:31:27 2017
 By deploy user
Copyright (C)2017 Commercial Type.
</metadata>
<defs>
<font id="ActionNBACondensed-Medium" horiz-adv-x="262" >
  <font-face 
    font-family="Action NBA Condensed Medium"
    font-weight="400"
    font-stretch="condensed"
    units-per-em="1000"
    panose-1="0 0 0 0 0 0 0 0 0 0"
    ascent="850"
    descent="-150"
    x-height="560"
    cap-height="714"
    bbox="-149 -150 804 877"
    underline-thickness="66"
    underline-position="18"
    unicode-range="U+0020-U+FB00"
  />
<missing-glyph horiz-adv-x="500" 
 />
    <glyph glyph-name="f_f" unicode="ff" horiz-adv-x="276" 
d="M101 496v-496h-72v496h-31v64h31v68q0 48 19 69t58 21q17 0 31 -4v-63h-8q-17 0 -22.5 -7.5t-5.5 -26.5v-57h65v63q0 53 19.5 74t61.5 21q19 0 37 -4v-61h-11q-21 0 -28 -8t-7 -28v-57h39v-64h-39v-496h-72v496h-65z" />
    <glyph glyph-name="N_B_A" unicode="NBA" horiz-adv-x="806" 
d="M27 714h104l89 -634q-23 276 -23 411v223h68v-714h-98l-86 620q13 -217 13 -346v-274h-67v714zM536 155q0 -90 -32.5 -122.5t-98.5 -32.5h-87v714h87q65 0 97 -33.5t32 -121.5v-73q0 -99 -48 -132q50 -31 50 -125v-74zM407 643h-16v-260h13q29 0 43 19.5t14 71.5v87
q0 45 -13 63.5t-41 18.5zM408 319h-17v-249h19q27 0 40 17.5t13 67.5v81q0 49 -13.5 66t-41.5 17zM558 0l73 714h105l68 -714h-77l-12 157h-71l-12 -157h-74zM659 341l-9 -112h59l-9 112q-9 121 -21 314q-3 -47 -10 -165t-10 -149z" />
    <glyph glyph-name=".notdef" horiz-adv-x="500" 
 />
    <glyph glyph-name=".null" horiz-adv-x="0" 
 />
    <glyph glyph-name="nonmarkingreturn" horiz-adv-x="333" 
 />
    <glyph glyph-name="space" unicode=" " horiz-adv-x="85" 
 />
    <glyph glyph-name="exclam" unicode="!" horiz-adv-x="125" 
d="M25 714h75v-191q0 -36 -5 -114.5t-10 -138.5l-5 -60h-36q-19 231 -19 313v191zM63 -2q-19 0 -32.5 13.5t-13.5 32.5t13.5 32.5t32.5 13.5t32.5 -13.5t13.5 -32.5t-13.5 -32.5t-32.5 -13.5z" />
    <glyph glyph-name="quotedbl" unicode="&#x22;" horiz-adv-x="226" 
d="M22 714h70v-133q0 -67 -17 -205h-38q-15 122 -15 205v133zM134 714h70v-133q0 -67 -17 -205h-38q-15 122 -15 205v133z" />
    <glyph glyph-name="numbersign" unicode="#" horiz-adv-x="277" 
d="M39 0l7 118h-28v58h31l20 362h-31v58h34l7 118h58l-7 -118h45l7 118h56l-7 -118h28v-58h-31l-20 -362h31v-58h-34l-7 -118h-56l7 118h-45l-7 -118h-58zM107 176h45l20 362h-45z" />
    <glyph glyph-name="dollar" unicode="$" horiz-adv-x="260" 
d="M118 693h30v-52q44 -5 63.5 -35t19.5 -92v-56h-72v59q0 35 -6.5 48.5t-25.5 13.5q-34 0 -34 -55q0 -58 67 -145q72 -95 72 -184q0 -111 -84 -124v-50h-30v49q-53 2 -75 31.5t-22 99.5v54h72v-57q0 -36 7 -50.5t27 -14.5q32 0 32 55q0 66 -61 145q-77 101 -77 183
q0 120 97 126v51z" />
    <glyph glyph-name="percent" unicode="%" horiz-adv-x="298" 
d="M194 521q0 -122 -93 -122q-48 0 -71 28.5t-23 93.5v13q0 123 94 123q47 0 70 -29t23 -94v-13zM134 505v46q0 28 -7 39.5t-26 11.5q-34 0 -34 -51v-46q0 -29 7 -40.5t27 -11.5q33 0 33 52zM17 217l-17 20l282 259l16 -19zM293 180q0 -123 -94 -123q-47 0 -70 29t-23 94v13
q0 122 93 122q48 0 71 -28.5t23 -93.5v-13zM233 163v46q0 29 -7.5 40.5t-26.5 11.5q-33 0 -33 -52v-46q0 -29 6.5 -40t26.5 -11q34 0 34 51z" />
    <glyph glyph-name="ampersand" unicode="&#x26;" horiz-adv-x="314" 
d="M21 197q0 97 62 145q-47 115 -47 191v44q0 143 106 143q55 0 81 -34t26 -108v-52q0 -112 -93 -183l15 -35l43 -103q7 51 4 152l66 2q0 -153 -34 -235l61 -124h-69q-11 19 -25 48q-31 -54 -89 -54q-107 0 -107 142v61zM109 591v-47q0 -72 27 -150q40 44 40 132v65
q0 32 -7.5 45.5t-26.5 13.5q-33 0 -33 -59zM96 132q0 -35 10 -51.5t35 -16.5q31 0 47 42q-20 42 -70 156q-4 8 -10 24q-12 -26 -12 -73v-81z" />
    <glyph glyph-name="quotesingle" unicode="'" horiz-adv-x="119" 
d="M25 714h70v-133q0 -67 -17 -205h-38q-15 122 -15 205v133z" />
    <glyph glyph-name="parenleft" unicode="(" horiz-adv-x="181" 
d="M107 37q0 -63 11 -90.5t41 -27.5h23v-63h-37q-58 0 -84.5 43.5t-26.5 147.5v564q0 104 26.5 150t90.5 46h32v-64h-24q-31 0 -41.5 -29.5t-10.5 -90.5v-586z" />
    <glyph glyph-name="parenright" unicode=")" horiz-adv-x="181" 
d="M75 37v586q0 61 -10.5 90.5t-42.5 29.5h-24v64h33q64 0 90.5 -46t26.5 -150v-564q0 -104 -26.5 -147.5t-84.5 -43.5h-38v63h23q30 0 41.5 28t11.5 90z" />
    <glyph glyph-name="asterisk" unicode="*" horiz-adv-x="259" 
d="M207 523l-68 63l-13 -92l-57 15l39 85l-91 -16l-3 59l93 -12l-43 83l55 20l18 -93l65 68l36 -45l-81 -46l83 -41z" />
    <glyph glyph-name="plus" unicode="+" horiz-adv-x="258" 
d="M160 122h-63v88h-87v63h87v87h63v-87h88v-63h-88v-88z" />
    <glyph glyph-name="comma" unicode="," horiz-adv-x="112" 
d="M55 90q19 0 33 -13.5t14 -33.5q0 -18 -21 -60l-34 -69l-23 5l20 81q-15 4 -24.5 16t-9.5 27q0 20 13.5 33.5t31.5 13.5z" />
    <glyph glyph-name="hyphen" unicode="-" horiz-adv-x="205" 
d="M12 280h182v-71h-182v71z" />
    <glyph glyph-name="period" unicode="." horiz-adv-x="112" 
d="M56 -2q-19 0 -32.5 13.5t-13.5 32.5t13.5 32.5t32.5 13.5t32.5 -13.5t13.5 -32.5t-13.5 -32.5t-32.5 -13.5z" />
    <glyph glyph-name="slash" unicode="/" horiz-adv-x="206" 
d="M141 714h60l-137 -714h-61z" />
    <glyph glyph-name="zero" unicode="0" horiz-adv-x="273" 
d="M137 720q56 0 82.5 -32t26.5 -107v-448q0 -75 -26.5 -107t-82.5 -32q-57 0 -83.5 32t-26.5 107v448q0 75 27 107t83 32zM171 123v468q0 33 -7.5 46t-26.5 13t-27 -13t-8 -46v-468q0 -33 7.5 -46t27.5 -13q18 0 26 13t8 46z" />
    <glyph glyph-name="one" unicode="1" horiz-adv-x="186" 
d="M18 586l-11 63q62 9 89 68h36v-717h-75v602q-16 -11 -39 -16z" />
    <glyph glyph-name="two" unicode="2" horiz-adv-x="273" 
d="M27 581q0 75 26.5 107t83.5 32q55 0 82 -32t27 -107v-58q0 -64 -16.5 -114.5t-53.5 -118.5l-22 -39.5t-20.5 -38.5l-15.5 -32.5t-13.5 -35t-6 -33t-1.5 -38.5h149v-73h-219v49q0 29 1.5 52t7.5 46t9 36t14.5 36t15 30.5t20 35.5l21.5 36q30 52 42.5 94t12.5 99v77
q0 33 -8 46t-26 13q-20 0 -27.5 -13t-7.5 -46v-123h-75v113z" />
    <glyph glyph-name="three" unicode="3" horiz-adv-x="273" 
d="M246 133q0 -75 -26.5 -107t-82.5 -32q-57 0 -83.5 32t-26.5 107v131h75v-141q0 -33 7.5 -46t27.5 -13q18 0 26 13t8 46v194q0 61 -43 61q-31 0 -50 -32l-45 27l134 269h-137v72h215v-64l-115 -215q12 4 29 4q87 0 87 -122v-184z" />
    <glyph glyph-name="four" unicode="4" horiz-adv-x="273" 
d="M160 293h61v-148h37v-68h-37v-77h-73v77h-132v69l109 568h77q-50 -254 -126 -569h72v41z" />
    <glyph glyph-name="five" unicode="5" horiz-adv-x="273" 
d="M32 714h213v-72h-145v-213q24 13 54 13q54 0 73 -34.5t19 -108.5v-166q0 -75 -26.5 -107t-82.5 -32q-57 0 -83.5 32t-26.5 107v131h75v-141q0 -33 7.5 -46t27.5 -13q18 0 26 13t8 46v187q0 35 -9.5 50t-32.5 15q-30 0 -48 -31l-49 24v346z" />
    <glyph glyph-name="six" unicode="6" horiz-adv-x="273" 
d="M246 305v-172q0 -76 -26 -107.5t-83 -31.5q-56 0 -83 32t-27 107v448q0 75 27 107t83 32q57 0 83 -31.5t26 -107.5v-95h-75v105q0 33 -7.5 46t-26.5 13t-27 -13t-8 -46v-163q20 10 49 10q49 0 72 -30t23 -103zM102 123q0 -33 8 -46t27 -13t26.5 13t7.5 46v185
q0 34 -9.5 47.5t-30.5 13.5q-14 0 -29 -5v-241z" />
    <glyph glyph-name="seven" unicode="7" horiz-adv-x="273" 
d="M161 0h-76v87q0 181 15 283t55 201l29 71h-156v72h218v-65l-36 -94q-30 -83 -39.5 -180t-9.5 -278v-97z" />
    <glyph glyph-name="eight" unicode="8" horiz-adv-x="273" 
d="M137 -6q-57 0 -83.5 31t-26.5 107v117q0 88 49 118q-49 29 -49 115v100q0 75 27 106.5t83 31.5q57 0 83 -31t26 -107v-100q0 -84 -49 -114q49 -29 49 -119v-117q0 -76 -26.5 -107t-82.5 -31zM171 591q0 33 -7.5 46t-26.5 13t-27 -13t-8 -46v-133q0 -33 7.5 -46t27.5 -13
q18 0 26 13t8 46v133zM171 277q0 32 -7.5 45t-26.5 13t-27 -13.5t-8 -44.5v-154q0 -33 7.5 -46t27.5 -13q18 0 26 13t8 46v154z" />
    <glyph glyph-name="nine" unicode="9" horiz-adv-x="272" 
d="M27 403v178q0 76 26 107.5t83 31.5q56 0 82.5 -32t26.5 -107v-448q0 -75 -26.5 -107t-82.5 -32q-57 0 -83 31.5t-26 107.5v92h74v-102q0 -33 7.5 -46t27.5 -13q18 0 26.5 13.5t8.5 45.5v158q-20 -10 -51 -10q-47 0 -70 29.5t-23 102.5zM101 399q0 -34 9.5 -47t31.5 -13
q14 0 29 5v247q0 32 -8.5 45.5t-26.5 13.5q-20 0 -27.5 -13t-7.5 -46v-192z" />
    <glyph glyph-name="colon" unicode=":" horiz-adv-x="112" 
d="M56 260q-19 0 -32.5 13.5t-13.5 32.5t13.5 32.5t32.5 13.5t32.5 -13.5t13.5 -32.5t-13.5 -32.5t-32.5 -13.5zM56 -2q-19 0 -32.5 13.5t-13.5 32.5t13.5 32.5t32.5 13.5t32.5 -13.5t13.5 -32.5t-13.5 -32.5t-32.5 -13.5z" />
    <glyph glyph-name="semicolon" unicode=";" horiz-adv-x="112" 
d="M57 260q-19 0 -32.5 13.5t-13.5 32.5t13.5 32.5t32.5 13.5t32.5 -13.5t13.5 -32.5t-13.5 -32.5t-32.5 -13.5zM56 88q19 0 33 -13.5t14 -33.5q0 -18 -21 -60l-34 -69l-23 5l20 81q-15 4 -24.5 16t-9.5 27q0 20 13.5 33.5t31.5 13.5z" />
    <glyph glyph-name="less" unicode="&#x3c;" horiz-adv-x="192" 
d="M132 112l-118 113v46l118 113l45 -53l-98 -83l98 -83z" />
    <glyph glyph-name="equal" unicode="=" horiz-adv-x="258" 
d="M10 269v63h238v-63h-238zM10 151v63h238v-63h-238z" />
    <glyph glyph-name="greater" unicode="&#x3e;" horiz-adv-x="192" 
d="M60 112l-46 53l105 83l-105 83l46 53l117 -113v-46z" />
    <glyph glyph-name="question" unicode="?" horiz-adv-x="260" 
d="M235 581v-86q0 -125 -83 -145l-12 -152h-41q-15 156 -16 202q39 0 58 21t19 74v96q0 33 -8 46t-26 13q-20 0 -27.5 -13t-7.5 -46v-105h-75v95q0 75 26.5 107t83.5 32q55 0 82 -32t27 -107zM119 -2q-19 0 -32.5 13.5t-13.5 32.5t13.5 32.5t32.5 13.5t32.5 -13.5
t13.5 -32.5t-13.5 -32.5t-32.5 -13.5z" />
    <glyph glyph-name="at" unicode="@" horiz-adv-x="466" 
d="M144 202v311q0 93 67 93q35 0 54 -33l7 27h50v-435q24 0 33.5 20.5t9.5 72.5v240q0 93 -27.5 130t-105.5 36t-103.5 -40t-25.5 -137v-261q0 -99 30.5 -137t105.5 -38q74 0 147 34l20 -47q-65 -44 -167 -44q-100 0 -149.5 49.5t-49.5 180.5v269q0 124 45.5 175.5
t146.5 51.5q98 0 146 -49t48 -167v-245q0 -73 -24.5 -110t-90.5 -38h-40l-4 33q-21 -33 -57 -33q-66 0 -66 91zM208 206q0 -37 24 -37q15 0 27 14v351q-13 13 -27 13q-15 0 -19.5 -10t-4.5 -35v-296z" />
    <glyph glyph-name="A" unicode="A" horiz-adv-x="252" 
d="M3 0l73 714h105l68 -714h-77l-12 157h-71l-12 -157h-74zM104 341l-9 -112h59l-9 112q-9 121 -21 314q-3 -47 -10 -165t-10 -149z" />
    <glyph glyph-name="B" unicode="B" horiz-adv-x="272" 
d="M245 155q0 -90 -32.5 -122.5t-98.5 -32.5h-87v714h87q65 0 97 -33.5t32 -121.5v-73q0 -99 -48 -132q50 -31 50 -125v-74zM116 643h-16v-260h13q29 0 43 19.5t14 71.5v87q0 45 -13 63.5t-41 18.5zM117 319h-17v-249h19q27 0 40 17.5t13 67.5v81q0 49 -13.5 66t-41.5 17z
" />
    <glyph glyph-name="C" unicode="C" horiz-adv-x="272" 
d="M245 264v-131q0 -76 -26 -107.5t-83 -31.5q-56 0 -82.5 32t-26.5 107v448q0 75 26.5 107t82.5 32q57 0 83 -31.5t26 -107.5v-137h-74v147q0 33 -7.5 46t-27.5 13q-18 0 -26.5 -13.5t-8.5 -45.5v-468q0 -32 8.5 -45.5t26.5 -13.5q20 0 27.5 13t7.5 46v141h74z" />
    <glyph glyph-name="D" unicode="D" horiz-adv-x="272" 
d="M116 0h-89v714h81q73 0 105 -41t32 -146v-349q0 -97 -33 -137.5t-96 -40.5zM123 70q48 0 48 111v344q0 61 -10.5 89.5t-37.5 28.5h-22v-573h22z" />
    <glyph glyph-name="E" unicode="E" horiz-adv-x="207" 
d="M27 0v714h171v-70h-97v-246h84v-65h-84v-263h97v-70h-171z" />
    <glyph glyph-name="F" unicode="F" horiz-adv-x="207" 
d="M27 0v714h171v-70h-96v-246h84v-65h-84v-333h-75z" />
    <glyph glyph-name="G" unicode="G" horiz-adv-x="272" 
d="M201 0l-14 36q-26 -42 -74 -42q-39 0 -62.5 28t-23.5 87v472q0 73 27 106t82 33q56 0 82.5 -32.5t26.5 -106.5v-137h-74v147q0 32 -7.5 45.5t-27.5 13.5q-35 0 -35 -59v-480q0 -47 38 -47q16 0 34 11l-2 5v199h-42v71h116v-350h-44z" />
    <glyph glyph-name="H" unicode="H" horiz-adv-x="272" 
d="M27 714h74v-324h70v324h74v-714h-74v323h-70v-323h-74v714z" />
    <glyph glyph-name="I" unicode="I" horiz-adv-x="128" 
d="M27 714h74v-714h-74v714z" />
    <glyph glyph-name="J" unicode="J" horiz-adv-x="261" 
d="M17 257h74v-134q0 -33 7.5 -46t27.5 -13q18 0 26.5 13.5t8.5 45.5v591h74v-581q0 -75 -26.5 -107t-82.5 -32q-57 0 -83 31.5t-26 107.5v124z" />
    <glyph glyph-name="K" unicode="K" horiz-adv-x="253" 
d="M101 714v-324h7l66 324h74l-75 -340l76 -374h-74l-67 326h-7v-326h-74v714h74z" />
    <glyph glyph-name="L" unicode="L" horiz-adv-x="197" 
d="M27 0v714h74v-644h92v-70h-166z" />
    <glyph glyph-name="M" unicode="M" horiz-adv-x="353" 
d="M96 255v-255h-69v714h102l50 -422l52 422h95v-714h-72v255q0 95 14 364l-72 -540h-44l-67 528q11 -222 11 -352z" />
    <glyph glyph-name="N" unicode="N" horiz-adv-x="292" 
d="M27 714h104l89 -634q-23 276 -23 411v223h68v-714h-98l-86 620q13 -217 13 -346v-274h-67v714z" />
    <glyph glyph-name="O" unicode="O" horiz-adv-x="272" 
d="M136 720q57 0 83 -31.5t26 -107.5v-448q0 -75 -26.5 -107t-82.5 -32q-57 0 -83 31.5t-26 107.5v448q0 75 26.5 107t82.5 32zM171 123v468q0 33 -7.5 46t-27.5 13q-18 0 -26.5 -13.5t-8.5 -45.5v-468q0 -33 7.5 -46t27.5 -13q18 0 26.5 13.5t8.5 45.5z" />
    <glyph glyph-name="P" unicode="P" horiz-adv-x="267" 
d="M245 535v-144q0 -91 -30.5 -129.5t-89.5 -38.5h-24v-223h-74v714h91q67 0 97 -39t30 -140zM123 643h-22v-351h22q25 0 36.5 22.5t11.5 74.5v147q0 55 -10.5 81t-37.5 26z" />
    <glyph glyph-name="Q" unicode="Q" horiz-adv-x="272" 
d="M263 21l-6 -58l-113 31q-66 0 -91.5 35.5t-25.5 102.5v449q0 75 26.5 107t82.5 32q57 0 83 -31.5t26 -107.5v-436q0 -86 -42 -114zM171 119v472q0 33 -7.5 46t-27.5 13q-18 0 -26.5 -13.5t-8.5 -45.5v-472q0 -33 7.5 -46t27.5 -13q35 0 35 59z" />
    <glyph glyph-name="R" unicode="R" horiz-adv-x="272" 
d="M170 0l-41 239h-28v-239h-74v714h91q67 0 97 -39t30 -140v-130q0 -127 -63 -155q18 -17 29 -64l39 -186h-80zM123 643h-22v-337h22q25 0 36.5 22.5t11.5 75.5v132q0 55 -10.5 81t-37.5 26z" />
    <glyph glyph-name="S" unicode="S" horiz-adv-x="266" 
d="M242 171v-38q0 -139 -108 -139q-56 0 -83 32t-27 104v104h74v-113q0 -31 8 -44t28 -13q34 0 34 62v34q0 41 -12 70.5t-56 92.5q-39 58 -56.5 103t-17.5 103v46q0 145 109 145q54 0 81 -31t27 -114v-99h-73v109q0 35 -7.5 50t-27.5 15q-36 0 -36 -65v-42q0 -49 12.5 -81.5
t50.5 -86.5q47 -70 63.5 -108.5t16.5 -95.5z" />
    <glyph glyph-name="T" unicode="T" horiz-adv-x="236" 
d="M81 0v642h-74v72h222v-72h-74v-642h-74z" />
    <glyph glyph-name="U" unicode="U" horiz-adv-x="272" 
d="M171 714h74v-581q0 -75 -26.5 -107t-82.5 -32q-57 0 -83 31.5t-26 107.5v581h74v-591q0 -33 7.5 -46t27.5 -13q18 0 26.5 13.5t8.5 45.5v591z" />
    <glyph glyph-name="V" unicode="V" horiz-adv-x="250" 
d="M246 714l-75 -714h-98l-69 714h79l25 -349l18 -265q12 181 19 267l27 347h74z" />
    <glyph glyph-name="W" unicode="W" horiz-adv-x="373" 
d="M147 0h-84l-56 714h77l21 -415l5 -140q3 58 10 140l35 415h69l33 -415q5 -74 8 -146q1 72 5 146l23 415h73l-64 -714h-78l-31 408l-6 104q-4 -72 -7 -104z" />
    <glyph glyph-name="X" unicode="X" horiz-adv-x="246" 
d="M75 0h-72q53 241 81 353l-78 361h83l48 -264l38 264h68q-49 -243 -76 -349l76 -365h-81l-46 259z" />
    <glyph glyph-name="Y" unicode="Y" horiz-adv-x="249" 
d="M83 0v191l-80 523h79l44 -395l45 395h75l-88 -531v-183h-75z" />
    <glyph glyph-name="Z" unicode="Z" horiz-adv-x="205" 
d="M10 63l108 583q-28 -2 -43 -2h-63v70h181v-54l-110 -592q28 4 47 4h66v-72h-186v63z" />
    <glyph glyph-name="bracketleft" unicode="[" horiz-adv-x="141" 
d="M98 -81h27v-63h-94v951h94v-63h-27v-825z" />
    <glyph glyph-name="backslash" unicode="\" horiz-adv-x="206" 
d="M58 714l144 -714h-54l-144 714h54z" />
    <glyph glyph-name="bracketright" unicode="]" horiz-adv-x="141" 
d="M43 -81v825h-32v63h98v-951h-98v63h32z" />
    <glyph glyph-name="asciicircum" unicode="^" horiz-adv-x="211" 
d="M143 240l-37 418l-40 -418h-58l59 474h79l58 -474h-61z" />
    <glyph glyph-name="underscore" unicode="_" horiz-adv-x="212" 
d="M-5 -45h222v-71h-222v71z" />
    <glyph glyph-name="grave" unicode="`" horiz-adv-x="239" 
d="M158 601h-39l-36 113h60z" />
    <glyph glyph-name="a" unicode="a" 
d="M25 83v123q0 63 38 91t101 21v127q0 31 -7 43.5t-26 12.5t-26 -12.5t-7 -43.5v-74h-72v67q0 70 25.5 99t79.5 29q55 0 80 -29t25 -101v-436h-59q-3 9 -7 29q-28 -35 -71 -35q-74 0 -74 89zM98 102q0 -43 31 -43q18 0 35 10v199q-35 0 -50.5 -12t-15.5 -48v-106z" />
    <glyph glyph-name="b" unicode="b" 
d="M236 478v-398q0 -86 -72 -86q-44 0 -73 33q-4 -18 -7 -27h-59v714h73v-173q27 25 65 25q73 0 73 -88zM98 70q17 -11 34 -11q32 0 32 38v367q0 37 -32 37q-19 0 -34 -10v-421z" />
    <glyph glyph-name="c" unicode="c" 
d="M236 196v-73q0 -73 -26 -101t-79 -28t-79.5 28t-26.5 101v313q0 73 26.5 101.5t79.5 28.5t79 -28t26 -101v-64h-72v76q0 28 -7.5 40t-25.5 12q-19 0 -26 -12t-7 -40v-338q0 -28 7 -40t26 -12t26 12t7 40v85h72z" />
    <glyph glyph-name="d" unicode="d" 
d="M236 714v-714h-59q-3 8 -7 26q-28 -32 -72 -32q-73 0 -73 86v398q0 88 73 88q40 0 66 -26v174h72zM98 464v-367q0 -38 31 -38q17 0 35 11v420q-18 11 -35 11q-31 0 -31 -37z" />
    <glyph glyph-name="e" unicode="e" 
d="M236 251h-138v-140q0 -28 7 -40t26 -12t26 12t7 40v86h72v-74q0 -73 -26 -101t-79 -28t-79.5 28t-26.5 101v313q0 73 26.5 101.5t79.5 28.5t79 -28t26 -101v-186zM98 449v-145h66v145q0 28 -7.5 40t-25.5 12q-19 0 -26 -12t-7 -40z" />
    <glyph glyph-name="f" unicode="f" horiz-adv-x="139" 
d="M-2 496v64h31v63q0 53 19.5 74t61.5 21q19 0 37 -4v-61h-11q-21 0 -28 -8t-7 -28v-57h39v-64h-39v-496h-72v496h-31z" />
    <glyph glyph-name="g" unicode="g" horiz-adv-x="266" 
d="M237 437v-213q0 -73 -26 -101t-79 -28q-20 0 -35 3q-13 -10 -13 -22q0 -15 16 -21t66 -12q47 -7 70 -28t23 -62q0 -46 -30 -74.5t-94 -28.5q-121 0 -121 74q0 45 47 70q-32 18 -32 56q0 35 37 61q-40 26 -40 113v212q0 73 26.5 101.5t79.5 28.5t77 -25q16 25 50 25
q8 0 8 -7q0 -21 -3 -60q-13 0 -32 -7q5 -25 5 -55zM132 501q-18 0 -25.5 -12t-7.5 -40v-236q0 -28 7.5 -40t25.5 -12q19 0 25.5 12t6.5 40v236q0 28 -6.5 40t-25.5 12zM71 -56q0 -39 64 -39q59 0 59 36q0 16 -12.5 22.5t-47.5 11.5q-21 2 -45 8q-18 -16 -18 -39z" />
    <glyph glyph-name="h" unicode="h" 
d="M25 0v714h73v-177q27 29 66 29q72 0 72 -86v-480h-72v465q0 36 -31 36q-18 0 -35 -10v-491h-73z" />
    <glyph glyph-name="i" unicode="i" horiz-adv-x="121" 
d="M24 560h73v-560h-73v560zM61 622q-19 0 -32.5 13.5t-13.5 32.5t13.5 32.5t32.5 13.5t32.5 -13.5t13.5 -32.5t-13.5 -32.5t-32.5 -13.5z" />
    <glyph glyph-name="j" unicode="j" horiz-adv-x="121" 
d="M-22 -143v61h11q21 0 28 8t7 28v606h73v-612q0 -53 -19.5 -74t-60.5 -21q-17 0 -39 4zM62 622q-19 0 -32.5 13.5t-13.5 32.5t13.5 32.5t32.5 13.5t32.5 -13.5t13.5 -32.5t-13.5 -32.5t-32.5 -13.5z" />
    <glyph glyph-name="k" unicode="k" horiz-adv-x="236" 
d="M25 714h73v-398h8l62 244h74l-77 -250l75 -310h-76l-58 264h-8v-264h-73v714z" />
    <glyph glyph-name="l" unicode="l" horiz-adv-x="121" 
d="M24 714h73v-714h-73v714z" />
    <glyph glyph-name="m" unicode="m" horiz-adv-x="400" 
d="M25 0v560h59q3 -8 7 -26q28 32 73 32t63 -36q27 36 75 36q72 0 72 -86v-480h-72v463q0 38 -31 38q-19 0 -35 -11v-490h-72v463q0 38 -31 38q-19 0 -35 -11v-490h-73z" />
    <glyph glyph-name="n" unicode="n" 
d="M25 0v560h59q3 -9 7 -27q28 33 73 33q72 0 72 -86v-480h-72v463q0 38 -31 38q-19 0 -35 -11v-490h-73z" />
    <glyph glyph-name="o" unicode="o" 
d="M236 437v-314q0 -73 -26 -101t-79 -28t-79.5 28t-26.5 101v313q0 73 26.5 101.5t79.5 28.5t79 -28t26 -101zM131 501q-19 0 -26 -12t-7 -40v-338q0 -28 7 -40t26 -12t26 12t7 40v338q0 28 -7.5 40t-25.5 12z" />
    <glyph glyph-name="p" unicode="p" 
d="M25 -144v704h59q2 -7 7 -27q28 33 73 33q32 0 52 -21t20 -66v-398q0 -87 -72 -87q-39 0 -66 25v-163h-73zM98 70q18 -11 35 -11q31 0 31 38v366q0 38 -31 38q-19 0 -35 -11v-420z" />
    <glyph glyph-name="q" unicode="q" 
d="M25 82v398q0 86 73 86q45 0 72 -32q4 18 7 26h59v-704h-72v164q-28 -26 -66 -26q-73 0 -73 88zM98 97q0 -38 31 -38q17 0 35 11v420q-18 11 -35 11q-31 0 -31 -38v-366z" />
    <glyph glyph-name="r" unicode="r" horiz-adv-x="173" 
d="M25 0v560h55q7 -16 12 -44q21 49 69 49q4 0 10 -2v-76h-17q-44 0 -56 -28v-459h-73z" />
    <glyph glyph-name="s" unicode="s" horiz-adv-x="248" 
d="M157 112q0 66 -61 145q-77 101 -77 183q0 126 105 126q56 0 80.5 -29.5t24.5 -98.5v-56h-72v59q0 35 -6.5 48.5t-25.5 13.5q-34 0 -34 -55q0 -58 67 -145q72 -95 72 -184q0 -125 -107 -125q-56 0 -80 29.5t-24 101.5v54h72v-57q0 -36 7 -50.5t27 -14.5q32 0 32 55z" />
    <glyph glyph-name="t" unicode="t" horiz-adv-x="142" 
d="M4 560h27v105l73 11v-116h39v-64h-39v-402q0 -18 6.5 -25.5t23.5 -7.5h12v-61q-13 -4 -39 -4q-37 0 -56.5 20.5t-19.5 69.5v410h-27v64z" />
    <glyph glyph-name="u" unicode="u" 
d="M98 560v-463q0 -38 31 -38q18 0 35 10v491h72v-560h-59q-3 9 -7 29q-29 -35 -72 -35q-32 0 -52.5 20.5t-20.5 65.5v480h73z" />
    <glyph glyph-name="v" unicode="v" horiz-adv-x="229" 
d="M228 560l-66 -560h-98l-63 560h75l40 -487l41 487h71z" />
    <glyph glyph-name="w" unicode="w" horiz-adv-x="329" 
d="M330 560l-57 -560h-82l-23 355l-3 52q-2 -18 -4 -52l-27 -355h-84l-51 560h77l18 -347l5 -102q4 72 6 102l27 347h66l29 -347l7 -104q1 15 2 37.5t1.5 39t1.5 27.5l18 347h73z" />
    <glyph glyph-name="x" unicode="x" horiz-adv-x="234" 
d="M69 0h-65q4 13 18.5 70l30 114t27.5 94l-74 282h77l44 -200q7 46 22 119.5t16 80.5h65l-31 -122.5t-42 -158.5l72 -279h-79l-40 198q-15 -83 -41 -198z" />
    <glyph glyph-name="y" unicode="y" horiz-adv-x="229" 
d="M22 -133v58q38 1 56 20.5t21 54.5h-35l-63 560h75l40 -487l41 487h71l-66 -560q-10 -76 -43 -104.5t-97 -28.5z" />
    <glyph glyph-name="z" unicode="z" horiz-adv-x="194" 
d="M14 59l93 439q-24 -2 -36 -2h-57v64h166v-59l-94 -439q19 4 41 4h53v-66h-166v59z" />
    <glyph glyph-name="braceleft" unicode="{" horiz-adv-x="144" 
d="M63 -147q-35 78 -35 255q0 118 18 185h-30v70h30q-18 67 -18 185q0 176 35 256l47 -13q-12 -93 -12 -221q0 -23 1.5 -62t1.5 -61.5t-2 -49t-9 -43.5t-20 -26q13 -9 20 -26t9 -43t2 -49t-1.5 -61.5t-1.5 -62.5q0 -128 12 -221z" />
    <glyph glyph-name="bar" unicode="|" horiz-adv-x="121" 
d="M32 800h57v-944h-57v944z" />
    <glyph glyph-name="braceright" unicode="}" horiz-adv-x="144" 
d="M82 -147l-48 12q12 93 12 221q0 24 -1.5 62.5t-1.5 61.5t2 49t9 43t20 26q-13 9 -20 26t-9 43.5t-2 49t1.5 61.5t1.5 62q0 128 -12 221l48 13q34 -84 34 -256q0 -118 -18 -185h30v-70h-30q18 -68 18 -185q0 -174 -34 -255z" />
    <glyph glyph-name="asciitilde" unicode="~" horiz-adv-x="304" 
d="M194 234q-42 0 -60.5 24.5t-18.5 81.5v280q0 23 -4.5 30.5t-15.5 7.5t-16 -7.5t-5 -30.5v-379h-51v373q0 59 21 82.5t65 23.5q42 0 61 -23.5t19 -82.5v-280q0 -23 4.5 -30.5t16.5 -7.5q11 0 15.5 7.5t4.5 30.5v380h51v-376q0 -57 -21.5 -80.5t-65.5 -23.5z" />
    <glyph glyph-name="uni00A0" unicode="&#xa0;" horiz-adv-x="85" 
 />
    <glyph glyph-name="exclamdown" unicode="&#xa1;" horiz-adv-x="125" 
d="M100 -144h-75v181q0 36 5 115.5t10 141.5l5 61h36q19 -236 19 -318v-181zM63 451q-19 0 -32.5 13.5t-13.5 32.5t13.5 32.5t32.5 13.5t32.5 -13.5t13.5 -32.5t-13.5 -32.5t-32.5 -13.5z" />
    <glyph glyph-name="cent" unicode="&#xa2;" horiz-adv-x="265" 
d="M117 693h30v-51q45 -3 68 -31.5t23 -96.5v-64h-72v76q0 28 -7.5 40t-25.5 12q-19 0 -26 -12t-7 -40v-338q0 -28 7 -40t26 -12t26 12t7 40v85h72v-73q0 -68 -23 -97t-68 -32v-50h-30v50q-45 4 -67.5 32.5t-22.5 96.5v313q0 67 22.5 96.5t67.5 32.5v51z" />
    <glyph glyph-name="sterling" unicode="&#xa3;" horiz-adv-x="281" 
d="M19 77v58l57 1q-10 43 -20 107h-35v31h30q-1 15 -5 40h-25v31h22q-10 93 -10 134v29q0 69 25 102t83 33t82 -30t24 -105v-114h-72v121q0 34 -7 49.5t-27 15.5t-27.5 -16t-7.5 -49v-47q0 -58 4 -123h72v-31h-70l3 -40h67v-31h-64q5 -59 12 -106l130 3v-63h-241z" />
    <glyph glyph-name="currency" unicode="&#xa4;" horiz-adv-x="260" 
d="M220 73h-61q0 52 -9 79q-6 -1 -20 -1t-20 1q-10 -30 -10 -79h-60q4 58 23 95q-39 28 -39 116v142q0 89 41 117q-21 39 -25 98h60q0 -51 11 -83q6 1 19 1t19 -1q10 33 10 83h61q-3 -59 -25 -99q41 -28 41 -116v-142q0 -88 -39 -116q21 -39 23 -95zM130 496q-19 0 -26 -13
t-7 -49v-160q0 -36 7 -48.5t26 -12.5t26.5 13t7.5 48v160q0 36 -7.5 49t-26.5 13z" />
    <glyph glyph-name="yen" unicode="&#xa5;" horiz-adv-x="261" 
d="M164 74h-73v160h-69v31h63l-7 33h-56v31h51l-59 308h73l45 -333l23 166.5t24 166.5h70l-65 -308h56v-31h-62l-7 -33h69v-31h-76v-160z" />
    <glyph glyph-name="brokenbar" unicode="&#xa6;" horiz-adv-x="136" 
d="M35 800h66l-12 -444h-42zM47 300h42l12 -444h-66z" />
    <glyph glyph-name="section" unicode="&#xa7;" horiz-adv-x="259" 
d="M25 191h71v-66q0 -36 7 -51t27 -15q33 0 33 54q0 32 -11.5 55.5t-49.5 57.5q-36 33 -52 64.5t-16 76.5q0 60 47 99q-56 59 -56 130q0 121 106 121q53 0 78.5 -30.5t25.5 -98.5v-72h-72v70q0 36 -7 50.5t-27 14.5q-33 0 -33 -54q0 -32 11.5 -56t49.5 -58
q37 -34 52.5 -64.5t15.5 -75.5q0 -62 -47 -98q57 -59 57 -130q0 -121 -107 -121q-53 0 -78 30t-25 99v68zM94 373q0 -27 10.5 -48.5t40.5 -47.5q20 28 20 60q0 54 -50 98q-21 -27 -21 -62z" />
    <glyph glyph-name="dieresis" unicode="&#xa8;" horiz-adv-x="200" 
d="M52 633q-16 0 -28 11.5t-12 28.5t12 28.5t28 11.5t28 -11.5t12 -28.5t-12 -28.5t-28 -11.5zM147 633q-17 0 -28.5 11.5t-11.5 28.5t11.5 28.5t28.5 11.5t28.5 -11.5t11.5 -28.5t-11.5 -28.5t-28.5 -11.5z" />
    <glyph glyph-name="copyright" unicode="&#xa9;" horiz-adv-x="348" 
d="M256 314v-67q0 -60 -19.5 -83.5t-62.5 -23.5q-42 0 -62 24t-20 83v221q0 59 20 83.5t62 24.5q43 0 62.5 -24t19.5 -84v-70h-55v78q0 27 -6 37.5t-21 10.5q-27 0 -27 -48v-236q0 -48 27 -48q16 0 21.5 10.5t5.5 37.5v74h55zM319 231q0 -80 -37.5 -120t-107.5 -40
q-69 0 -107 40.5t-38 119.5v252q0 79 38 119.5t107 40.5q70 0 107.5 -40t37.5 -120v-252zM174 100q60 0 87.5 30.5t27.5 100.5v252q0 69 -27 100.5t-88 31.5q-60 0 -87.5 -31.5t-27.5 -100.5v-252q0 -69 28 -100t87 -31z" />
    <glyph glyph-name="ordfeminine" unicode="&#xaa;" horiz-adv-x="236" 
d="M23 473v13q0 47 33.5 70t89.5 21v48q0 39 -28 39t-28 -39v-26h-65v21q0 100 94 100q93 0 93 -101v-224h-52q-5 10 -8 23q-23 -27 -61 -27q-68 0 -68 82zM90 487q0 -45 29 -45q16 0 27 16v80q-56 3 -56 -43v-8zM29 319v37h183v-37h-183z" />
    <glyph glyph-name="guillemotleft" unicode="&#xab;" horiz-adv-x="208" 
d="M200 328l-49 -104l49 -103h-60l-47 103l47 104h60zM112 328l-49 -104l49 -103h-60l-47 103l47 104h60z" />
    <glyph glyph-name="logicalnot" unicode="&#xac;" horiz-adv-x="258" 
d="M10 208v64h238v-150h-64v86h-174z" />
    <glyph glyph-name="registered" unicode="&#xae;" horiz-adv-x="348" 
d="M319 231q0 -80 -37.5 -120t-107.5 -40q-69 0 -107 40.5t-38 119.5v252q0 79 38 119.5t107 40.5q70 0 107.5 -40t37.5 -120v-252zM174 100q60 0 87.5 30.5t27.5 100.5v252q0 69 -27 100.5t-88 31.5q-60 0 -87.5 -31.5t-27.5 -100.5v-252q0 -69 28 -100t87 -31zM260 158
h-60l-21 103h-28v-103h-54v399h67q49 0 71.5 -28t22.5 -96v-58q0 -75 -35 -100q7 -13 10 -26zM166 505h-15v-195h16q21 0 28.5 13t7.5 48v66q0 36 -7.5 52t-29.5 16z" />
    <glyph glyph-name="macron" unicode="&#xaf;" horiz-adv-x="201" 
d="M36 641h129v-40h-129v40z" />
    <glyph glyph-name="degree" unicode="&#xb0;" horiz-adv-x="249" 
d="M224 611v-7q0 -108 -100 -108q-50 0 -74.5 25t-24.5 83v6q0 110 99 110q50 0 75 -25.5t25 -83.5zM124 551q35 0 35 50v15q0 49 -35 49q-34 0 -34 -49v-15q0 -50 34 -50z" />
    <glyph glyph-name="plusminus" unicode="&#xb1;" horiz-adv-x="258" 
d="M160 179h-63v78h-87v62h87v79h63v-79h88v-62h-88v-78zM10 86v63h238v-63h-238z" />
    <glyph glyph-name="twosuperior" unicode="&#xb2;" horiz-adv-x="231" 
d="M19 606q0 114 97 114q96 0 96 -99v-18q0 -47 -35 -86t-88 -63l124 3v-60h-195v58q64 40 96.5 71.5t32.5 72.5v24q0 42 -31 42q-33 0 -33 -49v-60h-64v50z" />
    <glyph glyph-name="threesuperior" unicode="&#xb3;" horiz-adv-x="236" 
d="M214 496q0 -50 -24 -77.5t-72 -27.5q-97 0 -97 96v34h64v-31q0 -44 33 -44q32 0 32 46v35q0 40 -35 40q-23 0 -43 -20l-28 34l90 76l-112 -3v60h191v-52l-75 -52h6q33 0 51.5 -21.5t18.5 -62.5v-30z" />
    <glyph glyph-name="acute" unicode="&#xb4;" horiz-adv-x="240" 
d="M82 601l15 113h60l-36 -113h-39z" />
    <glyph glyph-name="mu" unicode="&#xb5;" 
d="M99 560v-463q0 -38 31 -38q18 0 35 10v491h72v-560h-59q-3 9 -7 29q-29 -35 -72 -35q-3 0 -7 0.5t-6 0.5q11 -64 11 -139h-72v239l1 -1v466h73z" />
    <glyph glyph-name="paragraph" unicode="&#xb6;" horiz-adv-x="325" 
d="M209 714v-714h-56v185h-10q-26 0 -44 6t-35.5 23.5t-26.5 55t-9 94.5v159q0 107 30.5 149t99.5 42h51zM244 714h53v-714h-53v714z" />
    <glyph glyph-name="periodcentered" unicode="&#xb7;" horiz-adv-x="112" 
d="M56 190q-19 0 -32.5 13.5t-13.5 32.5t13.5 32.5t32.5 13.5t32.5 -13.5t13.5 -32.5t-13.5 -32.5t-32.5 -13.5z" />
    <glyph glyph-name="cedilla" unicode="&#xb8;" horiz-adv-x="292" 
d="M195 -66q0 -28 -18.5 -40.5t-73.5 -9.5v35h31q24 0 24 15q0 14 -24 14h-20v92h32v-59q49 -2 49 -47z" />
    <glyph glyph-name="onesuperior" unicode="&#xb9;" horiz-adv-x="229" 
d="M20 397v54h62v168q-21 -16 -55 -23l-11 54q72 11 97 68h34v-267h63v-54h-190z" />
    <glyph glyph-name="ordmasculine" unicode="&#xba;" horiz-adv-x="236" 
d="M28 319v37h180v-37h-180zM215 592v-73q0 -128 -97 -128q-50 0 -73 29t-23 99v73q0 128 96 128q50 0 73.5 -29t23.5 -99zM150 499v113q0 29 -7 41t-25 12q-32 0 -32 -53v-113q0 -29 6.5 -41t25.5 -12q32 0 32 53z" />
    <glyph glyph-name="guillemotright" unicode="&#xbb;" horiz-adv-x="208" 
d="M202 224l-47 -103h-60l49 103l-49 104h60zM114 224l-47 -103h-60l50 103l-50 104h61z" />
    <glyph glyph-name="onequarter" unicode="&#xbc;" horiz-adv-x="271" 
d="M41 397v54h62v168q-21 -16 -55 -23l-11 54q72 11 97 68h34v-267h63v-54h-190zM0 342v34h271v-34h-271zM146 163h54v-77h33v-52h-33v-40h-65v40h-117v52l98 231h69q-19 -42 -111 -231h61v18z" />
    <glyph glyph-name="onehalf" unicode="&#xbd;" horiz-adv-x="271" 
d="M41 397v54h62v168q-21 -16 -55 -23l-11 54q72 11 97 68h34v-267h63v-54h-190zM0 342v34h271v-34h-271zM39 209q0 114 97 114q96 0 96 -99v-18q0 -47 -35 -86t-88 -63l124 3v-60h-195v58q64 40 96.5 71.5t32.5 72.5v24q0 42 -31 42q-33 0 -33 -49v-60h-64v50z" />
    <glyph glyph-name="threequarters" unicode="&#xbe;" horiz-adv-x="271" 
d="M230 496q0 -50 -24 -77.5t-72 -27.5q-97 0 -97 96v34h64v-31q0 -44 33 -44q32 0 32 46v35q0 40 -35 40q-23 0 -43 -20l-28 34l90 76l-112 -3v60h191v-52l-75 -52h6q33 0 51.5 -21.5t18.5 -62.5v-30zM142 163h54v-77h33v-52h-33v-40h-65v40h-117v52l98 231h69
q-19 -42 -111 -231h61v18zM0 342v34h271v-34h-271z" />
    <glyph glyph-name="questiondown" unicode="&#xbf;" horiz-adv-x="260" 
d="M25 -8v82q0 126 83 144q3 65 12 142h42q14 -124 15 -191q-38 0 -57.5 -21t-19.5 -74v-92q0 -32 8.5 -45.5t26.5 -13.5q20 0 27.5 13t7.5 46v104h75v-94q0 -75 -26.5 -107t-83.5 -32q-56 0 -83 32t-27 107zM141 446q-19 0 -32.5 13.5t-13.5 32.5t13.5 32.5t32.5 13.5
t32.5 -13.5t13.5 -32.5t-13.5 -32.5t-32.5 -13.5z" />
    <glyph glyph-name="Agrave" unicode="&#xc0;" horiz-adv-x="252" 
d="M3 0l73 714h105l68 -714h-77l-12 157h-71l-12 -157h-74zM104 341l-9 -112h59l-9 112q-9 121 -21 314q-3 -47 -10 -165t-10 -149zM155 734h-51l-32 48h63z" />
    <glyph glyph-name="Aacute" unicode="&#xc1;" horiz-adv-x="252" 
d="M3 0l73 714h105l68 -714h-77l-12 157h-71l-12 -157h-74zM104 341l-9 -112h59l-9 112q-9 121 -21 314q-3 -47 -10 -165t-10 -149zM107 734l20 48h63l-32 -48h-51z" />
    <glyph glyph-name="Acircumflex" unicode="&#xc2;" horiz-adv-x="252" 
d="M3 0l73 714h105l68 -714h-77l-12 157h-71l-12 -157h-74zM104 341l-9 -112h59l-9 112q-9 121 -21 314q-3 -47 -10 -165t-10 -149zM68 734l31 48h61l31 -48h-45l-16 27l-16 -27h-46z" />
    <glyph glyph-name="Atilde" unicode="&#xc3;" horiz-adv-x="252" 
d="M3 0l73 714h105l68 -714h-77l-12 157h-71l-12 -157h-74zM104 341l-9 -112h59l-9 112q-9 121 -21 314q-3 -47 -10 -165t-10 -149zM155 734q-30 0 -42 27h-7q-2 -20 1 -27h-36q-2 12 -2 19q0 39 40 39q29 0 42 -27h6q2 20 0 27h35l3 -18q0 -40 -40 -40z" />
    <glyph glyph-name="Adieresis" unicode="&#xc4;" horiz-adv-x="252" 
d="M3 0l73 714h105l68 -714h-77l-12 157h-71l-12 -157h-74zM104 341l-9 -112h59l-9 112q-9 121 -21 314q-3 -47 -10 -165t-10 -149zM87 734q-15 0 -26 10.5t-11 26.5q0 15 11 25.5t26 10.5t25.5 -10.5t10.5 -25.5q0 -16 -10.5 -26.5t-25.5 -10.5zM176 734q-15 0 -26 10.5
t-11 26.5q0 15 11 25.5t26 10.5t25.5 -10.5t10.5 -25.5q0 -16 -10.5 -26.5t-25.5 -10.5z" />
    <glyph glyph-name="Aring" unicode="&#xc5;" horiz-adv-x="252" 
d="M3 0l73 714h105l68 -714h-77l-12 157h-71l-12 -157h-74zM104 341l-9 -112h59l-9 112q-9 121 -21 314q-3 -47 -10 -165t-10 -149zM181 776q0 -43 -45 -43h-12q-47 0 -47 43q0 42 47 42h12q45 0 45 -42zM150 776q0 15 -18 15h-6q-18 0 -18 -15q0 -16 18 -16h6q18 0 18 16z
" />
    <glyph glyph-name="AE" unicode="&#xc6;" horiz-adv-x="334" 
d="M154 0v157h-59l-18 -157h-75l90 714h233v-70h-97v-246h84v-65h-84v-263h97v-70h-171zM114 317l-11 -91h51v421h-10q-10 -154 -30 -330z" />
    <glyph glyph-name="Ccedilla" unicode="&#xc7;" horiz-adv-x="272" 
d="M194 -66q0 -28 -18.5 -40.5t-73.5 -9.5v35h31q24 0 24 15q0 14 -24 14h-20v47q-44 5 -65 37.5t-21 100.5v448q0 75 26.5 107t82.5 32q57 0 83 -31.5t26 -107.5v-137h-74v147q0 33 -7.5 46t-27.5 13q-18 0 -26.5 -13.5t-8.5 -45.5v-468q0 -32 8.5 -45.5t26.5 -13.5
q20 0 27.5 13t7.5 46v141h74v-131q0 -73 -24 -105t-76 -34v-13q49 -2 49 -47z" />
    <glyph glyph-name="Egrave" unicode="&#xc8;" horiz-adv-x="207" 
d="M27 0v714h171v-70h-97v-246h84v-65h-84v-263h97v-70h-171zM143 734h-51l-32 48h63z" />
    <glyph glyph-name="Eacute" unicode="&#xc9;" horiz-adv-x="207" 
d="M27 0v714h171v-70h-97v-246h84v-65h-84v-263h97v-70h-171zM90 734l20 48h63l-32 -48h-51z" />
    <glyph glyph-name="Ecircumflex" unicode="&#xca;" horiz-adv-x="207" 
d="M27 0v714h171v-70h-97v-246h84v-65h-84v-263h97v-70h-171zM54 734l31 48h61l31 -48h-45l-16 27l-16 -27h-46z" />
    <glyph glyph-name="Edieresis" unicode="&#xcb;" horiz-adv-x="207" 
d="M27 0v714h171v-70h-97v-246h84v-65h-84v-263h97v-70h-171zM72 734q-15 0 -26 10.5t-11 26.5q0 15 11 25.5t26 10.5t25.5 -10.5t10.5 -25.5q0 -16 -10.5 -26.5t-25.5 -10.5zM161 734q-15 0 -26 10.5t-11 26.5q0 15 11 25.5t26 10.5t25.5 -10.5t10.5 -25.5
q0 -16 -10.5 -26.5t-25.5 -10.5z" />
    <glyph glyph-name="Igrave" unicode="&#xcc;" horiz-adv-x="128" 
d="M27 714h74v-714h-74v714zM90 734h-51l-32 48h63z" />
    <glyph glyph-name="Iacute" unicode="&#xcd;" horiz-adv-x="128" 
d="M27 714h74v-714h-74v714zM42 734l20 48h63l-32 -48h-51z" />
    <glyph glyph-name="Icircumflex" unicode="&#xce;" horiz-adv-x="128" 
d="M27 714h74v-714h-74v714zM4 734l31 48h61l31 -48h-45l-16 27l-16 -27h-46z" />
    <glyph glyph-name="Idieresis" unicode="&#xcf;" horiz-adv-x="128" 
d="M27 714h74v-714h-74v714zM22 734q-15 0 -26 10.5t-11 26.5q0 15 11 25.5t26 10.5t25.5 -10.5t10.5 -25.5q0 -16 -10.5 -26.5t-25.5 -10.5zM111 734q-15 0 -26 10.5t-11 26.5q0 15 11 25.5t26 10.5t25.5 -10.5t10.5 -25.5q0 -16 -10.5 -26.5t-25.5 -10.5z" />
    <glyph glyph-name="Eth" unicode="&#xd0;" horiz-adv-x="275" 
d="M-3 322v65h33v327h81q73 0 105 -41t32 -146v-349q0 -97 -33 -137.5t-96 -40.5h-89v322h-33zM126 70q48 0 48 111v344q0 61 -10.5 89.5t-37.5 28.5h-22v-256h33v-65h-33v-252h22z" />
    <glyph glyph-name="Ntilde" unicode="&#xd1;" horiz-adv-x="292" 
d="M27 714h104l89 -634q-23 276 -23 411v223h68v-714h-98l-86 620q13 -217 13 -346v-274h-67v714zM177 734q-30 0 -42 27h-7q-2 -20 1 -27h-36q-2 12 -2 19q0 39 40 39q29 0 42 -27h6q2 20 0 27h35l3 -18q0 -40 -40 -40z" />
    <glyph glyph-name="Ograve" unicode="&#xd2;" horiz-adv-x="272" 
d="M136 720q57 0 83 -31.5t26 -107.5v-448q0 -75 -26.5 -107t-82.5 -32q-57 0 -83 31.5t-26 107.5v448q0 75 26.5 107t82.5 32zM171 123v468q0 33 -7.5 46t-27.5 13q-18 0 -26.5 -13.5t-8.5 -45.5v-468q0 -33 7.5 -46t27.5 -13q18 0 26.5 13.5t8.5 45.5zM164 734h-51l-32 48
h63z" />
    <glyph glyph-name="Oacute" unicode="&#xd3;" horiz-adv-x="272" 
d="M136 720q57 0 83 -31.5t26 -107.5v-448q0 -75 -26.5 -107t-82.5 -32q-57 0 -83 31.5t-26 107.5v448q0 75 26.5 107t82.5 32zM171 123v468q0 33 -7.5 46t-27.5 13q-18 0 -26.5 -13.5t-8.5 -45.5v-468q0 -33 7.5 -46t27.5 -13q18 0 26.5 13.5t8.5 45.5zM118 734l20 48h63
l-32 -48h-51z" />
    <glyph glyph-name="Ocircumflex" unicode="&#xd4;" horiz-adv-x="272" 
d="M136 720q57 0 83 -31.5t26 -107.5v-448q0 -75 -26.5 -107t-82.5 -32q-57 0 -83 31.5t-26 107.5v448q0 75 26.5 107t82.5 32zM171 123v468q0 33 -7.5 46t-27.5 13q-18 0 -26.5 -13.5t-8.5 -45.5v-468q0 -33 7.5 -46t27.5 -13q18 0 26.5 13.5t8.5 45.5zM73 734l31 48h61
l31 -48h-45l-16 27l-16 -27h-46z" />
    <glyph glyph-name="Otilde" unicode="&#xd5;" horiz-adv-x="272" 
d="M136 720q57 0 83 -31.5t26 -107.5v-448q0 -75 -26.5 -107t-82.5 -32q-57 0 -83 31.5t-26 107.5v448q0 75 26.5 107t82.5 32zM171 123v468q0 33 -7.5 46t-27.5 13q-18 0 -26.5 -13.5t-8.5 -45.5v-468q0 -33 7.5 -46t27.5 -13q18 0 26.5 13.5t8.5 45.5zM162 734
q-30 0 -42 27h-7q-2 -20 1 -27h-36q-2 12 -2 19q0 39 40 39q29 0 42 -27h6q2 20 0 27h35l3 -18q0 -40 -40 -40z" />
    <glyph glyph-name="Odieresis" unicode="&#xd6;" horiz-adv-x="272" 
d="M136 720q57 0 83 -31.5t26 -107.5v-448q0 -75 -26.5 -107t-82.5 -32q-57 0 -83 31.5t-26 107.5v448q0 75 26.5 107t82.5 32zM171 123v468q0 33 -7.5 46t-27.5 13q-18 0 -26.5 -13.5t-8.5 -45.5v-468q0 -33 7.5 -46t27.5 -13q18 0 26.5 13.5t8.5 45.5zM93 734
q-15 0 -26 10.5t-11 26.5q0 15 11 25.5t26 10.5t25.5 -10.5t10.5 -25.5q0 -16 -10.5 -26.5t-25.5 -10.5zM182 734q-15 0 -26 10.5t-11 26.5q0 15 11 25.5t26 10.5t25.5 -10.5t10.5 -25.5q0 -16 -10.5 -26.5t-25.5 -10.5z" />
    <glyph glyph-name="multiply" unicode="&#xd7;" horiz-adv-x="254" 
d="M66 135l-45 45l61 62l-61 61l45 45l61 -61l61 61l45 -45l-61 -61l61 -62l-45 -45l-61 61z" />
    <glyph glyph-name="Oslash" unicode="&#xd8;" horiz-adv-x="272" 
d="M136 720q57 0 83 -31.5t26 -107.5v-448q0 -75 -26.5 -107t-82.5 -32q-57 0 -83 31.5t-26 107.5v448q0 75 26.5 107t82.5 32zM101 591v-250l70 108v142q0 33 -7.5 46t-27.5 13q-18 0 -26.5 -13.5t-8.5 -45.5zM171 123v249l-70 -110v-139q0 -33 7.5 -46t27.5 -13
q18 0 26.5 13.5t8.5 45.5z" />
    <glyph glyph-name="Ugrave" unicode="&#xd9;" horiz-adv-x="272" 
d="M171 714h74v-581q0 -75 -26.5 -107t-82.5 -32q-57 0 -83 31.5t-26 107.5v581h74v-591q0 -33 7.5 -46t27.5 -13q18 0 26.5 13.5t8.5 45.5v591zM165 734h-51l-32 48h63z" />
    <glyph glyph-name="Uacute" unicode="&#xda;" horiz-adv-x="272" 
d="M171 714h74v-581q0 -75 -26.5 -107t-82.5 -32q-57 0 -83 31.5t-26 107.5v581h74v-591q0 -33 7.5 -46t27.5 -13q18 0 26.5 13.5t8.5 45.5v591zM117 734l20 48h63l-32 -48h-51z" />
    <glyph glyph-name="Ucircumflex" unicode="&#xdb;" horiz-adv-x="272" 
d="M171 714h74v-581q0 -75 -26.5 -107t-82.5 -32q-57 0 -83 31.5t-26 107.5v581h74v-591q0 -33 7.5 -46t27.5 -13q18 0 26.5 13.5t8.5 45.5v591zM74 734l31 48h61l31 -48h-45l-16 27l-16 -27h-46z" />
    <glyph glyph-name="Udieresis" unicode="&#xdc;" horiz-adv-x="272" 
d="M171 714h74v-581q0 -75 -26.5 -107t-82.5 -32q-57 0 -83 31.5t-26 107.5v581h74v-591q0 -33 7.5 -46t27.5 -13q18 0 26.5 13.5t8.5 45.5v591zM92 734q-15 0 -26 10.5t-11 26.5q0 15 11 25.5t26 10.5t25.5 -10.5t10.5 -25.5q0 -16 -10.5 -26.5t-25.5 -10.5zM181 734
q-15 0 -26 10.5t-11 26.5q0 15 11 25.5t26 10.5t25.5 -10.5t10.5 -25.5q0 -16 -10.5 -26.5t-25.5 -10.5z" />
    <glyph glyph-name="Yacute" unicode="&#xdd;" horiz-adv-x="249" 
d="M83 0v191l-80 523h79l44 -395l45 395h75l-88 -531v-183h-75zM104 734l20 48h63l-32 -48h-51z" />
    <glyph glyph-name="Thorn" unicode="&#xde;" horiz-adv-x="272" 
d="M101 0h-74v714h74v-91h17q67 0 97 -38.5t30 -140.5v-146q0 -91 -30.5 -129.5t-89.5 -38.5h-24v-130zM123 552h-22v-354h22q25 0 36.5 23t11.5 76v148q0 56 -10.5 81.5t-37.5 25.5z" />
    <glyph glyph-name="germandbls" unicode="&#xdf;" horiz-adv-x="261" 
d="M240 591v-33q0 -85 -48 -112q48 -20 48 -96v-215q0 -77 -28 -107t-92 -28v64q27 0 37 14t10 51v229q0 29 -10.5 40t-37.5 11v64q28 0 38 15t10 53v59q0 30 -8 41.5t-26 11.5t-26.5 -11.5t-8.5 -41.5v-600h-73v591q0 71 26.5 100t82.5 29q55 0 80.5 -29t25.5 -100z" />
    <glyph glyph-name="agrave" unicode="&#xe0;" 
d="M25 83v123q0 63 38 91t101 21v127q0 31 -7 43.5t-26 12.5t-26 -12.5t-7 -43.5v-74h-72v67q0 70 25.5 99t79.5 29q55 0 80 -29t25 -101v-436h-59q-3 9 -7 29q-28 -35 -71 -35q-74 0 -74 89zM98 102q0 -43 31 -43q18 0 35 10v199q-35 0 -50.5 -12t-15.5 -48v-106zM151 601
h-39l-36 113h60z" />
    <glyph glyph-name="aacute" unicode="&#xe1;" 
d="M25 83v123q0 63 38 91t101 21v127q0 31 -7 43.5t-26 12.5t-26 -12.5t-7 -43.5v-74h-72v67q0 70 25.5 99t79.5 29q55 0 80 -29t25 -101v-436h-59q-3 9 -7 29q-28 -35 -71 -35q-74 0 -74 89zM98 102q0 -43 31 -43q18 0 35 10v199q-35 0 -50.5 -12t-15.5 -48v-106zM113 601
l15 113h60l-36 -113h-39z" />
    <glyph glyph-name="acircumflex" unicode="&#xe2;" 
d="M25 83v123q0 63 38 91t101 21v127q0 31 -7 43.5t-26 12.5t-26 -12.5t-7 -43.5v-74h-72v67q0 70 25.5 99t79.5 29q55 0 80 -29t25 -101v-436h-59q-3 9 -7 29q-28 -35 -71 -35q-74 0 -74 89zM98 102q0 -43 31 -43q18 0 35 10v199q-35 0 -50.5 -12t-15.5 -48v-106zM65 601
l37 113h54l37 -113h-44l-20 78l-20 -78h-44z" />
    <glyph glyph-name="atilde" unicode="&#xe3;" 
d="M25 83v123q0 63 38 91t101 21v127q0 31 -7 43.5t-26 12.5t-26 -12.5t-7 -43.5v-74h-72v67q0 70 25.5 99t79.5 29q55 0 80 -29t25 -101v-436h-59q-3 9 -7 29q-28 -35 -71 -35q-74 0 -74 89zM98 102q0 -43 31 -43q18 0 35 10v199q-35 0 -50.5 -12t-15.5 -48v-106zM195 703
q5 -16 5 -39q0 -64 -48 -64q-22 0 -34 17.5t-13 44.5h-16q-2 -33 1 -61h-30q-5 17 -5 42q0 62 49 62q41 0 47 -61h15q2 33 -1 59h30z" />
    <glyph glyph-name="adieresis" unicode="&#xe4;" 
d="M25 83v123q0 63 38 91t101 21v127q0 31 -7 43.5t-26 12.5t-26 -12.5t-7 -43.5v-74h-72v67q0 70 25.5 99t79.5 29q55 0 80 -29t25 -101v-436h-59q-3 9 -7 29q-28 -35 -71 -35q-74 0 -74 89zM98 102q0 -43 31 -43q18 0 35 10v199q-35 0 -50.5 -12t-15.5 -48v-106zM85 633
q-17 0 -28.5 11.5t-11.5 28.5t11.5 28.5t28.5 11.5t28.5 -11.5t11.5 -28.5t-11.5 -28.5t-28.5 -11.5zM180 633q-16 0 -28 11.5t-12 28.5t12 28.5t28 11.5t28 -11.5t12 -28.5t-12 -28.5t-28 -11.5z" />
    <glyph glyph-name="aring" unicode="&#xe5;" 
d="M25 83v123q0 63 38 91t101 21v127q0 31 -7 43.5t-26 12.5t-26 -12.5t-7 -43.5v-74h-72v67q0 70 25.5 99t79.5 29q55 0 80 -29t25 -101v-436h-59q-3 9 -7 29q-28 -35 -71 -35q-74 0 -74 89zM98 102q0 -43 31 -43q18 0 35 10v199q-35 0 -50.5 -12t-15.5 -48v-106zM189 649
q0 -24 -12.5 -38.5t-36.5 -14.5h-18q-24 0 -37.5 14.5t-13.5 38.5t13.5 38.5t37.5 14.5h18q24 0 36.5 -14.5t12.5 -38.5zM154 649q0 20 -20 20h-8q-19 0 -19 -20q0 -21 19 -21h8q20 0 20 21z" />
    <glyph glyph-name="ae" unicode="&#xe6;" horiz-adv-x="400" 
d="M25 94v97q0 63 38 91t101 21v129q0 36 -7 52.5t-26 16.5q-18 0 -25.5 -13.5t-7.5 -47.5v-63h-72v55q0 73 25 103.5t80 30.5q46 0 70 -20q24 20 68 20q55 0 80 -29.5t25 -106.5v-185h-138v-129q0 -32 7 -44.5t26 -12.5q18 0 25.5 13t7.5 44v69h72v-55q0 -76 -26 -106
t-79 -30q-67 0 -90 45q-28 -45 -80 -45q-35 0 -54.5 26.5t-19.5 73.5zM236 444v-145h66v145q0 32 -7 44.5t-26 12.5q-18 0 -25.5 -13t-7.5 -44zM98 107q0 -48 34 -48q21 0 37 10q-5 28 -5 61v125q-35 1 -50.5 -11t-15.5 -47v-90z" />
    <glyph glyph-name="ccedilla" unicode="&#xe7;" 
d="M189 -66q0 -28 -18.5 -40.5t-73.5 -9.5v35h31q24 0 24 15q0 14 -24 14h-20v48q-42 5 -62.5 33.5t-20.5 93.5v313q0 73 26.5 101.5t79.5 28.5t79 -28t26 -101v-64h-72v76q0 28 -7.5 40t-25.5 12q-19 0 -26 -12t-7 -40v-338q0 -28 7 -40t26 -12t26 12t7 40v85h72v-73
q0 -70 -24 -98.5t-72 -30.5v-13q49 -2 49 -47z" />
    <glyph glyph-name="egrave" unicode="&#xe8;" 
d="M236 251h-138v-140q0 -28 7 -40t26 -12t26 12t7 40v86h72v-74q0 -73 -26 -101t-79 -28t-79.5 28t-26.5 101v313q0 73 26.5 101.5t79.5 28.5t79 -28t26 -101v-186zM98 449v-145h66v145q0 28 -7.5 40t-25.5 12q-19 0 -26 -12t-7 -40zM146 601h-39l-36 113h60z" />
    <glyph glyph-name="eacute" unicode="&#xe9;" 
d="M236 251h-138v-140q0 -28 7 -40t26 -12t26 12t7 40v86h72v-74q0 -73 -26 -101t-79 -28t-79.5 28t-26.5 101v313q0 73 26.5 101.5t79.5 28.5t79 -28t26 -101v-186zM98 449v-145h66v145q0 28 -7.5 40t-25.5 12q-19 0 -26 -12t-7 -40zM111 601l15 113h60l-36 -113h-39z" />
    <glyph glyph-name="ecircumflex" unicode="&#xea;" 
d="M236 251h-138v-140q0 -28 7 -40t26 -12t26 12t7 40v86h72v-74q0 -73 -26 -101t-79 -28t-79.5 28t-26.5 101v313q0 73 26.5 101.5t79.5 28.5t79 -28t26 -101v-186zM98 449v-145h66v145q0 28 -7.5 40t-25.5 12q-19 0 -26 -12t-7 -40zM63 601l37 113h54l37 -113h-44l-20 78
l-20 -78h-44z" />
    <glyph glyph-name="edieresis" unicode="&#xeb;" 
d="M236 251h-138v-140q0 -28 7 -40t26 -12t26 12t7 40v86h72v-74q0 -73 -26 -101t-79 -28t-79.5 28t-26.5 101v313q0 73 26.5 101.5t79.5 28.5t79 -28t26 -101v-186zM98 449v-145h66v145q0 28 -7.5 40t-25.5 12q-19 0 -26 -12t-7 -40zM81 633q-17 0 -28.5 11.5t-11.5 28.5
t11.5 28.5t28.5 11.5t28.5 -11.5t11.5 -28.5t-11.5 -28.5t-28.5 -11.5zM176 633q-16 0 -28 11.5t-12 28.5t12 28.5t28 11.5t28 -11.5t12 -28.5t-12 -28.5t-28 -11.5z" />
    <glyph glyph-name="igrave" unicode="&#xec;" horiz-adv-x="121" 
d="M82 601h-39l-36 113h60zM23 560h73v-560h-73v560z" />
    <glyph glyph-name="iacute" unicode="&#xed;" horiz-adv-x="121" 
d="M41 601l15 113h60l-36 -113h-39zM23 560h73v-560h-73v560z" />
    <glyph glyph-name="icircumflex" unicode="&#xee;" horiz-adv-x="121" 
d="M-3 601l37 113h54l37 -113h-44l-20 78l-20 -78h-44zM23 560h73v-560h-73v560z" />
    <glyph glyph-name="idieresis" unicode="&#xef;" horiz-adv-x="121" 
d="M12 633q-16 0 -28 11.5t-12 28.5t12 28.5t28 11.5t28 -11.5t12 -28.5t-12 -28.5t-28 -11.5zM107 633q-17 0 -28.5 11.5t-11.5 28.5t11.5 28.5t28.5 11.5t28.5 -11.5t11.5 -28.5t-11.5 -28.5t-28.5 -11.5zM23 560h73v-560h-73v560z" />
    <glyph glyph-name="eth" unicode="&#xf0;" 
d="M25 452q0 62 19 88t56 26q33 0 59 -24q-6 37 -22 65l-43 -21l-16 35l35 18q-13 15 -43 40l46 35q30 -21 53 -47l39 19l18 -36l-33 -16q43 -69 43 -179v-330q0 -75 -26 -102.5t-79 -27.5t-79.5 28t-26.5 102v327zM98 113q0 -29 7 -41.5t26 -12.5t26 12.5t7 41.5v378
q-17 10 -35 10q-19 0 -25 -10.5t-6 -34.5v-343z" />
    <glyph glyph-name="ntilde" unicode="&#xf1;" 
d="M25 0v560h59q3 -9 7 -27q28 33 73 33q72 0 72 -86v-480h-72v463q0 38 -31 38q-19 0 -35 -11v-490h-73zM199 703q5 -16 5 -39q0 -64 -48 -64q-22 0 -34 17.5t-13 44.5h-16q-2 -33 1 -61h-30q-5 17 -5 42q0 62 49 62q41 0 47 -61h15q2 33 -1 59h30z" />
    <glyph glyph-name="ograve" unicode="&#xf2;" 
d="M236 437v-314q0 -73 -26 -101t-79 -28t-79.5 28t-26.5 101v313q0 73 26.5 101.5t79.5 28.5t79 -28t26 -101zM131 501q-19 0 -26 -12t-7 -40v-338q0 -28 7 -40t26 -12t26 12t7 40v338q0 28 -7.5 40t-25.5 12zM149 601h-39l-36 113h60z" />
    <glyph glyph-name="oacute" unicode="&#xf3;" 
d="M236 437v-314q0 -73 -26 -101t-79 -28t-79.5 28t-26.5 101v313q0 73 26.5 101.5t79.5 28.5t79 -28t26 -101zM131 501q-19 0 -26 -12t-7 -40v-338q0 -28 7 -40t26 -12t26 12t7 40v338q0 28 -7.5 40t-25.5 12zM111 601l15 113h60l-36 -113h-39z" />
    <glyph glyph-name="ocircumflex" unicode="&#xf4;" 
d="M236 437v-314q0 -73 -26 -101t-79 -28t-79.5 28t-26.5 101v313q0 73 26.5 101.5t79.5 28.5t79 -28t26 -101zM131 501q-19 0 -26 -12t-7 -40v-338q0 -28 7 -40t26 -12t26 12t7 40v338q0 28 -7.5 40t-25.5 12zM65 601l37 113h54l37 -113h-44l-20 78l-20 -78h-44z" />
    <glyph glyph-name="otilde" unicode="&#xf5;" 
d="M236 437v-314q0 -73 -26 -101t-79 -28t-79.5 28t-26.5 101v313q0 73 26.5 101.5t79.5 28.5t79 -28t26 -101zM131 501q-19 0 -26 -12t-7 -40v-338q0 -28 7 -40t26 -12t26 12t7 40v338q0 28 -7.5 40t-25.5 12zM197 703q5 -16 5 -39q0 -64 -48 -64q-22 0 -34 17.5t-13 44.5
h-16q-2 -33 1 -61h-30q-5 17 -5 42q0 62 49 62q41 0 47 -61h15q2 33 -1 59h30z" />
    <glyph glyph-name="odieresis" unicode="&#xf6;" 
d="M236 437v-314q0 -73 -26 -101t-79 -28t-79.5 28t-26.5 101v313q0 73 26.5 101.5t79.5 28.5t79 -28t26 -101zM131 501q-19 0 -26 -12t-7 -40v-338q0 -28 7 -40t26 -12t26 12t7 40v338q0 28 -7.5 40t-25.5 12zM82 633q-16 0 -28 11.5t-12 28.5t12 28.5t28 11.5t28 -11.5
t12 -28.5t-12 -28.5t-28 -11.5zM177 633q-17 0 -28.5 11.5t-11.5 28.5t11.5 28.5t28.5 11.5t28.5 -11.5t11.5 -28.5t-11.5 -28.5t-28.5 -11.5z" />
    <glyph glyph-name="divide" unicode="&#xf7;" horiz-adv-x="258" 
d="M128 309q-18 0 -30.5 12.5t-12.5 31.5q0 18 13 31t30 13q19 0 32 -13t13 -31q0 -19 -13 -31.5t-32 -12.5zM128 87q-18 0 -30.5 12.5t-12.5 31.5q0 18 13 31t30 13q19 0 32 -13t13 -31q0 -19 -13 -31.5t-32 -12.5zM10 210v63h238v-63h-238z" />
    <glyph glyph-name="oslash" unicode="&#xf8;" 
d="M236 437v-314q0 -73 -26 -101t-79 -28t-79.5 28t-26.5 101v313q0 73 26.5 101.5t79.5 28.5t79 -28t26 -101zM131 59q19 0 26 12t7 40v187l-66 -105v-82q0 -28 7 -40t26 -12zM131 501q-19 0 -26 -12t-7 -40v-181l66 103v78q0 28 -7.5 40t-25.5 12z" />
    <glyph glyph-name="ugrave" unicode="&#xf9;" 
d="M99 560v-463q0 -38 31 -38q18 0 35 10v491h72v-560h-59q-3 9 -7 29q-29 -35 -72 -35q-32 0 -52.5 20.5t-20.5 65.5v480h73zM151 601h-39l-36 113h60z" />
    <glyph glyph-name="uacute" unicode="&#xfa;" 
d="M99 560v-463q0 -38 31 -38q18 0 35 10v491h72v-560h-59q-3 9 -7 29q-29 -35 -72 -35q-32 0 -52.5 20.5t-20.5 65.5v480h73zM110 601l15 113h60l-36 -113h-39z" />
    <glyph glyph-name="ucircumflex" unicode="&#xfb;" 
d="M99 560v-463q0 -38 31 -38q18 0 35 10v491h72v-560h-59q-3 9 -7 29q-29 -35 -72 -35q-32 0 -52.5 20.5t-20.5 65.5v480h73zM68 601l37 113h54l37 -113h-44l-20 78l-20 -78h-44z" />
    <glyph glyph-name="udieresis" unicode="&#xfc;" 
d="M99 560v-463q0 -38 31 -38q18 0 35 10v491h72v-560h-59q-3 9 -7 29q-29 -35 -72 -35q-32 0 -52.5 20.5t-20.5 65.5v480h73zM179 633q-17 0 -28.5 11.5t-11.5 28.5t11.5 28.5t28.5 11.5t28.5 -11.5t11.5 -28.5t-11.5 -28.5t-28.5 -11.5zM84 633q-16 0 -28 11.5t-12 28.5
t12 28.5t28 11.5t28 -11.5t12 -28.5t-12 -28.5t-28 -11.5z" />
    <glyph glyph-name="yacute" unicode="&#xfd;" horiz-adv-x="229" 
d="M22 -133v58q38 1 56 20.5t21 54.5h-35l-63 560h75l40 -487l41 487h71l-66 -560q-10 -76 -43 -104.5t-97 -28.5zM99 601l15 113h60l-36 -113h-39z" />
    <glyph glyph-name="thorn" unicode="&#xfe;" 
d="M98 -144h-73v858h73v-171q26 23 63 23t56 -20t19 -68v-393q0 -49 -20 -70t-58 -21q-36 0 -60 21v-159zM130 57q19 0 26.5 8t7.5 27v373q0 21 -7.5 29.5t-26.5 8.5q-16 0 -32 -7v-432q16 -7 32 -7z" />
    <glyph glyph-name="ydieresis" unicode="&#xff;" horiz-adv-x="229" 
d="M22 -133v58q38 1 56 20.5t21 54.5h-35l-63 560h75l40 -487l41 487h71l-66 -560q-10 -76 -43 -104.5t-97 -28.5zM68 633q-16 0 -28 11.5t-12 28.5t12 28.5t28 11.5t28 -11.5t12 -28.5t-12 -28.5t-28 -11.5zM163 633q-17 0 -28.5 11.5t-11.5 28.5t11.5 28.5t28.5 11.5
t28.5 -11.5t11.5 -28.5t-11.5 -28.5t-28.5 -11.5z" />
    <glyph glyph-name="Amacron" unicode="&#x100;" horiz-adv-x="252" 
d="M3 0l73 714h105l68 -714h-77l-12 157h-71l-12 -157h-74zM104 341l-9 -112h59l-9 112q-9 121 -21 314q-3 -47 -10 -165t-10 -149zM73 776h112v-42h-112v42z" />
    <glyph glyph-name="amacron" unicode="&#x101;" 
d="M25 83v123q0 63 38 91t101 21v127q0 31 -7 43.5t-26 12.5t-26 -12.5t-7 -43.5v-74h-72v67q0 70 25.5 99t79.5 29q55 0 80 -29t25 -101v-436h-59q-3 9 -7 29q-28 -35 -71 -35q-74 0 -74 89zM98 102q0 -43 31 -43q18 0 35 10v199q-35 0 -50.5 -12t-15.5 -48v-106zM63 641
h129v-40h-129v40z" />
    <glyph glyph-name="Abreve" unicode="&#x102;" horiz-adv-x="252" 
d="M3 0l73 714h105l68 -714h-77l-12 157h-71l-12 -157h-74zM104 341l-9 -112h59l-9 112q-9 121 -21 314q-3 -47 -10 -165t-10 -149zM189 782q0 -27 -13.5 -40t-46.5 -13t-46.5 13t-13.5 40h40q0 -21 20 -21t20 21h40z" />
    <glyph glyph-name="abreve" unicode="&#x103;" 
d="M25 83v123q0 63 38 91t101 21v127q0 31 -7 43.5t-26 12.5t-26 -12.5t-7 -43.5v-74h-72v67q0 70 25.5 99t79.5 29q55 0 80 -29t25 -101v-436h-59q-3 9 -7 29q-28 -35 -71 -35q-74 0 -74 89zM98 102q0 -43 31 -43q18 0 35 10v199q-35 0 -50.5 -12t-15.5 -48v-106zM189 714
v-53q0 -36 -12.5 -51t-42.5 -15t-42.5 15.5t-12.5 50.5v53h39v-57q0 -15 3.5 -20.5t12.5 -5.5t12.5 5.5t3.5 20.5v57h39z" />
    <glyph glyph-name="Aogonek" unicode="&#x104;" horiz-adv-x="252" 
d="M3 0l73 714h105l68 -714h-31v-55q0 -33 30 -33v-56q-46 -4 -66 13.5t-20 58.5v28q0 29 10 46l-12 155h-71l-12 -157h-74zM104 341l-9 -112h59l-9 112q-9 121 -21 314q-3 -47 -10 -165t-10 -149z" />
    <glyph glyph-name="aogonek" unicode="&#x105;" 
d="M25 83v123q0 63 38 91t101 21v127q0 31 -7 43.5t-26 12.5t-26 -12.5t-7 -43.5v-74h-72v67q0 70 25.5 99t79.5 29q55 0 80 -29t25 -101v-436h-30v-55q0 -33 30 -33v-56q-46 -4 -66 13.5t-20 58.5v28q0 40 21 64q0 2 -0.5 5t-0.5 4q-28 -35 -71 -35q-74 0 -74 89zM98 102
q0 -43 31 -43q18 0 35 10v199q-35 0 -50.5 -12t-15.5 -48v-106z" />
    <glyph glyph-name="Cacute" unicode="&#x106;" horiz-adv-x="272" 
d="M245 264v-131q0 -76 -26 -107.5t-83 -31.5q-56 0 -82.5 32t-26.5 107v448q0 75 26.5 107t82.5 32q57 0 83 -31.5t26 -107.5v-137h-74v147q0 33 -7.5 46t-27.5 13q-18 0 -26.5 -13.5t-8.5 -45.5v-468q0 -32 8.5 -45.5t26.5 -13.5q20 0 27.5 13t7.5 46v141h74zM115 734
l20 48h63l-32 -48h-51z" />
    <glyph glyph-name="cacute" unicode="&#x107;" 
d="M111 601l15 113h60l-36 -113h-39zM236 196v-73q0 -73 -26 -101t-79 -28t-79.5 28t-26.5 101v313q0 73 26.5 101.5t79.5 28.5t79 -28t26 -101v-64h-72v76q0 28 -7.5 40t-25.5 12q-19 0 -26 -12t-7 -40v-338q0 -28 7 -40t26 -12t26 12t7 40v85h72z" />
    <glyph glyph-name="Ccircumflex" unicode="&#x108;" horiz-adv-x="272" 
d="M245 264v-131q0 -76 -26 -107.5t-83 -31.5q-56 0 -82.5 32t-26.5 107v448q0 75 26.5 107t82.5 32q57 0 83 -31.5t26 -107.5v-137h-74v147q0 33 -7.5 46t-27.5 13q-18 0 -26.5 -13.5t-8.5 -45.5v-468q0 -32 8.5 -45.5t26.5 -13.5q20 0 27.5 13t7.5 46v141h74zM73 734
l31 48h61l31 -48h-45l-16 27l-16 -27h-46z" />
    <glyph glyph-name="ccircumflex" unicode="&#x109;" 
d="M236 196v-73q0 -73 -26 -101t-79 -28t-79.5 28t-26.5 101v313q0 73 26.5 101.5t79.5 28.5t79 -28t26 -101v-64h-72v76q0 28 -7.5 40t-25.5 12q-19 0 -26 -12t-7 -40v-338q0 -28 7 -40t26 -12t26 12t7 40v85h72zM66 601l37 113h54l37 -113h-44l-20 78l-20 -78h-44z" />
    <glyph glyph-name="Cdotaccent" unicode="&#x10a;" horiz-adv-x="272" 
d="M245 264v-131q0 -76 -26 -107.5t-83 -31.5q-56 0 -82.5 32t-26.5 107v448q0 75 26.5 107t82.5 32q57 0 83 -31.5t26 -107.5v-137h-74v147q0 33 -7.5 46t-27.5 13q-18 0 -26.5 -13.5t-8.5 -45.5v-468q0 -32 8.5 -45.5t26.5 -13.5q20 0 27.5 13t7.5 46v141h74zM136 734
q-15 0 -26 10.5t-11 26.5q0 15 11 25.5t26 10.5t25.5 -10.5t10.5 -25.5q0 -16 -10.5 -26.5t-25.5 -10.5z" />
    <glyph glyph-name="cdotaccent" unicode="&#x10b;" 
d="M236 196v-73q0 -73 -26 -101t-79 -28t-79.5 28t-26.5 101v313q0 73 26.5 101.5t79.5 28.5t79 -28t26 -101v-64h-72v76q0 28 -7.5 40t-25.5 12q-19 0 -26 -12t-7 -40v-338q0 -28 7 -40t26 -12t26 12t7 40v85h72zM132 624q-18 0 -31 13t-13 32q0 18 13.5 31.5t30.5 13.5
q19 0 32 -13.5t13 -31.5q0 -19 -13 -32t-32 -13z" />
    <glyph glyph-name="Ccaron" unicode="&#x10c;" horiz-adv-x="272" 
d="M245 264v-131q0 -76 -26 -107.5t-83 -31.5q-56 0 -82.5 32t-26.5 107v448q0 75 26.5 107t82.5 32q57 0 83 -31.5t26 -107.5v-137h-74v147q0 33 -7.5 46t-27.5 13q-18 0 -26.5 -13.5t-8.5 -45.5v-468q0 -32 8.5 -45.5t26.5 -13.5q20 0 27.5 13t7.5 46v141h74zM77 782h45
l17 -27l16 27h45l-31 -48h-61z" />
    <glyph glyph-name="ccaron" unicode="&#x10d;" 
d="M236 196v-73q0 -73 -26 -101t-79 -28t-79.5 28t-26.5 101v313q0 73 26.5 101.5t79.5 28.5t79 -28t26 -101v-64h-72v76q0 28 -7.5 40t-25.5 12q-19 0 -26 -12t-7 -40v-338q0 -28 7 -40t26 -12t26 12t7 40v85h72zM66 714h44l20 -78l20 78h44l-37 -113h-54z" />
    <glyph glyph-name="Dcaron" unicode="&#x10e;" horiz-adv-x="272" 
d="M116 0h-89v714h81q73 0 105 -41t32 -146v-349q0 -97 -33 -137.5t-96 -40.5zM123 70q48 0 48 111v344q0 61 -10.5 89.5t-37.5 28.5h-22v-573h22zM63 782h45l17 -27l16 27h45l-31 -48h-61z" />
    <glyph glyph-name="dcaron" unicode="&#x10f;" 
d="M236 714v-714h-59q-3 8 -7 26q-28 -32 -72 -32q-73 0 -73 86v398q0 88 73 88q40 0 66 -26v174h72zM98 464v-367q0 -38 31 -38q17 0 35 11v420q-18 11 -35 11q-31 0 -31 -37zM269 714h48l-12 -132h-39z" />
    <glyph glyph-name="Dcroat" unicode="&#x110;" horiz-adv-x="275" 
d="M-3 322v65h33v327h81q73 0 105 -41t32 -146v-349q0 -97 -33 -137.5t-96 -40.5h-89v322h-33zM126 70q48 0 48 111v344q0 61 -10.5 89.5t-37.5 28.5h-22v-256h33v-65h-33v-252h22z" />
    <glyph glyph-name="dcroat" unicode="&#x111;" 
d="M236 714v-59h26v-53h-26v-602h-59q-3 8 -7 26q-28 -32 -72 -32q-73 0 -73 86v398q0 88 73 88q40 0 66 -26v62h-53v53h53v59h72zM98 464v-367q0 -38 31 -38q17 0 35 11v420q-18 11 -35 11q-31 0 -31 -37z" />
    <glyph glyph-name="Emacron" unicode="&#x112;" horiz-adv-x="207" 
d="M27 0v714h171v-70h-97v-246h84v-65h-84v-263h97v-70h-171zM59 776h112v-42h-112v42z" />
    <glyph glyph-name="emacron" unicode="&#x113;" 
d="M236 251h-138v-140q0 -28 7 -40t26 -12t26 12t7 40v86h72v-74q0 -73 -26 -101t-79 -28t-79.5 28t-26.5 101v313q0 73 26.5 101.5t79.5 28.5t79 -28t26 -101v-186zM98 449v-145h66v145q0 28 -7.5 40t-25.5 12q-19 0 -26 -12t-7 -40zM65 641h129v-40h-129v40z" />
    <glyph glyph-name="Ebreve" unicode="&#x114;" horiz-adv-x="207" 
d="M27 0v714h171v-70h-97v-246h84v-65h-84v-263h97v-70h-171zM176 782q0 -27 -13.5 -40t-46.5 -13t-46.5 13t-13.5 40h40q0 -21 20 -21t20 21h40z" />
    <glyph glyph-name="ebreve" unicode="&#x115;" 
d="M236 251h-138v-140q0 -28 7 -40t26 -12t26 12t7 40v86h72v-74q0 -73 -26 -101t-79 -28t-79.5 28t-26.5 101v313q0 73 26.5 101.5t79.5 28.5t79 -28t26 -101v-186zM98 449v-145h66v145q0 28 -7.5 40t-25.5 12q-19 0 -26 -12t-7 -40zM190 714v-53q0 -36 -12.5 -51
t-42.5 -15t-42.5 15.5t-12.5 50.5v53h39v-57q0 -15 3.5 -20.5t12.5 -5.5t12.5 5.5t3.5 20.5v57h39z" />
    <glyph glyph-name="Edotaccent" unicode="&#x116;" horiz-adv-x="207" 
d="M27 0v714h171v-70h-97v-246h84v-65h-84v-263h97v-70h-171zM116 734q-15 0 -26 10.5t-11 26.5q0 15 11 25.5t26 10.5t25.5 -10.5t10.5 -25.5q0 -16 -10.5 -26.5t-25.5 -10.5z" />
    <glyph glyph-name="edotaccent" unicode="&#x117;" 
d="M236 251h-138v-140q0 -28 7 -40t26 -12t26 12t7 40v86h72v-74q0 -73 -26 -101t-79 -28t-79.5 28t-26.5 101v313q0 73 26.5 101.5t79.5 28.5t79 -28t26 -101v-186zM98 449v-145h66v145q0 28 -7.5 40t-25.5 12q-19 0 -26 -12t-7 -40zM132 624q-18 0 -31 13t-13 32
q0 18 13.5 31.5t30.5 13.5q19 0 32 -13.5t13 -31.5q0 -19 -13 -32t-32 -13z" />
    <glyph glyph-name="Eogonek" unicode="&#x118;" horiz-adv-x="207" 
d="M27 0v714h171v-70h-97v-246h84v-65h-84v-263h97v-70h-27v-55q0 -33 30 -33v-56q-46 -4 -66 13.5t-20 58.5v28q0 25 8 44h-96z" />
    <glyph glyph-name="eogonek" unicode="&#x119;" 
d="M236 251h-138v-140q0 -28 7 -40t26 -12t26 12t7 40v86h72v-74q0 -73 -29 -104v-74q0 -33 30 -33v-56q-46 -4 -66 13.5t-20 58.5v28q0 25 7 40q-18 -2 -27 -2q-53 0 -79.5 28t-26.5 101v313q0 73 26.5 101.5t79.5 28.5t79 -28t26 -101v-186zM98 449v-145h66v145
q0 28 -7.5 40t-25.5 12q-19 0 -26 -12t-7 -40z" />
    <glyph glyph-name="Ecaron" unicode="&#x11a;" horiz-adv-x="207" 
d="M27 0v714h171v-70h-97v-246h84v-65h-84v-263h97v-70h-171zM53 782h45l17 -27l16 27h45l-31 -48h-61z" />
    <glyph glyph-name="ecaron" unicode="&#x11b;" 
d="M236 251h-138v-140q0 -28 7 -40t26 -12t26 12t7 40v86h72v-74q0 -73 -26 -101t-79 -28t-79.5 28t-26.5 101v313q0 73 26.5 101.5t79.5 28.5t79 -28t26 -101v-186zM98 449v-145h66v145q0 28 -7.5 40t-25.5 12q-19 0 -26 -12t-7 -40zM64 714h44l20 -78l20 78h44l-37 -113
h-54z" />
    <glyph glyph-name="Gcircumflex" unicode="&#x11c;" horiz-adv-x="272" 
d="M201 0l-14 36q-26 -42 -74 -42q-39 0 -62.5 28t-23.5 87v472q0 73 27 106t82 33q56 0 82.5 -32.5t26.5 -106.5v-137h-74v147q0 32 -7.5 45.5t-27.5 13.5q-35 0 -35 -59v-480q0 -47 38 -47q16 0 34 11l-2 5v199h-42v71h116v-350h-44zM77 734l31 48h61l31 -48h-45l-16 27
l-16 -27h-46z" />
    <glyph glyph-name="gcircumflex" unicode="&#x11d;" horiz-adv-x="266" 
d="M237 437v-213q0 -73 -26 -101t-79 -28q-20 0 -35 3q-13 -10 -13 -22q0 -15 16 -21t66 -12q47 -7 70 -28t23 -62q0 -46 -30 -74.5t-94 -28.5q-121 0 -121 74q0 45 47 70q-32 18 -32 56q0 35 37 61q-40 26 -40 113v212q0 73 26.5 101.5t79.5 28.5t77 -25q16 25 50 25
q8 0 8 -7q0 -21 -3 -60q-13 0 -32 -7q5 -25 5 -55zM132 501q-18 0 -25.5 -12t-7.5 -40v-236q0 -28 7.5 -40t25.5 -12q19 0 25.5 12t6.5 40v236q0 28 -6.5 40t-25.5 12zM71 -56q0 -39 64 -39q59 0 59 36q0 16 -12.5 22.5t-47.5 11.5q-21 2 -45 8q-18 -16 -18 -39zM71 601
l37 113h54l37 -113h-44l-20 78l-20 -78h-44z" />
    <glyph glyph-name="Gbreve" unicode="&#x11e;" horiz-adv-x="272" 
d="M201 0l-14 36q-26 -42 -74 -42q-39 0 -62.5 28t-23.5 87v472q0 73 27 106t82 33q56 0 82.5 -32.5t26.5 -106.5v-137h-74v147q0 32 -7.5 45.5t-27.5 13.5q-35 0 -35 -59v-480q0 -47 38 -47q16 0 34 11l-2 5v199h-42v71h116v-350h-44zM197 782q0 -27 -13.5 -40t-46.5 -13
t-46.5 13t-13.5 40h40q0 -21 20 -21t20 21h40z" />
    <glyph glyph-name="gbreve" unicode="&#x11f;" horiz-adv-x="266" 
d="M237 437v-213q0 -73 -26 -101t-79 -28q-20 0 -35 3q-13 -10 -13 -22q0 -15 16 -21t66 -12q47 -7 70 -28t23 -62q0 -46 -30 -74.5t-94 -28.5q-121 0 -121 74q0 45 47 70q-32 18 -32 56q0 35 37 61q-40 26 -40 113v212q0 73 26.5 101.5t79.5 28.5t77 -25q16 25 50 25
q8 0 8 -7q0 -21 -3 -60q-13 0 -32 -7q5 -25 5 -55zM132 501q-18 0 -25.5 -12t-7.5 -40v-236q0 -28 7.5 -40t25.5 -12q19 0 25.5 12t6.5 40v236q0 28 -6.5 40t-25.5 12zM71 -56q0 -39 64 -39q59 0 59 36q0 16 -12.5 22.5t-47.5 11.5q-21 2 -45 8q-18 -16 -18 -39zM192 714
v-53q0 -36 -12.5 -51t-42.5 -15t-42.5 15.5t-12.5 50.5v53h39v-57q0 -15 3.5 -20.5t12.5 -5.5t12.5 5.5t3.5 20.5v57h39z" />
    <glyph glyph-name="Gdotaccent" unicode="&#x120;" horiz-adv-x="272" 
d="M201 0l-14 36q-26 -42 -74 -42q-39 0 -62.5 28t-23.5 87v472q0 73 27 106t82 33q56 0 82.5 -32.5t26.5 -106.5v-137h-74v147q0 32 -7.5 45.5t-27.5 13.5q-35 0 -35 -59v-480q0 -47 38 -47q16 0 34 11l-2 5v199h-42v71h116v-350h-44zM134 734q-15 0 -26 10.5t-11 26.5
q0 15 11 25.5t26 10.5t25.5 -10.5t10.5 -25.5q0 -16 -10.5 -26.5t-25.5 -10.5z" />
    <glyph glyph-name="gdotaccent" unicode="&#x121;" horiz-adv-x="266" 
d="M237 437v-213q0 -73 -26 -101t-79 -28q-20 0 -35 3q-13 -10 -13 -22q0 -15 16 -21t66 -12q47 -7 70 -28t23 -62q0 -46 -30 -74.5t-94 -28.5q-121 0 -121 74q0 45 47 70q-32 18 -32 56q0 35 37 61q-40 26 -40 113v212q0 73 26.5 101.5t79.5 28.5t77 -25q16 25 50 25
q8 0 8 -7q0 -21 -3 -60q-13 0 -32 -7q5 -25 5 -55zM132 501q-18 0 -25.5 -12t-7.5 -40v-236q0 -28 7.5 -40t25.5 -12q19 0 25.5 12t6.5 40v236q0 28 -6.5 40t-25.5 12zM71 -56q0 -39 64 -39q59 0 59 36q0 16 -12.5 22.5t-47.5 11.5q-21 2 -45 8q-18 -16 -18 -39zM135 624
q-17 0 -30.5 13t-13.5 32q0 18 13.5 31.5t30.5 13.5q19 0 32 -13.5t13 -31.5q0 -19 -13 -32t-32 -13z" />
    <glyph glyph-name="uni0122" unicode="&#x122;" horiz-adv-x="272" 
d="M201 0l-14 36q-26 -42 -74 -42q-39 0 -62.5 28t-23.5 87v472q0 73 27 106t82 33q56 0 82.5 -32.5t26.5 -106.5v-137h-74v147q0 32 -7.5 45.5t-27.5 13.5q-35 0 -35 -59v-480q0 -47 38 -47q16 0 34 11l-2 5v199h-42v71h116v-350h-44zM136 -19q14 0 24.5 -10.5t10.5 -25.5
q0 -16 -16 -45l-22 -39l-19 4l11 49q-23 7 -23 31q0 15 10 25.5t24 10.5z" />
    <glyph glyph-name="uni0123" unicode="&#x123;" horiz-adv-x="266" 
d="M134 599q-13 0 -24 10t-11 25q0 16 16 45l22 39l19 -4l-11 -49q23 -7 23 -31q0 -15 -10 -25t-24 -10zM237 437v-213q0 -73 -26 -101t-79 -28q-20 0 -35 3q-13 -10 -13 -22q0 -15 16 -21t66 -12q47 -7 70 -28t23 -62q0 -46 -30 -74.5t-94 -28.5q-121 0 -121 74q0 45 47 70
q-32 18 -32 56q0 35 37 61q-40 26 -40 113v212q0 73 26.5 101.5t79.5 28.5t77 -25q16 25 50 25q8 0 8 -7q0 -21 -3 -60q-13 0 -32 -7q5 -25 5 -55zM132 501q-18 0 -25.5 -12t-7.5 -40v-236q0 -28 7.5 -40t25.5 -12q19 0 25.5 12t6.5 40v236q0 28 -6.5 40t-25.5 12zM71 -56
q0 -39 64 -39q59 0 59 36q0 16 -12.5 22.5t-47.5 11.5q-21 2 -45 8q-18 -16 -18 -39z" />
    <glyph glyph-name="Hcircumflex" unicode="&#x124;" horiz-adv-x="272" 
d="M27 714h74v-324h70v324h74v-714h-74v323h-70v-323h-74v714zM73 734l31 48h61l31 -48h-45l-16 27l-16 -27h-46z" />
    <glyph glyph-name="hcircumflex" unicode="&#x125;" 
d="M25 0v714h73v-177q27 29 66 29q72 0 72 -86v-480h-72v465q0 36 -31 36q-18 0 -35 -10v-491h-73zM70 734l31 48h61l31 -48h-45l-16 27l-16 -27h-46z" />
    <glyph glyph-name="Hbar" unicode="&#x126;" horiz-adv-x="272" 
d="M27 714h74v-132h70v132h74v-132h20v-61h-20v-521h-74v323h-70v-323h-74v521h-20v61h20v132zM101 390h70v131h-70v-131z" />
    <glyph glyph-name="hbar" unicode="&#x127;" 
d="M0 602v53h25v59h73v-59h53v-53h-53v-65q27 29 66 29q72 0 72 -86v-480h-72v465q0 36 -31 36q-18 0 -35 -10v-491h-73v602h-25z" />
    <glyph glyph-name="Itilde" unicode="&#x128;" horiz-adv-x="128" 
d="M27 714h74v-714h-74v714zM87 734q-30 0 -42 27h-7q-2 -20 1 -27h-36q-2 12 -2 19q0 39 40 39q29 0 42 -27h6q2 20 0 27h35l3 -18q0 -40 -40 -40z" />
    <glyph glyph-name="itilde" unicode="&#x129;" horiz-adv-x="121" 
d="M23 560h73v-560h-73v560zM128 703q5 -16 5 -39q0 -64 -48 -64q-22 0 -34 17.5t-13 44.5h-16q-2 -33 1 -61h-30q-5 17 -5 42q0 62 49 62q41 0 47 -61h15q2 33 -1 59h30z" />
    <glyph glyph-name="Imacron" unicode="&#x12a;" horiz-adv-x="134" 
d="M29 714h74v-714h-74v714zM12 776h112v-42h-112v42z" />
    <glyph glyph-name="imacron" unicode="&#x12b;" horiz-adv-x="129" 
d="M27 560h73v-560h-73v560zM-1 641h129v-40h-129v40z" />
    <glyph glyph-name="Ibreve" unicode="&#x12c;" horiz-adv-x="134" 
d="M29 714h74v-714h-74v714zM129 782q0 -27 -13.5 -40t-46.5 -13t-46.5 13t-13.5 40h40q0 -21 20 -21t20 21h40z" />
    <glyph glyph-name="ibreve" unicode="&#x12d;" horiz-adv-x="121" 
d="M23 560h73v-560h-73v560zM118 714v-53q0 -36 -12.5 -51t-42.5 -15t-42.5 15.5t-12.5 50.5v53h39v-57q0 -15 3.5 -20.5t12.5 -5.5t12.5 5.5t3.5 20.5v57h39z" />
    <glyph glyph-name="Iogonek" unicode="&#x12e;" horiz-adv-x="128" 
d="M27 714h74v-714h-30v-55q0 -33 30 -33v-56q-46 -4 -66 13.5t-20 58.5v28q0 31 12 50v708z" />
    <glyph glyph-name="iogonek" unicode="&#x12f;" horiz-adv-x="121" 
d="M24 560h73v-560h-30v-55q0 -33 30 -33v-56q-46 -4 -66 13.5t-20 58.5v28q0 32 13 52v552zM61 622q-19 0 -32.5 13.5t-13.5 32.5t13.5 32.5t32.5 13.5t32.5 -13.5t13.5 -32.5t-13.5 -32.5t-32.5 -13.5z" />
    <glyph glyph-name="Idotaccent" unicode="&#x130;" horiz-adv-x="128" 
d="M27 714h74v-714h-74v714zM65 734q-15 0 -26 10.5t-11 26.5q0 15 11 25.5t26 10.5t25.5 -10.5t10.5 -25.5q0 -16 -10.5 -26.5t-25.5 -10.5z" />
    <glyph glyph-name="dotlessi" unicode="&#x131;" horiz-adv-x="121" 
d="M24 560h73v-560h-73v560z" />
    <glyph glyph-name="IJ" unicode="&#x132;" horiz-adv-x="272" 
d="M27 714h74v-402h-74v402zM27 275h74v-152q0 -33 8 -46t28 -13q18 0 26 13t8 46v591h74v-581q0 -75 -26 -107t-82 -32q-57 0 -83.5 32t-26.5 107v142z" />
    <glyph glyph-name="ij" unicode="&#x133;" horiz-adv-x="258" 
d="M192 622q-19 0 -32.5 13.5t-13.5 32.5t13.5 32.5t32.5 13.5t32.5 -13.5t13.5 -32.5t-13.5 -32.5t-32.5 -13.5zM28 560h73v-560h-73v560zM64 622q-19 0 -32.5 13.5t-13.5 32.5t13.5 32.5t32.5 13.5t32.5 -13.5t13.5 -32.5t-13.5 -32.5t-32.5 -13.5zM109 -139q-47 0 -79 10
l8 60q28 -7 55 -7q37 0 50 16.5t13 60.5v559h73v-560q0 -75 -31.5 -107t-88.5 -32z" />
    <glyph glyph-name="Jcircumflex" unicode="&#x134;" horiz-adv-x="260" 
d="M17 257h74v-134q0 -33 7.5 -46t27.5 -13q18 0 26.5 13.5t8.5 45.5v591h74v-581q0 -75 -26.5 -107t-82.5 -32q-57 0 -83 31.5t-26 107.5v124zM136 734l31 48h61l31 -48h-45l-16 27l-16 -27h-46z" />
    <glyph glyph-name="jcircumflex" unicode="&#x135;" horiz-adv-x="121" 
d="M-25 -143v61h11q21 0 28 8t7 28v606h73v-612q0 -53 -19.5 -74t-60.5 -21q-17 0 -39 4zM-2 601l37 113h54l37 -113h-44l-20 78l-20 -78h-44z" />
    <glyph glyph-name="uni0136" unicode="&#x136;" horiz-adv-x="253" 
d="M101 714v-324h7l66 324h74l-75 -340l76 -374h-74l-67 326h-7v-326h-74v714h74zM130 -19q14 0 24.5 -10.5t10.5 -25.5q0 -16 -16 -45l-22 -39l-19 4l11 49q-23 7 -23 31q0 15 10 25.5t24 10.5z" />
    <glyph glyph-name="uni0137" unicode="&#x137;" horiz-adv-x="236" 
d="M25 714h73v-398h8l62 244h74l-77 -250l75 -310h-76l-58 264h-8v-264h-73v714zM117 -19q14 0 24.5 -10.5t10.5 -25.5q0 -16 -16 -45l-22 -39l-19 4l11 49q-23 7 -23 31q0 15 10 25.5t24 10.5z" />
    <glyph glyph-name="kgreenlandic" unicode="&#x138;" horiz-adv-x="236" 
d="M25 560h73v-248h8l62 248h74l-78 -254l76 -306h-76l-58 259h-8v-259h-73v560z" />
    <glyph glyph-name="Lacute" unicode="&#x139;" horiz-adv-x="200" 
d="M27 0v714h74v-644h92v-70h-166zM40 734l20 48h63l-32 -48h-51z" />
    <glyph glyph-name="lacute" unicode="&#x13a;" horiz-adv-x="121" 
d="M24 714h73v-714h-73v714zM35 734l20 48h63l-32 -48h-51z" />
    <glyph glyph-name="uni013B" unicode="&#x13b;" horiz-adv-x="200" 
d="M27 0v714h74v-644h92v-70h-166zM106 -17q14 0 24.5 -10.5t10.5 -25.5q0 -16 -16 -45l-22 -39l-19 4l11 49q-23 7 -23 31q0 15 10 25.5t24 10.5z" />
    <glyph glyph-name="uni013C" unicode="&#x13c;" horiz-adv-x="121" 
d="M24 714h73v-714h-73v714zM58 -19q14 0 24.5 -10.5t10.5 -25.5q0 -16 -16 -45l-22 -39l-19 4l11 49q-23 7 -23 31q0 15 10 25.5t24 10.5z" />
    <glyph glyph-name="Lcaron" unicode="&#x13d;" horiz-adv-x="200" 
d="M27 0v714h74v-644h92v-70h-166zM136 714h48l-12 -132h-39z" />
    <glyph glyph-name="lcaron" unicode="&#x13e;" horiz-adv-x="121" 
d="M130 714h48l-12 -132h-39zM24 714h73v-714h-73v714z" />
    <glyph glyph-name="Ldot" unicode="&#x13f;" horiz-adv-x="200" 
d="M27 0v714h74v-644h92v-70h-166zM168 325q-14 0 -24.5 10t-10.5 24t10.5 24t24.5 10t24 -10t10 -24t-10 -24t-24 -10z" />
    <glyph glyph-name="ldot" unicode="&#x140;" horiz-adv-x="163" 
d="M24 714h73v-714h-73v714zM147 318q-14 0 -24.5 10t-10.5 24t10.5 24t24.5 10t24 -10t10 -24t-10 -24t-24 -10z" />
    <glyph glyph-name="Lslash" unicode="&#x141;" horiz-adv-x="203" 
d="M3 254v61l27 10v389h74v-360l64 26v-62l-64 -25v-223h92v-70h-166v264z" />
    <glyph glyph-name="lslash" unicode="&#x142;" horiz-adv-x="121" 
d="M24 714h73v-224l34 17v-58l-34 -16v-433h-73v398l-24 -11v57l24 11v259z" />
    <glyph glyph-name="Nacute" unicode="&#x143;" horiz-adv-x="292" 
d="M27 714h104l89 -634q-23 276 -23 411v223h68v-714h-98l-86 620q13 -217 13 -346v-274h-67v714zM120 734l20 48h63l-32 -48h-51z" />
    <glyph glyph-name="nacute" unicode="&#x144;" 
d="M25 0v560h59q3 -9 7 -27q28 33 73 33q72 0 72 -86v-480h-72v463q0 38 -31 38q-19 0 -35 -11v-490h-73zM103 601l15 113h60l-36 -113h-39z" />
    <glyph glyph-name="uni0145" unicode="&#x145;" horiz-adv-x="292" 
d="M27 714h104l89 -634q-23 276 -23 411v223h68v-714h-98l-86 620q13 -217 13 -346v-274h-67v714zM142 -19q14 0 24.5 -10.5t10.5 -25.5q0 -16 -16 -45l-22 -39l-19 4l11 49q-23 7 -23 31q0 15 10 25.5t24 10.5z" />
    <glyph glyph-name="uni0146" unicode="&#x146;" 
d="M25 0v560h59q3 -9 7 -27q28 33 73 33q72 0 72 -86v-480h-72v463q0 38 -31 38q-19 0 -35 -11v-490h-73zM128 -19q14 0 24.5 -10.5t10.5 -25.5q0 -16 -16 -45l-22 -39l-19 4l11 49q-23 7 -23 31q0 15 10 25.5t24 10.5z" />
    <glyph glyph-name="Ncaron" unicode="&#x147;" horiz-adv-x="292" 
d="M27 714h104l89 -634q-23 276 -23 411v223h68v-714h-98l-86 620q13 -217 13 -346v-274h-67v714zM82 782h45l17 -27l16 27h45l-31 -48h-61z" />
    <glyph glyph-name="ncaron" unicode="&#x148;" 
d="M25 0v560h59q3 -9 7 -27q28 33 73 33q72 0 72 -86v-480h-72v463q0 38 -31 38q-19 0 -35 -11v-490h-73zM60 714h44l20 -78l20 78h44l-37 -113h-54z" />
    <glyph glyph-name="napostrophe" unicode="&#x149;" horiz-adv-x="280" 
d="M43 0v560h59q3 -9 7 -27q28 33 73 33q72 0 72 -86v-480h-72v463q0 38 -31 38q-19 0 -35 -11v-490h-73zM-9 714q19 0 33 -13.5t14 -33.5q0 -18 -21 -60l-34 -69l-23 5l20 81q-15 4 -24.5 16t-9.5 27q0 20 13.5 33.5t31.5 13.5z" />
    <glyph glyph-name="Eng" unicode="&#x14a;" horiz-adv-x="292" 
d="M27 714h104l89 -634q-23 276 -23 411v223h68v-714h-1v-53q0 -53 -19.5 -74t-60.5 -21q-25 0 -41 4v55h13q22 0 29.5 7.5t7.5 28.5v53h-26l-86 620q13 -217 13 -346v-274h-67v714z" />
    <glyph glyph-name="eng" unicode="&#x14b;" 
d="M25 0v560h59q3 -9 7 -27q28 33 73 33q72 0 72 -86v-533q0 -52 -21.5 -73.5t-62.5 -21.5q-21 0 -37 4v55h13q21 0 28 7.5t7 28.5v83h1v433q0 38 -31 38q-19 0 -35 -11v-490h-73z" />
    <glyph glyph-name="Omacron" unicode="&#x14c;" horiz-adv-x="272" 
d="M136 720q57 0 83 -31.5t26 -107.5v-448q0 -75 -26.5 -107t-82.5 -32q-57 0 -83 31.5t-26 107.5v448q0 75 26.5 107t82.5 32zM171 123v468q0 33 -7.5 46t-27.5 13q-18 0 -26.5 -13.5t-8.5 -45.5v-468q0 -33 7.5 -46t27.5 -13q18 0 26.5 13.5t8.5 45.5zM81 776h112v-42
h-112v42z" />
    <glyph glyph-name="omacron" unicode="&#x14d;" 
d="M236 437v-314q0 -73 -26 -101t-79 -28t-79.5 28t-26.5 101v313q0 73 26.5 101.5t79.5 28.5t79 -28t26 -101zM131 501q-19 0 -26 -12t-7 -40v-338q0 -28 7 -40t26 -12t26 12t7 40v338q0 28 -7.5 40t-25.5 12zM64 641h129v-40h-129v40z" />
    <glyph glyph-name="Obreve" unicode="&#x14e;" horiz-adv-x="272" 
d="M136 720q57 0 83 -31.5t26 -107.5v-448q0 -75 -26.5 -107t-82.5 -32q-57 0 -83 31.5t-26 107.5v448q0 75 26.5 107t82.5 32zM171 123v468q0 33 -7.5 46t-27.5 13q-18 0 -26.5 -13.5t-8.5 -45.5v-468q0 -33 7.5 -46t27.5 -13q18 0 26.5 13.5t8.5 45.5zM200 782
q0 -27 -13.5 -40t-46.5 -13t-46.5 13t-13.5 40h40q0 -21 20 -21t20 21h40z" />
    <glyph glyph-name="obreve" unicode="&#x14f;" 
d="M236 437v-314q0 -73 -26 -101t-79 -28t-79.5 28t-26.5 101v313q0 73 26.5 101.5t79.5 28.5t79 -28t26 -101zM131 501q-19 0 -26 -12t-7 -40v-338q0 -28 7 -40t26 -12t26 12t7 40v338q0 28 -7.5 40t-25.5 12zM184 714v-53q0 -36 -12.5 -51t-42.5 -15t-42.5 15.5
t-12.5 50.5v53h39v-57q0 -15 3.5 -20.5t12.5 -5.5t12.5 5.5t3.5 20.5v57h39z" />
    <glyph glyph-name="Ohungarumlaut" unicode="&#x150;" horiz-adv-x="272" 
d="M136 720q57 0 83 -31.5t26 -107.5v-448q0 -75 -26.5 -107t-82.5 -32q-57 0 -83 31.5t-26 107.5v448q0 75 26.5 107t82.5 32zM171 123v468q0 33 -7.5 46t-27.5 13q-18 0 -26.5 -13.5t-8.5 -45.5v-468q0 -33 7.5 -46t27.5 -13q18 0 26.5 13.5t8.5 45.5zM148 734l20 48h63
l-32 -48h-51zM73 734l20 48h63l-32 -48h-51z" />
    <glyph glyph-name="ohungarumlaut" unicode="&#x151;" 
d="M236 437v-314q0 -73 -26 -101t-79 -28t-79.5 28t-26.5 101v313q0 73 26.5 101.5t79.5 28.5t79 -28t26 -101zM131 501q-19 0 -26 -12t-7 -40v-338q0 -28 7 -40t26 -12t26 12t7 40v338q0 28 -7.5 40t-25.5 12zM149 601l15 113h60l-36 -113h-39zM71 601l15 113h60l-36 -113
h-39z" />
    <glyph glyph-name="OE" unicode="&#x152;" horiz-adv-x="358" 
d="M337 398v-65h-92v-263h104v-70h-190q-64 0 -98 40.5t-34 137.5v349q0 105 32.5 146t106.5 41h183v-70h-104v-246h92zM152 70h19v573h-20q-29 0 -39.5 -28.5t-10.5 -89.5v-344q0 -58 12 -84.5t39 -26.5z" />
    <glyph glyph-name="oe" unicode="&#x153;" horiz-adv-x="400" 
d="M374 251h-138v-128v-8v-4q0 -28 7 -40t26 -12t26 12t7 40v86h72v-74q0 -73 -26 -101t-79 -28q-45 0 -70 18q-24 -18 -68 -18q-53 0 -79.5 28t-26.5 101v313q0 73 26.5 101.5t79.5 28.5q45 0 69 -19q23 19 69 19q53 0 79 -28t26 -101v-186zM131 501q-19 0 -26 -12t-7 -40
v-338q0 -28 7 -40t26 -12q30 0 33 38q-1 8 -1 26v313q0 17 1 25q-3 40 -33 40zM236 449v-5v-7v-133h66v145q0 28 -7.5 40t-25.5 12q-19 0 -26 -12t-7 -40z" />
    <glyph glyph-name="Racute" unicode="&#x154;" horiz-adv-x="272" 
d="M170 0l-41 239h-28v-239h-74v714h91q67 0 97 -39t30 -140v-130q0 -127 -63 -155q18 -17 29 -64l39 -186h-80zM123 643h-22v-337h22q25 0 36.5 22.5t11.5 75.5v132q0 55 -10.5 81t-37.5 26zM97 734l20 48h63l-32 -48h-51z" />
    <glyph glyph-name="racute" unicode="&#x155;" horiz-adv-x="170" 
d="M25 0v560h55q7 -16 12 -44q21 49 69 49q4 0 10 -2v-76h-17q-44 0 -56 -28v-459h-73zM78 601l15 113h60l-36 -113h-39z" />
    <glyph glyph-name="uni0156" unicode="&#x156;" horiz-adv-x="272" 
d="M170 0l-41 239h-28v-239h-74v714h91q67 0 97 -39t30 -140v-130q0 -127 -63 -155q18 -17 29 -64l39 -186h-80zM123 643h-22v-337h22q25 0 36.5 22.5t11.5 75.5v132q0 55 -10.5 81t-37.5 26zM132 -19q14 0 24.5 -10.5t10.5 -25.5q0 -16 -16 -45l-22 -39l-19 4l11 49
q-23 7 -23 31q0 15 10 25.5t24 10.5z" />
    <glyph glyph-name="uni0157" unicode="&#x157;" horiz-adv-x="170" 
d="M25 0v560h55q7 -16 12 -44q21 49 69 49q4 0 10 -2v-76h-17q-44 0 -56 -28v-459h-73zM59 -19q14 0 24.5 -10.5t10.5 -25.5q0 -16 -16 -45l-22 -39l-19 4l11 49q-23 7 -23 31q0 15 10 25.5t24 10.5z" />
    <glyph glyph-name="Rcaron" unicode="&#x158;" horiz-adv-x="272" 
d="M170 0l-41 239h-28v-239h-74v714h91q67 0 97 -39t30 -140v-130q0 -127 -63 -155q18 -17 29 -64l39 -186h-80zM123 643h-22v-337h22q25 0 36.5 22.5t11.5 75.5v132q0 55 -10.5 81t-37.5 26zM60 782h45l17 -27l16 27h45l-31 -48h-61z" />
    <glyph glyph-name="rcaron" unicode="&#x159;" horiz-adv-x="170" 
d="M25 0v560h55q7 -16 12 -44q21 49 69 49q4 0 10 -2v-76h-17q-44 0 -56 -28v-459h-73zM31 714h44l20 -78l20 78h44l-37 -113h-54z" />
    <glyph glyph-name="Sacute" unicode="&#x15a;" horiz-adv-x="266" 
d="M242 171v-38q0 -139 -108 -139q-56 0 -83 32t-27 104v104h74v-113q0 -31 8 -44t28 -13q34 0 34 62v34q0 41 -12 70.5t-56 92.5q-39 58 -56.5 103t-17.5 103v46q0 145 109 145q54 0 81 -31t27 -114v-99h-73v109q0 35 -7.5 50t-27.5 15q-36 0 -36 -65v-42q0 -49 12.5 -81.5
t50.5 -86.5q47 -70 63.5 -108.5t16.5 -95.5zM110 734l20 48h63l-32 -48h-51z" />
    <glyph glyph-name="sacute" unicode="&#x15b;" horiz-adv-x="248" 
d="M157 112q0 66 -61 145q-77 101 -77 183q0 126 105 126q56 0 80.5 -29.5t24.5 -98.5v-56h-72v59q0 35 -6.5 48.5t-25.5 13.5q-34 0 -34 -55q0 -58 67 -145q72 -95 72 -184q0 -125 -107 -125q-56 0 -80 29.5t-24 101.5v54h72v-57q0 -36 7 -50.5t27 -14.5q32 0 32 55z
M110 601l15 113h60l-36 -113h-39z" />
    <glyph glyph-name="Scircumflex" unicode="&#x15c;" horiz-adv-x="266" 
d="M242 171v-38q0 -139 -108 -139q-56 0 -83 32t-27 104v104h74v-113q0 -31 8 -44t28 -13q34 0 34 62v34q0 41 -12 70.5t-56 92.5q-39 58 -56.5 103t-17.5 103v46q0 145 109 145q54 0 81 -31t27 -114v-99h-73v109q0 35 -7.5 50t-27.5 15q-36 0 -36 -65v-42q0 -49 12.5 -81.5
t50.5 -86.5q47 -70 63.5 -108.5t16.5 -95.5zM73 734l31 48h61l31 -48h-45l-16 27l-16 -27h-46z" />
    <glyph glyph-name="scircumflex" unicode="&#x15d;" horiz-adv-x="248" 
d="M157 112q0 66 -61 145q-77 101 -77 183q0 126 105 126q56 0 80.5 -29.5t24.5 -98.5v-56h-72v59q0 35 -6.5 48.5t-25.5 13.5q-34 0 -34 -55q0 -58 67 -145q72 -95 72 -184q0 -125 -107 -125q-56 0 -80 29.5t-24 101.5v54h72v-57q0 -36 7 -50.5t27 -14.5q32 0 32 55z
M64 601l37 113h54l37 -113h-44l-20 78l-20 -78h-44z" />
    <glyph glyph-name="uni015E" unicode="&#x15e;" horiz-adv-x="266" 
d="M190 -66q0 -28 -18.5 -40.5t-73.5 -9.5v35h31q24 0 24 15q0 14 -24 14h-20v48q-85 12 -85 134v104h74v-113q0 -31 8 -44t28 -13q34 0 34 62v34q0 41 -12 70.5t-56 92.5q-39 58 -56.5 103t-17.5 103v46q0 145 109 145q54 0 81 -31t27 -114v-99h-73v109q0 35 -7.5 50
t-27.5 15q-36 0 -36 -65v-42q0 -49 12.5 -81.5t50.5 -86.5q47 -70 63.5 -108.5t16.5 -95.5v-38q0 -134 -101 -139v-13q49 -2 49 -47z" />
    <glyph glyph-name="uni015F" unicode="&#x15f;" horiz-adv-x="248" 
d="M188 -66q0 -28 -18.5 -40.5t-73.5 -9.5v35h31q24 0 24 15q0 14 -24 14h-20v47q-47 4 -67.5 33.5t-20.5 96.5v54h72v-57q0 -36 7 -50.5t27 -14.5q32 0 32 55q0 66 -61 145q-77 101 -77 183q0 126 105 126q56 0 80.5 -29.5t24.5 -98.5v-56h-72v59q0 35 -6.5 48.5
t-25.5 13.5q-34 0 -34 -55q0 -58 67 -145q72 -95 72 -184q0 -115 -91 -124v-14q49 -2 49 -47z" />
    <glyph glyph-name="Scaron" unicode="&#x160;" horiz-adv-x="266" 
d="M242 171v-38q0 -139 -108 -139q-56 0 -83 32t-27 104v104h74v-113q0 -31 8 -44t28 -13q34 0 34 62v34q0 41 -12 70.5t-56 92.5q-39 58 -56.5 103t-17.5 103v46q0 145 109 145q54 0 81 -31t27 -114v-99h-73v109q0 35 -7.5 50t-27.5 15q-36 0 -36 -65v-42q0 -49 12.5 -81.5
t50.5 -86.5q47 -70 63.5 -108.5t16.5 -95.5zM71 782h45l17 -27l16 27h45l-31 -48h-61z" />
    <glyph glyph-name="scaron" unicode="&#x161;" horiz-adv-x="248" 
d="M157 112q0 66 -61 145q-77 101 -77 183q0 126 105 126q56 0 80.5 -29.5t24.5 -98.5v-56h-72v59q0 35 -6.5 48.5t-25.5 13.5q-34 0 -34 -55q0 -58 67 -145q72 -95 72 -184q0 -125 -107 -125q-56 0 -80 29.5t-24 101.5v54h72v-57q0 -36 7 -50.5t27 -14.5q32 0 32 55z
M68 714h44l20 -78l20 78h44l-37 -113h-54z" />
    <glyph glyph-name="Tcommaaccent" unicode="&#x162;" horiz-adv-x="229" 
d="M81 0v642h-74v72h222v-72h-74v-642h-74zM110 -19q14 0 24.5 -10.5t10.5 -25.5q0 -16 -16 -45l-22 -39l-19 4l11 49q-23 7 -23 31q0 15 10 25.5t24 10.5z" />
    <glyph glyph-name="tcommaaccent" unicode="&#x163;" horiz-adv-x="142" 
d="M4 560h27v105l73 11v-116h39v-64h-39v-402q0 -18 6.5 -25.5t23.5 -7.5h12v-61q-13 -4 -39 -4q-37 0 -56.5 20.5t-19.5 69.5v410h-27v64zM84 -19q14 0 24.5 -10.5t10.5 -25.5q0 -16 -16 -45l-22 -39l-19 4l11 49q-23 7 -23 31q0 15 10 25.5t24 10.5z" />
    <glyph glyph-name="Tcaron" unicode="&#x164;" horiz-adv-x="229" 
d="M81 0v642h-74v72h222v-72h-74v-642h-74zM53 782h45l17 -27l16 27h45l-31 -48h-61z" />
    <glyph glyph-name="tcaron" unicode="&#x165;" horiz-adv-x="142" 
d="M142 714h48l-12 -132h-39zM4 560h27v105l73 11v-116h39v-64h-39v-402q0 -18 6.5 -25.5t23.5 -7.5h12v-61q-13 -4 -39 -4q-37 0 -56.5 20.5t-19.5 69.5v410h-27v64z" />
    <glyph glyph-name="Tbar" unicode="&#x166;" horiz-adv-x="229" 
d="M44 322v65h37v255h-74v72h222v-72h-74v-255h29v-65h-29v-322h-74v322h-37z" />
    <glyph glyph-name="tbar" unicode="&#x167;" horiz-adv-x="142" 
d="M3 257v65h28v174h-27v64h27v105l73 11v-116h39v-64h-39v-174h39v-65h-39v-163q0 -18 6.5 -25.5t23.5 -7.5h12v-61q-13 -4 -39 -4q-37 0 -56.5 20.5t-19.5 69.5v171h-28z" />
    <glyph glyph-name="Utilde" unicode="&#x168;" horiz-adv-x="272" 
d="M171 714h74v-581q0 -75 -26.5 -107t-82.5 -32q-57 0 -83 31.5t-26 107.5v581h74v-591q0 -33 7.5 -46t27.5 -13q18 0 26.5 13.5t8.5 45.5v591zM157 734q-30 0 -42 27h-7q-2 -20 1 -27h-36q-2 12 -2 19q0 39 40 39q29 0 42 -27h6q2 20 0 27h35l3 -18q0 -40 -40 -40z" />
    <glyph glyph-name="utilde" unicode="&#x169;" 
d="M99 560v-463q0 -38 31 -38q18 0 35 10v491h72v-560h-59q-3 9 -7 29q-29 -35 -72 -35q-32 0 -52.5 20.5t-20.5 65.5v480h73zM198 703q5 -16 5 -39q0 -64 -48 -64q-22 0 -34 17.5t-13 44.5h-16q-2 -33 1 -61h-30q-5 17 -5 42q0 62 49 62q41 0 47 -61h15q2 33 -1 59h30z" />
    <glyph glyph-name="Umacron" unicode="&#x16a;" horiz-adv-x="272" 
d="M171 714h74v-581q0 -75 -26.5 -107t-82.5 -32q-57 0 -83 31.5t-26 107.5v581h74v-591q0 -33 7.5 -46t27.5 -13q18 0 26.5 13.5t8.5 45.5v591zM81 776h112v-42h-112v42z" />
    <glyph glyph-name="umacron" unicode="&#x16b;" 
d="M99 560v-463q0 -38 31 -38q18 0 35 10v491h72v-560h-59q-3 9 -7 29q-29 -35 -72 -35q-32 0 -52.5 20.5t-20.5 65.5v480h73zM66 641h129v-40h-129v40z" />
    <glyph glyph-name="Ubreve" unicode="&#x16c;" horiz-adv-x="272" 
d="M171 714h74v-581q0 -75 -26.5 -107t-82.5 -32q-57 0 -83 31.5t-26 107.5v581h74v-591q0 -33 7.5 -46t27.5 -13q18 0 26.5 13.5t8.5 45.5v591zM196 782q0 -27 -13.5 -40t-46.5 -13t-46.5 13t-13.5 40h40q0 -21 20 -21t20 21h40z" />
    <glyph glyph-name="ubreve" unicode="&#x16d;" 
d="M99 560v-463q0 -38 31 -38q18 0 35 10v491h72v-560h-59q-3 9 -7 29q-29 -35 -72 -35q-32 0 -52.5 20.5t-20.5 65.5v480h73zM187 714v-53q0 -36 -12.5 -51t-42.5 -15t-42.5 15.5t-12.5 50.5v53h39v-57q0 -15 3.5 -20.5t12.5 -5.5t12.5 5.5t3.5 20.5v57h39z" />
    <glyph glyph-name="Uring" unicode="&#x16e;" horiz-adv-x="272" 
d="M171 714h74v-581q0 -75 -26.5 -107t-82.5 -32q-57 0 -83 31.5t-26 107.5v581h74v-591q0 -33 7.5 -46t27.5 -13q18 0 26.5 13.5t8.5 45.5v591zM185 776q0 -43 -45 -43h-12q-47 0 -47 43q0 42 47 42h12q45 0 45 -42zM154 776q0 15 -18 15h-6q-18 0 -18 -15q0 -16 18 -16h6
q18 0 18 16z" />
    <glyph glyph-name="uring" unicode="&#x16f;" 
d="M99 560v-463q0 -38 31 -38q18 0 35 10v491h72v-560h-59q-3 9 -7 29q-29 -35 -72 -35q-32 0 -52.5 20.5t-20.5 65.5v480h73zM191 653q0 -24 -12.5 -38.5t-36.5 -14.5h-18q-24 0 -37.5 14.5t-13.5 38.5t13.5 38.5t37.5 14.5h18q24 0 36.5 -14.5t12.5 -38.5zM156 653
q0 20 -20 20h-8q-19 0 -19 -20q0 -21 19 -21h8q20 0 20 21z" />
    <glyph glyph-name="Uhungarumlaut" unicode="&#x170;" horiz-adv-x="272" 
d="M171 714h74v-581q0 -75 -26.5 -107t-82.5 -32q-57 0 -83 31.5t-26 107.5v581h74v-591q0 -33 7.5 -46t27.5 -13q18 0 26.5 13.5t8.5 45.5v591zM151 734l20 48h63l-32 -48h-51zM76 734l20 48h63l-32 -48h-51z" />
    <glyph glyph-name="uhungarumlaut" unicode="&#x171;" 
d="M99 560v-463q0 -38 31 -38q18 0 35 10v491h72v-560h-59q-3 9 -7 29q-29 -35 -72 -35q-32 0 -52.5 20.5t-20.5 65.5v480h73zM71 601l15 113h60l-36 -113h-39zM149 601l15 113h60l-36 -113h-39z" />
    <glyph glyph-name="Uogonek" unicode="&#x172;" horiz-adv-x="272" 
d="M171 714h74v-581q0 -84 -35 -116v-72q0 -33 30 -33v-56q-46 -4 -66 13.5t-20 58.5v28q0 22 6 40q-14 -2 -24 -2q-57 0 -83 31.5t-26 107.5v581h74v-591q0 -33 7.5 -46t27.5 -13q18 0 26.5 13.5t8.5 45.5v591z" />
    <glyph glyph-name="uogonek" unicode="&#x173;" 
d="M99 560v-463q0 -38 31 -38q18 0 35 10v491h72v-560h-30v-55q0 -33 30 -33v-56q-46 -4 -66 13.5t-20 58.5v28q0 40 21 64q0 2 -0.5 5t-0.5 4q-29 -35 -72 -35q-32 0 -52.5 20.5t-20.5 65.5v480h73z" />
    <glyph glyph-name="Wcircumflex" unicode="&#x174;" horiz-adv-x="373" 
d="M147 0h-84l-56 714h77l21 -415l5 -140q3 58 10 140l35 415h69l33 -415q5 -74 8 -146q1 72 5 146l23 415h73l-64 -714h-78l-31 408l-6 104q-4 -72 -7 -104zM125 734l31 48h61l31 -48h-45l-16 27l-16 -27h-46z" />
    <glyph glyph-name="wcircumflex" unicode="&#x175;" horiz-adv-x="329" 
d="M330 560l-57 -560h-82l-23 355l-3 52q-2 -18 -4 -52l-27 -355h-84l-51 560h77l18 -347l5 -102q4 72 6 102l27 347h66l29 -347l7 -104q1 15 2 37.5t1.5 39t1.5 27.5l18 347h73zM101 601l37 113h54l37 -113h-44l-20 78l-20 -78h-44z" />
    <glyph glyph-name="Ycircumflex" unicode="&#x176;" horiz-adv-x="249" 
d="M83 0v191l-80 523h79l44 -395l45 395h75l-88 -531v-183h-75zM64 734l31 48h61l31 -48h-45l-16 27l-16 -27h-46z" />
    <glyph glyph-name="ycircumflex" unicode="&#x177;" horiz-adv-x="229" 
d="M22 -133v58q38 1 56 20.5t21 54.5h-35l-63 560h75l40 -487l41 487h71l-66 -560q-10 -76 -43 -104.5t-97 -28.5zM52 601l37 113h54l37 -113h-44l-20 78l-20 -78h-44z" />
    <glyph glyph-name="Ydieresis" unicode="&#x178;" horiz-adv-x="249" 
d="M83 0v191l-80 523h79l44 -395l45 395h75l-88 -531v-183h-75zM86 734q-15 0 -26 10.5t-11 26.5q0 15 11 25.5t26 10.5t25.5 -10.5t10.5 -25.5q0 -16 -10.5 -26.5t-25.5 -10.5zM175 734q-15 0 -26 10.5t-11 26.5q0 15 11 25.5t26 10.5t25.5 -10.5t10.5 -25.5
q0 -16 -10.5 -26.5t-25.5 -10.5z" />
    <glyph glyph-name="Zacute" unicode="&#x179;" horiz-adv-x="205" 
d="M10 63l108 583q-28 -2 -43 -2h-63v70h181v-54l-110 -592q28 4 47 4h66v-72h-186v63zM79 734l20 48h63l-32 -48h-51z" />
    <glyph glyph-name="zacute" unicode="&#x17a;" horiz-adv-x="194" 
d="M14 59l93 439q-24 -2 -36 -2h-57v64h166v-59l-94 -439q19 4 41 4h53v-66h-166v59zM79 601l15 113h60l-36 -113h-39z" />
    <glyph glyph-name="Zdotaccent" unicode="&#x17b;" horiz-adv-x="205" 
d="M10 63l108 583q-28 -2 -43 -2h-63v70h181v-54l-110 -592q28 4 47 4h66v-72h-186v63zM109 734q-15 0 -26 10.5t-11 26.5q0 15 11 25.5t26 10.5t25.5 -10.5t10.5 -25.5q0 -16 -10.5 -26.5t-25.5 -10.5z" />
    <glyph glyph-name="zdotaccent" unicode="&#x17c;" horiz-adv-x="194" 
d="M14 59l93 439q-24 -2 -36 -2h-57v64h166v-59l-94 -439q19 4 41 4h53v-66h-166v59zM103 624q-17 0 -30.5 13t-13.5 32q0 18 13.5 31.5t30.5 13.5q19 0 32 -13.5t13 -31.5q0 -19 -13 -32t-32 -13z" />
    <glyph glyph-name="Zcaron" unicode="&#x17d;" horiz-adv-x="205" 
d="M10 63l108 583q-28 -2 -43 -2h-63v70h181v-54l-110 -592q28 4 47 4h66v-72h-186v63zM47 782h45l17 -27l16 27h45l-31 -48h-61z" />
    <glyph glyph-name="zcaron" unicode="&#x17e;" horiz-adv-x="194" 
d="M14 59l93 439q-24 -2 -36 -2h-57v64h166v-59l-94 -439q19 4 41 4h53v-66h-166v59zM34 714h44l20 -78l20 78h44l-37 -113h-54z" />
    <glyph glyph-name="longs" unicode="&#x17f;" horiz-adv-x="134" 
d="M103 718q21 0 35 -4v-63h-9q-19 0 -25 -7.5t-6 -26.5v-617h-73v628q0 48 19.5 69t58.5 21z" />
    <glyph glyph-name="uni0192" unicode="&#x192;" horiz-adv-x="209" 
d="M134 166q0 -53 -19.5 -74t-60.5 -21q-16 0 -38 5v60h11q21 0 28 8t7 28v175h-35v39h35v162q0 53 19.5 74t61.5 21q18 0 38 -4v-61h-12q-21 0 -28 -7.5t-7 -28.5v-156h40v-39h-40v-181z" />
    <glyph glyph-name="Aringacute" unicode="&#x1fa;" horiz-adv-x="252" 
d="M3 0l73 714h105l68 -714h-77l-12 157h-71l-12 -157h-74zM104 341l-9 -112h59l-9 112q-9 121 -21 314q-3 -47 -10 -165t-10 -149zM181 776q0 -43 -45 -43h-12q-47 0 -47 43q0 42 47 42h12q45 0 45 -42zM150 776q0 15 -18 15h-6q-18 0 -18 -15q0 -16 18 -16h6q18 0 18 16z
M100 829l20 48h63l-32 -48h-51z" />
    <glyph glyph-name="aringacute" unicode="&#x1fb;" 
d="M25 83v123q0 63 38 91t101 21v127q0 31 -7 43.5t-26 12.5t-26 -12.5t-7 -43.5v-74h-72v67q0 70 25.5 99t79.5 29q55 0 80 -29t25 -101v-436h-59q-3 9 -7 29q-28 -35 -71 -35q-74 0 -74 89zM98 102q0 -43 31 -43q18 0 35 10v199q-35 0 -50.5 -12t-15.5 -48v-106zM189 649
q0 -24 -12.5 -38.5t-36.5 -14.5h-18q-24 0 -37.5 14.5t-13.5 38.5t13.5 38.5t37.5 14.5h18q24 0 36.5 -14.5t12.5 -38.5zM111 721l15 113h60l-36 -113h-39zM154 649q0 20 -20 20h-8q-19 0 -19 -20q0 -21 19 -21h8q20 0 20 21z" />
    <glyph glyph-name="AEacute" unicode="&#x1fc;" horiz-adv-x="334" 
d="M154 0v157h-59l-18 -157h-75l90 714h233v-70h-97v-246h84v-65h-84v-263h97v-70h-171zM114 317l-11 -91h51v421h-10q-10 -154 -30 -330zM159 734l20 48h63l-32 -48h-51z" />
    <glyph glyph-name="aeacute" unicode="&#x1fd;" horiz-adv-x="400" 
d="M25 94v97q0 63 38 91t101 21v129q0 36 -7 52.5t-26 16.5q-18 0 -25.5 -13.5t-7.5 -47.5v-63h-72v55q0 73 25 103.5t80 30.5q46 0 70 -20q24 20 68 20q55 0 80 -29.5t25 -106.5v-185h-138v-129q0 -32 7 -44.5t26 -12.5q18 0 25.5 13t7.5 44v69h72v-55q0 -76 -26 -106
t-79 -30q-67 0 -90 45q-28 -45 -80 -45q-35 0 -54.5 26.5t-19.5 73.5zM236 444v-145h66v145q0 32 -7 44.5t-26 12.5q-18 0 -25.5 -13t-7.5 -44zM98 107q0 -48 34 -48q21 0 37 10q-5 28 -5 61v125q-35 1 -50.5 -11t-15.5 -47v-90zM180 601l15 113h60l-36 -113h-39z" />
    <glyph glyph-name="Oslashacute" unicode="&#x1fe;" horiz-adv-x="272" 
d="M136 720q57 0 83 -31.5t26 -107.5v-448q0 -75 -26.5 -107t-82.5 -32q-57 0 -83 31.5t-26 107.5v448q0 75 26.5 107t82.5 32zM101 591v-250l70 108v142q0 33 -7.5 46t-27.5 13q-18 0 -26.5 -13.5t-8.5 -45.5zM171 123v249l-70 -110v-139q0 -33 7.5 -46t27.5 -13
q18 0 26.5 13.5t8.5 45.5zM110 734l20 48h63l-32 -48h-51z" />
    <glyph glyph-name="oslashacute" unicode="&#x1ff;" 
d="M236 437v-314q0 -73 -26 -101t-79 -28t-79.5 28t-26.5 101v313q0 73 26.5 101.5t79.5 28.5t79 -28t26 -101zM131 59q19 0 26 12t7 40v187l-66 -105v-82q0 -28 7 -40t26 -12zM131 501q-19 0 -26 -12t-7 -40v-181l66 103v78q0 28 -7.5 40t-25.5 12zM108 601l15 113h60
l-36 -113h-39z" />
    <glyph glyph-name="uni0218" unicode="&#x218;" horiz-adv-x="266" 
d="M242 171v-38q0 -139 -108 -139q-56 0 -83 32t-27 104v104h74v-113q0 -31 8 -44t28 -13q34 0 34 62v34q0 41 -12 70.5t-56 92.5q-39 58 -56.5 103t-17.5 103v46q0 145 109 145q54 0 81 -31t27 -114v-99h-73v109q0 35 -7.5 50t-27.5 15q-36 0 -36 -65v-42q0 -49 12.5 -81.5
t50.5 -86.5q47 -70 63.5 -108.5t16.5 -95.5zM127 -19q14 0 24.5 -10.5t10.5 -25.5q0 -16 -16 -45l-22 -39l-19 4l11 49q-23 7 -23 31q0 15 10 25.5t24 10.5z" />
    <glyph glyph-name="uni0219" unicode="&#x219;" horiz-adv-x="248" 
d="M157 112q0 66 -61 145q-77 101 -77 183q0 126 105 126q56 0 80.5 -29.5t24.5 -98.5v-56h-72v59q0 35 -6.5 48.5t-25.5 13.5q-34 0 -34 -55q0 -58 67 -145q72 -95 72 -184q0 -125 -107 -125q-56 0 -80 29.5t-24 101.5v54h72v-57q0 -36 7 -50.5t27 -14.5q32 0 32 55z
M124 -19q14 0 24.5 -10.5t10.5 -25.5q0 -16 -16 -45l-22 -39l-19 4l11 49q-23 7 -23 31q0 15 10 25.5t24 10.5z" />
    <glyph glyph-name="uni021A" unicode="&#x21a;" horiz-adv-x="229" 
d="M81 0v642h-74v72h222v-72h-74v-642h-74zM110 -19q14 0 24.5 -10.5t10.5 -25.5q0 -16 -16 -45l-22 -39l-19 4l11 49q-23 7 -23 31q0 15 10 25.5t24 10.5z" />
    <glyph glyph-name="uni021B" unicode="&#x21b;" horiz-adv-x="142" 
d="M4 560h27v105l73 11v-116h39v-64h-39v-402q0 -18 6.5 -25.5t23.5 -7.5h12v-61q-13 -4 -39 -4q-37 0 -56.5 20.5t-19.5 69.5v410h-27v64zM84 -19q14 0 24.5 -10.5t10.5 -25.5q0 -16 -16 -45l-22 -39l-19 4l11 49q-23 7 -23 31q0 15 10 25.5t24 10.5z" />
    <glyph glyph-name="uni0237" unicode="&#x237;" horiz-adv-x="121" 
d="M-22 -143v61h11q21 0 28 8t7 28v606h73v-612q0 -53 -19.5 -74t-60.5 -21q-17 0 -39 4z" />
    <glyph glyph-name="circumflex" unicode="&#x2c6;" horiz-adv-x="201" 
d="M40 601l37 113h54l37 -113h-44l-20 78l-20 -78h-44z" />
    <glyph glyph-name="caron" unicode="&#x2c7;" horiz-adv-x="201" 
d="M40 714h44l20 -78l20 78h44l-37 -113h-54z" />
    <glyph glyph-name="breve" unicode="&#x2d8;" horiz-adv-x="171" 
d="M141 714v-53q0 -36 -12.5 -51t-42.5 -15t-42.5 15.5t-12.5 50.5v53h39v-57q0 -15 3.5 -20.5t12.5 -5.5t12.5 5.5t3.5 20.5v57h39z" />
    <glyph glyph-name="dotaccent" unicode="&#x2d9;" horiz-adv-x="121" 
d="M60 622q-18 0 -32 13.5t-14 32.5t14 32.5t32 13.5q19 0 32.5 -13.5t13.5 -32.5q0 -20 -13 -33t-33 -13z" />
    <glyph glyph-name="ring" unicode="&#x2da;" horiz-adv-x="200" 
d="M155 653q0 -24 -12.5 -38.5t-36.5 -14.5h-18q-24 0 -37.5 14.5t-13.5 38.5t13.5 38.5t37.5 14.5h18q24 0 36.5 -14.5t12.5 -38.5zM120 653q0 20 -20 20h-8q-19 0 -19 -20q0 -21 19 -21h8q20 0 20 21z" />
    <glyph glyph-name="ogonek" unicode="&#x2db;" horiz-adv-x="192" 
d="M102 40l7 -8v-87q0 -33 30 -33v-56q-46 -4 -66 13.5t-20 58.5v28q0 61 49 84z" />
    <glyph glyph-name="tilde" unicode="&#x2dc;" horiz-adv-x="203" 
d="M168 703q5 -16 5 -39q0 -64 -48 -64q-22 0 -34 17.5t-13 44.5h-16q-2 -33 1 -61h-30q-5 17 -5 42q0 62 49 62q41 0 47 -61h15q2 33 -1 59h30z" />
    <glyph glyph-name="hungarumlaut" unicode="&#x2dd;" horiz-adv-x="252" 
d="M129 601l15 113h60l-36 -113h-39zM51 601l15 113h60l-36 -113h-39z" />
    <glyph glyph-name="pi" unicode="&#x3c0;" horiz-adv-x="288" 
d="M38 0v469h-35v65h281v-65h-35v-375q0 -20 7 -28t25 -8h13v-58q-16 -4 -37 -4q-41 0 -61 21t-20 74v378h-65v-469h-73z" />
    <glyph glyph-name="Wgrave" unicode="&#x1e80;" horiz-adv-x="373" 
d="M147 0h-84l-56 714h77l21 -415l5 -140q3 58 10 140l35 415h69l33 -415q5 -74 8 -146q1 72 5 146l23 415h73l-64 -714h-78l-31 408l-6 104q-4 -72 -7 -104zM214 734h-51l-32 48h63z" />
    <glyph glyph-name="wgrave" unicode="&#x1e81;" horiz-adv-x="329" 
d="M330 560l-57 -560h-82l-23 355l-3 52q-2 -18 -4 -52l-27 -355h-84l-51 560h77l18 -347l5 -102q4 72 6 102l27 347h66l29 -347l7 -104q1 15 2 37.5t1.5 39t1.5 27.5l18 347h73zM185 601h-39l-36 113h60z" />
    <glyph glyph-name="Wacute" unicode="&#x1e82;" horiz-adv-x="373" 
d="M147 0h-84l-56 714h77l21 -415l5 -140q3 58 10 140l35 415h69l33 -415q5 -74 8 -146q1 72 5 146l23 415h73l-64 -714h-78l-31 408l-6 104q-4 -72 -7 -104zM163 734l20 48h63l-32 -48h-51z" />
    <glyph glyph-name="wacute" unicode="&#x1e83;" horiz-adv-x="329" 
d="M330 560l-57 -560h-82l-23 355l-3 52q-2 -18 -4 -52l-27 -355h-84l-51 560h77l18 -347l5 -102q4 72 6 102l27 347h66l29 -347l7 -104q1 15 2 37.5t1.5 39t1.5 27.5l18 347h73zM146 601l15 113h60l-36 -113h-39z" />
    <glyph glyph-name="Wdieresis" unicode="&#x1e84;" horiz-adv-x="373" 
d="M147 0h-84l-56 714h77l21 -415l5 -140q3 58 10 140l35 415h69l33 -415q5 -72 8 -142q1 70 5 142l23 415h73l-64 -714h-78l-31 408l-6 104q-4 -72 -7 -104zM236 734q-15 0 -26 10.5t-11 26.5q0 15 11 25.5t26 10.5t25.5 -10.5t10.5 -25.5q0 -16 -10.5 -26.5t-25.5 -10.5z
M147 734q-15 0 -26 10.5t-11 26.5q0 15 11 25.5t26 10.5t25.5 -10.5t10.5 -25.5q0 -16 -10.5 -26.5t-25.5 -10.5z" />
    <glyph glyph-name="wdieresis" unicode="&#x1e85;" horiz-adv-x="329" 
d="M330 560l-57 -560h-82l-23 355l-3 52q-2 -18 -4 -52l-27 -355h-84l-51 560h77l18 -347l5 -102q4 72 6 102l27 347h66l29 -347l7 -104q1 15 2 37.5t1.5 39t1.5 27.5l18 347h73zM213 633q-17 0 -28.5 11.5t-11.5 28.5t11.5 28.5t28.5 11.5t28.5 -11.5t11.5 -28.5
t-11.5 -28.5t-28.5 -11.5zM118 633q-16 0 -28 11.5t-12 28.5t12 28.5t28 11.5t28 -11.5t12 -28.5t-12 -28.5t-28 -11.5z" />
    <glyph glyph-name="Ygrave" unicode="&#x1ef2;" horiz-adv-x="249" 
d="M83 0v191l-80 523h79l44 -395l45 395h75l-88 -531v-183h-75zM155 734h-51l-32 48h63z" />
    <glyph glyph-name="ygrave" unicode="&#x1ef3;" horiz-adv-x="229" 
d="M22 -133v58q38 1 56 20.5t21 54.5h-35l-63 560h75l40 -487l41 487h71l-66 -560q-10 -76 -43 -104.5t-97 -28.5zM137 601h-39l-36 113h60z" />
    <glyph glyph-name="uni2009" unicode="&#x2009;" horiz-adv-x="500" 
 />
    <glyph glyph-name="endash" unicode="&#x2013;" horiz-adv-x="342" 
d="M10 280h322v-71h-322v71z" />
    <glyph glyph-name="emdash" unicode="&#x2014;" horiz-adv-x="462" 
d="M10 280h442v-71h-442v71z" />
    <glyph glyph-name="horizontalbar" unicode="&#x2015;" horiz-adv-x="205" 
d="M28 341v65h140v-65h-140z" />
    <glyph glyph-name="quoteleft" unicode="&#x2018;" horiz-adv-x="115" 
d="M58 543q-19 0 -32.5 13t-13.5 33q0 22 21 61l34 69l22 -5l-20 -81q35 -9 35 -44q0 -19 -13.5 -32.5t-32.5 -13.5z" />
    <glyph glyph-name="quoteright" unicode="&#x2019;" horiz-adv-x="115" 
d="M57 714q19 0 33 -13.5t14 -33.5q0 -18 -21 -60l-34 -69l-23 5l20 81q-15 4 -24.5 16t-9.5 27q0 20 13.5 33.5t31.5 13.5z" />
    <glyph glyph-name="quotesinglbase" unicode="&#x201a;" horiz-adv-x="115" 
d="M56 90q19 0 33 -13.5t14 -33.5q0 -18 -21 -60l-34 -69l-23 5l20 81q-15 4 -24.5 16t-9.5 27q0 20 13.5 33.5t31.5 13.5z" />
    <glyph glyph-name="quotedblleft" unicode="&#x201c;" horiz-adv-x="216" 
d="M57 542q-18 0 -32 13.5t-14 32.5q0 22 21 61l34 70l22 -5l-20 -82q15 -3 25 -15.5t10 -28.5q0 -19 -13.5 -32.5t-32.5 -13.5zM159 542q-18 0 -31.5 13.5t-13.5 32.5q0 21 20 61l34 70l23 -5l-20 -82q15 -4 24.5 -16t9.5 -28q0 -19 -13.5 -32.5t-32.5 -13.5z" />
    <glyph glyph-name="quotedblright" unicode="&#x201d;" horiz-adv-x="216" 
d="M56 714q19 0 33 -13.5t14 -33.5q0 -18 -21 -60l-34 -69l-23 5l20 81q-15 4 -24.5 16t-9.5 27q0 20 13.5 33.5t31.5 13.5zM158 714q19 0 33 -13.5t14 -33.5q0 -18 -21 -60l-34 -69l-23 5l20 81q-15 4 -24.5 16t-9.5 27q0 20 13.5 33.5t31.5 13.5z" />
    <glyph glyph-name="quotedblbase" unicode="&#x201e;" horiz-adv-x="216" 
d="M57 90q19 0 33 -13.5t14 -33.5q0 -18 -21 -60l-34 -69l-23 5l20 81q-15 4 -24.5 16t-9.5 27q0 20 13.5 33.5t31.5 13.5zM157 90q19 0 33 -13.5t14 -33.5q0 -18 -21 -60l-34 -69l-23 5l20 81q-15 4 -24.5 16t-9.5 27q0 20 13.5 33.5t31.5 13.5z" />
    <glyph glyph-name="dagger" unicode="&#x2020;" horiz-adv-x="143" 
d="M0 553v65h37v96h70v-96h36v-65h-36v-41q0 -36 -6.5 -111.5t-12.5 -132.5l-6 -58h-23q-22 220 -22 302v41h-37z" />
    <glyph glyph-name="daggerdbl" unicode="&#x2021;" horiz-adv-x="143" 
d="M0 450v62h35v41h-35v65h35v96h74v-96h34v-65h-34v-41h34v-62h-37l-24 -240h-23q-15 142 -22 240h-37z" />
    <glyph glyph-name="bullet" unicode="&#x2022;" horiz-adv-x="239" 
d="M119 176q-33 0 -56 23.5t-23 55.5q0 33 23 56.5t56 23.5t56.5 -24t23.5 -56t-23.5 -55.5t-56.5 -23.5z" />
    <glyph glyph-name="ellipsis" unicode="&#x2026;" horiz-adv-x="349" 
d="M292 -2q-19 0 -32.5 13.5t-13.5 32.5t13.5 32.5t32.5 13.5t32.5 -13.5t13.5 -32.5t-13.5 -32.5t-32.5 -13.5zM174 -2q-19 0 -32.5 13.5t-13.5 32.5t13.5 32.5t32.5 13.5t32.5 -13.5t13.5 -32.5t-13.5 -32.5t-32.5 -13.5zM57 -2q-19 0 -32.5 13.5t-13.5 32.5t13.5 32.5
t32.5 13.5t32.5 -13.5t13.5 -32.5t-13.5 -32.5t-32.5 -13.5z" />
    <glyph glyph-name="perthousand" unicode="&#x2030;" horiz-adv-x="502" 
d="M194 520q0 -122 -93 -122q-48 0 -71 28.5t-23 93.5v13q0 123 94 123q47 0 70 -29t23 -94v-13zM134 504v46q0 28 -7.5 40t-25.5 12q-34 0 -34 -52v-46q0 -29 7 -40.5t27 -11.5q33 0 33 52zM17 217l-17 20l282 259l16 -19zM495 181q0 -123 -94 -123q-47 0 -70 29t-23 94v13
q0 122 93 122q48 0 71 -28.5t23 -93.5v-13zM293 181q0 -123 -94 -123q-47 0 -70 29t-23 94v13q0 122 93 122q48 0 71 -28.5t23 -93.5v-13zM435 164v46q0 29 -7.5 40.5t-26.5 11.5q-33 0 -33 -52v-46q0 -29 6.5 -40.5t26.5 -11.5q34 0 34 52zM233 164v46q0 29 -7.5 40.5
t-26.5 11.5q-33 0 -33 -52v-46q0 -29 6.5 -40.5t26.5 -11.5q34 0 34 52z" />
    <glyph glyph-name="uni2032" unicode="&#x2032;" horiz-adv-x="119" 
d="M31 714h70l-7 -133q-3 -68 -27 -205h-38q-8 121 -5 205z" />
    <glyph glyph-name="uni2033" unicode="&#x2033;" horiz-adv-x="226" 
d="M35 714h70l-7 -133q-3 -68 -27 -205h-38q-8 121 -5 205zM136 714h70l-7 -133q-3 -68 -27 -205h-38q-8 121 -5 205z" />
    <glyph glyph-name="guilsinglleft" unicode="&#x2039;" horiz-adv-x="112" 
d="M109 328l-49 -104l49 -103h-60l-47 103l47 104h60z" />
    <glyph glyph-name="guilsinglright" unicode="&#x203a;" horiz-adv-x="112" 
d="M109 224l-48 -103h-59l49 103l-49 104h60z" />
    <glyph glyph-name="fraction" unicode="&#x2044;" horiz-adv-x="271" 
d="M0 342v34h271v-34h-271z" />
    <glyph glyph-name="zero.sup" unicode="&#x2070;" horiz-adv-x="234" 
d="M214 592v-73q0 -128 -97 -128q-50 0 -73 29t-23 99v73q0 128 96 128q50 0 73.5 -29t23.5 -99zM149 499v113q0 29 -7 41t-25 12q-32 0 -32 -53v-113q0 -29 6.5 -41t25.5 -12q32 0 32 53z" />
    <glyph glyph-name="four.sup" unicode="&#x2074;" horiz-adv-x="234" 
d="M140 560h54v-77h33v-52h-33v-40h-65v40h-117v52l98 231h69q-19 -42 -111 -231h61v18z" />
    <glyph glyph-name="five.sup" unicode="&#x2075;" horiz-adv-x="234" 
d="M213 497q0 -49 -24.5 -77.5t-71.5 -28.5q-97 0 -97 99v31h64v-30q0 -45 32 -45q33 0 33 47v30q0 21 -7 30.5t-27 9.5q-27 0 -44 -24l-45 26v149h185v-60l-131 2l-1 -58q23 15 54 15q39 0 59.5 -24t20.5 -67v-25z" />
    <glyph glyph-name="six.sup" unicode="&#x2076;" horiz-adv-x="236" 
d="M214 503v-14q0 -45 -25 -71.5t-69 -26.5q-51 0 -75 29.5t-24 98.5v72q0 70 25 99.5t73 29.5q93 0 93 -101v-17h-63v10q0 29 -6.5 41t-23.5 12q-33 0 -33 -52v-36q22 10 50 10q78 0 78 -84zM86 494q0 -48 33 -48q30 0 30 46v11q0 18 -9.5 28.5t-25.5 10.5q-12 0 -28 -8
v-40z" />
    <glyph glyph-name="seven.sup" unicode="&#x2077;" horiz-adv-x="233" 
d="M118 397h-69q0 136 103 258l-134 -1v60h196v-54q-48 -61 -72 -121.5t-24 -141.5z" />
    <glyph glyph-name="eight.sup" unicode="&#x2078;" horiz-adv-x="241" 
d="M23 472v26q0 43 36 63q-33 22 -33 62v17q0 35 24.5 57.5t70.5 22.5t69.5 -22t23.5 -58v-17q0 -41 -31 -61q34 -19 34 -64v-26q0 -37 -25 -59t-71 -22q-45 0 -71.5 21.5t-26.5 59.5zM121 665q-32 0 -32 -35v-14q0 -35 32 -35q31 0 31 35v14q0 35 -31 35zM121 446
q32 0 32 34v20q0 37 -32 37q-34 0 -34 -37v-20q0 -34 34 -34z" />
    <glyph glyph-name="nine.sup" unicode="&#x2079;" horiz-adv-x="236" 
d="M21 602v17q0 47 24.5 74t71.5 27q50 0 73.5 -29t23.5 -99v-79q0 -122 -96 -122q-45 0 -70 25.5t-25 70.5v17h62v-10q0 -48 33 -48q30 0 30 49v30q-22 -9 -43 -9q-36 0 -60 21.5t-24 64.5zM85 603q0 -41 36 -41q13 0 27 7v43q0 29 -6 41t-24 12q-33 0 -33 -52v-10z" />
    <glyph glyph-name="plus.sup" unicode="&#x207a;" horiz-adv-x="258" 
d="M160 418h-63v88h-87v63h87v87h63v-87h88v-63h-88v-88z" />
    <glyph glyph-name="minus.sup" unicode="&#x207b;" horiz-adv-x="258" 
d="M10 506v63h238v-63h-238z" />
    <glyph glyph-name="zero.sub" unicode="&#x2080;" horiz-adv-x="234" 
d="M214 145v-73q0 -128 -97 -128q-50 0 -73 29t-23 99v73q0 128 96 128q50 0 73.5 -29t23.5 -99zM149 52v113q0 29 -7 41t-25 12q-32 0 -32 -53v-113q0 -29 6.5 -41t25.5 -12q32 0 32 53z" />
    <glyph glyph-name="one.sub" unicode="&#x2081;" horiz-adv-x="229" 
d="M20 -50v54h62v168q-21 -16 -55 -23l-11 54q72 11 97 68h34v-267h63v-54h-190z" />
    <glyph glyph-name="two.sub" unicode="&#x2082;" horiz-adv-x="231" 
d="M19 159q0 114 97 114q96 0 96 -99v-18q0 -47 -35 -86t-88 -63l124 3v-60h-195v58q64 40 96.5 71.5t32.5 72.5v24q0 42 -31 42q-33 0 -33 -49v-60h-64v50z" />
    <glyph glyph-name="three.sub" unicode="&#x2083;" horiz-adv-x="236" 
d="M214 49q0 -50 -24 -77.5t-72 -27.5q-97 0 -97 96v34h64v-31q0 -44 33 -44q32 0 32 46v35q0 40 -35 40q-23 0 -43 -20l-28 34l90 76l-112 -3v60h191v-52l-74 -52h5q33 0 51.5 -21.5t18.5 -62.5v-30z" />
    <glyph glyph-name="four.sub" unicode="&#x2084;" horiz-adv-x="234" 
d="M140 113h54v-77h33v-52h-33v-40h-65v40h-117v52l98 231h69q-19 -42 -111 -231h61v18z" />
    <glyph glyph-name="five.sub" unicode="&#x2085;" horiz-adv-x="234" 
d="M213 50q0 -49 -24.5 -77.5t-71.5 -28.5q-97 0 -97 99v31h64v-30q0 -45 32 -45q33 0 33 47v30q0 21 -7 30.5t-27 9.5q-27 0 -44 -24l-45 26v149h185v-60l-131 2l-1 -58q23 15 54 15q39 0 59.5 -24t20.5 -67v-25z" />
    <glyph glyph-name="six.sub" unicode="&#x2086;" horiz-adv-x="236" 
d="M214 56v-14q0 -45 -25 -71.5t-69 -26.5q-51 0 -75 29.5t-24 98.5v72q0 70 25 99.5t73 29.5q93 0 93 -101v-17h-63v10q0 29 -6.5 41t-23.5 12q-33 0 -33 -52v-36q22 10 50 10q78 0 78 -84zM86 47q0 -48 33 -48q30 0 30 46v11q0 18 -9.5 28.5t-25.5 10.5q-12 0 -28 -8v-40z
" />
    <glyph glyph-name="seven.sub" unicode="&#x2087;" horiz-adv-x="233" 
d="M118 -50h-69q0 135 103 259l-134 -2v60h196v-54q-48 -61 -72 -121.5t-24 -141.5z" />
    <glyph glyph-name="eight.sub" unicode="&#x2088;" horiz-adv-x="241" 
d="M23 25v26q0 43 36 63q-33 22 -33 62v17q0 35 24.5 57.5t70.5 22.5t69.5 -22t23.5 -58v-17q0 -41 -31 -61q34 -19 34 -64v-26q0 -37 -25 -59t-71 -22q-45 0 -71.5 21.5t-26.5 59.5zM121 218q-32 0 -32 -35v-14q0 -35 32 -35q31 0 31 35v14q0 35 -31 35zM121 -1q32 0 32 34
v20q0 37 -32 37q-34 0 -34 -37v-20q0 -34 34 -34z" />
    <glyph glyph-name="nine.sub" unicode="&#x2089;" horiz-adv-x="236" 
d="M21 155v17q0 47 24.5 74t71.5 27q50 0 73.5 -29t23.5 -99v-79q0 -122 -96 -122q-45 0 -70 25.5t-25 70.5v17h62v-10q0 -48 33 -48q30 0 30 49v30q-22 -9 -43 -9q-36 0 -60 21.5t-24 64.5zM85 156q0 -41 36 -41q13 0 27 7v43q0 29 -6 41t-24 12q-33 0 -33 -52v-10z" />
    <glyph glyph-name="Euro" unicode="&#x20ac;" horiz-adv-x="265" 
d="M4 345h23v30h-23v31h23v107q0 73 26.5 101.5t79.5 28.5t79 -28t26 -101v-64h-72v76q0 28 -7.5 40t-25.5 12q-19 0 -26 -12t-7 -40v-120h85v-31h-85v-30h85v-31h-85v-126q0 -28 7 -40t26 -12t26 12t7 40v85h72v-73q0 -73 -26 -101t-79 -28t-79.5 28t-26.5 101v114h-23v31z
" />
    <glyph glyph-name="afii61352" unicode="&#x2116;" horiz-adv-x="521" 
d="M306 319v37h180v-37h-180zM27 714h104l89 -634q-23 276 -23 411v223h68v-714h-98l-86 620q13 -217 13 -346v-274h-67v714zM493 592v-73q0 -128 -97 -128q-50 0 -73 29t-23 99v73q0 128 96 128q50 0 73.5 -29t23.5 -99zM428 499v113q0 29 -7 41t-25 12q-32 0 -32 -53v-113
q0 -29 6.5 -41t25.5 -12q32 0 32 53z" />
    <glyph glyph-name="trademark" unicode="&#x2122;" horiz-adv-x="324" 
d="M48 397v275h-37v42h118v-42h-37v-275h-44zM147 714h59l20 -155l20 155h59v-317h-44v78q0 56 3 104l-26 -154h-24l-26 158q2 -64 2 -108v-78h-43v317z" />
    <glyph glyph-name="onethird" unicode="&#x2153;" horiz-adv-x="271" 
d="M0 342v34h271v-34h-271zM42 397v54h62v168q-21 -16 -55 -23l-11 54q72 11 97 68h34v-267h63v-54h-190zM232 99q0 -50 -24 -77.5t-72 -27.5q-97 0 -97 96v34h64v-31q0 -44 33 -44q32 0 32 46v35q0 40 -35 40q-23 0 -43 -20l-28 34l90 76l-112 -3v60h191v-52l-74 -52h5
q33 0 51.5 -21.5t18.5 -62.5v-30z" />
    <glyph glyph-name="twothirds" unicode="&#x2154;" horiz-adv-x="271" 
d="M0 342v34h271v-34h-271zM41 606q0 114 97 114q96 0 96 -99v-18q0 -47 -35 -86t-88 -63l124 3v-60h-195v58q64 40 96.5 71.5t32.5 72.5v24q0 42 -31 42q-33 0 -33 -49v-60h-64v50zM231 99q0 -50 -24 -77.5t-72 -27.5q-97 0 -97 96v34h64v-31q0 -44 33 -44q32 0 32 46v35
q0 40 -35 40q-23 0 -43 -20l-28 34l90 76l-112 -3v60h191v-52l-74 -52h5q33 0 51.5 -21.5t18.5 -62.5v-30z" />
    <glyph glyph-name="oneeighth" unicode="&#x215b;" horiz-adv-x="271" 
d="M229 243v-17q0 -41 -31 -61q34 -21 34 -64v-26q0 -37 -25 -59t-71 -22q-45 0 -71.5 21.5t-26.5 59.5v26q0 43 35 63q-32 20 -32 62v17q0 35 24.5 57.5t70.5 22.5t69.5 -22t23.5 -58zM41 397v54h62v168q-21 -16 -55 -23l-11 54q72 11 97 68h34v-267h63v-54h-190zM0 342v34
h271v-34h-271zM136 49q32 0 32 34v20q0 37 -32 37q-34 0 -34 -37v-20q0 -34 34 -34zM136 268q-32 0 -32 -35v-14q0 -35 32 -35q31 0 31 35v14q0 35 -31 35z" />
    <glyph glyph-name="threeeighths" unicode="&#x215c;" horiz-adv-x="271" 
d="M229 243v-17q0 -41 -31 -61q34 -21 34 -64v-26q0 -37 -25 -59t-71 -22q-45 0 -71.5 21.5t-26.5 59.5v26q0 43 35 63q-32 20 -32 62v17q0 35 24.5 57.5t70.5 22.5t69.5 -22t23.5 -58zM232 496q0 -50 -24 -77.5t-72 -27.5q-97 0 -97 96v34h64v-31q0 -44 33 -44q32 0 32 46
v35q0 40 -35 40q-23 0 -43 -20l-28 34l90 76l-112 -3v60h191v-52l-75 -52h6q33 0 51.5 -21.5t18.5 -62.5v-30zM0 342v34h271v-34h-271zM136 49q32 0 32 34v20q0 37 -32 37q-34 0 -34 -37v-20q0 -34 34 -34zM136 268q-32 0 -32 -35v-14q0 -35 32 -35q31 0 31 35v14
q0 35 -31 35z" />
    <glyph glyph-name="fiveeighths" unicode="&#x215d;" horiz-adv-x="271" 
d="M229 243v-17q0 -41 -31 -61q34 -21 34 -64v-26q0 -37 -25 -59t-71 -22q-45 0 -71.5 21.5t-26.5 59.5v26q0 43 35 63q-32 20 -32 62v17q0 35 24.5 57.5t70.5 22.5t69.5 -22t23.5 -58zM230 497q0 -49 -24.5 -77.5t-71.5 -28.5q-97 0 -97 99v31h64v-30q0 -45 32 -45
q33 0 33 47v30q0 21 -7 30.5t-27 9.5q-27 0 -44 -24l-45 26v149h185v-60l-131 2l-1 -58q22 15 54 15q39 0 59.5 -24t20.5 -67v-25zM0 342v34h271v-34h-271zM136 49q32 0 32 34v20q0 37 -32 37q-34 0 -34 -37v-20q0 -34 34 -34zM136 268q-32 0 -32 -35v-14q0 -35 32 -35
q31 0 31 35v14q0 35 -31 35z" />
    <glyph glyph-name="seveneighths" unicode="&#x215e;" horiz-adv-x="271" 
d="M229 243v-17q0 -41 -31 -61q34 -21 34 -64v-26q0 -37 -25 -59t-71 -22q-45 0 -71.5 21.5t-26.5 59.5v26q0 43 35 63q-32 20 -32 62v17q0 35 24.5 57.5t70.5 22.5t69.5 -22t23.5 -58zM136 397h-69q0 136 103 258l-134 -1v60h196v-54q-48 -61 -72 -121.5t-24 -141.5zM0 342
v34h271v-34h-271zM136 49q32 0 32 34v20q0 37 -32 37q-34 0 -34 -37v-20q0 -34 34 -34zM136 268q-32 0 -32 -35v-14q0 -35 32 -35q31 0 31 35v14q0 35 -31 35z" />
    <glyph glyph-name="arrowleft" unicode="&#x2190;" horiz-adv-x="409" 
d="M379 306h-131l4 -78l-257 109l257 118l-4 -82h131v-67z" />
    <glyph glyph-name="arrowup" unicode="&#x2191;" horiz-adv-x="273" 
d="M100 86v254l-74 -3l107 265l115 -265l-78 4v-255h-70z" />
    <glyph glyph-name="arrowright" unicode="&#x2192;" horiz-adv-x="409" 
d="M30 306v67h131l-4 82l257 -118l-257 -109l4 78h-131z" />
    <glyph glyph-name="arrowdown" unicode="&#x2193;" horiz-adv-x="273" 
d="M248 346l-115 -266l-107 266l74 -3v253h70v-254z" />
    <glyph glyph-name="Delta" unicode="&#x2206;" horiz-adv-x="249" 
d="M180 714l67 -714h-246l74 714h105zM103 341l-22 -272h84l-22 272q-4 42 -12 140t-9 112q-4 -111 -19 -252z" />
    <glyph glyph-name="minus" unicode="&#x2212;" horiz-adv-x="258" 
d="M10 210v63h238v-63h-238z" />
    <glyph glyph-name="approxequal" unicode="&#x2248;" horiz-adv-x="258" 
d="M63 257h-56q0 50 21 74t55 24q21 0 48.5 -16t38.5 -16q25 0 25 35h56q0 -50 -21 -74t-55 -24q-20 0 -47.5 16t-39.5 16q-25 0 -25 -35zM63 127h-56q0 49 21 73.5t55 24.5q21 0 48.5 -16t38.5 -16q25 0 25 35h56q0 -98 -76 -98q-20 0 -47.5 16t-39.5 16q-25 0 -25 -35z
" />
    <glyph glyph-name="notequal" unicode="&#x2260;" horiz-adv-x="258" 
d="M10 270v63h121l24 65h60l-24 -65h57v-63h-79l-20 -55h99v-63h-122l-23 -65h-60l23 65h-56v63h79l20 55h-99z" />
    <glyph glyph-name="lessequal" unicode="&#x2264;" horiz-adv-x="242" 
d="M168 160l-130 98v51l130 98l38 -56l-109 -68l109 -66zM15 77v61h213v-61h-213z" />
    <glyph glyph-name="greaterequal" unicode="&#x2265;" horiz-adv-x="242" 
d="M204 258l-130 -98l-38 57l109 66l-109 68l38 56l130 -98v-51zM227 138v-61h-213v61h213z" />
    <glyph glyph-name="uni24C5" unicode="&#x24c5;" horiz-adv-x="348" 
d="M258 433v-58q0 -116 -88 -114h-19v-103h-54v399h67q49 0 71.5 -28t22.5 -96zM166 505h-15v-195h16q21 0 28.5 13t7.5 48v66q0 36 -7.5 52t-29.5 16zM319 231q0 -80 -37.5 -120t-107.5 -40q-69 0 -107 40.5t-38 119.5v252q0 79 38 119.5t107 40.5q70 0 107.5 -40
t37.5 -120v-252zM174 100q60 0 87.5 30.5t27.5 100.5v252q0 69 -27 100.5t-88 31.5q-60 0 -87.5 -31.5t-27.5 -100.5v-252q0 -69 28 -100t87 -31z" />
    <glyph glyph-name="circle" unicode="&#x25cb;" horiz-adv-x="628" 
d="M459 231q0 -80 -37.5 -120t-107.5 -40q-69 0 -107 40.5t-38 119.5v252q0 79 38 119.5t107 40.5q70 0 107.5 -40t37.5 -120v-252zM314 100q60 0 87.5 30.5t27.5 100.5v252q0 69 -27 100.5t-88 31.5q-60 0 -87.5 -31.5t-27.5 -100.5v-252q0 -69 28 -100t87 -31z" />
    <glyph glyph-name="zero.slash" unicode="&#xe401;" horiz-adv-x="273" 
d="M137 720q56 0 82.5 -32t26.5 -107v-448q0 -75 -26.5 -107t-82.5 -32q-57 0 -83.5 32t-26.5 107v448q0 75 27 107t83 32zM171 123v210h-69v-210q0 -33 7.5 -46t27.5 -13q18 0 26 13t8 46zM102 591v-193h69v193q0 33 -7.5 46t-26.5 13t-27 -13t-8 -46z" />
    <glyph glyph-name="zero.den" unicode="&#xe402;" horiz-adv-x="234" 
d="M214 195v-73q0 -128 -97 -128q-50 0 -73 29t-23 99v73q0 128 96 128q50 0 73.5 -29t23.5 -99zM149 102v113q0 29 -7 41t-25 12q-32 0 -32 -53v-113q0 -29 6.5 -41t25.5 -12q32 0 32 53z" />
    <glyph glyph-name="one.den" unicode="&#xe403;" horiz-adv-x="229" 
d="M20 0v54h62v168q-21 -16 -55 -23l-11 54q72 11 97 68h34v-267h63v-54h-190z" />
    <glyph glyph-name="two.den" unicode="&#xe404;" horiz-adv-x="231" 
d="M19 209q0 114 97 114q96 0 96 -99v-18q0 -47 -35 -86t-88 -63l124 3v-60h-195v58q64 40 96.5 71.5t32.5 72.5v24q0 42 -31 42q-33 0 -33 -49v-60h-64v50z" />
    <glyph glyph-name="three.den" unicode="&#xe405;" horiz-adv-x="236" 
d="M214 99q0 -50 -24 -77.5t-72 -27.5q-97 0 -97 96v34h64v-31q0 -44 33 -44q32 0 32 46v35q0 40 -35 40q-23 0 -43 -20l-28 34l90 76l-112 -3v60h191v-52l-74 -52h5q33 0 51.5 -21.5t18.5 -62.5v-30z" />
    <glyph glyph-name="four.den" unicode="&#xe406;" horiz-adv-x="234" 
d="M140 163h54v-77h33v-52h-33v-40h-65v40h-117v52l98 231h69q-19 -42 -111 -231h61v18z" />
    <glyph glyph-name="five.den" unicode="&#xe407;" horiz-adv-x="234" 
d="M213 100q0 -49 -24.5 -77.5t-71.5 -28.5q-97 0 -97 99v31h64v-30q0 -45 32 -45q33 0 33 47v30q0 21 -7 30.5t-27 9.5q-27 0 -44 -24l-45 26v149h185v-60l-131 2l-1 -58q23 15 54 15q39 0 59.5 -24t20.5 -67v-25z" />
    <glyph glyph-name="six.den" unicode="&#xe408;" horiz-adv-x="236" 
d="M214 106v-14q0 -45 -25 -71.5t-69 -26.5q-51 0 -75 29.5t-24 98.5v72q0 70 25 99.5t73 29.5q93 0 93 -101v-17h-63v10q0 29 -6.5 41t-23.5 12q-33 0 -33 -52v-36q22 10 50 10q78 0 78 -84zM86 97q0 -48 33 -48q30 0 30 46v11q0 18 -9.5 28.5t-25.5 10.5q-12 0 -28 -8v-40
z" />
    <glyph glyph-name="seven.den" unicode="&#xe409;" horiz-adv-x="233" 
d="M118 0h-69q0 135 103 259l-134 -2v60h196v-54q-48 -61 -72 -121.5t-24 -141.5z" />
    <glyph glyph-name="eight.den" unicode="&#xe40a;" horiz-adv-x="241" 
d="M23 75v26q0 43 36 63q-33 22 -33 62v17q0 35 24.5 57.5t70.5 22.5t69.5 -22t23.5 -58v-17q0 -41 -31 -61q34 -19 34 -64v-26q0 -37 -25 -59t-71 -22q-45 0 -71.5 21.5t-26.5 59.5zM121 268q-32 0 -32 -35v-14q0 -35 32 -35q31 0 31 35v14q0 35 -31 35zM121 49q32 0 32 34
v20q0 37 -32 37q-34 0 -34 -37v-20q0 -34 34 -34z" />
    <glyph glyph-name="nine.den" unicode="&#xe40b;" horiz-adv-x="236" 
d="M21 205v17q0 47 24.5 74t71.5 27q50 0 73.5 -29t23.5 -99v-79q0 -122 -96 -122q-45 0 -70 25.5t-25 70.5v17h62v-10q0 -48 33 -48q30 0 30 49v30q-22 -9 -43 -9q-36 0 -60 21.5t-24 64.5zM85 206q0 -41 36 -41q13 0 27 7v43q0 29 -6 41t-24 12q-33 0 -33 -52v-10z" />
    <glyph glyph-name="zero.num" unicode="&#xe416;" horiz-adv-x="234" 
d="M214 592v-73q0 -128 -97 -128q-50 0 -73 29t-23 99v73q0 128 96 128q50 0 73.5 -29t23.5 -99zM149 499v113q0 29 -7 41t-25 12q-32 0 -32 -53v-113q0 -29 6.5 -41t25.5 -12q32 0 32 53z" />
    <glyph glyph-name="one.num" unicode="&#xe417;" horiz-adv-x="229" 
d="M20 397v54h62v168q-21 -16 -55 -23l-11 54q72 11 97 68h34v-267h63v-54h-190z" />
    <glyph glyph-name="two.num" unicode="&#xe418;" horiz-adv-x="231" 
d="M19 606q0 114 97 114q96 0 96 -99v-18q0 -47 -35 -86t-88 -63l124 3v-60h-195v58q64 40 96.5 71.5t32.5 72.5v24q0 42 -31 42q-33 0 -33 -49v-60h-64v50z" />
    <glyph glyph-name="three.num" unicode="&#xe419;" horiz-adv-x="236" 
d="M214 496q0 -50 -24 -77.5t-72 -27.5q-97 0 -97 96v34h64v-31q0 -44 33 -44q32 0 32 46v35q0 40 -35 40q-23 0 -43 -20l-28 34l90 76l-112 -3v60h191v-52l-74 -52h5q33 0 51.5 -21.5t18.5 -62.5v-30z" />
    <glyph glyph-name="four.num" unicode="&#xe41a;" horiz-adv-x="234" 
d="M140 560h54v-77h33v-52h-33v-40h-65v40h-117v52l98 231h69q-19 -42 -111 -231h61v18z" />
    <glyph glyph-name="five.num" unicode="&#xe41b;" horiz-adv-x="234" 
d="M213 497q0 -49 -24.5 -77.5t-71.5 -28.5q-97 0 -97 99v31h64v-30q0 -45 32 -45q33 0 33 47v30q0 21 -7 30.5t-27 9.5q-27 0 -44 -24l-45 26v149h185v-60l-131 2l-1 -58q23 15 54 15q39 0 59.5 -24t20.5 -67v-25z" />
    <glyph glyph-name="six.num" unicode="&#xe41c;" horiz-adv-x="236" 
d="M214 503v-14q0 -45 -25 -71.5t-69 -26.5q-51 0 -75 29.5t-24 98.5v72q0 70 25 99.5t73 29.5q93 0 93 -101v-17h-63v10q0 29 -6.5 41t-23.5 12q-33 0 -33 -52v-36q22 10 50 10q78 0 78 -84zM86 494q0 -48 33 -48q30 0 30 46v11q0 18 -9.5 28.5t-25.5 10.5q-12 0 -28 -8
v-40z" />
    <glyph glyph-name="seven.num" unicode="&#xe41d;" horiz-adv-x="233" 
d="M118 397h-69q0 135 103 259l-134 -2v60h196v-54q-48 -61 -72 -121.5t-24 -141.5z" />
    <glyph glyph-name="eight.num" unicode="&#xe41e;" horiz-adv-x="241" 
d="M23 472v26q0 43 36 63q-33 22 -33 62v17q0 35 24.5 57.5t70.5 22.5t69.5 -22t23.5 -58v-17q0 -41 -31 -61q34 -19 34 -64v-26q0 -37 -25 -59t-71 -22q-45 0 -71.5 21.5t-26.5 59.5zM121 665q-32 0 -32 -35v-14q0 -35 32 -35q31 0 31 35v14q0 35 -31 35zM121 446
q32 0 32 34v20q0 37 -32 37q-34 0 -34 -37v-20q0 -34 34 -34z" />
    <glyph glyph-name="nine.num" unicode="&#xe41f;" horiz-adv-x="236" 
d="M21 602v17q0 47 24.5 74t71.5 27q50 0 73.5 -29t23.5 -99v-79q0 -122 -96 -122q-45 0 -70 25.5t-25 70.5v17h62v-10q0 -48 33 -48q30 0 30 49v30q-22 -9 -43 -9q-36 0 -60 21.5t-24 64.5zM85 603q0 -41 36 -41q13 0 27 7v43q0 29 -6 41t-24 12q-33 0 -33 -52v-10z" />
    <glyph glyph-name="commaaccent" unicode="&#xf6c3;" horiz-adv-x="121" 
d="M60 -19q14 0 24.5 -10.5t10.5 -25.5q0 -16 -16 -45l-22 -39l-19 4l11 49q-23 7 -23 31q0 15 10 25.5t24 10.5z" />
    <glyph glyph-name="dollar.split" horiz-adv-x="260" 
d="M110 237h30v-102q19 8 19 53q0 66 -61 145q-77 101 -77 183q0 115 89 125v52h30v-52q48 -3 69.5 -33t21.5 -94v-56h-72v59q0 52 -19 60v-115h-30v113q-17 -9 -17 -51q0 -58 67 -145q72 -95 72 -184q0 -115 -92 -124v-50h-30v49q-48 4 -68.5 34t-20.5 97v54h72v-57
q0 -52 17 -61v100z" />
    <glyph glyph-name="cent.split" horiz-adv-x="265" 
d="M118 237h29v-99q19 8 19 50v85h72v-73q0 -68 -22.5 -97t-68.5 -32v-50h-29v51q-45 3 -68 31.5t-23 96.5v313q0 68 23 97t68 32v51h29v-50q46 -3 68.5 -32t22.5 -97v-64h-72v76q0 42 -19 50v-114h-29v113q-18 -8 -18 -49v-338q0 -43 18 -49v98z" />
    <glyph glyph-name="Jacute" horiz-adv-x="260" 
d="M17 257h74v-134q0 -33 7.5 -46t27.5 -13q18 0 26.5 13.5t8.5 45.5v591h74v-581q0 -75 -26.5 -107t-82.5 -32q-57 0 -83 31.5t-26 107.5v124zM172 734l20 48h63l-32 -48h-51z" />
    <glyph glyph-name="idotaccent" horiz-adv-x="121" 
d="M24 560h73v-560h-73v560zM62 622q-18 0 -32 13.5t-14 32.5t14 32.5t32 13.5q19 0 32.5 -13.5t13.5 -32.5q0 -20 -13 -33t-33 -13z" />
    <glyph glyph-name="jacute" horiz-adv-x="121" 
d="M-22 -143v61h11q21 0 28 8t7 28v606h73v-612q0 -53 -19.5 -74t-60.5 -21q-17 0 -39 4zM44 601l15 113h60l-36 -113h-39z" />
    <glyph glyph-name="f.short" horiz-adv-x="136" 
d="M-2 496v64h31v68q0 48 18.5 69t56.5 21q16 0 28 -4v-63h-6q-14 0 -19.5 -7.5t-5.5 -26.5v-57h31v-64h-31v-496h-72v496h-31z" />
    <glyph glyph-name="f_f.short" horiz-adv-x="273" 
d="M-2 496v64h31v68q0 48 19 69t58 21q17 0 31 -4v-63h-8q-17 0 -22.5 -7.5t-5.5 -26.5v-57h65v68q0 48 18.5 69t56.5 21q16 0 28 -4v-63h-6q-14 0 -19.5 -7.5t-5.5 -26.5v-57h31v-64h-31v-496h-72v496h-65v-496h-72v496h-31z" />
    <glyph glyph-name="j.tail" horiz-adv-x="121" 
d="M-23 -139q-47 0 -79 10l8 60q28 -7 55 -7q37 0 50 16.5t13 60.5v559h73v-560q0 -75 -31.5 -107t-88.5 -32z" />
    <glyph glyph-name="a.it" 
d="M236 0h-59q-5 16 -8 31q-28 -37 -71 -37q-73 0 -73 86v398q0 88 73 88q44 0 71 -36q2 13 8 30h59v-560zM98 466v-372q0 -37 31 -37q19 0 35 11v424q-16 11 -35 11q-31 0 -31 -37z" />
    <glyph glyph-name="aacute.it" 
d="M236 0h-59q-5 16 -8 31q-28 -37 -71 -37q-73 0 -73 86v398q0 88 73 88q44 0 71 -36q2 13 8 30h59v-560zM98 466v-372q0 -37 31 -37q19 0 35 11v424q-16 11 -35 11q-31 0 -31 -37zM113 601l15 113h60l-36 -113h-39z" />
    <glyph glyph-name="abreve.it" 
d="M236 0h-59q-5 16 -8 31q-28 -37 -71 -37q-73 0 -73 86v398q0 88 73 88q44 0 71 -36q2 13 8 30h59v-560zM98 466v-372q0 -37 31 -37q19 0 35 11v424q-16 11 -35 11q-31 0 -31 -37zM189 714v-53q0 -36 -12.5 -51t-42.5 -15t-42.5 15.5t-12.5 50.5v53h39v-57
q0 -15 3.5 -20.5t12.5 -5.5t12.5 5.5t3.5 20.5v57h39z" />
    <glyph glyph-name="acircumflex.it" 
d="M236 0h-59q-5 16 -8 31q-28 -37 -71 -37q-73 0 -73 86v398q0 88 73 88q44 0 71 -36q2 13 8 30h59v-560zM98 466v-372q0 -37 31 -37q19 0 35 11v424q-16 11 -35 11q-31 0 -31 -37zM65 601l37 113h54l37 -113h-44l-20 78l-20 -78h-44z" />
    <glyph glyph-name="adieresis.it" 
d="M236 0h-59q-5 16 -8 31q-28 -37 -71 -37q-73 0 -73 86v398q0 88 73 88q44 0 71 -36q2 13 8 30h59v-560zM98 466v-372q0 -37 31 -37q19 0 35 11v424q-16 11 -35 11q-31 0 -31 -37zM85 633q-17 0 -28.5 11.5t-11.5 28.5t11.5 28.5t28.5 11.5t28.5 -11.5t11.5 -28.5
t-11.5 -28.5t-28.5 -11.5zM180 633q-16 0 -28 11.5t-12 28.5t12 28.5t28 11.5t28 -11.5t12 -28.5t-12 -28.5t-28 -11.5z" />
    <glyph glyph-name="agrave.it" 
d="M236 0h-59q-5 16 -8 31q-28 -37 -71 -37q-73 0 -73 86v398q0 88 73 88q44 0 71 -36q2 13 8 30h59v-560zM98 466v-372q0 -37 31 -37q19 0 35 11v424q-16 11 -35 11q-31 0 -31 -37zM151 601h-39l-36 113h60z" />
    <glyph glyph-name="amacron.it" 
d="M236 0h-59q-5 16 -8 31q-28 -37 -71 -37q-73 0 -73 86v398q0 88 73 88q44 0 71 -36q2 13 8 30h59v-560zM98 466v-372q0 -37 31 -37q19 0 35 11v424q-16 11 -35 11q-31 0 -31 -37zM63 641h129v-40h-129v40z" />
    <glyph glyph-name="aogonek.it" 
d="M236 0h-30v-55q0 -33 30 -33v-56q-46 -4 -66 13.5t-20 58.5v28q0 39 21 63q-2 8 -2 12q-28 -37 -71 -37q-73 0 -73 86v398q0 88 73 88q44 0 71 -36q2 13 8 30h59v-560zM98 466v-372q0 -37 31 -37q19 0 35 11v424q-16 11 -35 11q-31 0 -31 -37z" />
    <glyph glyph-name="aring.it" 
d="M236 0h-59q-5 16 -8 31q-28 -37 -71 -37q-73 0 -73 86v398q0 88 73 88q44 0 71 -36q2 13 8 30h59v-560zM98 466v-372q0 -37 31 -37q19 0 35 11v424q-16 11 -35 11q-31 0 -31 -37zM189 649q0 -24 -12.5 -38.5t-36.5 -14.5h-18q-24 0 -37.5 14.5t-13.5 38.5t13.5 38.5
t37.5 14.5h18q24 0 36.5 -14.5t12.5 -38.5zM154 649q0 20 -20 20h-8q-19 0 -19 -20q0 -21 19 -21h8q20 0 20 21z" />
    <glyph glyph-name="aringacute.it" 
d="M236 0h-59q-5 16 -8 31q-28 -37 -71 -37q-73 0 -73 86v398q0 88 73 88q44 0 71 -36q2 13 8 30h59v-560zM98 466v-372q0 -37 31 -37q19 0 35 11v424q-16 11 -35 11q-31 0 -31 -37zM189 649q0 -24 -12.5 -38.5t-36.5 -14.5h-18q-24 0 -37.5 14.5t-13.5 38.5t13.5 38.5
t37.5 14.5h18q24 0 36.5 -14.5t12.5 -38.5zM113 718l15 113h60l-36 -113h-39zM154 649q0 20 -20 20h-8q-19 0 -19 -20q0 -21 19 -21h8q20 0 20 21z" />
    <glyph glyph-name="atilde.it" 
d="M236 0h-59q-5 16 -8 31q-28 -37 -71 -37q-73 0 -73 86v398q0 88 73 88q44 0 71 -36q2 13 8 30h59v-560zM98 466v-372q0 -37 31 -37q19 0 35 11v424q-16 11 -35 11q-31 0 -31 -37zM195 703q5 -16 5 -39q0 -64 -48 -64q-22 0 -34 17.5t-13 44.5h-16q-2 -33 1 -61h-30
q-5 17 -5 42q0 62 49 62q41 0 47 -61h15q2 33 -1 59h30z" />
    <glyph glyph-name="g.it" horiz-adv-x="266" 
d="M118 -139q-39 0 -79 10l9 61q26 -7 55 -7q37 0 49.5 16t12.5 61v21q-27 -29 -65 -29q-73 0 -73 86v398q0 88 73 88q43 0 71 -35q3 13 8 29h59v-559q0 -76 -31 -108t-89 -32zM100 466v-372q0 -37 31 -37q17 0 34 10v426q-17 10 -34 10q-31 0 -31 -37z" />
    <glyph glyph-name="gbreve.it" horiz-adv-x="266" 
d="M118 -139q-39 0 -79 10l9 61q26 -7 55 -7q37 0 49.5 16t12.5 61v21q-27 -29 -65 -29q-73 0 -73 86v398q0 88 73 88q43 0 71 -35q3 13 8 29h59v-559q0 -76 -31 -108t-89 -32zM100 466v-372q0 -37 31 -37q17 0 34 10v426q-17 10 -34 10q-31 0 -31 -37zM189 714v-53
q0 -36 -12.5 -51t-42.5 -15t-42.5 15.5t-12.5 50.5v53h39v-57q0 -15 3.5 -20.5t12.5 -5.5t12.5 5.5t3.5 20.5v57h39z" />
    <glyph glyph-name="gcircumflex.it" horiz-adv-x="266" 
d="M118 -139q-39 0 -79 10l9 61q26 -7 55 -7q37 0 49.5 16t12.5 61v21q-27 -29 -65 -29q-73 0 -73 86v398q0 88 73 88q43 0 71 -35q3 13 8 29h59v-559q0 -76 -31 -108t-89 -32zM100 466v-372q0 -37 31 -37q17 0 34 10v426q-17 10 -34 10q-31 0 -31 -37zM68 601l37 113h54
l37 -113h-44l-20 78l-20 -78h-44z" />
    <glyph glyph-name="gcommaaccent.it" horiz-adv-x="266" 
d="M118 -139q-39 0 -79 10l9 61q26 -7 55 -7q37 0 49.5 16t12.5 61v21q-27 -29 -65 -29q-73 0 -73 86v398q0 88 73 88q43 0 71 -35q3 13 8 29h59v-559q0 -76 -31 -108t-89 -32zM100 466v-372q0 -37 31 -37q17 0 34 10v426q-17 10 -34 10q-31 0 -31 -37zM133 599
q-13 0 -24 10t-11 25q0 16 16 45l22 39l19 -4l-11 -49q23 -7 23 -31q0 -15 -10 -25t-24 -10z" />
    <glyph glyph-name="gdotaccent.it" horiz-adv-x="266" 
d="M118 -139q-39 0 -79 10l9 61q26 -7 55 -7q37 0 49.5 16t12.5 61v21q-27 -29 -65 -29q-73 0 -73 86v398q0 88 73 88q43 0 71 -35q3 13 8 29h59v-559q0 -76 -31 -108t-89 -32zM100 466v-372q0 -37 31 -37q17 0 34 10v426q-17 10 -34 10q-31 0 -31 -37zM134 624
q-18 0 -31 13t-13 32q0 18 13.5 31.5t30.5 13.5q19 0 32 -13.5t13 -31.5q0 -19 -13 -32t-32 -13z" />
    <glyph glyph-name="space_uni0326" horiz-adv-x="500" 
 />
    <glyph glyph-name="thinbar" horiz-adv-x="106" 
d="M50 779h6v-923h-6v923z" />
    <glyph glyph-name="caron.slovak" horiz-adv-x="94" 
d="M23 714h48l-12 -132h-39z" />
    <glyph glyph-name="dot" horiz-adv-x="121" 
d="M61 622q-19 0 -32.5 13.5t-13.5 32.5t13.5 32.5t32.5 13.5t32.5 -13.5t13.5 -32.5t-13.5 -32.5t-32.5 -13.5z" />
    <glyph glyph-name="one.tab" horiz-adv-x="273" 
d="M21 72h78v530q-26 -19 -67 -25l-11 70q85 8 111 70h42v-645h79v-72h-232v72z" />
    <glyph glyph-name="zero.inf" horiz-adv-x="234" 
d="M214 195v-73q0 -128 -97 -128q-50 0 -73 29t-23 99v73q0 128 96 128q50 0 73.5 -29t23.5 -99zM149 102v113q0 29 -7 41t-25 12q-32 0 -32 -53v-113q0 -29 6.5 -41t25.5 -12q32 0 32 53z" />
    <glyph glyph-name="one.inf" horiz-adv-x="229" 
d="M20 0v54h62v168q-21 -16 -55 -23l-11 54q72 11 97 68h34v-267h63v-54h-190z" />
    <glyph glyph-name="two.inf" horiz-adv-x="231" 
d="M19 209q0 114 97 114q96 0 96 -99v-18q0 -47 -35 -86t-88 -63l124 3v-60h-195v58q64 40 96.5 71.5t32.5 72.5v24q0 42 -31 42q-33 0 -33 -49v-60h-64v50z" />
    <glyph glyph-name="three.inf" horiz-adv-x="236" 
d="M214 99q0 -50 -24 -77.5t-72 -27.5q-97 0 -97 96v34h64v-31q0 -44 33 -44q32 0 32 46v35q0 40 -35 40q-23 0 -43 -20l-28 34l90 76l-112 -3v60h191v-52l-74 -52h5q33 0 51.5 -21.5t18.5 -62.5v-30z" />
    <glyph glyph-name="four.inf" horiz-adv-x="234" 
d="M140 163h54v-77h33v-52h-33v-40h-65v40h-117v52l98 231h69q-19 -42 -111 -231h61v18z" />
    <glyph glyph-name="five.inf" horiz-adv-x="234" 
d="M213 100q0 -49 -24.5 -77.5t-71.5 -28.5q-97 0 -97 99v31h64v-30q0 -45 32 -45q33 0 33 47v30q0 21 -7 30.5t-27 9.5q-27 0 -44 -24l-45 26v149h185v-60l-131 2l-1 -58q23 15 54 15q39 0 59.5 -24t20.5 -67v-25z" />
    <glyph glyph-name="six.inf" horiz-adv-x="236" 
d="M214 106v-14q0 -45 -25 -71.5t-69 -26.5q-51 0 -75 29.5t-24 98.5v72q0 70 25 99.5t73 29.5q93 0 93 -101v-17h-63v10q0 29 -6.5 41t-23.5 12q-33 0 -33 -52v-36q22 10 50 10q78 0 78 -84zM86 97q0 -48 33 -48q30 0 30 46v11q0 18 -9.5 28.5t-25.5 10.5q-12 0 -28 -8v-40
z" />
    <glyph glyph-name="seven.inf" horiz-adv-x="233" 
d="M118 0h-69q0 136 103 258l-134 -1v60h196v-54q-48 -61 -72 -121.5t-24 -141.5z" />
    <glyph glyph-name="eight.inf" horiz-adv-x="241" 
d="M214 243v-17q0 -41 -31 -61q34 -21 34 -64v-26q0 -37 -25 -59t-71 -22q-45 0 -71.5 21.5t-26.5 59.5v26q0 43 35 63q-32 20 -32 62v17q0 35 24.5 57.5t70.5 22.5t69.5 -22t23.5 -58zM121 49q32 0 32 34v20q0 37 -32 37q-34 0 -34 -37v-20q0 -34 34 -34zM121 268
q-32 0 -32 -35v-14q0 -35 32 -35q31 0 31 35v14q0 35 -31 35z" />
    <glyph glyph-name="nine.inf" horiz-adv-x="236" 
d="M21 205v17q0 47 24.5 74t71.5 27q50 0 73.5 -29t23.5 -99v-79q0 -122 -96 -122q-45 0 -70 25.5t-25 70.5v17h62v-10q0 -48 33 -48q30 0 30 49v30q-22 -9 -43 -9q-36 0 -60 21.5t-24 64.5zM85 206q0 -41 36 -41q13 0 27 7v43q0 29 -6 41t-24 12q-33 0 -33 -52v-10z" />
    <glyph glyph-name="one.sup" horiz-adv-x="229" 
d="M20 397v54h62v168q-21 -16 -55 -23l-11 54q72 11 97 68h34v-267h63v-54h-190z" />
    <glyph glyph-name="two.sup" horiz-adv-x="231" 
d="M19 606q0 114 97 114q96 0 96 -99v-18q0 -47 -35 -86t-88 -63l124 3v-60h-195v58q64 40 96.5 71.5t32.5 72.5v24q0 42 -31 42q-33 0 -33 -49v-60h-64v50z" />
    <glyph glyph-name="three.sup" horiz-adv-x="236" 
d="M214 496q0 -50 -24 -77.5t-72 -27.5q-97 0 -97 96v34h64v-31q0 -44 33 -44q32 0 32 46v35q0 40 -35 40q-23 0 -43 -20l-28 34l90 76l-112 -3v60h191v-52l-75 -52h6q33 0 51.5 -21.5t18.5 -62.5v-30z" />
    <glyph glyph-name="numbersign.sup" horiz-adv-x="269" 
d="M112 360h-51v90h-41v53h41v68h-41v54h41v89h51v-89h45v89h51v-89h41v-54h-41v-68h41v-53h-41v-90h-51v90h-45v-90zM112 503h45v68h-45v-68z" />
    <glyph glyph-name="fraction.alt" horiz-adv-x="65" 
d="M-112 0h-37l326 714h37z" />
    <glyph glyph-name="colon.cap" horiz-adv-x="114" 
d="M57 380q-19 0 -32.5 13.5t-13.5 32.5t13.5 32.5t32.5 13.5t32.5 -13.5t13.5 -32.5t-13.5 -32.5t-32.5 -13.5zM57 118q-19 0 -32.5 13.5t-13.5 32.5t13.5 32.5t32.5 13.5t32.5 -13.5t13.5 -32.5t-13.5 -32.5t-32.5 -13.5z" />
    <glyph glyph-name="semicolon.cap" horiz-adv-x="115" 
d="M57 380q-19 0 -32.5 13.5t-13.5 32.5t13.5 32.5t32.5 13.5t32.5 -13.5t13.5 -32.5t-13.5 -32.5t-32.5 -13.5zM56 208q19 0 33 -13.5t14 -33.5q0 -18 -21 -60l-34 -69l-23 5l20 81q-15 4 -24.5 16t-9.5 27q0 20 13.5 33.5t31.5 13.5z" />
    <glyph glyph-name="questiondown.cap" horiz-adv-x="270" 
d="M25 133v86q0 124 82 144q2 79 11 151h45q13 -100 14 -200q-38 0 -57.5 -21t-19.5 -74v-96q0 -32 8.5 -45.5t26.5 -13.5q20 0 27.5 13t7.5 46v105h75v-95q0 -75 -27 -107t-83 -32t-83 32t-27 107zM141 624q-19 0 -32.5 13.5t-13.5 32.5t13.5 32.5t32.5 13.5t32.5 -13.5
t13.5 -32.5t-13.5 -32.5t-32.5 -13.5z" />
    <glyph glyph-name="exclamdown.cap" horiz-adv-x="127" 
d="M100 0h-73v202q0 36 5.5 114t10.5 138l5 60h34q18 -230 18 -312v-202zM65 623q-19 0 -32.5 13.5t-13.5 32.5t13.5 32.5t32.5 13.5t32.5 -13.5t13.5 -32.5t-13.5 -32.5t-32.5 -13.5z" />
    <glyph glyph-name="periodcentered.cap" horiz-adv-x="112" 
d="M56 277q-19 0 -32.5 13.5t-13.5 32.5t13.5 32.5t32.5 13.5t32.5 -13.5t13.5 -32.5t-13.5 -32.5t-32.5 -13.5z" />
    <glyph glyph-name="bullet.cap" horiz-adv-x="243" 
d="M119 266q-33 0 -56 23.5t-23 55.5q0 33 23 56.5t56 23.5t56.5 -24t23.5 -56t-23.5 -55.5t-56.5 -23.5z" />
    <glyph glyph-name="hyphen.cap" horiz-adv-x="205" 
d="M12 375h182v-71h-182v71z" />
    <glyph glyph-name="endash.cap" horiz-adv-x="342" 
d="M10 374h322v-71h-322v71z" />
    <glyph glyph-name="emdash.cap" horiz-adv-x="462" 
d="M10 374h442v-71h-442v71z" />
    <glyph glyph-name="guilsinglleft.cap" horiz-adv-x="113" 
d="M110 398l-49 -104l49 -103h-60l-47 103l47 104h60z" />
    <glyph glyph-name="guilsinglright.cap" horiz-adv-x="113" 
d="M110 294l-48 -103h-59l49 103l-49 104h60z" />
    <glyph glyph-name="guillemotleft.cap" horiz-adv-x="208" 
d="M200 400l-49 -104l49 -103h-60l-47 103l47 104h60zM112 400l-49 -104l49 -103h-60l-47 103l47 104h60z" />
    <glyph glyph-name="guillemotright.cap" horiz-adv-x="208" 
d="M202 296l-47 -103h-60l49 103l-49 104h60zM114 296l-47 -103h-60l50 103l-50 104h61z" />
    <glyph glyph-name="parenleft.cap" horiz-adv-x="191" 
d="M111 160q0 -70 8.5 -98.5t37.5 -28.5h20v-59h-34q-57 0 -81 45t-24 152v370q0 107 24 155t86 48h29v-59h-20q-16 0 -26 -8.5t-14 -29.5t-5 -39t-1 -54v-394z" />
    <glyph glyph-name="parenright.cap" horiz-adv-x="191" 
d="M80 160v394q0 36 -1 54t-5 39t-14 29.5t-26 8.5h-20v59h28q63 0 86.5 -48t23.5 -155v-370q0 -107 -24 -152t-80 -45h-34v59h20q28 0 37 29t9 98z" />
    <glyph glyph-name="bracketleft.cap" horiz-adv-x="143" 
d="M100 33h33v-59h-100v770h100v-59h-33v-652z" />
    <glyph glyph-name="bracketright.cap" horiz-adv-x="143" 
d="M43 33v652h-32v59h99v-770h-99v59h32z" />
    <glyph glyph-name="braceleft.cap" horiz-adv-x="140" 
d="M67 -23q-35 56 -35 203q0 96 18 150h-31v56h31q-18 53 -18 148q0 147 35 205l48 -9q-13 -72 -13 -179q0 -19 1.5 -50t1.5 -49t-2 -39t-9 -34.5t-20 -20.5q13 -7 20.5 -20.5t9.5 -35t1.5 -40t-2 -49.5t-1.5 -50q0 -105 13 -177z" />
    <glyph glyph-name="braceright.cap" horiz-adv-x="140" 
d="M74 -23l-49 9q12 75 12 178q0 18 -1.5 49.5t-1.5 49t2 39t9.5 35t20.5 20.5q-13 7 -20.5 20.5t-9.5 35t-2 39.5t1.5 49.5t1.5 50.5q0 103 -12 177l49 10q34 -58 34 -204q0 -96 -17 -150h30v-56h-30q17 -54 17 -148q0 -143 -34 -204z" />
    <glyph glyph-name="grave.cap" horiz-adv-x="251" 
d="M167 734h-51l-32 48h63z" />
    <glyph glyph-name="dieresis.cap" horiz-adv-x="275" 
d="M95 734q-15 0 -26 10.5t-11 26.5q0 15 11 25.5t26 10.5t25.5 -10.5t10.5 -25.5q0 -16 -10.5 -26.5t-25.5 -10.5zM184 734q-15 0 -26 10.5t-11 26.5q0 15 11 25.5t26 10.5t25.5 -10.5t10.5 -25.5q0 -16 -10.5 -26.5t-25.5 -10.5z" />
    <glyph glyph-name="macron.cap" horiz-adv-x="186" 
d="M37 776h112v-42h-112v42z" />
    <glyph glyph-name="acute.cap" horiz-adv-x="251" 
d="M84 734l20 48h63l-32 -48h-51z" />
    <glyph glyph-name="circumflex.cap" horiz-adv-x="187" 
d="M32 734l31 48h61l31 -48h-45l-16 27l-16 -27h-46z" />
    <glyph glyph-name="caron.cap" horiz-adv-x="187" 
d="M32 782h45l17 -27l16 27h45l-31 -48h-61z" />
    <glyph glyph-name="breve.cap" horiz-adv-x="206" 
d="M163 782q0 -27 -13.5 -40t-46.5 -13t-46.5 13t-13.5 40h40q0 -21 20 -21t20 21h40z" />
    <glyph glyph-name="dotaccent.cap" horiz-adv-x="175" 
d="M88 734q-15 0 -26 10.5t-11 26.5q0 15 11 25.5t26 10.5t25.5 -10.5t10.5 -25.5q0 -16 -10.5 -26.5t-25.5 -10.5z" />
    <glyph glyph-name="ring.cap" horiz-adv-x="178" 
d="M141 776q0 -43 -45 -43h-12q-47 0 -47 43q0 42 47 42h12q45 0 45 -42zM110 776q0 15 -18 15h-6q-18 0 -18 -15q0 -16 18 -16h6q18 0 18 16z" />
    <glyph glyph-name="tilde.cap" horiz-adv-x="201" 
d="M121 734q-30 0 -42 27h-7q-2 -20 1 -27h-36q-2 12 -2 19q0 39 40 39q29 0 42 -27h6q2 20 0 27h35l3 -18q0 -40 -40 -40z" />
    <glyph glyph-name="hungarumlaut.cap" horiz-adv-x="217" 
d="M105 734l20 48h63l-32 -48h-51zM30 734l20 48h63l-32 -48h-51z" />
    <glyph glyph-name="currencybar.split" horiz-adv-x="85" 
d="M27 693h30v-99h-30v99zM27 120h30v-99h-30v99z" />
    <glyph glyph-name="currencybar" horiz-adv-x="85" 
d="M27 693h30v-231h-30v231zM27 237h30v-216h-30v216z" />
    <glyph glyph-name="numbersign.alt" horiz-adv-x="269" 
d="M61 77v114h-41v53h41v226h-41v53h41v114h51v-114h45v114h51v-114h41v-53h-41v-226h41v-53h-41v-114h-51v114h-45v-114h-51zM112 244h45v226h-45v-226z" />
    <glyph glyph-name="one.serif" horiz-adv-x="215" 
d="M17 65h53v537q-16 -11 -39 -16l-11 63q62 9 89 68h36v-652h54v-65h-182v65z" />
    <glyph glyph-name="seven.alt" horiz-adv-x="273" 
d="M37 0q0 3 140 642h-150v72h219v-64l-133 -650h-76z" />
    </font>
</defs>
</svg>
