<?xml version="1.0" standalone="no"?>
<!DOCTYPE svg PUBLIC "-//W3C//DTD SVG 1.1//EN" "http://www.w3.org/Graphics/SVG/1.1/DTD/svg11.dtd" >
<svg>
<metadata>
Created by FontForge 20090622 at Wed Nov  1 20:14:51 2017
 By deploy user
Copyright 1990-1998 Bitstream Inc.  All rights reserved.
</metadata>
<defs>
<font id="VAGRoundedBT-Regular" horiz-adv-x="1024" >
  <font-face 
    font-family="VAGRounded BT"
    font-weight="400"
    font-stretch="normal"
    units-per-em="2048"
    panose-1="2 15 7 2 2 2 4 2 2 4"
    ascent="1556"
    descent="-492"
    x-height="1090"
    cap-height="1475"
    bbox="-313 -483 2114 2026"
    underline-thickness="209"
    underline-position="-121"
    unicode-range="U+0020-U+F002"
  />
<missing-glyph horiz-adv-x="1229" 
d="M102 -362v1806h1024v-1806h-1024zM217 -248h795v1577h-795v-1577z" />
    <glyph glyph-name=".notdef" horiz-adv-x="1229" 
d="M102 -362v1806h1024v-1806h-1024zM217 -248h795v1577h-795v-1577z" />
    <glyph glyph-name=".null" horiz-adv-x="0" 
 />
    <glyph glyph-name="nonmarkingreturn" horiz-adv-x="664" 
 />
    <glyph glyph-name="space" unicode=" " horiz-adv-x="664" 
 />
    <glyph glyph-name="exclam" unicode="!" horiz-adv-x="606" 
d="M463 662q0 -120 -39.5 -178t-120.5 -58q-80 0 -120 58.5t-40 177.5v602q0 117 40 175t120 58q81 0 120.5 -57.5t39.5 -175.5v-602zM125 137q0 75 52 126.5t126 51.5t126 -52t52 -126t-52.5 -127t-125.5 -53q-74 0 -126 52.5t-52 127.5z" />
    <glyph glyph-name="quotedbl" unicode="&#x22;" horiz-adv-x="678" 
d="M406 1438h192v-559h-192v559zM80 1438h192v-559h-192v559z" />
    <glyph glyph-name="numbersign" unicode="#" horiz-adv-x="1575" 
d="M709 848l-88 -244h251l86 244h-249zM709 1464h221l-146 -415h242l148 415h221l-148 -415h283l-74 -201h-280l-84 -242h290l-71 -200h-291l-148 -416h-221l148 416h-244l-149 -416h-220l146 416h-287l76 200h282l86 242h-299l74 201h297z" />
    <glyph glyph-name="dollar" unicode="$" horiz-adv-x="1128" 
d="M471 -39q-193 19 -306.5 83t-113.5 151q0 67 44.5 108t119.5 41q37 0 155 -37t199 -37q70 0 117 43t47 107q0 69 -48 111t-206 90q-229 68 -320 161.5t-91 251.5q0 171 108 293t295 160v102q0 58 19.5 84.5t62.5 26.5q45 0 63.5 -24t18.5 -87v-94q167 -13 262.5 -71
t95.5 -144q0 -66 -39.5 -103.5t-109.5 -37.5q-39 0 -127 25.5t-133 25.5q-74 0 -118 -34.5t-44 -90.5q0 -89 194 -150l70 -22q209 -70 305 -176.5t96 -265.5q0 -191 -125.5 -326t-326.5 -158v-135q0 -57 -20.5 -85t-61.5 -28q-44 0 -63 26t-19 87v129z" />
    <glyph glyph-name="percent" unicode="%" horiz-adv-x="1432" 
d="M489 82q-34 -60 -69 -88.5t-74 -28.5q-49 0 -82 34t-33 85q0 27 8 53.5t23 52.5l676 1180q37 64 69.5 89.5t73.5 25.5q50 0 83.5 -32.5t33.5 -82.5q0 -22 -8.5 -49.5t-26.5 -58.5zM993 307q0 -44 31 -76t74 -32t73.5 32t30.5 76q0 46 -30.5 77.5t-73.5 31.5
q-44 0 -74.5 -31.5t-30.5 -77.5zM784 307q0 137 91.5 231.5t222.5 94.5q130 0 221.5 -95t91.5 -231q0 -135 -91.5 -230t-221.5 -95q-132 0 -223 94t-91 231zM229 1149q0 -45 31 -77t74 -32t74.5 32.5t31.5 76.5q0 45 -31 76.5t-75 31.5t-74.5 -31.5t-30.5 -76.5zM20 1149
q0 137 91.5 231.5t222.5 94.5q130 0 221.5 -95.5t91.5 -230.5q0 -136 -91.5 -231t-221.5 -95q-132 0 -223 94.5t-91 231.5z" />
    <glyph glyph-name="ampersand" unicode="&#x26;" horiz-adv-x="1403" 
d="M655 965q83 34 122.5 77t39.5 99q0 48 -43 86.5t-100 38.5q-56 0 -94.5 -35t-38.5 -84q0 -40 27.5 -84t86.5 -98zM819 334l-268 307q-87 -40 -133.5 -99t-46.5 -128q0 -84 54 -137.5t142 -53.5q62 0 126 28t126 83zM989 121q-88 -81 -205 -122.5t-256 -41.5
q-211 0 -349 128t-138 323q0 143 83 254t253 194q-71 76 -105 149.5t-34 149.5q0 148 118 245t303 97q186 0 304 -101t118 -255q0 -114 -60.5 -205.5t-186.5 -167.5l198 -236q104 128 149.5 162.5t88.5 34.5q51 0 88 -40t37 -97q0 -52 -40 -110.5t-145 -155.5
q84 -97 105.5 -138t21.5 -79q0 -60 -40 -100t-99 -40q-43 0 -88.5 32t-120.5 120z" />
    <glyph glyph-name="quotesingle" unicode="'" horiz-adv-x="352" 
d="M80 1438h192v-559h-192v559z" />
    <glyph glyph-name="parenleft" unicode="(" horiz-adv-x="664" 
d="M422 666q0 -259 73.5 -516t73.5 -267q0 -60 -33.5 -93.5t-93.5 -33.5q-48 0 -86 35.5t-69 110.5q-69 162 -106.5 360t-37.5 404q0 189 33 374t96 349q40 102 78.5 144t91.5 42q60 0 93.5 -33.5t33.5 -93.5q0 -10 -73.5 -268t-73.5 -514z" />
    <glyph glyph-name="parenright" unicode=")" horiz-adv-x="664" 
d="M242 666q0 257 -74 514.5t-74 267.5q0 61 33.5 94t93.5 33q49 0 87 -35.5t69 -109.5q68 -160 105.5 -359.5t37.5 -404.5q0 -187 -33 -371.5t-96 -351.5q-38 -101 -77.5 -144t-92.5 -43q-60 0 -93.5 33.5t-33.5 93.5q0 12 74 270t74 513z" />
    <glyph glyph-name="asterisk" unicode="*" 
d="M432 968q-17 -12 -46 -37q-82 -69 -132 -69q-38 0 -66 31t-28 72q0 73 175 134q13 5 19 7q-6 2 -19 7q-175 61 -175 134q0 41 28 72t66 31q51 0 135 -70q28 -23 43 -34q-3 25 -11.5 72.5t-8.5 67.5q0 51 27 81t73 30t74 -29.5t28 -78.5q0 -25 -9.5 -72t-12.5 -71
q11 8 32 26q94 78 146 78q38 0 66 -31t28 -72q0 -43 -33 -71t-161 -70q129 -43 161.5 -71t32.5 -70q0 -41 -28 -72t-66 -31q-51 0 -142 77l-36 29q3 -24 12.5 -72t9.5 -71q0 -50 -28 -80t-74 -30t-73 30t-27 80q0 22 8.5 70t11.5 73z" />
    <glyph glyph-name="plus" unicode="+" horiz-adv-x="1706" 
d="M752 1221h202v-510h498v-199h-498v-512h-202v512h-498v199h498v510z" />
    <glyph glyph-name="comma" unicode="," horiz-adv-x="473" 
d="M207 -195q-30 -55 -66.5 -83.5t-77.5 -28.5q-55 0 -95 37.5t-40 91.5q0 22 8.5 48t24.5 54l162 295q32 59 66 86t77 27q57 0 96 -36.5t39 -90.5q0 -22 -8 -47.5t-24 -57.5z" />
    <glyph glyph-name="hyphen" unicode="-" horiz-adv-x="877" 
d="M229 428q-75 0 -117 37t-42 104t42 103.5t119 36.5h416q75 0 117.5 -38t42.5 -104q0 -68 -41.5 -103.5t-120.5 -35.5h-416z" />
    <glyph glyph-name="period" unicode="." horiz-adv-x="473" 
d="M51 172q0 77 55 131.5t132 54.5q76 0 130 -54.5t54 -131.5q0 -78 -53.5 -132t-130.5 -54q-79 0 -133 54t-54 132z" />
    <glyph glyph-name="slash" unicode="/" horiz-adv-x="758" 
d="M186 72q-31 -61 -66 -90t-77 -29q-56 0 -95.5 37.5t-39.5 91.5q0 22 7 46.5t22 51.5l636 1202q36 66 69 92.5t75 26.5q57 0 96 -36.5t39 -90.5q0 -20 -7.5 -44t-23.5 -56z" />
    <glyph glyph-name="zero" unicode="0" horiz-adv-x="1327" 
d="M666 1192q-122 0 -192.5 -123.5t-70.5 -339.5q0 -218 70.5 -341.5t192.5 -123.5t192 123.5t70 341.5q0 216 -70.5 339.5t-191.5 123.5zM57 727q0 355 164.5 562.5t442.5 207.5t443 -207.5t165 -562.5t-165 -562.5t-443 -207.5t-442.5 207.5t-164.5 562.5z" />
    <glyph glyph-name="one" unicode="1" horiz-adv-x="735" 
d="M563 221q0 -119 -41 -177t-127 -58q-85 0 -126.5 58t-41.5 177v928h-30q-110 0 -167 39t-57 115q0 77 58.5 115t177.5 38h166q101 0 144.5 -54t43.5 -181v-1000z" />
    <glyph glyph-name="two" unicode="2" horiz-adv-x="1071" 
d="M795 307q119 0 177 -38t58 -115q0 -78 -58 -116t-177 -38h-588q-101 0 -150 38t-49 116q0 70 201 289l63 69q221 243 295 354.5t74 182.5q0 61 -35.5 100t-89.5 39q-50 0 -90.5 -38.5t-67.5 -111.5q-36 -101 -70.5 -134.5t-90.5 -33.5q-73 0 -118.5 47t-45.5 123
q0 62 28 136.5t74 132.5q74 91 174 139.5t217 48.5q207 0 337 -121.5t130 -310.5q0 -142 -98.5 -298t-405.5 -460h306z" />
    <glyph glyph-name="three" unicode="3" horiz-adv-x="1110" 
d="M788 801q123 -64 182.5 -156t59.5 -217q0 -201 -148 -336t-372 -135q-90 0 -172.5 28.5t-155.5 84.5q-85 65 -133.5 143t-48.5 147q0 70 42 114t108 44q42 0 74.5 -19.5t72.5 -72.5l14 -20q101 -140 203 -140q74 0 125 53.5t51 133.5q0 76 -44 114t-167 58
q-77 12 -108 45.5t-31 101.5q0 63 30.5 95.5t108.5 50.5q77 18 114.5 54.5t37.5 94.5q0 57 -32 91t-87 34q-64 0 -148 -77l-4 -3l-21 -20q-86 -82 -155 -82q-56 0 -96.5 40.5t-40.5 98.5q0 129 144 238.5t327 109.5q187 0 311.5 -114.5t124.5 -282.5q0 -92 -40 -164.5
t-126 -134.5z" />
    <glyph glyph-name="four" unicode="4" horiz-adv-x="1276" 
d="M379 606h342v557zM1024 313v-153q0 -85 -42.5 -131.5t-119.5 -46.5q-72 0 -106.5 46t-34.5 142v143h-514q-103 0 -152 32t-49 97q0 69 68 174q6 11 10 17l434 686q55 87 111 122.5t135 35.5q122 0 191 -88.5t69 -247.5v-535h18h31q83 0 131.5 -37.5t48.5 -101.5
q0 -78 -49 -116t-149 -38h-31z" />
    <glyph glyph-name="five" unicode="5" horiz-adv-x="1053" 
d="M412 975q38 9 73.5 13.5t67.5 4.5q188 0 313 -137t125 -346q0 -240 -155 -396.5t-396 -156.5q-188 0 -326.5 88t-138.5 203q0 64 39.5 105.5t98.5 41.5q43 0 144 -62.5t179 -62.5q86 0 146.5 64.5t60.5 157.5q0 94 -49.5 149t-134.5 55q-43 0 -124.5 -25.5t-119.5 -25.5
q-63 0 -96 36.5t-33 106.5q0 12 2 35.5t8 77.5l47 379q12 100 55 138t162 38h404q105 0 159 -39t54 -114q0 -74 -51.5 -113t-149.5 -39h-342z" />
    <glyph glyph-name="six" unicode="6" horiz-adv-x="1147" 
d="M383 467q0 -84 55.5 -143.5t132.5 -59.5q78 0 133.5 59.5t55.5 143.5q0 83 -55.5 142t-133.5 59q-77 0 -132.5 -59t-55.5 -142zM570 930q41 5 68.5 7.5t47.5 2.5q173 0 294.5 -135.5t121.5 -333.5q0 -216 -157 -365t-388 -149q-224 0 -368 148t-144 378q0 157 85.5 343.5
t254.5 396.5q126 156 199 217t129 61q63 0 111 -46t48 -107t-119.5 -193.5t-182.5 -224.5z" />
    <glyph glyph-name="seven" unicode="7" horiz-adv-x="963" 
d="M571 1151h-376q-126 0 -175 34t-49 113q0 78 51 118t148 40h545q121 0 181 -45.5t60 -136.5q0 -24 -9 -57.5t-25 -67.5l-480 -1036q-37 -80 -79.5 -118t-94.5 -38q-73 0 -122.5 46.5t-49.5 115.5q0 27 10.5 60.5t34.5 84.5z" />
    <glyph glyph-name="eight" unicode="8" horiz-adv-x="1118" 
d="M408 1057q0 -61 45.5 -107.5t105.5 -46.5q63 0 107.5 45t44.5 109t-44.5 109.5t-107.5 45.5q-61 0 -105.5 -45.5t-45.5 -109.5zM362 463q0 -87 58 -148t139 -61q82 0 139.5 60.5t57.5 148.5t-57.5 149.5t-139.5 61.5q-81 0 -139 -61.5t-58 -149.5zM225 797
q-66 58 -99.5 131t-33.5 159q0 175 133.5 292.5t333.5 117.5t333.5 -117.5t133.5 -292.5q0 -86 -33.5 -159t-99.5 -131q96 -63 145 -155t49 -210q0 -203 -149.5 -339t-378.5 -136t-378.5 136t-149.5 339q0 118 49.5 211t144.5 154z" />
    <glyph glyph-name="nine" unicode="9" horiz-adv-x="1147" 
d="M578 528q-50 -6 -72 -8t-35 -2q-180 0 -303 133t-123 328q0 220 156 370t389 150q224 0 367 -146.5t143 -377.5q0 -158 -86 -345.5t-254 -396.5q-128 -158 -199.5 -218t-126.5 -60q-63 0 -111.5 47t-48.5 109q0 60 120 192.5t184 224.5zM764 991q0 84 -55.5 142.5
t-133.5 58.5q-77 0 -132.5 -58.5t-55.5 -142.5t55 -142t133 -58t133.5 58.5t55.5 141.5z" />
    <glyph glyph-name="colon" unicode=":" horiz-adv-x="473" 
d="M51 793q0 76 54.5 130t132.5 54q76 0 130 -54t54 -130q0 -78 -53.5 -132.5t-130.5 -54.5q-79 0 -133 54t-54 133zM51 172q0 77 55 131.5t132 54.5q76 0 130 -54.5t54 -131.5q0 -78 -53.5 -132t-130.5 -54q-79 0 -133 54t-54 132z" />
    <glyph glyph-name="semicolon" unicode=";" horiz-adv-x="473" 
d="M207 -195q-30 -55 -66.5 -83.5t-77.5 -28.5q-55 0 -95 37.5t-40 91.5q0 22 8.5 48t24.5 54l162 295q32 59 66 86t77 27q57 0 96 -36.5t39 -90.5q0 -22 -8 -47.5t-24 -57.5zM51 793q0 76 54.5 130t132.5 54q76 0 130 -54t54 -130q0 -78 -53.5 -132.5t-130.5 -54.5
q-79 0 -133 54t-54 133z" />
    <glyph glyph-name="less" unicode="&#x3c;" horiz-adv-x="1706" 
d="M1442 1194v-219l-893 -365l893 -364v-219l-1178 485v199z" />
    <glyph glyph-name="equal" unicode="=" horiz-adv-x="1706" 
d="M254 496h1198v-199h-1198v199zM254 926h1198v-199h-1198v199z" />
    <glyph glyph-name="greater" unicode="&#x3e;" horiz-adv-x="1706" 
d="M264 1194l1178 -483v-199l-1178 -485v219l895 364l-895 365v219z" />
    <glyph glyph-name="question" unicode="?" horiz-adv-x="1042" 
d="M315 584v129q0 57 15.5 85.5t54.5 45.5q20 9 68.5 19.5t72.5 21.5q58 22 86.5 63t28.5 101q0 55 -42 95t-101 40q-53 0 -96 -21.5t-93 -75.5l-19 -20q-83 -92 -147 -92q-57 0 -95 42t-38 107q0 140 145 253.5t343 113.5q211 0 351 -131.5t140 -325.5q0 -167 -97 -283
t-261 -147v-6q0 -94 -43 -147.5t-117 -53.5t-115 48.5t-41 138.5zM293 137q0 75 52.5 126.5t127.5 51.5q74 0 126 -52t52 -126t-52.5 -127t-125.5 -53q-74 0 -127 53t-53 127z" />
    <glyph glyph-name="at" unicode="@" horiz-adv-x="2048" 
d="M1167 272q-55 -84 -127 -123.5t-170 -39.5q-158 0 -240.5 86t-82.5 254q0 239 139.5 401t343.5 162q80 0 139 -33t97 -98l53 98h178l-147 -598q-3 -11 -5 -22.5t-2 -18.5q0 -35 24 -52.5t71 -17.5q39 0 81.5 20t79.5 56q86 80 130.5 187t44.5 235q0 240 -185.5 394.5
t-478.5 154.5q-141 0 -262.5 -34t-220.5 -101q-170 -114 -261.5 -285t-91.5 -375q0 -307 207 -490.5t553 -183.5q162 0 316.5 49t287.5 142l82 -117q-153 -115 -324.5 -173t-357.5 -58q-192 0 -353 48.5t-286 143.5q-155 121 -232 279t-77 358q0 167 52.5 318.5t154.5 275.5
q148 181 356 274t463 93q169 0 317.5 -45.5t258.5 -128.5q135 -105 201.5 -239.5t66.5 -303.5q0 -165 -65.5 -304.5t-188.5 -238.5q-70 -56 -152.5 -85.5t-171.5 -29.5q-106 0 -159.5 42t-55.5 124zM1217 700q-13 81 -57.5 123.5t-117.5 42.5q-114 0 -198 -124t-84 -298
q0 -92 40.5 -140t117.5 -48q83 0 151.5 63t93.5 164z" />
    <glyph glyph-name="A" unicode="A" horiz-adv-x="1280" 
d="M367 274l-50 -147q-24 -73 -64.5 -111.5t-94.5 -38.5q-69 0 -113.5 45.5t-44.5 114.5q0 28 4 52t12 44l379 1029q41 111 102.5 163t151.5 52q85 0 147.5 -49.5t96.5 -143.5l369 -1046q11 -33 16.5 -59t5.5 -46q0 -69 -46 -112.5t-118 -43.5q-64 0 -106.5 40t-67.5 122
l-41 135h-538zM461 580h348l-168 540z" />
    <glyph glyph-name="B" unicode="B" horiz-adv-x="1262" 
d="M461 889h139q74 0 119 39t45 102q0 66 -45.5 105t-122.5 39h-135v-285zM461 285h166q110 0 167.5 42t57.5 122q0 83 -56.5 123t-174.5 40h-160v-327zM354 0q-129 0 -177 44t-48 165v1014q0 133 51 183t178 50h273q216 0 335 -95.5t119 -266.5q0 -107 -44 -177t-136 -110
q143 -35 219 -130.5t76 -238.5q0 -206 -136.5 -322t-381.5 -116h-328z" />
    <glyph glyph-name="C" unicode="C" horiz-adv-x="1233" 
d="M770 -43q-321 0 -517 211.5t-196 558.5q0 339 203 554.5t514 215.5q183 0 309.5 -70t126.5 -163q0 -60 -42 -105t-99 -45q-32 0 -129.5 28.5t-163.5 28.5q-163 0 -260.5 -122.5t-97.5 -329.5q0 -203 99.5 -321.5t268.5 -118.5q78 0 178 37.5t132 37.5q51 0 92 -44
t41 -101q0 -103 -132.5 -177.5t-326.5 -74.5z" />
    <glyph glyph-name="D" unicode="D" horiz-adv-x="1427" 
d="M461 307h151q199 0 297.5 109t98.5 329q0 202 -100.5 302t-301.5 100h-145v-840zM625 1456q139 0 245.5 -25t188.5 -77q144 -92 226.5 -254.5t82.5 -356.5q0 -343 -190.5 -543t-520.5 -200h-303q-129 0 -177 44t-48 165v1014q0 133 51 183t178 50h267z" />
    <glyph glyph-name="E" unicode="E" horiz-adv-x="1034" 
d="M731 1456q118 0 177 -38.5t59 -117.5q0 -77 -58.5 -115t-177.5 -38h-270v-260h233q119 0 177.5 -38t58.5 -116t-58.5 -115.5t-177.5 -37.5h-233v-273h280q120 0 178 -38t58 -115q0 -78 -58 -116t-178 -38h-387q-129 0 -177 44t-48 165v1014q0 133 51 183t178 50h373z" />
    <glyph glyph-name="F" unicode="F" horiz-adv-x="999" 
d="M731 1456q118 0 177 -38.5t59 -117.5q0 -77 -58.5 -115t-177.5 -38h-270v-260h233q119 0 177.5 -38t58.5 -116t-58.5 -115.5t-177.5 -37.5h-233v-363q0 -119 -41 -177t-125 -58t-125 58t-41 177v1006q0 133 51 183t178 50h373z" />
    <glyph glyph-name="G" unicode="G" horiz-adv-x="1479" 
d="M1075 567h-117q-120 0 -176.5 37.5t-56.5 116.5t57 117.5t176 38.5h244q124 0 178 -52t54 -170q0 -311 -187.5 -504.5t-492.5 -193.5q-307 0 -502 215t-195 557q0 353 199.5 561.5t536.5 208.5q223 0 379.5 -92t156.5 -211q0 -62 -42 -109t-99 -47q-37 0 -165 71t-241 71
q-169 0 -267.5 -119.5t-98.5 -327.5q0 -211 99 -336t265 -125q132 0 212 79.5t83 213.5z" />
    <glyph glyph-name="H" unicode="H" horiz-adv-x="1532" 
d="M461 588v-371q0 -119 -41 -177t-125 -58t-125 58t-41 177v1022q0 119 41 177.5t125 58.5t125 -58.5t41 -177.5v-344h610v344q0 119 41 177.5t125 58.5t125 -58.5t41 -177.5v-1022q0 -119 -41 -177t-125 -58t-125 58t-41 177v371h-610z" />
    <glyph glyph-name="I" unicode="I" horiz-adv-x="606" 
d="M469 217q0 -119 -41 -177t-125 -58t-125 58t-41 177v1022q0 119 41 177.5t125 58.5t125 -58.5t41 -177.5v-1022z" />
    <glyph glyph-name="J" unicode="J" horiz-adv-x="918" 
d="M459 551v688q0 119 41 177.5t125 58.5q83 0 124.5 -58.5t41.5 -177.5v-795q0 -238 -108.5 -360.5t-317.5 -122.5q-163 0 -271 69.5t-108 170.5q0 67 42.5 110t110.5 43q43 0 111 -36.5t100 -36.5q59 0 84 58t25 212z" />
    <glyph glyph-name="K" unicode="K" horiz-adv-x="1262" 
d="M883 1356q57 65 95.5 89.5t76.5 24.5q60 0 104.5 -45t44.5 -106q0 -39 -20.5 -79.5t-63.5 -84.5l-358 -373l444 -483q41 -45 62.5 -87.5t21.5 -76.5q0 -61 -47 -107t-106 -46q-40 0 -75 20.5t-104 95.5l-497 549v-430q0 -119 -41 -177t-125 -58t-125 58t-41 177v1022
q0 119 41 177.5t125 58.5t125 -58.5t41 -177.5v-360z" />
    <glyph glyph-name="L" unicode="L" horiz-adv-x="944" 
d="M129 1239q0 119 41 177.5t125 58.5t125 -58.5t41 -177.5v-932h280q120 0 178 -38t58 -115q0 -78 -58 -116t-178 -38h-387q-129 0 -177 44t-48 165v1030z" />
    <glyph glyph-name="M" unicode="M" horiz-adv-x="1767" 
d="M43 254l178 993q22 123 74.5 175.5t150.5 52.5q93 0 150 -49t82 -148l221 -870l207 872q23 97 80 146t147 49q103 0 158 -55.5t76 -184.5l162 -1002q4 -22 6 -42.5t2 -36.5q0 -80 -46 -127t-122 -47q-70 0 -111 48t-53 146l-105 870q-121 -522 -179.5 -738t-90.5 -267
q-20 -32 -52.5 -45.5t-86.5 -13.5q-84 0 -128 38t-67 129l-215 897l-114 -849q-16 -113 -58 -164t-116 -51q-73 0 -117.5 47t-44.5 127q0 19 3 44.5t9 55.5z" />
    <glyph glyph-name="N" unicode="N" horiz-adv-x="1532" 
d="M461 217q0 -119 -41 -177t-125 -58t-125 58t-41 177v1034q0 112 38 167t116 55q50 0 90.5 -24.5t85.5 -82.5l612 -809v682q0 119 41 177.5t125 58.5t125 -58.5t41 -177.5v-1059q0 -106 -37 -156.5t-115 -50.5q-52 0 -97 29t-93 92l-600 793v-670z" />
    <glyph glyph-name="O" unicode="O" horiz-adv-x="1546" 
d="M418 723q0 -204 97 -326.5t257 -122.5t257 122.5t97 326.5q0 211 -96 335t-258 124t-258 -124t-96 -335zM57 727q0 345 197.5 557.5t517.5 212.5q321 0 519 -213t198 -557q0 -346 -197.5 -558t-519.5 -212t-518.5 212t-196.5 558z" />
    <glyph glyph-name="P" unicode="P" horiz-adv-x="1241" 
d="M461 217q0 -119 -41 -177t-125 -58t-125 58t-41 177v1006q0 133 51 183t178 50h299q247 0 390 -133.5t143 -361.5q0 -232 -134 -363t-372 -131h-223v-250zM461 768h143q113 0 170 48.5t57 144.5q0 97 -55.5 143.5t-171.5 46.5h-143v-383z" />
    <glyph glyph-name="Q" unicode="Q" horiz-adv-x="1546" 
d="M883 295q-52 45 -72 79t-20 72q0 58 36 97t91 39q35 0 72 -21t93 -76q22 59 32.5 118t10.5 120q0 211 -96 335t-258 124t-258 -124t-96 -335q0 -205 97.5 -327t260.5 -122q28 0 53.5 5t53.5 16zM1133 47q-75 -46 -163 -68t-198 -22q-322 0 -518.5 212t-196.5 558
q0 345 197.5 557.5t517.5 212.5q321 0 519 -213t198 -557q0 -130 -34 -248.5t-99 -220.5l102 -94q33 -30 52.5 -69t19.5 -75q0 -58 -42 -100.5t-99 -42.5q-35 0 -72.5 17.5t-73.5 50.5z" />
    <glyph glyph-name="R" unicode="R" horiz-adv-x="1223" 
d="M461 575v-358q0 -119 -41 -177t-125 -58t-125 58t-41 177v1006q0 133 51 183t178 50h258q259 0 407 -122.5t148 -332.5q0 -156 -92.5 -260.5t-255.5 -132.5l262 -291q50 -55 74.5 -102.5t24.5 -87.5q0 -66 -45 -111t-113 -45q-44 0 -84.5 27t-93.5 92zM461 797h153
q101 0 156 47t55 133q0 83 -54 128.5t-153 45.5h-157v-354z" />
    <glyph glyph-name="S" unicode="S" horiz-adv-x="1128" 
d="M1087 451q0 -219 -155.5 -354.5t-409.5 -135.5q-195 0 -333 70t-138 164q0 67 44.5 108t119.5 41q37 0 155 -37t199 -37q70 0 117 43t47 107q0 69 -48 111t-206 90q-229 68 -320 161.5t-91 251.5q0 203 146.5 332t381.5 129q173 0 285 -61.5t112 -153.5
q0 -66 -39.5 -103.5t-109.5 -37.5q-39 0 -127 25.5t-133 25.5q-74 0 -118 -34.5t-44 -90.5q0 -89 194 -150l70 -22q209 -70 305 -176.5t96 -265.5z" />
    <glyph glyph-name="T" unicode="T" horiz-adv-x="967" 
d="M317 1147h-122q-120 0 -178 38t-58 115q0 79 58.5 117.5t177.5 38.5h577q118 0 177 -38.5t59 -117.5q0 -77 -58.5 -115t-177.5 -38h-123v-930q0 -119 -41 -177t-125 -58t-125 58t-41 177v930z" />
    <glyph glyph-name="U" unicode="U" horiz-adv-x="1507" 
d="M129 625v614q0 119 41 177.5t125 58.5t125 -58.5t41 -177.5v-577q0 -193 73.5 -290.5t219.5 -97.5q145 0 219 97.5t74 290.5v577q0 119 41 177.5t124 58.5q84 0 125 -58.5t41 -177.5v-614q0 -317 -165 -492.5t-459 -175.5q-295 0 -460 175.5t-165 492.5z" />
    <glyph glyph-name="V" unicode="V" horiz-adv-x="1180" 
d="M436 96l-444 1114q-9 21 -14 45.5t-5 49.5q0 71 49 118t123 47q54 0 88.5 -32.5t63.5 -110.5l307 -827l285 815q29 87 66 121t98 34q75 0 118 -41t43 -112q0 -28 -5.5 -57.5t-16.5 -57.5l-430 -1093q-29 -74 -68 -106t-100 -32q-57 0 -93.5 29t-64.5 96z" />
    <glyph glyph-name="W" unicode="W" horiz-adv-x="1872" 
d="M727 186q-25 -99 -86 -151.5t-154 -52.5q-95 0 -147.5 50t-79.5 169l-242 1053q-2 12 -3 27t-1 46q0 68 46.5 109t121.5 41q64 0 106 -38t54 -108l174 -925l242 929q18 70 64.5 105t119.5 35q71 0 116.5 -36t63.5 -108l238 -925l174 903q17 88 56.5 127t111.5 39
t118 -43.5t46 -110.5q0 -22 -3.5 -47.5t-9.5 -50.5l-254 -1022q-32 -132 -81 -175.5t-148 -43.5q-90 0 -143.5 45t-77.5 141l-217 831z" />
    <glyph glyph-name="X" unicode="X" horiz-adv-x="1186" 
d="M295 109q-50 -69 -90.5 -98t-83.5 -29q-58 0 -104 45t-46 100q0 34 14.5 68.5t59.5 99.5l354 493l-266 373q-44 61 -59 96t-15 68q0 64 46 107t116 43q42 0 82.5 -30t87.5 -97l205 -287l209 291q46 63 89.5 94t86.5 31q55 0 100 -45t45 -99q0 -64 -72 -166l-1 -1
l-269 -373l355 -500q3 -5 9 -13q66 -96 66 -155q0 -56 -45.5 -99.5t-105.5 -43.5q-47 0 -89.5 29t-90.5 95l-295 414z" />
    <glyph glyph-name="Y" unicode="Y" horiz-adv-x="1057" 
d="M791 1352q42 60 88 92.5t90 32.5q55 0 100 -45t45 -99q0 -62 -69 -159l-7 -9l-336 -479v-469q0 -119 -41 -177t-124 -58q-84 0 -125 58t-41 177v469l-336 475l-2 3q-72 100 -72 165q0 60 46 103t114 43q41 0 82 -31t88 -96l248 -355z" />
    <glyph glyph-name="Z" unicode="Z" horiz-adv-x="1090" 
d="M887 307q119 0 177 -38t58 -115q0 -78 -58 -116t-177 -38h-666q-118 0 -175.5 41t-57.5 125q0 42 17 83t75 118l594 788h-428q-121 0 -178.5 36.5t-57.5 113.5q0 75 59 113t177 38h563q147 0 216 -39t69 -123q0 -73 -91 -195l-6 -8l-579 -784h469z" />
    <glyph glyph-name="bracketleft" unicode="[" horiz-adv-x="664" 
d="M496 1540q75 0 116 -28.5t41 -79.5q0 -56 -39 -83.5t-120 -27.5h-97v-1405h99q74 0 115.5 -29t41.5 -82q0 -55 -39 -81.5t-120 -26.5h-148q-130 0 -178.5 44.5t-48.5 164.5v1401q0 133 51 183t178 50h148z" />
    <glyph glyph-name="backslash" unicode="\" horiz-adv-x="758" 
d="M571 72l-634 1202q-15 29 -22 53.5t-7 46.5q0 54 39 90.5t96 36.5q42 0 75 -26.5t68 -92.5l635 -1202q16 -29 23.5 -53.5t7.5 -44.5q0 -54 -40.5 -91.5t-96.5 -37.5q-42 0 -77 29t-67 90z" />
    <glyph glyph-name="bracketright" unicode="]" horiz-adv-x="664" 
d="M168 1540h147q127 0 178.5 -50t51.5 -183v-1401q0 -121 -48 -165t-178 -44h-149q-82 0 -121 26.5t-39 81.5q0 53 41.5 82t116.5 29h98v1405h-96q-81 0 -120.5 27.5t-39.5 83.5q0 51 41.5 79.5t116.5 28.5z" />
    <glyph glyph-name="asciicircum" unicode="^" horiz-adv-x="2048" 
d="M897 1460h252l481 -561h-235l-371 371l-373 -371h-235z" />
    <glyph glyph-name="underscore" unicode="_" 
d="M0 -279h1024v-204h-1024v204z" />
    <glyph glyph-name="grave" unicode="`" 
d="M451 1245l-156 172q-26 29 -39.5 57.5t-13.5 53.5q0 55 36.5 91t92.5 36q34 0 64 -17t52 -49l150 -205q17 -23 26 -45.5t9 -44.5q0 -50 -30.5 -81t-80.5 -31q-27 0 -54 15.5t-56 47.5z" />
    <glyph glyph-name="a" unicode="a" horiz-adv-x="1233" 
d="M807 98q-49 -60 -118.5 -91.5t-151.5 -31.5q-207 0 -348.5 163t-141.5 407q0 241 146 406t356 165q82 0 145.5 -28t112.5 -87q28 51 67 77t87 26q81 0 120 -57t39 -177v-649q0 -119 -39.5 -177t-119.5 -58q-54 0 -91 27t-63 85zM381 549q0 -119 58 -191.5t151 -72.5
q91 0 149 73.5t58 190.5q0 114 -58.5 186t-148.5 72q-92 0 -150.5 -71.5t-58.5 -186.5z" />
    <glyph glyph-name="b" unicode="b" horiz-adv-x="1233" 
d="M428 551q0 -122 59.5 -196t153.5 -74q93 0 153 75t60 195q0 122 -59.5 198t-153.5 76t-153.5 -75.5t-59.5 -198.5zM434 1032q53 46 116.5 69t137.5 23q209 0 352.5 -165.5t143.5 -413.5q0 -234 -147 -399.5t-349 -165.5q-80 0 -147 28t-115 82q-30 -52 -68.5 -78
t-85.5 -26q-82 0 -121.5 58t-39.5 177v1106q0 120 39.5 178t121.5 58t122 -58t40 -178v-295z" />
    <glyph glyph-name="c" unicode="c" horiz-adv-x="973" 
d="M47 545q0 255 153 414t402 159q161 0 261 -57.5t100 -149.5q0 -59 -38 -98t-96 -39q-25 0 -101 24.5t-126 24.5q-100 0 -161.5 -75t-61.5 -197q0 -127 63 -199.5t172 -72.5q53 0 126.5 24.5t95.5 24.5q53 0 89 -40.5t36 -99.5q0 -89 -109 -152t-270 -63
q-238 0 -386.5 158.5t-148.5 413.5z" />
    <glyph glyph-name="d" unicode="d" horiz-adv-x="1233" 
d="M379 551q0 -120 60 -195t153 -75t152 74.5t59 195.5q0 123 -58.5 198.5t-152.5 75.5t-153.5 -76t-59.5 -198zM807 90q-50 -54 -116.5 -82t-145.5 -28q-203 0 -350.5 167.5t-147.5 407.5t145.5 404.5t352.5 164.5q75 0 137 -22.5t117 -69.5v295q0 120 39.5 178t122.5 58
q80 0 119.5 -58.5t39.5 -177.5v-1106q0 -120 -39 -177.5t-120 -57.5q-48 0 -87 26.5t-67 77.5z" />
    <glyph glyph-name="e" unicode="e" horiz-adv-x="1147" 
d="M375 666h426q-6 82 -66 137t-143 55q-82 0 -141 -52t-76 -140zM379 455q11 -91 75 -142t169 -51q91 0 202.5 52.5t137.5 52.5q57 0 93 -35t36 -90q0 -104 -145 -187.5t-341 -83.5q-239 0 -399 163t-160 409q0 247 155.5 412t387.5 165q224 0 375 -155t151 -379
q0 -73 -33 -102t-127 -29h-577z" />
    <glyph glyph-name="f" unicode="f" horiz-adv-x="719" 
d="M504 1075h47q96 0 150.5 -38t54.5 -105q0 -69 -52 -104t-153 -35h-47v-572q0 -118 -41.5 -176.5t-124.5 -58.5q-82 0 -122 58t-40 177v572h-12q-85 0 -133.5 37.5t-48.5 101.5q0 66 48.5 102t145.5 42q0 8 -1 26.5t-1 27.5q0 209 87 321t249 112q99 0 156 -43.5
t57 -118.5q0 -59 -33 -90t-114 -43q-47 -8 -59.5 -26.5t-12.5 -94.5v-72z" />
    <glyph glyph-name="g" unicode="g" horiz-adv-x="1223" 
d="M807 135q-53 -76 -126 -113.5t-167 -37.5q-196 0 -331.5 161t-135.5 400q0 241 146 406t356 165q82 0 145.5 -28t112.5 -87q26 48 64.5 75.5t78.5 27.5q83 0 122.5 -57.5t39.5 -176.5v-649q0 -179 -17.5 -279.5t-58.5 -166.5q-71 -119 -195.5 -180.5t-295.5 -61.5
q-209 0 -341 67t-132 169q0 61 39.5 101t99.5 40q29 0 139.5 -43t206.5 -43q120 0 186 71t66 201q0 6 -1 19t-1 20zM381 545q0 -121 59 -196t152 -75t153 75.5t60 195.5q0 117 -60 190.5t-153 73.5t-152 -73.5t-59 -190.5z" />
    <glyph glyph-name="h" unicode="h" horiz-adv-x="1206" 
d="M434 1008q52 54 116 78t161 24q191 0 292 -109t101 -317v-463q0 -119 -40 -177t-122 -58t-122 58t-40 177v365q0 135 -40.5 192.5t-133.5 57.5q-88 0 -130 -59.5t-42 -186.5v-369q0 -119 -40 -177t-122 -58t-121.5 58t-39.5 177v1106q0 120 39.5 178t121.5 58t122 -59
t40 -177v-319z" />
    <glyph glyph-name="i" unicode="i" horiz-adv-x="563" 
d="M96 1376q0 77 55 132t132 55q76 0 130 -55t54 -132q0 -78 -53.5 -132t-130.5 -54q-79 0 -133 54t-54 132zM442 221q0 -120 -39 -177.5t-120 -57.5q-82 0 -122 58t-40 177v649q0 119 39.5 176.5t122.5 57.5q81 0 120 -57.5t39 -176.5v-649z" />
    <glyph glyph-name="j" unicode="j" horiz-adv-x="563" 
d="M96 1376q0 77 55 132t132 55q76 0 130 -55t54 -132q0 -78 -53.5 -132t-130.5 -54q-79 0 -133 54t-54 132zM442 -215q0 -120 -39 -178t-120 -58q-82 0 -122 58t-40 178v1085q0 119 39.5 176.5t122.5 57.5q81 0 120 -57.5t39 -176.5v-1085z" />
    <glyph glyph-name="k" unicode="k" horiz-adv-x="1053" 
d="M434 733l275 285q44 46 84 67t81 21q57 0 96.5 -37t39.5 -88q0 -38 -22 -79t-60 -77l-217 -200l301 -355q33 -39 48 -76.5t15 -78.5q0 -56 -43.5 -94.5t-107.5 -38.5q-47 0 -88.5 24.5t-79.5 75.5l-322 430v-291q0 -120 -40 -179.5t-122 -59.5q-81 0 -121 59.5t-40 179.5
v1106q0 120 39.5 178t121.5 58t122 -59t40 -177v-594z" />
    <glyph glyph-name="l" unicode="l" horiz-adv-x="563" 
d="M121 1327q0 120 40 178t122 58q80 0 119.5 -58.5t39.5 -177.5v-1106q0 -120 -39 -177.5t-120 -57.5q-82 0 -122 58t-40 177v1106z" />
    <glyph glyph-name="m" unicode="m" horiz-adv-x="1798" 
d="M111 221v649q0 120 40 179t121 59q47 0 85.5 -26.5t68.5 -80.5q50 55 113 81t145 26q104 0 184 -38t138 -114q73 81 149 116.5t176 35.5q173 0 269 -111t96 -313v-463q0 -119 -40 -177t-122 -58t-121 57.5t-39 177.5v365q0 127 -35.5 186t-111.5 59q-84 0 -123 -58
t-39 -183v-369q0 -119 -40 -177t-122 -58t-122 58t-40 177v365q0 128 -35 186.5t-110 58.5q-84 0 -123 -58t-39 -183v-369q0 -119 -40 -177t-122 -58t-121.5 58t-39.5 177z" />
    <glyph glyph-name="n" unicode="n" horiz-adv-x="1206" 
d="M111 221v649q0 119 39.5 176.5t121.5 57.5q49 0 87 -25.5t67 -77.5q52 57 120 83t165 26q191 0 292 -109t101 -317v-463q0 -119 -40 -177t-122 -58t-122 58t-40 177v365q0 135 -40.5 192.5t-133.5 57.5q-88 0 -130 -59.5t-42 -186.5v-369q0 -119 -40 -177t-122 -58
t-121.5 58t-39.5 177z" />
    <glyph glyph-name="o" unicode="o" horiz-adv-x="1188" 
d="M381 549q0 -124 59 -199.5t154 -75.5t154 76t59 199q0 119 -60.5 194.5t-152.5 75.5q-94 0 -153.5 -75t-59.5 -195zM47 545q0 252 154.5 414.5t392.5 162.5q239 0 392 -162t153 -415t-153 -415.5t-392 -162.5q-238 0 -392.5 163t-154.5 415z" />
    <glyph glyph-name="p" unicode="p" horiz-adv-x="1233" 
d="M428 541q0 -124 59 -199.5t154 -75.5t154 76t59 199q0 119 -60.5 194.5t-152.5 75.5q-93 0 -153 -75t-60 -195zM434 -215q0 -120 -40 -178t-122 -58t-121.5 58t-39.5 178v1085q0 119 39.5 176.5t121.5 57.5q49 0 87 -25.5t67 -77.5q50 55 117.5 83t148.5 28
q208 0 350 -162t142 -405q0 -242 -145.5 -411t-350.5 -169q-73 0 -135.5 23.5t-118.5 70.5v-274z" />
    <glyph glyph-name="q" unicode="q" horiz-adv-x="1233" 
d="M803 541q0 121 -59 195.5t-152 74.5t-153 -75.5t-60 -194.5q0 -123 59 -199t154 -76t153 75t58 200zM799 -215v274q-55 -47 -118.5 -70.5t-137.5 -23.5q-205 0 -350.5 169t-145.5 411t142.5 404.5t351.5 162.5q81 0 148.5 -28t117.5 -83q29 52 67.5 77.5t86.5 25.5
q81 0 120 -57t39 -177v-1085q0 -119 -39.5 -177.5t-119.5 -58.5q-83 0 -122.5 58t-39.5 178z" />
    <glyph glyph-name="r" unicode="r" horiz-adv-x="778" 
d="M111 221v649q0 119 39.5 176.5t121.5 57.5q49 0 87 -25.5t67 -77.5q50 54 106 81.5t113 27.5q67 0 115.5 -47.5t48.5 -112.5q0 -97 -178 -162q-64 -23 -96 -38q-61 -29 -81 -64.5t-20 -128.5v-336q0 -119 -40 -177t-122 -58t-121.5 58t-39.5 177z" />
    <glyph glyph-name="s" unicode="s" horiz-adv-x="891" 
d="M420 -31q-173 0 -286.5 69t-113.5 171q0 61 36 103t87 42t150 -47t149 -47q40 0 65 19t25 47q0 48 -155 110l-21 8q-177 74 -242 146.5t-65 183.5q0 149 114.5 248.5t289.5 99.5q158 0 268 -67t110 -158q0 -57 -38.5 -96t-94.5 -39q-37 0 -125.5 39t-134.5 39
q-33 0 -53 -15.5t-20 -40.5q0 -45 128 -94q60 -23 95 -39q145 -65 206.5 -137.5t61.5 -175.5q0 -158 -123.5 -263.5t-312.5 -105.5z" />
    <glyph glyph-name="t" unicode="t" horiz-adv-x="682" 
d="M176 793h-12q-85 0 -133.5 37.5t-48.5 101.5q0 66 48.5 102t145.5 42v141q0 119 40 177t122 58q81 0 120.5 -58t39.5 -177v-142h28q96 0 149.5 -38t53.5 -105q0 -69 -51.5 -104t-153.5 -35h-26v-572q0 -120 -39 -177.5t-121 -57.5t-122 58t-40 177v572z" />
    <glyph glyph-name="u" unicode="u" horiz-adv-x="1186" 
d="M104 440v430q0 119 40 176.5t122 57.5q81 0 120.5 -57.5t39.5 -176.5v-364q0 -129 39 -182.5t127 -53.5t127 53.5t39 182.5v364q0 119 39.5 176.5t122.5 57.5q81 0 120 -57t39 -177v-430q0 -230 -125 -351.5t-362 -121.5t-362.5 121.5t-125.5 351.5z" />
    <glyph glyph-name="v" unicode="v" horiz-adv-x="948" 
d="M291 141l-281 715q-9 25 -13.5 47t-4.5 41q0 68 44.5 114t110.5 46q61 0 100 -37t66 -121l176 -561l175 582q20 66 58 99.5t93 33.5q68 0 110 -43.5t42 -114.5q0 -23 -6 -49t-19 -57l-272 -705q-35 -90 -76 -124t-109 -34q-70 0 -112.5 34.5t-81.5 133.5z" />
    <glyph glyph-name="w" unicode="w" horiz-adv-x="1550" 
d="M1251 967q19 64 58 98.5t94 34.5q68 0 109.5 -43.5t41.5 -114.5q0 -19 -5 -42t-19 -64l-248 -705q-31 -86 -73.5 -122t-110.5 -36q-73 0 -123 43t-72 125l-133 514l-125 -524q-18 -74 -66.5 -116t-117.5 -42q-74 0 -117.5 37.5t-77.5 130.5l-256 716q-9 26 -13.5 47
t-4.5 40q0 68 44.5 114t110.5 46q62 0 102.5 -39t63.5 -119l170 -590l138 592q16 71 55 108.5t94 37.5q62 0 104 -38.5t60 -111.5l147 -579z" />
    <glyph glyph-name="x" unicode="x" horiz-adv-x="1010" 
d="M514 344l-229 -274q-37 -45 -69.5 -64.5t-70.5 -19.5q-63 0 -109 47t-46 112q0 37 12.5 66t54.5 76l269 295l-226 229q-29 31 -45 65t-16 66q0 64 45.5 113t105.5 49q38 0 71 -16.5t63 -51.5l196 -227l180 221q28 34 64.5 55t66.5 21q68 0 117 -47.5t49 -112.5
q0 -30 -18 -65t-53 -74l-213 -227l252 -285q46 -51 60.5 -85t14.5 -75q0 -61 -43.5 -105t-103.5 -44q-41 0 -74.5 19t-73.5 65z" />
    <glyph glyph-name="y" unicode="y" horiz-adv-x="985" 
d="M702 975q25 67 59 98t85 31q72 0 115 -41.5t43 -112.5q0 -23 -7 -51t-20 -61l-492 -1168q-31 -74 -63 -102.5t-78 -28.5q-74 0 -117 42t-43 114q0 27 7 55t20 55l133 289l-326 760q-8 18 -12 39.5t-4 50.5q0 68 45 114t111 46q58 0 94.5 -33t69.5 -123l182 -487z" />
    <glyph glyph-name="z" unicode="z" horiz-adv-x="915" 
d="M748 299q94 0 148 -40.5t54 -111.5q0 -72 -52 -109.5t-153 -37.5h-587q-97 0 -133.5 23t-36.5 77q0 30 12.5 61.5t36.5 61.5l442 574h-278q-95 0 -149 39t-54 108q0 71 52 108.5t153 37.5h518q123 0 163 -22t40 -77q0 -29 -16 -63.5t-50 -77.5l-430 -551h320z" />
    <glyph glyph-name="braceleft" unicode="{" 
d="M883 1477v-209q-9 0 -25 1t-22 1q-101 0 -136.5 -38.5t-35.5 -162.5v-240q0 -148 -45 -210t-162 -89q117 -27 162 -88t45 -209v-241q0 -123 35 -161t137 -38q6 0 22 1t25 1v-209q-14 0 -39 -1t-37 -1q-100 0 -167 12t-114 37q-57 34 -80.5 91.5t-23.5 199.5v252
q0 137 -51 194.5t-172 57.5q-6 0 -20 -1t-21 -1v209q7 0 21 -1t20 -1q120 0 171.5 58t51.5 196v250q0 143 23.5 201t80.5 92q47 25 114 37t167 12q12 0 37 -1t39 -1z" />
    <glyph glyph-name="bar" unicode="|" 
d="M410 1565h206v-2048h-206v2048z" />
    <glyph glyph-name="braceright" unicode="}" 
d="M143 1477h68q110 0 177 -12t112 -38q57 -32 80.5 -91.5t23.5 -198.5v-252q0 -137 51 -194.5t172 -57.5q6 0 20 1t21 1v-209h-37q-125 0 -176 -56t-51 -194v-252q0 -143 -23.5 -201t-80.5 -90q-47 -25 -114 -37t-167 -12q-12 0 -37 1t-39 1v209q9 0 25 -1t22 -1
q101 0 136.5 38.5t35.5 160.5v239q0 150 45 211.5t162 87.5q-117 27 -162 89t-45 210v242q0 122 -35.5 160.5t-136.5 38.5q-6 0 -22 -1t-25 -1v209z" />
    <glyph glyph-name="asciitilde" unicode="~" horiz-adv-x="1706" 
d="M1530 803v-221q-104 -71 -196.5 -104.5t-182.5 -33.5q-46 0 -92 8t-92 23q-24 8 -71 25q-219 75 -333 75q-85 0 -177.5 -37.5t-207.5 -119.5v221q107 72 204 107.5t183 35.5q117 0 291 -58l4 -1l55 -19q155 -55 240 -55t175 37t200 117z" />
    <glyph glyph-name="Adieresis" unicode="&#xc4;" horiz-adv-x="1280" 
d="M367 274l-50 -147q-24 -73 -64.5 -111.5t-94.5 -38.5q-69 0 -113.5 45.5t-44.5 114.5q0 28 4 52t12 44l379 1029q41 111 102.5 163t151.5 52q85 0 147.5 -49.5t96.5 -143.5l369 -1046q11 -33 16.5 -59t5.5 -46q0 -69 -46 -112.5t-118 -43.5q-64 0 -106.5 40t-67.5 122
l-41 135h-538zM461 580h348l-168 540zM608 1747q0 -76 -38.5 -120t-104.5 -44t-104.5 44.5t-38.5 119.5q0 76 38.5 121t104.5 45t104.5 -44.5t38.5 -121.5zM960 1747q0 -76 -38 -120t-105 -44q-66 0 -104.5 44.5t-38.5 119.5q0 76 39 121t104 45q66 0 104.5 -44.5
t38.5 -121.5z" />
    <glyph glyph-name="Aring" unicode="&#xc5;" horiz-adv-x="1280" 
d="M567 1741q0 -34 23.5 -58t56.5 -24q34 0 58 24t24 58q0 33 -24 56.5t-58 23.5t-57 -23t-23 -57zM432 1741q0 89 63.5 153t151.5 64q89 0 153 -64t64 -153t-64 -153t-153 -64t-152 63.5t-63 153.5zM367 274l-50 -147q-24 -73 -64.5 -111.5t-94.5 -38.5q-69 0 -113.5 45.5
t-44.5 114.5q0 28 4 52t12 44l379 1029q41 111 102.5 163t151.5 52q85 0 147.5 -49.5t96.5 -143.5l369 -1046q11 -33 16.5 -59t5.5 -46q0 -69 -46 -112.5t-118 -43.5q-64 0 -106.5 40t-67.5 122l-41 135h-538zM461 580h348l-168 540z" />
    <glyph glyph-name="Ccedilla" unicode="&#xc7;" horiz-adv-x="1233" 
d="M770 -43q-321 0 -517 211.5t-196 558.5q0 339 203 554.5t514 215.5q183 0 309.5 -70t126.5 -163q0 -60 -42 -105t-99 -45q-32 0 -129.5 28.5t-163.5 28.5q-163 0 -260.5 -122.5t-97.5 -329.5q0 -203 99.5 -321.5t268.5 -118.5q78 0 178 37.5t132 37.5q51 0 92 -44
t41 -101q0 -103 -132.5 -177.5t-326.5 -74.5zM754 49q111 0 181 -61.5t70 -149.5q0 -106 -101 -172.5t-265 -66.5q-126 0 -198 41.5t-72 113.5q0 45 31.5 70.5t86.5 25.5q23 0 66.5 -5t64.5 -5q45 0 70 17t25 47q0 27 -38 62.5t-38 51.5q0 17 25.5 24t91.5 7z" />
    <glyph glyph-name="Eacute" unicode="&#xc9;" horiz-adv-x="1034" 
d="M731 1456q118 0 177 -38.5t59 -117.5q0 -77 -58.5 -115t-177.5 -38h-270v-260h233q119 0 177.5 -38t58.5 -116t-58.5 -115.5t-177.5 -37.5h-233v-273h280q120 0 178 -38t58 -115q0 -78 -58 -116t-178 -38h-387q-129 0 -177 44t-48 165v1014q0 133 51 183t178 50h373z
M573 1616q-29 -32 -56 -47.5t-54 -15.5q-50 0 -80.5 31t-30.5 81q0 22 9 44.5t26 45.5l149 205q23 32 53 49t64 17q55 0 92 -36t37 -87q0 -28 -13 -56t-40 -59z" />
    <glyph glyph-name="Ntilde" unicode="&#xd1;" horiz-adv-x="1532" 
d="M461 217q0 -119 -41 -177t-125 -58t-125 58t-41 177v1034q0 112 38 167t116 55q50 0 90.5 -24.5t85.5 -82.5l612 -809v682q0 119 41 177.5t125 58.5t125 -58.5t41 -177.5v-1059q0 -106 -37 -156.5t-115 -50.5q-52 0 -97 29t-93 92l-600 793v-670zM708 1639
q-32 0 -71.5 -17.5t-57.5 -17.5q-42 0 -66 28.5t-24 79.5q0 76 49.5 127.5t122.5 51.5q35 0 97 -19.5t92 -19.5q31 0 71 18.5t60 18.5q40 0 65 -30.5t25 -80.5q0 -75 -50 -126.5t-122 -51.5q-35 0 -97 19.5t-94 19.5z" />
    <glyph glyph-name="Odieresis" unicode="&#xd6;" horiz-adv-x="1546" 
d="M418 723q0 -204 97 -326.5t257 -122.5t257 122.5t97 326.5q0 211 -96 335t-258 124t-258 -124t-96 -335zM57 727q0 345 197.5 557.5t517.5 212.5q321 0 519 -213t198 -557q0 -346 -197.5 -558t-519.5 -212t-518.5 212t-196.5 558zM741 1747q0 -76 -38.5 -120t-104.5 -44
t-104.5 44.5t-38.5 119.5q0 76 38.5 121t104.5 45t104.5 -44.5t38.5 -121.5zM1093 1747q0 -76 -38 -120t-105 -44q-66 0 -104.5 44.5t-38.5 119.5q0 76 39 121t104 45q66 0 104.5 -44.5t38.5 -121.5z" />
    <glyph glyph-name="Udieresis" unicode="&#xdc;" horiz-adv-x="1507" 
d="M129 625v614q0 119 41 177.5t125 58.5t125 -58.5t41 -177.5v-577q0 -193 73.5 -290.5t219.5 -97.5q145 0 219 97.5t74 290.5v577q0 119 41 177.5t124 58.5q84 0 125 -58.5t41 -177.5v-614q0 -317 -165 -492.5t-459 -175.5q-295 0 -460 175.5t-165 492.5zM721 1747
q0 -76 -38.5 -120t-104.5 -44t-104.5 44.5t-38.5 119.5q0 76 38.5 121t104.5 45t104.5 -44.5t38.5 -121.5zM1073 1747q0 -76 -38 -120t-105 -44q-66 0 -104.5 44.5t-38.5 119.5q0 76 39 121t104 45q66 0 104.5 -44.5t38.5 -121.5z" />
    <glyph glyph-name="aacute" unicode="&#xe1;" horiz-adv-x="1233" 
d="M807 98q-49 -60 -118.5 -91.5t-151.5 -31.5q-207 0 -348.5 163t-141.5 407q0 241 146 406t356 165q82 0 145.5 -28t112.5 -87q28 51 67 77t87 26q81 0 120 -57t39 -177v-649q0 -119 -39.5 -177t-119.5 -58q-54 0 -91 27t-63 85zM381 549q0 -119 58 -191.5t151 -72.5
q91 0 149 73.5t58 190.5q0 114 -58.5 186t-148.5 72q-92 0 -150.5 -71.5t-58.5 -186.5zM671 1245q-29 -32 -56 -47.5t-54 -15.5q-50 0 -80.5 31t-30.5 81q0 22 9 44.5t26 45.5l149 205q23 32 53 49t64 17q55 0 92 -36t37 -87q0 -28 -13 -56t-40 -59z" />
    <glyph glyph-name="agrave" unicode="&#xe0;" horiz-adv-x="1233" 
d="M807 98q-49 -60 -118.5 -91.5t-151.5 -31.5q-207 0 -348.5 163t-141.5 407q0 241 146 406t356 165q82 0 145.5 -28t112.5 -87q28 51 67 77t87 26q81 0 120 -57t39 -177v-649q0 -119 -39.5 -177t-119.5 -58q-54 0 -91 27t-63 85zM381 549q0 -119 58 -191.5t151 -72.5
q91 0 149 73.5t58 190.5q0 114 -58.5 186t-148.5 72q-92 0 -150.5 -71.5t-58.5 -186.5zM555 1245l-156 172q-26 29 -39.5 57.5t-13.5 53.5q0 55 36.5 91t92.5 36q34 0 64 -17t52 -49l150 -205q17 -23 26 -45.5t9 -44.5q0 -50 -30.5 -81t-80.5 -31q-27 0 -54 15.5t-56 47.5z
" />
    <glyph glyph-name="acircumflex" unicode="&#xe2;" horiz-adv-x="1233" 
d="M807 98q-49 -60 -118.5 -91.5t-151.5 -31.5q-207 0 -348.5 163t-141.5 407q0 241 146 406t356 165q82 0 145.5 -28t112.5 -87q28 51 67 77t87 26q81 0 120 -57t39 -177v-649q0 -119 -39.5 -177t-119.5 -58q-54 0 -91 27t-63 85zM381 549q0 -119 58 -191.5t151 -72.5
q91 0 149 73.5t58 190.5q0 114 -58.5 186t-148.5 72q-92 0 -150.5 -71.5t-58.5 -186.5zM616 1337l-178 -108q-26 -15 -50 -23t-44 -8q-43 0 -70 29t-27 76q0 33 13.5 58t48.5 52l223 174q20 16 42 24.5t42 8.5t42 -8.5t42 -24.5l223 -174q34 -27 48 -52.5t14 -57.5
q0 -47 -27 -76t-70 -29q-20 0 -44 8t-50 23z" />
    <glyph glyph-name="adieresis" unicode="&#xe4;" horiz-adv-x="1233" 
d="M807 98q-49 -60 -118.5 -91.5t-151.5 -31.5q-207 0 -348.5 163t-141.5 407q0 241 146 406t356 165q82 0 145.5 -28t112.5 -87q28 51 67 77t87 26q81 0 120 -57t39 -177v-649q0 -119 -39.5 -177t-119.5 -58q-54 0 -91 27t-63 85zM381 549q0 -119 58 -191.5t151 -72.5
q91 0 149 73.5t58 190.5q0 114 -58.5 186t-148.5 72q-92 0 -150.5 -71.5t-58.5 -186.5zM583 1376q0 -76 -38.5 -120t-104.5 -44t-104.5 44.5t-38.5 119.5q0 76 38.5 121t104.5 45t104.5 -44.5t38.5 -121.5zM935 1376q0 -76 -38 -120t-105 -44q-66 0 -104.5 44.5t-38.5 119.5
q0 76 39 121t104 45q66 0 104.5 -44.5t38.5 -121.5z" />
    <glyph glyph-name="atilde" unicode="&#xe3;" horiz-adv-x="1233" 
d="M807 98q-49 -60 -118.5 -91.5t-151.5 -31.5q-207 0 -348.5 163t-141.5 407q0 241 146 406t356 165q82 0 145.5 -28t112.5 -87q28 51 67 77t87 26q81 0 120 -57t39 -177v-649q0 -119 -39.5 -177t-119.5 -58q-54 0 -91 27t-63 85zM381 549q0 -119 58 -191.5t151 -72.5
q91 0 149 73.5t58 190.5q0 114 -58.5 186t-148.5 72q-92 0 -150.5 -71.5t-58.5 -186.5zM544 1268q-32 0 -71.5 -17.5t-57.5 -17.5q-42 0 -66 28.5t-24 79.5q0 76 49.5 127.5t122.5 51.5q35 0 97 -19.5t92 -19.5q31 0 71 18.5t60 18.5q40 0 65 -30.5t25 -80.5
q0 -75 -50 -126.5t-122 -51.5q-35 0 -97 19.5t-94 19.5z" />
    <glyph glyph-name="aring" unicode="&#xe5;" horiz-adv-x="1233" 
d="M547 1380q0 -34 23 -58t57 -24q33 0 57.5 24.5t24.5 57.5q0 34 -24 57t-58 23t-57 -23t-23 -57zM412 1380q0 89 63.5 153t151.5 64q89 0 153 -64t64 -153t-64 -153t-153 -64t-152 64t-63 153zM807 98q-49 -60 -118.5 -91.5t-151.5 -31.5q-207 0 -348.5 163t-141.5 407
q0 241 146 406t356 165q82 0 145.5 -28t112.5 -87q28 51 67 77t87 26q81 0 120 -57t39 -177v-649q0 -119 -39.5 -177t-119.5 -58q-54 0 -91 27t-63 85zM381 549q0 -119 58 -191.5t151 -72.5q91 0 149 73.5t58 190.5q0 114 -58.5 186t-148.5 72q-92 0 -150.5 -71.5
t-58.5 -186.5z" />
    <glyph glyph-name="ccedilla" unicode="&#xe7;" horiz-adv-x="973" 
d="M47 545q0 255 153 414t402 159q161 0 261 -57.5t100 -149.5q0 -59 -38 -98t-96 -39q-25 0 -101 24.5t-126 24.5q-100 0 -161.5 -75t-61.5 -197q0 -127 63 -199.5t172 -72.5q53 0 126.5 24.5t95.5 24.5q53 0 89 -40.5t36 -99.5q0 -89 -109 -152t-270 -63
q-238 0 -386.5 158.5t-148.5 413.5zM568 49q111 0 181 -61.5t70 -149.5q0 -106 -101 -172.5t-265 -66.5q-126 0 -198 41.5t-72 113.5q0 45 31.5 70.5t86.5 25.5q23 0 66.5 -5t64.5 -5q45 0 70 17t25 47q0 27 -38 62.5t-38 51.5q0 17 25.5 24t91.5 7z" />
    <glyph glyph-name="eacute" unicode="&#xe9;" horiz-adv-x="1147" 
d="M375 666h426q-6 82 -66 137t-143 55q-82 0 -141 -52t-76 -140zM379 455q11 -91 75 -142t169 -51q91 0 202.5 52.5t137.5 52.5q57 0 93 -35t36 -90q0 -104 -145 -187.5t-341 -83.5q-239 0 -399 163t-160 409q0 247 155.5 412t387.5 165q224 0 375 -155t151 -379
q0 -73 -33 -102t-127 -29h-577zM661 1245q-29 -32 -56 -47.5t-54 -15.5q-50 0 -80.5 31t-30.5 81q0 22 9 44.5t26 45.5l149 205q23 32 53 49t64 17q55 0 92 -36t37 -87q0 -28 -13 -56t-40 -59z" />
    <glyph glyph-name="egrave" unicode="&#xe8;" horiz-adv-x="1147" 
d="M375 666h426q-6 82 -66 137t-143 55q-82 0 -141 -52t-76 -140zM379 455q11 -91 75 -142t169 -51q91 0 202.5 52.5t137.5 52.5q57 0 93 -35t36 -90q0 -104 -145 -187.5t-341 -83.5q-239 0 -399 163t-160 409q0 247 155.5 412t387.5 165q224 0 375 -155t151 -379
q0 -73 -33 -102t-127 -29h-577zM545 1245l-156 172q-26 29 -39.5 57.5t-13.5 53.5q0 55 36.5 91t92.5 36q34 0 64 -17t52 -49l150 -205q17 -23 26 -45.5t9 -44.5q0 -50 -30.5 -81t-80.5 -31q-27 0 -54 15.5t-56 47.5z" />
    <glyph glyph-name="ecircumflex" unicode="&#xea;" horiz-adv-x="1147" 
d="M375 666h426q-6 82 -66 137t-143 55q-82 0 -141 -52t-76 -140zM379 455q11 -91 75 -142t169 -51q91 0 202.5 52.5t137.5 52.5q57 0 93 -35t36 -90q0 -104 -145 -187.5t-341 -83.5q-239 0 -399 163t-160 409q0 247 155.5 412t387.5 165q224 0 375 -155t151 -379
q0 -73 -33 -102t-127 -29h-577zM606 1337l-178 -108q-26 -15 -50 -23t-44 -8q-43 0 -70 29t-27 76q0 33 13.5 58t48.5 52l223 174q20 16 42 24.5t42 8.5t42 -8.5t42 -24.5l223 -174q34 -27 48 -52.5t14 -57.5q0 -47 -27 -76t-70 -29q-20 0 -44 8t-50 23z" />
    <glyph glyph-name="edieresis" unicode="&#xeb;" horiz-adv-x="1147" 
d="M375 666h426q-6 82 -66 137t-143 55q-82 0 -141 -52t-76 -140zM379 455q11 -91 75 -142t169 -51q91 0 202.5 52.5t137.5 52.5q57 0 93 -35t36 -90q0 -104 -145 -187.5t-341 -83.5q-239 0 -399 163t-160 409q0 247 155.5 412t387.5 165q224 0 375 -155t151 -379
q0 -73 -33 -102t-127 -29h-577zM573 1376q0 -76 -38.5 -120t-104.5 -44t-104.5 44.5t-38.5 119.5q0 76 38.5 121t104.5 45t104.5 -44.5t38.5 -121.5zM925 1376q0 -76 -38 -120t-105 -44q-66 0 -104.5 44.5t-38.5 119.5q0 76 39 121t104 45q66 0 104.5 -44.5t38.5 -121.5z
" />
    <glyph glyph-name="iacute" unicode="&#xed;" horiz-adv-x="563" 
d="M442 221q0 -120 -39 -177.5t-120 -57.5q-82 0 -122 58t-40 177v649q0 119 39.5 176.5t122.5 57.5q81 0 120 -57.5t39 -176.5v-649zM338 1245q-29 -32 -56 -47.5t-54 -15.5q-50 0 -80.5 31t-30.5 81q0 22 9 44.5t26 45.5l149 205q23 32 53 49t64 17q55 0 92 -36t37 -87
q0 -28 -13 -56t-40 -59z" />
    <glyph glyph-name="igrave" unicode="&#xec;" horiz-adv-x="563" 
d="M442 221q0 -120 -39 -177.5t-120 -57.5q-82 0 -122 58t-40 177v649q0 119 39.5 176.5t122.5 57.5q81 0 120 -57.5t39 -176.5v-649zM222 1245l-156 172q-26 29 -39.5 57.5t-13.5 53.5q0 55 36.5 91t92.5 36q34 0 64 -17t52 -49l150 -205q17 -23 26 -45.5t9 -44.5
q0 -50 -30.5 -81t-80.5 -31q-27 0 -54 15.5t-56 47.5z" />
    <glyph glyph-name="icircumflex" unicode="&#xee;" horiz-adv-x="563" 
d="M442 221q0 -120 -39 -177.5t-120 -57.5q-82 0 -122 58t-40 177v649q0 119 39.5 176.5t122.5 57.5q81 0 120 -57.5t39 -176.5v-649zM283 1337l-178 -108q-26 -15 -50 -23t-44 -8q-43 0 -70 29t-27 76q0 33 13.5 58t48.5 52l223 174q20 16 42 24.5t42 8.5t42 -8.5t42 -24.5
l223 -174q34 -27 48 -52.5t14 -57.5q0 -47 -27 -76t-70 -29q-20 0 -44 8t-50 23z" />
    <glyph glyph-name="idieresis" unicode="&#xef;" horiz-adv-x="563" 
d="M442 221q0 -120 -39 -177.5t-120 -57.5q-82 0 -122 58t-40 177v649q0 119 39.5 176.5t122.5 57.5q81 0 120 -57.5t39 -176.5v-649zM250 1376q0 -76 -38.5 -120t-104.5 -44t-104.5 44.5t-38.5 119.5q0 76 38.5 121t104.5 45t104.5 -44.5t38.5 -121.5zM602 1376
q0 -76 -38 -120t-105 -44q-66 0 -104.5 44.5t-38.5 119.5q0 76 39 121t104 45q66 0 104.5 -44.5t38.5 -121.5z" />
    <glyph glyph-name="ntilde" unicode="&#xf1;" horiz-adv-x="1206" 
d="M111 221v649q0 119 39.5 176.5t121.5 57.5q49 0 87 -25.5t67 -77.5q52 57 120 83t165 26q191 0 292 -109t101 -317v-463q0 -119 -40 -177t-122 -58t-122 58t-40 177v365q0 135 -40.5 192.5t-133.5 57.5q-88 0 -130 -59.5t-42 -186.5v-369q0 -119 -40 -177t-122 -58
t-121.5 58t-39.5 177zM553 1268q-32 0 -71.5 -17.5t-57.5 -17.5q-42 0 -66 28.5t-24 79.5q0 76 49.5 127.5t122.5 51.5q35 0 97 -19.5t92 -19.5q31 0 71 18.5t60 18.5q40 0 65 -30.5t25 -80.5q0 -75 -50 -126.5t-122 -51.5q-35 0 -97 19.5t-94 19.5z" />
    <glyph glyph-name="oacute" unicode="&#xf3;" horiz-adv-x="1188" 
d="M381 549q0 -124 59 -199.5t154 -75.5t154 76t59 199q0 119 -60.5 194.5t-152.5 75.5q-94 0 -153.5 -75t-59.5 -195zM47 545q0 252 154.5 414.5t392.5 162.5q239 0 392 -162t153 -415t-153 -415.5t-392 -162.5q-238 0 -392.5 163t-154.5 415zM649 1245q-29 -32 -56 -47.5
t-54 -15.5q-50 0 -80.5 31t-30.5 81q0 22 9 44.5t26 45.5l149 205q23 32 53 49t64 17q55 0 92 -36t37 -87q0 -28 -13 -56t-40 -59z" />
    <glyph glyph-name="ograve" unicode="&#xf2;" horiz-adv-x="1188" 
d="M381 549q0 -124 59 -199.5t154 -75.5t154 76t59 199q0 119 -60.5 194.5t-152.5 75.5q-94 0 -153.5 -75t-59.5 -195zM47 545q0 252 154.5 414.5t392.5 162.5q239 0 392 -162t153 -415t-153 -415.5t-392 -162.5q-238 0 -392.5 163t-154.5 415zM533 1245l-156 172
q-26 29 -39.5 57.5t-13.5 53.5q0 55 36.5 91t92.5 36q34 0 64 -17t52 -49l150 -205q17 -23 26 -45.5t9 -44.5q0 -50 -30.5 -81t-80.5 -31q-27 0 -54 15.5t-56 47.5z" />
    <glyph glyph-name="ocircumflex" unicode="&#xf4;" horiz-adv-x="1188" 
d="M381 549q0 -124 59 -199.5t154 -75.5t154 76t59 199q0 119 -60.5 194.5t-152.5 75.5q-94 0 -153.5 -75t-59.5 -195zM47 545q0 252 154.5 414.5t392.5 162.5q239 0 392 -162t153 -415t-153 -415.5t-392 -162.5q-238 0 -392.5 163t-154.5 415zM594 1337l-178 -108
q-26 -15 -50 -23t-44 -8q-43 0 -70 29t-27 76q0 33 13.5 58t48.5 52l223 174q20 16 42 24.5t42 8.5t42 -8.5t42 -24.5l223 -174q34 -27 48 -52.5t14 -57.5q0 -47 -27 -76t-70 -29q-20 0 -44 8t-50 23z" />
    <glyph glyph-name="odieresis" unicode="&#xf6;" horiz-adv-x="1188" 
d="M381 549q0 -124 59 -199.5t154 -75.5t154 76t59 199q0 119 -60.5 194.5t-152.5 75.5q-94 0 -153.5 -75t-59.5 -195zM47 545q0 252 154.5 414.5t392.5 162.5q239 0 392 -162t153 -415t-153 -415.5t-392 -162.5q-238 0 -392.5 163t-154.5 415zM561 1376q0 -76 -38.5 -120
t-104.5 -44t-104.5 44.5t-38.5 119.5q0 76 38.5 121t104.5 45t104.5 -44.5t38.5 -121.5zM913 1376q0 -76 -38 -120t-105 -44q-66 0 -104.5 44.5t-38.5 119.5q0 76 39 121t104 45q66 0 104.5 -44.5t38.5 -121.5z" />
    <glyph glyph-name="otilde" unicode="&#xf5;" horiz-adv-x="1188" 
d="M381 549q0 -124 59 -199.5t154 -75.5t154 76t59 199q0 119 -60.5 194.5t-152.5 75.5q-94 0 -153.5 -75t-59.5 -195zM47 545q0 252 154.5 414.5t392.5 162.5q239 0 392 -162t153 -415t-153 -415.5t-392 -162.5q-238 0 -392.5 163t-154.5 415zM522 1268q-32 0 -71.5 -17.5
t-57.5 -17.5q-42 0 -66 28.5t-24 79.5q0 76 49.5 127.5t122.5 51.5q35 0 97 -19.5t92 -19.5q31 0 71 18.5t60 18.5q40 0 65 -30.5t25 -80.5q0 -75 -50 -126.5t-122 -51.5q-35 0 -97 19.5t-94 19.5z" />
    <glyph glyph-name="uacute" unicode="&#xfa;" horiz-adv-x="1186" 
d="M104 440v430q0 119 40 176.5t122 57.5q81 0 120.5 -57.5t39.5 -176.5v-364q0 -129 39 -182.5t127 -53.5t127 53.5t39 182.5v364q0 119 39.5 176.5t122.5 57.5q81 0 120 -57t39 -177v-430q0 -230 -125 -351.5t-362 -121.5t-362.5 121.5t-125.5 351.5zM649 1245
q-29 -32 -56 -47.5t-54 -15.5q-50 0 -80.5 31t-30.5 81q0 22 9 44.5t26 45.5l149 205q23 32 53 49t64 17q55 0 92 -36t37 -87q0 -28 -13 -56t-40 -59z" />
    <glyph glyph-name="ugrave" unicode="&#xf9;" horiz-adv-x="1186" 
d="M104 440v430q0 119 40 176.5t122 57.5q81 0 120.5 -57.5t39.5 -176.5v-364q0 -129 39 -182.5t127 -53.5t127 53.5t39 182.5v364q0 119 39.5 176.5t122.5 57.5q81 0 120 -57t39 -177v-430q0 -230 -125 -351.5t-362 -121.5t-362.5 121.5t-125.5 351.5zM533 1245l-156 172
q-26 29 -39.5 57.5t-13.5 53.5q0 55 36.5 91t92.5 36q34 0 64 -17t52 -49l150 -205q17 -23 26 -45.5t9 -44.5q0 -50 -30.5 -81t-80.5 -31q-27 0 -54 15.5t-56 47.5z" />
    <glyph glyph-name="ucircumflex" unicode="&#xfb;" horiz-adv-x="1186" 
d="M104 440v430q0 119 40 176.5t122 57.5q81 0 120.5 -57.5t39.5 -176.5v-364q0 -129 39 -182.5t127 -53.5t127 53.5t39 182.5v364q0 119 39.5 176.5t122.5 57.5q81 0 120 -57t39 -177v-430q0 -230 -125 -351.5t-362 -121.5t-362.5 121.5t-125.5 351.5zM594 1337l-178 -108
q-26 -15 -50 -23t-44 -8q-43 0 -70 29t-27 76q0 33 13.5 58t48.5 52l223 174q20 16 42 24.5t42 8.5t42 -8.5t42 -24.5l223 -174q34 -27 48 -52.5t14 -57.5q0 -47 -27 -76t-70 -29q-20 0 -44 8t-50 23z" />
    <glyph glyph-name="udieresis" unicode="&#xfc;" horiz-adv-x="1186" 
d="M104 440v430q0 119 40 176.5t122 57.5q81 0 120.5 -57.5t39.5 -176.5v-364q0 -129 39 -182.5t127 -53.5t127 53.5t39 182.5v364q0 119 39.5 176.5t122.5 57.5q81 0 120 -57t39 -177v-430q0 -230 -125 -351.5t-362 -121.5t-362.5 121.5t-125.5 351.5zM561 1376
q0 -76 -38.5 -120t-104.5 -44t-104.5 44.5t-38.5 119.5q0 76 38.5 121t104.5 45t104.5 -44.5t38.5 -121.5zM913 1376q0 -76 -38 -120t-105 -44q-66 0 -104.5 44.5t-38.5 119.5q0 76 39 121t104 45q66 0 104.5 -44.5t38.5 -121.5z" />
    <glyph glyph-name="dagger" unicode="&#x2020;" 
d="M651 1055h174q75 0 117.5 -32.5t42.5 -88.5q0 -57 -41 -87t-121 -30h-172v-969q0 -104 -34 -154t-105 -50t-105 50.5t-34 153.5v969h-174q-76 0 -118 31.5t-42 87.5q0 57 41 87t121 30h172v241q0 104 34 153.5t105 49.5q70 0 104.5 -50.5t34.5 -152.5v-239z" />
    <glyph glyph-name="degree" unicode="&#xb0;" horiz-adv-x="674" 
d="M338 1335q-73 0 -124.5 -51t-51.5 -123q0 -74 51 -125t125 -51q72 0 123 52t51 124t-51 123t-123 51zM338 1464q126 0 214.5 -89.5t88.5 -215.5q0 -125 -89 -214t-216 -89q-126 0 -213.5 88t-87.5 215t88.5 216t214.5 89z" />
    <glyph glyph-name="cent" unicode="&#xa2;" horiz-adv-x="973" 
d="M506 6q-208 23 -333.5 177t-125.5 386q0 227 127 385.5t332 186.5v88q0 58 20 85t62 27q43 0 61.5 -25t18.5 -87v-86q143 -17 219 -69.5t76 -135.5q0 -59 -38 -98t-96 -39q-25 0 -101 24.5t-126 24.5q-100 0 -161.5 -75t-61.5 -197q0 -127 63 -200t172 -73
q53 0 126.5 24.5t95.5 24.5q54 0 89.5 -39.5t35.5 -99.5q0 -75 -79 -133t-214 -82v-209q0 -58 -19.5 -85.5t-60.5 -27.5q-45 0 -63.5 25t-18.5 86v217z" />
    <glyph glyph-name="sterling" unicode="&#xa3;" horiz-adv-x="1266" 
d="M1057 307q119 0 177 -38t58 -115q0 -78 -58 -116t-177 -38h-576q-184 0 -246.5 37t-62.5 127q0 72 79 179l36 50q24 36 35.5 78t11.5 94v13h-60q-119 0 -177 37.5t-58 115.5q0 74 55.5 114t157.5 40h18q-17 52 -25.5 99t-8.5 89q0 183 143.5 304.5t363.5 121.5
q228 0 386.5 -114t158.5 -261q0 -65 -42 -111t-101 -46q-37 0 -67 17.5t-62 57.5q-77 100 -131 130t-129 30q-78 0 -131.5 -45t-53.5 -108q0 -30 9.5 -71t27.5 -93h117q119 0 177.5 -38t58.5 -116t-58.5 -115.5t-177.5 -37.5h-74v-50q0 -53 -22 -109t-66 -112h494z" />
    <glyph glyph-name="section" unicode="&#xa7;" horiz-adv-x="1071" 
d="M698 358q46 25 68 59t22 81q0 88 -368 258l-31 14q-45 -28 -66.5 -62t-21.5 -77q0 -88 364 -257zM207 903q-52 50 -76.5 105.5t-24.5 124.5q0 162 115.5 263t302.5 101q194 0 319.5 -90t125.5 -219q0 -61 -37.5 -100t-93.5 -39q-39 0 -66 20.5t-61 81.5q-30 52 -76 80.5
t-103 28.5q-60 0 -98.5 -29t-38.5 -74q0 -69 214 -171l69 -34q233 -114 311 -203t78 -214q0 -96 -48.5 -178.5t-135.5 -133.5q53 -53 76.5 -108.5t23.5 -126.5q0 -160 -120 -259.5t-314 -99.5q-191 0 -319 90.5t-128 219.5q0 59 38 99t93 40q39 0 66 -20t63 -83
q31 -53 77.5 -79.5t109.5 -26.5q66 0 104.5 28t38.5 74q0 69 -207 168l-73 35q-234 114 -313 204t-79 216q0 95 50.5 178.5t136.5 130.5z" />
    <glyph glyph-name="bullet" unicode="&#x2022;" horiz-adv-x="1208" 
d="M307 762q0 123 87 209t210 86q122 0 208.5 -86.5t86.5 -208.5t-87.5 -209.5t-209.5 -87.5q-123 0 -209 87t-86 210z" />
    <glyph glyph-name="paragraph" unicode="&#xb6;" 
d="M983 1479v-111h-113v-1368h-151v1368h-158v-1368h-153v784q-167 6 -267 101t-100 245q0 158 107 253.5t284 95.5h551z" />
    <glyph glyph-name="germandbls" unicode="&#xdf;" horiz-adv-x="1194" 
d="M434 221q0 -119 -40 -177t-122 -58t-121.5 58t-39.5 177v823q0 236 133 374t356 138q193 0 318.5 -116.5t125.5 -296.5q0 -84 -32 -152.5t-99 -124.5q116 -50 176 -143.5t60 -224.5q0 -226 -139.5 -375.5t-341.5 -149.5q-74 0 -115 40t-41 112q0 50 24.5 81.5t84.5 55.5
q119 46 160.5 95t41.5 126q0 73 -40.5 118.5t-131.5 74.5q-85 28 -120 66t-35 102q0 51 23 81.5t89 59.5q64 27 92.5 61t28.5 82q0 59 -38 96.5t-99 37.5q-73 0 -115.5 -53.5t-42.5 -145.5v-842z" />
    <glyph glyph-name="registered" unicode="&#xae;" horiz-adv-x="1706" 
d="M745 1034v-239h99q88 0 129 28t41 88q0 63 -44 93t-136 30h-89zM545 1161h323q176 0 264.5 -59.5t88.5 -177.5q0 -82 -48 -140t-133 -79l185 -369h-224l-157 338h-99v-338h-200v825zM854 1356q-127 0 -236 -44.5t-196 -131.5q-91 -91 -140 -206.5t-49 -238.5
q0 -124 46 -235.5t133 -198.5q89 -91 203 -139.5t237 -48.5q120 0 233.5 47t206.5 135q87 84 135 196t48 232q0 133 -44.5 245t-132.5 201q-90 93 -202.5 140t-241.5 47zM852 1479q154 0 290.5 -57.5t243.5 -166.5q103 -104 157 -238t54 -284q0 -152 -56 -287.5t-163 -238.5
q-107 -105 -243.5 -161t-282.5 -56q-149 0 -285 58t-243 167q-104 105 -158.5 238.5t-54.5 279.5q0 102 27 198.5t81 188.5q101 170 267 264.5t366 94.5z" />
    <glyph glyph-name="copyright" unicode="&#xa9;" horiz-adv-x="1706" 
d="M1212 897h-188q-8 70 -53 108.5t-119 38.5q-91 0 -143 -81.5t-52 -227.5q0 -147 52 -224t151 -77q73 0 117 42t53 119l193 1q-8 -139 -109 -223t-260 -84q-186 0 -293.5 118t-107.5 322q0 206 109.5 328.5t293.5 122.5q152 0 250.5 -78t105.5 -205zM854 1356
q-128 0 -239.5 -46t-198.5 -134q-89 -90 -136 -203.5t-47 -237.5q0 -125 47 -237t136 -201q88 -88 201 -135t237 -47t237.5 47t204.5 137q88 86 133.5 197t45.5 239q0 126 -46.5 238.5t-134.5 200.5q-89 89 -201 135.5t-239 46.5zM852 1479q152 0 287.5 -56t242.5 -163
q105 -105 160 -240.5t55 -286.5q0 -152 -54.5 -284t-160.5 -236q-111 -108 -248 -165.5t-282 -57.5q-147 0 -280.5 56.5t-241.5 164.5q-107 106 -163 240.5t-56 281.5q0 149 56 284.5t163 244.5q105 106 238 161.5t284 55.5z" />
    <glyph glyph-name="trademark" unicode="&#x2122;" horiz-adv-x="1706" 
d="M803 1462h196l127 -332l123 332h197v-547h-135v410l-154 -410h-61l-158 410v-410h-135v547zM207 1462h485v-112h-168v-435h-149v435h-168v112z" />
    <glyph glyph-name="acute" unicode="&#xb4;" 
d="M567 1245q-29 -32 -56 -47.5t-54 -15.5q-50 0 -80.5 31t-30.5 81q0 22 9 44.5t26 45.5l149 205q23 32 53 49t64 17q55 0 92 -36t37 -87q0 -28 -13 -56t-40 -59z" />
    <glyph glyph-name="dieresis" unicode="&#xa8;" 
d="M479 1376q0 -76 -38.5 -120t-104.5 -44t-104.5 44.5t-38.5 119.5q0 76 38.5 121t104.5 45t104.5 -44.5t38.5 -121.5zM831 1376q0 -76 -38 -120t-105 -44q-66 0 -104.5 44.5t-38.5 119.5q0 76 39 121t104 45q66 0 104.5 -44.5t38.5 -121.5z" />
    <glyph glyph-name="notequal" unicode="&#x2260;" horiz-adv-x="1706" 
d="M1198 1233l148 -119l-154 -192h260v-191h-389l-191 -239h580v-193h-707l-245 -309l-148 119l154 190h-252v193h377l190 239h-567v191h696z" />
    <glyph glyph-name="AE" unicode="&#xc6;" horiz-adv-x="1720" 
d="M1061 0q-130 0 -178.5 44.5t-48.5 164.5v72h-469l-82 -164q-39 -75 -75.5 -105t-86.5 -30q-66 0 -110 44.5t-44 112.5q0 30 7 58.5t20 50.5l551 985q73 130 138 176.5t173 46.5h561q119 0 177.5 -38.5t58.5 -117.5q0 -77 -58.5 -115t-177.5 -38h-270v-260h235
q119 0 176.5 -38t57.5 -116t-57.5 -115.5t-176.5 -37.5h-235v-273h280q120 0 178 -38t58 -115q0 -78 -58 -116t-178 -38h-366zM836 1186l-314 -606h314v606z" />
    <glyph glyph-name="Oslash" unicode="&#xd8;" horiz-adv-x="1546" 
d="M201 236q-71 98 -107.5 223t-36.5 268q0 345 197.5 557.5t517.5 212.5q131 0 242.5 -36.5t202.5 -108.5l102 114q36 40 59.5 55t46.5 15q41 0 68 -25t27 -63q0 -24 -11.5 -47t-40.5 -55l-116 -134q70 -109 103.5 -227t33.5 -258q0 -345 -198 -557.5t-519 -212.5
q-132 0 -244 35.5t-194 103.5l-113 -125q-40 -45 -62 -58t-46 -13q-39 0 -66 26t-27 66q0 25 12.5 50.5t37.5 51.5zM1096 934l-535 -586q45 -36 99.5 -55t111.5 -19q160 0 257 122.5t97 326.5q0 55 -7.5 107.5t-22.5 103.5zM453 512l534 592q-33 35 -92 56.5t-123 21.5
q-162 0 -258 -124t-96 -335q0 -54 8.5 -106t26.5 -105z" />
    <glyph glyph-name="infinity" unicode="&#x221e;" horiz-adv-x="1706" 
d="M942 561q45 -75 106.5 -113t139.5 -38q94 0 152.5 55.5t58.5 144.5q0 87 -54 143t-135 56q-75 0 -138 -57.5t-130 -190.5zM766 659q-44 75 -105.5 112.5t-140.5 37.5q-94 0 -152.5 -56t-58.5 -145q0 -85 54 -141.5t135 -56.5q75 0 138 58t130 191zM858 457
q-68 -132 -146.5 -195t-174.5 -63q-140 0 -236 117.5t-96 293.5q0 184 85.5 297t223.5 113q92 0 170 -60t164 -198q68 132 148 196t175 64q139 0 235.5 -118.5t96.5 -293.5q0 -183 -86 -296t-223 -113q-93 0 -170.5 58.5t-165.5 197.5z" />
    <glyph glyph-name="plusminus" unicode="&#xb1;" horiz-adv-x="1706" 
d="M254 197h1198v-199h-1198v199zM752 1223h202v-326h498v-199h-498v-325h-202v325h-498v199h498v326z" />
    <glyph glyph-name="lessequal" unicode="&#x2264;" horiz-adv-x="1706" 
d="M258 195h1192v-197h-1192v197zM1448 1241v-209l-834 -264l834 -262v-209l-1190 385v174z" />
    <glyph glyph-name="greaterequal" unicode="&#x2265;" horiz-adv-x="1706" 
d="M258 195h1192v-197h-1192v197zM260 1241l1188 -385v-174l-1188 -385v209l832 262l-832 264v209z" />
    <glyph glyph-name="yen" unicode="&#xa5;" horiz-adv-x="1057" 
d="M799 1352q35 58 76 88t86 30q56 0 97.5 -41t41.5 -96q0 -62 -70 -159l-6 -9l-262 -374h156q55 0 87.5 -20.5t32.5 -53.5q0 -37 -31.5 -57.5t-88.5 -20.5h-230v-428q0 -118 -37 -173.5t-114 -55.5q-78 0 -115 55.5t-37 173.5v428h-229q-55 0 -88 21t-33 55q0 36 31 56
t90 20h153l-260 370l-1 2q-73 101 -73 166q0 56 43.5 100t100.5 44q46 0 88 -31t82 -94l258 -412z" />
    <glyph glyph-name="mu" unicode="&#xb5;" horiz-adv-x="1249" 
d="M205 1092h289l-76 -435q-15 -80 -23 -151.5t-8 -116.5q0 -93 42 -138.5t128 -45.5q100 0 155.5 82t92.5 291l90 514h289l-193 -1092h-268l18 117q-42 -78 -93.5 -114t-121.5 -36q-67 0 -119 29.5t-94 91.5l-90 -526h-286z" />
    <glyph glyph-name="partialdiff" unicode="&#x2202;" horiz-adv-x="1094" 
d="M762 662q19 99 29 188.5t10 155.5q0 100 -26 157.5t-70 57.5t-146 -73t-160 -73q-42 0 -71 30t-29 73q0 64 86.5 118t210.5 54q192 0 309 -161.5t117 -432.5q0 -339 -156.5 -560t-396.5 -221q-171 0 -282 114.5t-111 291.5q0 198 116 329.5t287 131.5q102 0 170 -43.5
t113 -136.5zM700 518q0 116 -38.5 178t-110.5 62q-101 0 -167.5 -134t-66.5 -341q0 -117 38.5 -177.5t111.5 -60.5q101 0 167 133.5t66 339.5z" />
    <glyph glyph-name="summation" unicode="&#x2211;" horiz-adv-x="1470" 
d="M66 1473h1308v-265h-878l620 -645l-622 -690h933v-266h-1386v172l698 772l-673 690v232z" />
    <glyph glyph-name="product" unicode="&#x220f;" horiz-adv-x="1612" 
d="M150 1473h1308v-1866h-344v1577h-620v-1577h-344v1866z" />
    <glyph glyph-name="pi" unicode="&#x3c0;" horiz-adv-x="1319" 
d="M1354 1092l-39 -224h-176l-154 -868h-287l152 868h-238l-151 -868h-287l152 868h-25q-55 0 -84 -31t-39 -99l-213 -1q29 199 123 277t311 78h955z" />
    <glyph glyph-name="integral" unicode="&#x222b;" horiz-adv-x="1186" 
d="M342 -252q102 0 121 639q3 136 6 211q16 508 123 732t328 224q98 0 157.5 -49t59.5 -129q0 -60 -38 -96.5t-100 -36.5q-46 0 -77 24t-41 68q-5 20 -7 54q-3 46 -30 47q-99 0 -119 -633l-6 -178q-11 -296 -31 -444.5t-59 -250.5q-56 -148 -148.5 -225.5t-214.5 -77.5
q-96 0 -156.5 49t-60.5 127q0 62 39 99t105 37q50 0 85 -31.5t35 -71.5q0 -58 6 -73t23 -15z" />
    <glyph glyph-name="ordfeminine" unicode="&#xaa;" horiz-adv-x="926" 
d="M606 770q-36 -42 -88 -64t-115 -22q-155 0 -261.5 113.5t-106.5 283.5q0 169 110 285.5t267 116.5q62 0 109.5 -20t84.5 -62q20 35 49 53.5t66 18.5q60 0 89.5 -40t29.5 -122v-455q0 -84 -29.5 -125t-89.5 -41q-41 0 -69 19.5t-46 60.5zM287 1085q0 -83 43.5 -134.5
t111.5 -51.5q69 0 112.5 51.5t43.5 134.5q0 81 -43.5 131t-112.5 50q-68 0 -111.5 -50t-43.5 -131z" />
    <glyph glyph-name="ordmasculine" unicode="&#xba;" horiz-adv-x="891" 
d="M287 1085q0 -86 44 -139t115 -53q72 0 116 53t44 139q0 83 -45.5 136t-114.5 53q-70 0 -114.5 -52t-44.5 -137zM35 1081q0 177 116 291.5t295 114.5t293.5 -114t114.5 -292q0 -177 -114 -290t-294 -113q-179 0 -295 113.5t-116 289.5z" />
    <glyph glyph-name="Omega" unicode="&#x3a9;" horiz-adv-x="1575" 
d="M1227 256h291v-256h-609v291q126 86 192 217.5t66 296.5q0 203 -101.5 319.5t-279.5 116.5q-177 0 -278.5 -116.5t-101.5 -319.5q0 -164 66 -296.5t192 -217.5v-291h-609v256h291q-126 121 -187 260t-61 303q0 313 188 501.5t500 188.5q313 0 501 -188.5t188 -501.5
q0 -164 -61 -303t-187 -260z" />
    <glyph glyph-name="ae" unicode="&#xe6;" horiz-adv-x="1876" 
d="M807 98q-49 -60 -118.5 -91.5t-151.5 -31.5q-207 0 -348.5 163t-141.5 407q0 241 146 406t356 165q82 0 145.5 -28t112.5 -87q27 49 62 74t77 25q41 0 70.5 -21.5t48.5 -64.5q56 51 125 76.5t153 25.5q204 0 352 -156.5t148 -373.5q0 -73 -33 -102t-127 -29h-575
q11 -90 74.5 -138.5t169.5 -48.5q92 0 202 49.5t136 49.5q58 0 94.5 -35t36.5 -90q0 -100 -137 -183.5t-312 -83.5q-97 0 -173 29.5t-126 85.5q-17 -50 -49.5 -76t-79.5 -26q-44 0 -78 27.5t-59 82.5zM1102 666h426q-6 83 -65 137.5t-142 54.5t-143 -52.5t-76 -139.5z
M369 549q0 -124 63.5 -202.5t161.5 -78.5t161.5 78.5t63.5 202.5q0 121 -63.5 197.5t-161.5 76.5t-161.5 -76t-63.5 -198z" />
    <glyph glyph-name="oslash" unicode="&#xf8;" horiz-adv-x="1188" 
d="M154 190q-53 80 -80 169t-27 186q0 250 154.5 413.5t392.5 163.5q99 0 183 -27t149 -79l92 94q27 27 42.5 35t35.5 8q29 0 50 -21t21 -51q0 -19 -9 -37t-32 -43l-94 -100q50 -64 78.5 -158t28.5 -198q0 -253 -153 -415.5t-392 -162.5q-98 0 -180.5 28t-155.5 85l-90 -98
q-23 -25 -40 -34t-38 -9q-31 0 -51.5 20.5t-20.5 50.5q0 19 9.5 37.5t31.5 42.5zM809 666l-350 -371q31 -22 63.5 -32.5t67.5 -10.5q102 0 167.5 84t65.5 217q0 51 -12 105q-2 6 -2 8zM379 430l344 369q-29 21 -58.5 31t-64.5 10q-102 0 -167.5 -81t-65.5 -210q0 -27 3 -57
t9 -62z" />
    <glyph glyph-name="questiondown" unicode="&#xbf;" horiz-adv-x="1042" 
d="M729 864v-127q0 -58 -15.5 -87.5t-54.5 -45.5q-22 -9 -70 -20.5t-71 -20.5q-57 -23 -87 -62.5t-30 -92.5q0 -63 43 -103.5t109 -40.5q47 0 90.5 23.5t91.5 74.5l17 19q85 92 149 92q57 0 94 -42t37 -107q0 -140 -143.5 -253.5t-341.5 -113.5q-212 0 -352 131.5
t-140 325.5q0 167 97 284t262 148v12q0 90 43 142.5t116 52.5q74 0 115 -49.5t41 -139.5zM750 1313q0 -74 -52.5 -127t-126.5 -53q-73 0 -125.5 53t-52.5 127q0 73 52.5 125.5t125.5 52.5q75 0 127 -52t52 -126z" />
    <glyph glyph-name="exclamdown" unicode="&#xa1;" horiz-adv-x="606" 
d="M481 1319q0 -74 -52.5 -127t-125.5 -53q-74 0 -127 53t-53 127q0 73 53 125.5t127 52.5q75 0 126.5 -51.5t51.5 -126.5zM143 795q0 119 39.5 177t120.5 58q80 0 119 -58.5t39 -176.5v-602q0 -119 -39 -177.5t-119 -58.5q-81 0 -120.5 58t-39.5 178v602z" />
    <glyph glyph-name="logicalnot" unicode="&#xac;" horiz-adv-x="1706" 
d="M254 864h1198v-502h-199v306h-999v196z" />
    <glyph glyph-name="radical" unicode="&#x221a;" horiz-adv-x="1346" 
d="M1141 1694h207v-129h-103l-592 -1606h-100l-311 858l-140 -51l-30 113l331 116l236 -661z" />
    <glyph glyph-name="florin" unicode="&#x192;" horiz-adv-x="967" 
d="M471 -96q-31 -157 -124 -235.5t-249 -78.5q-93 0 -143.5 37.5t-50.5 106.5q0 46 30 69.5t115 34.5q68 9 93 36.5t44 125.5l123 637h-100q-69 0 -100 23t-31 73q0 54 33 78.5t108 24.5h129l62 325q29 156 122 235t248 79q94 0 145.5 -37.5t51.5 -106.5q0 -47 -31 -71
t-114 -35q-72 -10 -96.5 -39t-41.5 -123l-43 -227h88q68 0 99.5 -23.5t31.5 -73.5q0 -53 -33 -77.5t-108 -24.5h-115z" />
    <glyph glyph-name="approxequal" unicode="&#x2248;" horiz-adv-x="1706" 
d="M1530 596v-219q-106 -72 -198 -105.5t-181 -33.5q-95 0 -286.5 66.5t-301.5 66.5q-84 0 -174.5 -37t-210.5 -121v219q111 73 206.5 108t180.5 35q124 0 315.5 -65.5t274.5 -65.5q86 0 174 35.5t201 116.5zM1530 1008v-220q-106 -71 -196.5 -104t-180.5 -33
q-94 0 -286 65.5t-304 65.5q-82 0 -170 -35t-215 -122v219q107 71 204 107t183 36q125 0 316.5 -65.5t273.5 -65.5q84 0 171 35t204 117z" />
    <glyph glyph-name="Delta" unicode="&#x2206;" horiz-adv-x="1427" 
d="M713 1110l-326 -854h653zM563 1473h301l563 -1473h-1427z" />
    <glyph glyph-name="guillemotleft" unicode="&#xab;" horiz-adv-x="1034" 
d="M737 539l176 -129q44 -33 55 -56.5t11 -60.5q0 -57 -22 -88t-62 -31q-51 0 -179 94l-11 8l-8 6q-175 130 -175 257q0 72 31.5 124t151.5 140q86 63 125 82.5t69 19.5q38 0 59 -31t21 -88q0 -37 -11.5 -61t-54.5 -55zM262 539l177 -130l1 -1q66 -49 66 -115q0 -57 -22 -88
t-62 -31q-53 0 -189 100l-3 2l-8 6q-175 130 -175 257q0 72 31.5 124t150.5 140q86 63 125.5 82.5t69.5 19.5q38 0 60 -31t22 -88q0 -63 -61 -111q-5 -4 -6 -5z" />
    <glyph glyph-name="guillemotright" unicode="&#xbb;" horiz-adv-x="1034" 
d="M768 541l-174 129l-3 2q-65 48 -65 114q0 57 22.5 88t61.5 31q51 0 188 -100l3 -2l5 -4q179 -134 179 -258q0 -71 -31.5 -123t-152.5 -144q-81 -59 -122.5 -79.5t-72.5 -20.5q-38 0 -59 31t-21 88q0 67 67 116l1 1zM295 541l-177 129l-1 1q-66 49 -66 115q0 57 22 88
t62 31q53 0 190 -100l3 -2l2 -2q180 -134 180 -260q0 -72 -31.5 -124.5t-150.5 -142.5q-81 -59 -122.5 -79.5t-72.5 -20.5q-38 0 -60 31.5t-22 87.5q0 67 67 116l1 1z" />
    <glyph glyph-name="ellipsis" unicode="&#x2026;" horiz-adv-x="2048" 
d="M155 172q0 77 55 131.5t132 54.5q76 0 130 -54.5t54 -131.5q0 -78 -53.5 -132t-130.5 -54q-79 0 -133 54t-54 132zM837 172q0 77 55 131.5t132 54.5q76 0 130 -54.5t54 -131.5q0 -78 -53.5 -132t-130.5 -54q-79 0 -133 54t-54 132zM1521 172q0 77 55 131.5t132 54.5
q76 0 130 -54.5t54 -131.5q0 -78 -53.5 -132t-130.5 -54q-79 0 -133 54t-54 132z" />
    <glyph glyph-name="nonbreakingspace" unicode="&#xa0;" horiz-adv-x="1327" 
 />
    <glyph glyph-name="Agrave" unicode="&#xc0;" horiz-adv-x="1280" 
d="M367 274l-50 -147q-24 -73 -64.5 -111.5t-94.5 -38.5q-69 0 -113.5 45.5t-44.5 114.5q0 28 4 52t12 44l379 1029q41 111 102.5 163t151.5 52q85 0 147.5 -49.5t96.5 -143.5l369 -1046q11 -33 16.5 -59t5.5 -46q0 -69 -46 -112.5t-118 -43.5q-64 0 -106.5 40t-67.5 122
l-41 135h-538zM461 580h348l-168 540zM580 1616l-156 172q-26 29 -39.5 57.5t-13.5 53.5q0 55 36.5 91t92.5 36q34 0 64 -17t52 -49l150 -205q17 -23 26 -45.5t9 -44.5q0 -50 -30.5 -81t-80.5 -31q-27 0 -54 15.5t-56 47.5z" />
    <glyph glyph-name="Atilde" unicode="&#xc3;" horiz-adv-x="1280" 
d="M367 274l-50 -147q-24 -73 -64.5 -111.5t-94.5 -38.5q-69 0 -113.5 45.5t-44.5 114.5q0 28 4 52t12 44l379 1029q41 111 102.5 163t151.5 52q85 0 147.5 -49.5t96.5 -143.5l369 -1046q11 -33 16.5 -59t5.5 -46q0 -69 -46 -112.5t-118 -43.5q-64 0 -106.5 40t-67.5 122
l-41 135h-538zM461 580h348l-168 540zM569 1639q-32 0 -71.5 -17.5t-57.5 -17.5q-42 0 -66 28.5t-24 79.5q0 76 49.5 127.5t122.5 51.5q35 0 97 -19.5t92 -19.5q31 0 71 18.5t60 18.5q40 0 65 -30.5t25 -80.5q0 -75 -50 -126.5t-122 -51.5q-35 0 -97 19.5t-94 19.5z" />
    <glyph glyph-name="Otilde" unicode="&#xd5;" horiz-adv-x="1546" 
d="M418 723q0 -204 97 -326.5t257 -122.5t257 122.5t97 326.5q0 211 -96 335t-258 124t-258 -124t-96 -335zM57 727q0 345 197.5 557.5t517.5 212.5q321 0 519 -213t198 -557q0 -346 -197.5 -558t-519.5 -212t-518.5 212t-196.5 558zM702 1639q-32 0 -71.5 -17.5
t-57.5 -17.5q-42 0 -66 28.5t-24 79.5q0 76 49.5 127.5t122.5 51.5q35 0 97 -19.5t92 -19.5q31 0 71 18.5t60 18.5q40 0 65 -30.5t25 -80.5q0 -75 -50 -126.5t-122 -51.5q-35 0 -97 19.5t-94 19.5z" />
    <glyph glyph-name="OE" unicode="&#x152;" horiz-adv-x="2032" 
d="M1729 1456q118 0 176.5 -38.5t58.5 -117.5q0 -77 -58 -115t-177 -38h-271v-260h236q118 0 175.5 -38t57.5 -116t-57.5 -115.5t-175.5 -37.5h-236v-273h281q119 0 177 -38t58 -115q0 -78 -58 -116t-177 -38h-385q-112 0 -151.5 26t-51.5 95q-69 -73 -172.5 -111.5
t-228.5 -38.5q-307 0 -500 209t-193 547q0 344 196.5 551t518.5 207q118 0 217 -38t166 -108q6 60 55 88.5t146 28.5h373zM418 723q0 -204 97 -326.5t257 -122.5t257 122.5t97 326.5q0 211 -96 335t-258 124t-258 -124t-96 -335z" />
    <glyph glyph-name="oe" unicode="&#x153;" horiz-adv-x="1892" 
d="M969 147q-63 -87 -159.5 -133.5t-215.5 -46.5q-238 0 -392.5 163t-154.5 415t154.5 414.5t392.5 162.5q118 0 215 -43t162 -125q67 82 162 125t206 43q220 0 370.5 -157t150.5 -379q0 -74 -32.5 -102.5t-125.5 -28.5h-578q11 -92 75.5 -143.5t168.5 -51.5q92 0 202 53.5
t136 53.5q58 0 94.5 -35t36.5 -90q0 -105 -145.5 -190t-341.5 -85q-124 0 -223 47.5t-158 132.5zM1120 666h424q-6 83 -65 137.5t-142 54.5q-82 0 -141 -52t-76 -140zM371 549q0 -130 63.5 -209.5t165.5 -79.5q101 0 165 80.5t64 208.5q0 124 -64.5 203t-164.5 79
q-101 0 -165 -78t-64 -204z" />
    <glyph glyph-name="endash" unicode="&#x2013;" 
d="M903 674q55 0 88 -28.5t33 -76.5q0 -50 -31 -77t-90 -27h-782q-56 0 -88.5 28t-32.5 76q0 51 31 78t90 27h782z" />
    <glyph glyph-name="emdash" unicode="&#x2014;" horiz-adv-x="2048" 
d="M1905 674q66 0 104.5 -28.5t38.5 -76.5q0 -50 -37.5 -77t-107.5 -27h-1758q-66 0 -105.5 28.5t-39.5 75.5q0 50 38 77.5t107 27.5h1760z" />
    <glyph glyph-name="quotedblleft" unicode="&#x201c;" horiz-adv-x="924" 
d="M211 1192q21 8 40 12t36 4q65 0 105 -42.5t40 -112.5q0 -71 -48 -117.5t-122 -46.5q-86 0 -143.5 68t-57.5 169q0 150 96 262.5t208 112.5q24 0 42.5 -16.5t18.5 -38.5q0 -39 -72 -73q-24 -12 -36 -19q-54 -30 -79.5 -69t-27.5 -93zM666 1192q21 8 39.5 12t33.5 4
q66 0 107 -43t41 -112q0 -70 -49 -117t-123 -47q-86 0 -142.5 67.5t-56.5 169.5q0 150 95 262.5t206 112.5q24 0 43 -16.5t19 -38.5q0 -39 -72 -74l-35 -18q-54 -30 -79.5 -69.5t-26.5 -92.5z" />
    <glyph glyph-name="quotedblright" unicode="&#x201d;" horiz-adv-x="924" 
d="M737 1194q-18 -7 -36.5 -10.5t-36.5 -3.5q-66 0 -107 41t-41 108q0 73 48.5 120.5t123.5 47.5q87 0 143 -69.5t56 -178.5q0 -141 -96 -252.5t-205 -111.5q-25 0 -43.5 16.5t-18.5 38.5q0 40 75 77q21 11 31 17q55 31 80.5 69t26.5 91zM282 1194q-18 -7 -36 -10.5
t-37 -3.5q-66 0 -107 41t-41 108q0 73 49 120.5t123 47.5q88 0 144.5 -69.5t56.5 -178.5q0 -140 -96.5 -252t-206.5 -112q-24 0 -42.5 16.5t-18.5 38.5q0 39 75 77q22 11 33 17q54 30 78.5 68t25.5 92z" />
    <glyph glyph-name="quoteleft" unicode="&#x2018;" horiz-adv-x="473" 
d="M211 1192q22 8 40 12t34 4q65 0 106 -43t41 -112q0 -70 -49 -117t-123 -47q-85 0 -142 67.5t-57 169.5q0 150 95 262.5t206 112.5q25 0 43.5 -16.5t18.5 -38.5q0 -39 -72 -73q-24 -12 -36 -19q-53 -30 -78 -68.5t-27 -93.5z" />
    <glyph glyph-name="quoteright" unicode="&#x2019;" horiz-adv-x="473" 
d="M282 1194q-18 -7 -36 -10.5t-37 -3.5q-66 0 -107 41t-41 108q0 73 49 120.5t123 47.5q88 0 144.5 -69.5t56.5 -178.5q0 -140 -96.5 -252t-206.5 -112q-24 0 -42.5 16.5t-18.5 38.5q0 39 75 77q22 11 33 17q54 30 78.5 68t25.5 92z" />
    <glyph glyph-name="divide" unicode="&#xf7;" horiz-adv-x="1706" 
d="M854 369q62 0 107 -45t45 -107q0 -61 -45 -105t-107 -44q-63 0 -107.5 43t-44.5 106t44.5 107.5t107.5 44.5zM254 711h1198v-199h-1198v199zM854 1155q62 0 107 -44.5t45 -106.5q0 -63 -44.5 -107.5t-107.5 -44.5t-107.5 44.5t-44.5 107.5t44.5 107t107.5 44z" />
    <glyph glyph-name="lozenge" unicode="&#x25ca;" horiz-adv-x="1012" 
d="M506 1409l-385 -817l385 -825l385 825zM506 1653l500 -1061l-500 -1069l-500 1069z" />
    <glyph glyph-name="ydieresis" unicode="&#xff;" horiz-adv-x="985" 
d="M702 975q25 67 59 98t85 31q72 0 115 -41.5t43 -112.5q0 -23 -7 -51t-20 -61l-492 -1168q-31 -74 -63 -102.5t-78 -28.5q-74 0 -117 42t-43 114q0 27 7 55t20 55l133 289l-326 760q-8 18 -12 39.5t-4 50.5q0 68 45 114t111 46q58 0 94.5 -33t69.5 -123l182 -487z
M461 1376q0 -76 -38.5 -120t-104.5 -44t-104.5 44.5t-38.5 119.5q0 76 38.5 121t104.5 45t104.5 -44.5t38.5 -121.5zM813 1376q0 -76 -38 -120t-105 -44q-66 0 -104.5 44.5t-38.5 119.5q0 76 39 121t104 45q66 0 104.5 -44.5t38.5 -121.5z" />
    <glyph glyph-name="Ydieresis" unicode="&#x178;" horiz-adv-x="1057" 
d="M791 1352q42 60 88 92.5t90 32.5q55 0 100 -45t45 -99q0 -62 -69 -159l-7 -9l-336 -479v-469q0 -119 -41 -177t-124 -58q-84 0 -125 58t-41 177v469l-336 475l-2 3q-72 100 -72 165q0 60 46 103t114 43q41 0 82 -31t88 -96l248 -355zM495 1747q0 -76 -38.5 -120
t-104.5 -44t-104.5 44.5t-38.5 119.5q0 76 38.5 121t104.5 45t104.5 -44.5t38.5 -121.5zM847 1747q0 -76 -38 -120t-105 -44q-66 0 -104.5 44.5t-38.5 119.5q0 76 39 121t104 45q66 0 104.5 -44.5t38.5 -121.5z" />
    <glyph glyph-name="fraction" unicode="&#x2215;" horiz-adv-x="342" 
d="M-53 82q-35 -60 -70 -88.5t-74 -28.5q-49 0 -82.5 34.5t-33.5 84.5q0 24 8 51.5t24 54.5l676 1180q37 64 70 89.5t74 25.5q50 0 83 -32.5t33 -82.5q0 -22 -8.5 -49.5t-25.5 -58.5z" />
    <glyph glyph-name="currency" unicode="&#xa4;" horiz-adv-x="1327" 
d="M838 -43q-253 0 -410.5 134t-208.5 390h-104q-52 0 -82.5 22t-30.5 56q0 37 29.5 57.5t83.5 20.5h88q0 3 -1 10q-3 50 -3 80q0 31 0.5 45.5t0.5 30.5h-77q-52 0 -82.5 20.5t-30.5 55.5q0 37 29.5 58t83.5 21h96q49 259 207.5 399t404.5 140q184 0 315.5 -70.5
t131.5 -162.5q0 -60 -42 -105t-99 -45q-33 0 -139.5 31t-172.5 31q-104 0 -167 -53.5t-89 -164.5h498q53 0 82 -21t29 -58q0 -35 -29.5 -55.5t-81.5 -20.5h-518q-1 -17 -1.5 -33t-0.5 -51t0.5 -51t1.5 -31h450q54 0 82.5 -20.5t28.5 -57.5q0 -35 -29.5 -56.5t-81.5 -21.5
h-430q30 -111 96 -163t177 -52q77 0 183.5 41t137.5 41q53 0 93 -41.5t40 -97.5q0 -103 -132 -177.5t-326 -74.5z" />
    <glyph glyph-name="guilsinglleft" unicode="&#x2039;" horiz-adv-x="559" 
d="M262 539l177 -130l1 -1q66 -49 66 -115q0 -57 -22 -88t-62 -31q-53 0 -189 100l-3 2l-8 6q-175 130 -175 257q0 72 31.5 124t150.5 140q86 63 125.5 82.5t69.5 19.5q38 0 60 -31t22 -88q0 -63 -61 -111q-5 -4 -6 -5z" />
    <glyph glyph-name="guilsinglright" unicode="&#x203a;" horiz-adv-x="559" 
d="M295 541l-175 129l-1 1q-66 49 -66 115q0 57 22 88t62 31q51 0 179 -94l12 -8l6 -5q178 -133 178 -257q0 -71 -31.5 -123t-152.5 -144q-81 -59 -122.5 -79.5t-72.5 -20.5q-38 0 -59 31t-21 88q0 67 67 116l1 1z" />
    <glyph glyph-name="fi" unicode="&#xf001;" horiz-adv-x="1233" 
d="M764 1376q0 78 55 134.5t131 56.5t131.5 -56.5t55.5 -134.5q0 -77 -54.5 -131.5t-132.5 -54.5t-132 54t-54 132zM1112 221q0 -119 -40 -177t-122 -58t-122 58t-40 177v649q0 119 40 176.5t122 57.5t122 -58t40 -176v-649zM504 1075h28q96 0 149.5 -38t53.5 -105
q0 -69 -51.5 -104t-153.5 -35h-26v-572q0 -118 -41.5 -176.5t-124.5 -58.5q-82 0 -122 58t-40 177v572h-12q-85 0 -133.5 37.5t-48.5 101.5q0 66 48.5 102t145.5 42q0 8 -1 26.5t-1 27.5q0 209 87 321t249 112q99 0 156 -43.5t57 -118.5q0 -59 -33 -90t-114 -43
q-47 -8 -59.5 -26.5t-12.5 -94.5v-72z" />
    <glyph glyph-name="fl" unicode="&#xf002;" horiz-adv-x="1233" 
d="M788 1327q0 120 40 178t122 58t122 -59t40 -177v-1106q0 -119 -40 -177t-122 -58t-122 58t-40 177v1106zM504 1075h28q96 0 149.5 -38t53.5 -105q0 -69 -51.5 -104t-153.5 -35h-26v-572q0 -118 -41.5 -176.5t-124.5 -58.5q-82 0 -122 58t-40 177v572h-12
q-85 0 -133.5 37.5t-48.5 101.5q0 66 48.5 102t145.5 42q0 8 -1 26.5t-1 27.5q0 209 87 321t249 112q99 0 156 -43.5t57 -118.5q0 -59 -33 -90t-114 -43q-47 -8 -59.5 -26.5t-12.5 -94.5v-72z" />
    <glyph glyph-name="daggerdbl" unicode="&#x2021;" 
d="M651 1077h174q75 0 117.5 -29t42.5 -79q0 -53 -41.5 -81t-120.5 -28h-172v-573h174q75 0 117.5 -29t42.5 -80q0 -53 -41.5 -80.5t-120.5 -27.5h-172v-222q0 -104 -34 -154t-105 -50t-105 50.5t-34 153.5v222h-174q-75 0 -117.5 29t-42.5 79q0 53 41.5 81t120.5 28h172
v573h-174q-75 0 -117.5 29t-42.5 80q0 53 41.5 80.5t120.5 27.5h172v217q0 104 34 153.5t105 49.5q70 0 104.5 -50.5t34.5 -152.5v-217z" />
    <glyph glyph-name="periodcentered" unicode="&#xb7;" horiz-adv-x="664" 
d="M145 727q0 77 55 131.5t132 54.5t131.5 -54.5t54.5 -131.5t-54.5 -130.5t-131.5 -53.5q-79 0 -133 53t-54 131z" />
    <glyph glyph-name="quotesinglbase" unicode="&#x201a;" horiz-adv-x="473" 
d="M276 28q-20 -7 -39.5 -11.5t-35.5 -4.5q-65 0 -105.5 42t-40.5 110q0 73 48 120.5t122 47.5q88 0 144.5 -70.5t56.5 -179.5q0 -141 -95.5 -252t-205.5 -111q-24 0 -43 17t-19 39q0 39 72 74q23 11 35 18q54 30 79.5 69t26.5 92z" />
    <glyph glyph-name="quotedblbase" unicode="&#x201e;" horiz-adv-x="924" 
d="M727 28q-21 -7 -40 -11.5t-36 -4.5q-64 0 -104.5 42t-40.5 110q0 73 47.5 120.5t122.5 47.5q87 0 144 -70.5t57 -179.5q0 -141 -96.5 -252t-207.5 -111q-24 0 -42.5 17t-18.5 39q0 38 72 73l37 19q53 30 78.5 68.5t27.5 92.5zM276 28q-20 -7 -39.5 -11.5t-35.5 -4.5
q-65 0 -105.5 42t-40.5 110q0 73 48 120.5t122 47.5q88 0 144.5 -70.5t56.5 -179.5q0 -141 -95.5 -252t-205.5 -111q-24 0 -43 17t-19 39q0 39 72 74q23 11 35 18q54 30 79.5 69t26.5 92z" />
    <glyph glyph-name="perthousand" unicode="&#x2030;" horiz-adv-x="2134" 
d="M489 82q-34 -60 -69 -88.5t-74 -28.5q-49 0 -82 34t-33 85q0 27 8 53.5t23 52.5l676 1180q37 64 69.5 89.5t73.5 25.5q50 0 83.5 -32.5t33.5 -82.5q0 -22 -8.5 -49.5t-26.5 -58.5zM1696 307q0 -44 30.5 -76t73.5 -32t74 32t31 76q0 46 -30.5 77.5t-74.5 31.5
q-43 0 -73.5 -31.5t-30.5 -77.5zM1487 307q0 137 91.5 231.5t221.5 94.5t222 -95t92 -231q0 -135 -92 -230t-222 -95q-131 0 -222 94t-91 231zM993 307q0 -44 31 -76t74 -32t73.5 32t30.5 76q0 46 -30.5 77.5t-73.5 31.5q-44 0 -74.5 -31.5t-30.5 -77.5zM784 307
q0 137 91.5 231.5t222.5 94.5q130 0 221.5 -95t91.5 -231q0 -135 -91.5 -230t-221.5 -95q-132 0 -223 94t-91 231zM229 1149q0 -45 31 -77t74 -32t73.5 32t30.5 77t-30.5 76.5t-73.5 31.5q-44 0 -74.5 -31.5t-30.5 -76.5zM20 1149q0 137 91.5 231.5t222.5 94.5
q130 0 221.5 -95.5t91.5 -230.5q0 -136 -91.5 -231t-221.5 -95q-132 0 -223 94.5t-91 231.5z" />
    <glyph glyph-name="Acircumflex" unicode="&#xc2;" horiz-adv-x="1280" 
d="M367 274l-50 -147q-24 -73 -64.5 -111.5t-94.5 -38.5q-69 0 -113.5 45.5t-44.5 114.5q0 28 4 52t12 44l379 1029q41 111 102.5 163t151.5 52q85 0 147.5 -49.5t96.5 -143.5l369 -1046q11 -33 16.5 -59t5.5 -46q0 -69 -46 -112.5t-118 -43.5q-64 0 -106.5 40t-67.5 122
l-41 135h-538zM461 580h348l-168 540zM641 1708l-178 -108q-26 -15 -50 -23t-44 -8q-43 0 -70 29t-27 76q0 33 13.5 58t48.5 52l223 174q20 16 42 24.5t42 8.5t42 -8.5t42 -24.5l223 -174q34 -27 48 -52.5t14 -57.5q0 -47 -27 -76t-70 -29q-20 0 -44 8t-50 23z" />
    <glyph glyph-name="Ecircumflex" unicode="&#xca;" horiz-adv-x="1034" 
d="M731 1456q118 0 177 -38.5t59 -117.5q0 -77 -58.5 -115t-177.5 -38h-270v-260h233q119 0 177.5 -38t58.5 -116t-58.5 -115.5t-177.5 -37.5h-233v-273h280q120 0 178 -38t58 -115q0 -78 -58 -116t-178 -38h-387q-129 0 -177 44t-48 165v1014q0 133 51 183t178 50h373z
M518 1708l-178 -108q-26 -15 -50 -23t-44 -8q-43 0 -70 29t-27 76q0 33 13.5 58t48.5 52l223 174q20 16 42 24.5t42 8.5t42 -8.5t42 -24.5l223 -174q34 -27 48 -52.5t14 -57.5q0 -47 -27 -76t-70 -29q-20 0 -44 8t-50 23z" />
    <glyph glyph-name="Aacute" unicode="&#xc1;" horiz-adv-x="1280" 
d="M367 274l-50 -147q-24 -73 -64.5 -111.5t-94.5 -38.5q-69 0 -113.5 45.5t-44.5 114.5q0 28 4 52t12 44l379 1029q41 111 102.5 163t151.5 52q85 0 147.5 -49.5t96.5 -143.5l369 -1046q11 -33 16.5 -59t5.5 -46q0 -69 -46 -112.5t-118 -43.5q-64 0 -106.5 40t-67.5 122
l-41 135h-538zM461 580h348l-168 540zM696 1616q-29 -32 -56 -47.5t-54 -15.5q-50 0 -80.5 31t-30.5 81q0 22 9 44.5t26 45.5l149 205q23 32 53 49t64 17q55 0 92 -36t37 -87q0 -28 -13 -56t-40 -59z" />
    <glyph glyph-name="Edieresis" unicode="&#xcb;" horiz-adv-x="1034" 
d="M731 1456q118 0 177 -38.5t59 -117.5q0 -77 -58.5 -115t-177.5 -38h-270v-260h233q119 0 177.5 -38t58.5 -116t-58.5 -115.5t-177.5 -37.5h-233v-273h280q120 0 178 -38t58 -115q0 -78 -58 -116t-178 -38h-387q-129 0 -177 44t-48 165v1014q0 133 51 183t178 50h373z
M485 1747q0 -76 -38.5 -120t-104.5 -44t-104.5 44.5t-38.5 119.5q0 76 38.5 121t104.5 45t104.5 -44.5t38.5 -121.5zM837 1747q0 -76 -38 -120t-105 -44q-66 0 -104.5 44.5t-38.5 119.5q0 76 39 121t104 45q66 0 104.5 -44.5t38.5 -121.5z" />
    <glyph glyph-name="Egrave" unicode="&#xc8;" horiz-adv-x="1034" 
d="M731 1456q118 0 177 -38.5t59 -117.5q0 -77 -58.5 -115t-177.5 -38h-270v-260h233q119 0 177.5 -38t58.5 -116t-58.5 -115.5t-177.5 -37.5h-233v-273h280q120 0 178 -38t58 -115q0 -78 -58 -116t-178 -38h-387q-129 0 -177 44t-48 165v1014q0 133 51 183t178 50h373z
M457 1616l-156 172q-26 29 -39.5 57.5t-13.5 53.5q0 55 36.5 91t92.5 36q34 0 64 -17t52 -49l150 -205q17 -23 26 -45.5t9 -44.5q0 -50 -30.5 -81t-80.5 -31q-27 0 -54 15.5t-56 47.5z" />
    <glyph glyph-name="Iacute" unicode="&#xcd;" horiz-adv-x="606" 
d="M469 217q0 -119 -41 -177t-125 -58t-125 58t-41 177v1022q0 119 41 177.5t125 58.5t125 -58.5t41 -177.5v-1022zM358 1616q-29 -32 -56 -47.5t-54 -15.5q-50 0 -80.5 31t-30.5 81q0 22 9 44.5t26 45.5l149 205q23 32 53 49t64 17q55 0 92 -36t37 -87q0 -28 -13 -56
t-40 -59z" />
    <glyph glyph-name="Icircumflex" unicode="&#xce;" horiz-adv-x="606" 
d="M469 217q0 -119 -41 -177t-125 -58t-125 58t-41 177v1022q0 119 41 177.5t125 58.5t125 -58.5t41 -177.5v-1022zM303 1708l-178 -108q-26 -15 -50 -23t-44 -8q-43 0 -70 29t-27 76q0 33 13.5 58t48.5 52l223 174q20 16 42 24.5t42 8.5t42 -8.5t42 -24.5l223 -174
q34 -27 48 -52.5t14 -57.5q0 -47 -27 -76t-70 -29q-20 0 -44 8t-50 23z" />
    <glyph glyph-name="Idieresis" unicode="&#xcf;" horiz-adv-x="606" 
d="M469 217q0 -119 -41 -177t-125 -58t-125 58t-41 177v1022q0 119 41 177.5t125 58.5t125 -58.5t41 -177.5v-1022zM270 1747q0 -76 -38.5 -120t-104.5 -44t-104.5 44.5t-38.5 119.5q0 76 38.5 121t104.5 45t104.5 -44.5t38.5 -121.5zM622 1747q0 -76 -38 -120t-105 -44
q-66 0 -104.5 44.5t-38.5 119.5q0 76 39 121t104 45q66 0 104.5 -44.5t38.5 -121.5z" />
    <glyph glyph-name="Igrave" unicode="&#xcc;" horiz-adv-x="606" 
d="M469 217q0 -119 -41 -177t-125 -58t-125 58t-41 177v1022q0 119 41 177.5t125 58.5t125 -58.5t41 -177.5v-1022zM242 1616l-156 172q-26 29 -39.5 57.5t-13.5 53.5q0 55 36.5 91t92.5 36q34 0 64 -17t52 -49l150 -205q17 -23 26 -45.5t9 -44.5q0 -50 -30.5 -81t-80.5 -31
q-27 0 -54 15.5t-56 47.5z" />
    <glyph glyph-name="Oacute" unicode="&#xd3;" horiz-adv-x="1546" 
d="M418 723q0 -204 97 -326.5t257 -122.5t257 122.5t97 326.5q0 211 -96 335t-258 124t-258 -124t-96 -335zM57 727q0 345 197.5 557.5t517.5 212.5q321 0 519 -213t198 -557q0 -346 -197.5 -558t-519.5 -212t-518.5 212t-196.5 558zM829 1616q-29 -32 -56 -47.5t-54 -15.5
q-50 0 -80.5 31t-30.5 81q0 22 9 44.5t26 45.5l149 205q23 32 53 49t64 17q55 0 92 -36t37 -87q0 -28 -13 -56t-40 -59z" />
    <glyph glyph-name="Ocircumflex" unicode="&#xd4;" horiz-adv-x="1546" 
d="M418 723q0 -204 97 -326.5t257 -122.5t257 122.5t97 326.5q0 211 -96 335t-258 124t-258 -124t-96 -335zM57 727q0 345 197.5 557.5t517.5 212.5q321 0 519 -213t198 -557q0 -346 -197.5 -558t-519.5 -212t-518.5 212t-196.5 558zM774 1708l-178 -108q-26 -15 -50 -23
t-44 -8q-43 0 -70 29t-27 76q0 33 13.5 58t48.5 52l223 174q20 16 42 24.5t42 8.5t42 -8.5t42 -24.5l223 -174q34 -27 48 -52.5t14 -57.5q0 -47 -27 -76t-70 -29q-20 0 -44 8t-50 23z" />
    <glyph glyph-name="apple" unicode="&#xf000;" horiz-adv-x="1618" 
d="M836 1216q-1 6 -1.5 14t-0.5 23q0 124 95 229.5t236 131.5q1 -10 1.5 -23t0.5 -39q0 -131 -103.5 -234.5t-203.5 -103.5h-8q-3 0 -7.5 1t-8.5 1zM1505 403q-114 -247 -205 -342.5t-204 -95.5q-50 0 -131.5 33t-122.5 33q-45 0 -131 -33t-127 -33q-64 0 -128.5 44
t-129.5 132q-102 140 -157.5 295.5t-55.5 300.5q0 219 125 356.5t323 137.5q68 0 155 -34t124 -34q34 0 121.5 35t152.5 35q110 0 198 -40t161 -124q-102 -65 -151.5 -145.5t-49.5 -182.5q0 -113 60 -200t173 -138z" />
    <glyph glyph-name="Ograve" unicode="&#xd2;" horiz-adv-x="1546" 
d="M418 723q0 -204 97 -326.5t257 -122.5t257 122.5t97 326.5q0 211 -96 335t-258 124t-258 -124t-96 -335zM57 727q0 345 197.5 557.5t517.5 212.5q321 0 519 -213t198 -557q0 -346 -197.5 -558t-519.5 -212t-518.5 212t-196.5 558zM713 1616l-156 172q-26 29 -39.5 57.5
t-13.5 53.5q0 55 36.5 91t92.5 36q34 0 64 -17t52 -49l150 -205q17 -23 26 -45.5t9 -44.5q0 -50 -30.5 -81t-80.5 -31q-27 0 -54 15.5t-56 47.5z" />
    <glyph glyph-name="Uacute" unicode="&#xda;" horiz-adv-x="1507" 
d="M129 625v614q0 119 41 177.5t125 58.5t125 -58.5t41 -177.5v-577q0 -193 73.5 -290.5t219.5 -97.5q145 0 219 97.5t74 290.5v577q0 119 41 177.5t124 58.5q84 0 125 -58.5t41 -177.5v-614q0 -317 -165 -492.5t-459 -175.5q-295 0 -460 175.5t-165 492.5zM809 1616
q-29 -32 -56 -47.5t-54 -15.5q-50 0 -80.5 31t-30.5 81q0 22 9 44.5t26 45.5l149 205q23 32 53 49t64 17q55 0 92 -36t37 -87q0 -28 -13 -56t-40 -59z" />
    <glyph glyph-name="Ucircumflex" unicode="&#xdb;" horiz-adv-x="1507" 
d="M129 625v614q0 119 41 177.5t125 58.5t125 -58.5t41 -177.5v-577q0 -193 73.5 -290.5t219.5 -97.5q145 0 219 97.5t74 290.5v577q0 119 41 177.5t124 58.5q84 0 125 -58.5t41 -177.5v-614q0 -317 -165 -492.5t-459 -175.5q-295 0 -460 175.5t-165 492.5zM754 1708
l-178 -108q-26 -15 -50 -23t-44 -8q-43 0 -70 29t-27 76q0 33 13.5 58t48.5 52l223 174q20 16 42 24.5t42 8.5t42 -8.5t42 -24.5l223 -174q34 -27 48 -52.5t14 -57.5q0 -47 -27 -76t-70 -29q-20 0 -44 8t-50 23z" />
    <glyph glyph-name="Ugrave" unicode="&#xd9;" horiz-adv-x="1507" 
d="M129 625v614q0 119 41 177.5t125 58.5t125 -58.5t41 -177.5v-577q0 -193 73.5 -290.5t219.5 -97.5q145 0 219 97.5t74 290.5v577q0 119 41 177.5t124 58.5q84 0 125 -58.5t41 -177.5v-614q0 -317 -165 -492.5t-459 -175.5q-295 0 -460 175.5t-165 492.5zM693 1616
l-156 172q-26 29 -39.5 57.5t-13.5 53.5q0 55 36.5 91t92.5 36q34 0 64 -17t52 -49l150 -205q17 -23 26 -45.5t9 -44.5q0 -50 -30.5 -81t-80.5 -31q-27 0 -54 15.5t-56 47.5z" />
    <glyph glyph-name="dotlessi" unicode="&#x131;" horiz-adv-x="563" 
d="M442 221q0 -120 -39 -177.5t-120 -57.5q-82 0 -122 58t-40 177v649q0 119 39.5 176.5t122.5 57.5q81 0 120 -57.5t39 -176.5v-649z" />
    <glyph glyph-name="circumflex" unicode="&#x2c6;" 
d="M512 1337l-178 -108q-26 -15 -50 -23t-44 -8q-43 0 -70 29t-27 76q0 33 13.5 58t48.5 52l223 174q20 16 42 24.5t42 8.5t42 -8.5t42 -24.5l223 -174q34 -27 48 -52.5t14 -57.5q0 -47 -27 -76t-70 -29q-20 0 -44 8t-50 23z" />
    <glyph glyph-name="tilde" unicode="&#x2dc;" 
d="M440 1268q-32 0 -71.5 -17.5t-57.5 -17.5q-42 0 -66 28.5t-24 79.5q0 76 49.5 127.5t122.5 51.5q35 0 97 -19.5t92 -19.5q31 0 71 18.5t60 18.5q40 0 65 -30.5t25 -80.5q0 -75 -50 -126.5t-122 -51.5q-35 0 -97 19.5t-94 19.5z" />
    <glyph glyph-name="macron" unicode="&#xaf;" 
d="M315 1249q-61 0 -97 34.5t-36 92.5q0 57 37.5 93t95.5 36h394q61 0 97 -34t36 -93q0 -56 -37.5 -92.5t-95.5 -36.5h-394z" />
    <glyph glyph-name="breve" unicode="&#x2d8;" 
d="M512 1223q-141 0 -239.5 75t-98.5 175q0 52 28.5 82t78.5 30q57 0 97 -60q6 -9 9 -14q23 -33 50 -46t75 -13q44 0 71 11.5t48 37.5q6 8 16 25q38 59 94 59q51 0 80 -30t29 -82q0 -102 -98.5 -176t-239.5 -74z" />
    <glyph glyph-name="dotaccent" unicode="&#x2d9;" 
d="M332 1376q0 80 52.5 135.5t127.5 55.5q73 0 125.5 -56t52.5 -135t-52 -134.5t-126 -55.5t-127 55.5t-53 134.5z" />
    <glyph glyph-name="ring" unicode="&#x2da;" 
d="M430 1415q0 -33 24 -56.5t58 -23.5t57 23t23 57t-23 57t-57 23t-58 -23t-24 -57zM295 1415q0 89 64.5 153t152.5 64q89 0 153 -64t64 -153t-64 -153t-153 -64t-153 64t-64 153z" />
    <glyph glyph-name="cedilla" unicode="&#xb8;" 
d="M537 49q111 0 181 -61.5t70 -149.5q0 -106 -101 -172.5t-265 -66.5q-126 0 -198 41.5t-72 113.5q0 45 31.5 70.5t86.5 25.5q23 0 66.5 -5t64.5 -5q45 0 70 17t25 47q0 27 -38 62.5t-38 51.5q0 17 25.5 24t91.5 7z" />
    <glyph glyph-name="hungarumlaut" unicode="&#x2dd;" 
d="M788 1245q-28 -35 -49.5 -49t-46.5 -14q-39 0 -65.5 32t-26.5 80q0 20 8 43.5t23 46.5l127 205q20 33 44.5 49.5t53.5 16.5q48 0 79.5 -36t31.5 -91q0 -25 -12 -54.5t-33 -56.5zM432 1245q-28 -35 -50 -49t-46 -14q-39 0 -65.5 32t-26.5 80q0 20 8 43.5t22 46.5l127 205
q21 33 45.5 49.5t53.5 16.5q47 0 78.5 -36t31.5 -91q0 -25 -11.5 -54.5t-33.5 -56.5z" />
    <glyph glyph-name="ogonek" unicode="&#x2db;" 
d="M670 -430q-183 0 -293.5 83.5t-110.5 219.5q0 121 84.5 200t208.5 79q38 0 59 -17t21 -47q0 -33 -69.5 -79t-69.5 -105q0 -50 40 -75t154 -38h3q149 -15 149 -108q0 -61 -40 -87t-136 -26z" />
    <glyph glyph-name="caron" unicode="&#x2c7;" 
d="M512 1479l178 106q27 16 51.5 24.5t42.5 8.5q42 0 69.5 -30.5t27.5 -76.5q0 -33 -13.5 -58t-48.5 -52l-223 -174q-19 -15 -41 -23t-43 -8t-43 8t-41 23l-223 174q-35 27 -48.5 52t-13.5 58q0 47 27.5 77t69.5 30q18 0 42.5 -8.5t51.5 -24.5z" />
    <glyph glyph-name="Lslash" unicode="&#x141;" horiz-adv-x="1038" 
d="M221 535l-35 -23q-22 -15 -46 -23t-48 -8q-38 0 -64 31t-26 76q0 36 16.5 65t49.5 52l153 104v430q0 119 41 177.5t125 58.5t125 -58.5t41 -177.5v-266l114 73q24 16 47.5 23.5t47.5 7.5q39 0 66.5 -31.5t27.5 -76.5q0 -34 -18.5 -64.5t-51.5 -52.5l-233 -154v-391h281
q119 0 177 -38t58 -115q0 -78 -58 -116t-177 -38h-388q-129 0 -177 44t-48 165v326z" />
    <glyph glyph-name="lslash" unicode="&#x142;" horiz-adv-x="743" 
d="M215 610l-61 -43q-15 -10 -34 -16t-36 -6q-28 0 -48 22.5t-20 55.5q0 26 12.5 47.5t37.5 38.5l149 100v518q0 120 40 178t122 58q81 0 121.5 -59t40.5 -177v-338l61 41q15 11 33.5 17t36.5 6q28 0 47.5 -21.5t19.5 -54.5q0 -26 -12 -47.5t-37 -38.5l-149 -103v-567
q0 -119 -40 -177t-122 -58t-122 58t-40 177v389z" />
    <glyph glyph-name="Scaron" unicode="&#x160;" horiz-adv-x="1128" 
d="M1087 451q0 -219 -155.5 -354.5t-409.5 -135.5q-195 0 -333 70t-138 164q0 67 44.5 108t119.5 41q37 0 155 -37t199 -37q70 0 117 43t47 107q0 69 -48 111t-206 90q-229 68 -320 161.5t-91 251.5q0 203 146.5 332t381.5 129q173 0 285 -61.5t112 -153.5
q0 -66 -39.5 -103.5t-109.5 -37.5q-39 0 -127 25.5t-133 25.5q-74 0 -118 -34.5t-44 -90.5q0 -89 194 -150l70 -22q209 -70 305 -176.5t96 -265.5zM565 1850l178 106q27 16 51.5 24.5t42.5 8.5q42 0 69.5 -30.5t27.5 -76.5q0 -33 -13.5 -58t-48.5 -52l-223 -174
q-19 -15 -41 -23t-43 -8t-43 8t-41 23l-223 174q-35 27 -48.5 52t-13.5 58q0 47 27.5 77t69.5 30q18 0 42.5 -8.5t51.5 -24.5z" />
    <glyph glyph-name="scaron" unicode="&#x161;" horiz-adv-x="891" 
d="M420 -31q-173 0 -286.5 69t-113.5 171q0 61 36 103t87 42t150 -47t149 -47q40 0 65 19t25 47q0 48 -155 110l-21 8q-177 74 -242 146.5t-65 183.5q0 149 114.5 248.5t289.5 99.5q158 0 268 -67t110 -158q0 -57 -38.5 -96t-94.5 -39q-37 0 -125.5 39t-134.5 39
q-33 0 -53 -15.5t-20 -40.5q0 -45 128 -94q60 -23 95 -39q145 -65 206.5 -137.5t61.5 -175.5q0 -158 -123.5 -263.5t-312.5 -105.5zM446 1479l178 106q27 16 51.5 24.5t42.5 8.5q42 0 69.5 -30.5t27.5 -76.5q0 -33 -13.5 -58t-48.5 -52l-223 -174q-19 -15 -41 -23t-43 -8
t-43 8t-41 23l-223 174q-35 27 -48.5 52t-13.5 58q0 47 27.5 77t69.5 30q18 0 42.5 -8.5t51.5 -24.5z" />
    <glyph glyph-name="Zcaron" unicode="&#x17d;" horiz-adv-x="1090" 
d="M887 307q119 0 177 -38t58 -115q0 -78 -58 -116t-177 -38h-666q-118 0 -175.5 41t-57.5 125q0 42 17 83t75 118l594 788h-428q-121 0 -178.5 36.5t-57.5 113.5q0 75 59 113t177 38h563q147 0 216 -39t69 -123q0 -73 -91 -195l-6 -8l-579 -784h469zM545 1850l178 106
q27 16 51.5 24.5t42.5 8.5q42 0 69.5 -30.5t27.5 -76.5q0 -33 -13.5 -58t-48.5 -52l-223 -174q-19 -15 -41 -23t-43 -8t-43 8t-41 23l-223 174q-35 27 -48.5 52t-13.5 58q0 47 27.5 77t69.5 30q18 0 42.5 -8.5t51.5 -24.5z" />
    <glyph glyph-name="zcaron" unicode="&#x17e;" horiz-adv-x="915" 
d="M748 299q94 0 148 -40.5t54 -111.5q0 -72 -52 -109.5t-153 -37.5h-587q-97 0 -133.5 23t-36.5 77q0 30 12.5 61.5t36.5 61.5l442 574h-278q-95 0 -149 39t-54 108q0 71 52 108.5t153 37.5h518q123 0 163 -22t40 -77q0 -29 -16 -63.5t-50 -77.5l-430 -551h320zM459 1479
l178 106q27 16 51.5 24.5t42.5 8.5q42 0 69.5 -30.5t27.5 -76.5q0 -33 -13.5 -58t-48.5 -52l-223 -174q-19 -15 -41 -23t-43 -8t-43 8t-41 23l-223 174q-35 27 -48.5 52t-13.5 58q0 47 27.5 77t69.5 30q18 0 42.5 -8.5t51.5 -24.5z" />
    <glyph glyph-name="brokenbar" unicode="&#xa6;" 
d="M410 408h206v-758h-206v758zM410 1432h206v-758h-206v758z" />
    <glyph glyph-name="Eth" unicode="&#xd0;" horiz-adv-x="1522" 
d="M555 307h152q199 0 298 109.5t99 328.5q0 202 -100 302t-302 100h-147v-301h121q75 0 117.5 -32t42.5 -87q0 -57 -41.5 -87t-120.5 -30h-119v-303zM721 1456q139 0 244.5 -25t187.5 -77q145 -92 228 -255t83 -356q0 -342 -191 -542.5t-521 -200.5h-301q-130 0 -179 44.5
t-49 164.5v399h-37q-75 0 -117 32.5t-42 88.5q0 57 41 87t120 30h35v377q0 132 52 182.5t180 50.5h266z" />
    <glyph glyph-name="eth" unicode="&#xf0;" horiz-adv-x="1130" 
d="M567 1040l-94 129l-158 -92q-11 -6 -22 -9t-23 -3q-16 0 -29.5 14.5t-13.5 34.5q0 18 9 32.5t28 24.5l144 82q-54 73 -73.5 113.5t-19.5 75.5q0 52 34 87.5t83 35.5q43 0 94.5 -37.5t128.5 -126.5l138 84q8 5 20 8.5t21 3.5q19 0 32 -13.5t13 -35.5q0 -17 -9 -32t-26 -25
l-121 -72q209 -261 285.5 -430t76.5 -344q0 -259 -144 -418.5t-376 -159.5q-226 0 -372 155t-146 394q0 221 132.5 377t314.5 156q13 0 32 -2.5t41 -6.5zM365 518q0 -117 55.5 -188.5t144.5 -71.5q90 0 146.5 72t56.5 188q0 114 -57 186t-146 72q-87 0 -143.5 -72
t-56.5 -186z" />
    <glyph glyph-name="Yacute" unicode="&#xdd;" horiz-adv-x="1057" 
d="M791 1352q42 60 88 92.5t90 32.5q55 0 100 -45t45 -99q0 -62 -69 -159l-7 -9l-336 -479v-469q0 -119 -41 -177t-124 -58q-84 0 -125 58t-41 177v469l-336 475l-2 3q-72 100 -72 165q0 60 46 103t114 43q41 0 82 -31t88 -96l248 -355zM583 1616q-29 -32 -56 -47.5
t-54 -15.5q-50 0 -80.5 31t-30.5 81q0 22 9 44.5t26 45.5l149 205q23 32 53 49t64 17q55 0 92 -36t37 -87q0 -28 -13 -56t-40 -59z" />
    <glyph glyph-name="yacute" unicode="&#xfd;" horiz-adv-x="985" 
d="M702 975q25 67 59 98t85 31q72 0 115 -41.5t43 -112.5q0 -23 -7 -51t-20 -61l-492 -1168q-31 -74 -63 -102.5t-78 -28.5q-74 0 -117 42t-43 114q0 27 7 55t20 55l133 289l-326 760q-8 18 -12 39.5t-4 50.5q0 68 45 114t111 46q58 0 94.5 -33t69.5 -123l182 -487z
M549 1245q-29 -32 -56 -47.5t-54 -15.5q-50 0 -80.5 31t-30.5 81q0 22 9 44.5t26 45.5l149 205q23 32 53 49t64 17q55 0 92 -36t37 -87q0 -28 -13 -56t-40 -59z" />
    <glyph glyph-name="Thorn" unicode="&#xde;" horiz-adv-x="1241" 
d="M461 551h143q113 0 170 48.5t57 143.5q0 98 -55.5 145.5t-171.5 47.5h-143v-385zM129 1241q0 118 41 176t125 58q81 0 123.5 -57t42.5 -165v-14h196q247 0 390 -133.5t143 -362.5q0 -231 -134 -362t-372 -131h-223v-33q0 -119 -41 -177t-125 -58t-125 58t-41 177v1024z
" />
    <glyph glyph-name="thorn" unicode="&#xfe;" horiz-adv-x="1233" 
d="M434 -215q0 -120 -40 -178t-122 -58t-121.5 58t-39.5 178v1544q0 120 39.5 178t121.5 58t122 -59t40 -177v-321q46 50 112.5 77t145.5 27q208 0 350 -162t142 -405q0 -242 -145.5 -411t-350.5 -169q-73 0 -135.5 23.5t-118.5 70.5v-274zM428 541q0 -124 59 -199.5
t154 -75.5t154 76t59 199q0 119 -60.5 194.5t-152.5 75.5q-93 0 -153 -75t-60 -195z" />
    <glyph glyph-name="minus" unicode="&#x2212;" horiz-adv-x="1706" 
d="M254 713h1198v-203h-1198v203z" />
    <glyph glyph-name="multiply" unicode="&#xd7;" horiz-adv-x="1706" 
d="M416 1202l450 -450l451 450l141 -139l-450 -453l450 -450l-141 -140l-451 451l-450 -451l-140 140l451 450l-451 453z" />
    <glyph glyph-name="onesuperior" unicode="&#xb9;" horiz-adv-x="485" 
d="M373 715q0 -71 -28 -106.5t-85 -35.5q-56 0 -83 35t-27 107v557h-21q-72 0 -109.5 23.5t-37.5 68.5q0 46 39 69t116 23h111q67 0 96 -32.5t29 -108.5v-600z" />
    <glyph glyph-name="twosuperior" unicode="&#xb2;" horiz-adv-x="707" 
d="M524 766q80 0 118 -22.5t38 -69.5t-38 -69.5t-118 -22.5h-387q-67 0 -99 22.5t-32 69.5q0 42 133 174q27 26 41 41q148 150 196 215t48 106q0 37 -23.5 60.5t-60.5 23.5q-33 0 -60 -23.5t-42 -66.5q-27 -62 -49.5 -81t-59.5 -19q-48 0 -77 28t-29 74q0 38 18 82t49 78
q48 56 114.5 85.5t143.5 29.5q135 0 221 -73.5t86 -186.5q0 -86 -66 -180.5t-265 -274.5h200z" />
    <glyph glyph-name="threesuperior" unicode="&#xb3;" horiz-adv-x="733" 
d="M520 1063q81 -39 120.5 -94.5t39.5 -130.5q0 -121 -98 -202t-246 -81q-58 0 -111.5 17t-103.5 51q-57 40 -89 86.5t-32 89.5q0 41 27.5 67.5t70.5 26.5q27 0 48.5 -11.5t50.5 -44.5q3 -4 10 -12q65 -84 133 -84q49 0 82 32.5t33 80.5q0 45 -28.5 67.5t-111.5 34.5
q-49 8 -69.5 28.5t-20.5 59.5q0 38 19.5 57.5t70.5 31.5q52 10 76.5 32t24.5 58q0 34 -21 53.5t-57 19.5q-42 0 -97 -44l-4 -3q-3 -3 -13 -11q-57 -50 -103 -50q-37 0 -63.5 24t-26.5 60q0 77 95 143t216 66q123 0 206 -69.5t83 -170.5q0 -54 -27 -97t-84 -81z" />
    <glyph glyph-name="onequarter" unicode="&#xbc;" horiz-adv-x="1610" 
d="M1044 340h216v311zM1450 176v-86q0 -48 -27 -74t-75 -26q-45 0 -66.5 26t-21.5 78v82h-324q-66 0 -96.5 17.5t-30.5 54.5q0 38 41 95l8 11l272 385q36 48 71.5 68t84.5 20q77 0 120.5 -49t43.5 -139v-299h12h19q52 0 83 -21.5t31 -56.5q0 -43 -31 -64.5t-96 -21.5h-18z
M410 82q-35 -60 -70 -88.5t-74 -28.5q-49 0 -82.5 34.5t-33.5 84.5q0 24 8 51.5t24 54.5l676 1180q37 64 70 89.5t73 25.5q51 0 84 -32.5t33 -82.5q0 -22 -8.5 -49.5t-26.5 -58.5zM354 764q0 -67 -25.5 -99t-78.5 -32q-55 0 -81 32t-26 99v520h-20q-67 0 -103 22t-36 64
q0 44 36 65t111 21h105q64 0 91 -30t27 -101v-561z" />
    <glyph glyph-name="onehalf" unicode="&#xbd;" horiz-adv-x="1481" 
d="M1305 172q76 0 112.5 -21t36.5 -65t-36.5 -65t-112.5 -21h-369q-64 0 -94.5 21t-30.5 65q0 42 144 179l22 22q140 138 185.5 199.5t45.5 101.5q0 34 -22 56t-56 22q-30 0 -56 -21.5t-44 -62.5q-22 -57 -43.5 -76t-58.5 -19q-46 0 -74.5 26t-28.5 69q0 35 18 76.5t48 74.5
q46 51 109 78t137 27q130 0 212.5 -68t82.5 -174q0 -79 -61.5 -165t-256.5 -259h191zM410 82q-35 -60 -70 -88.5t-74 -28.5q-49 0 -82.5 34.5t-33.5 84.5q0 24 8 51.5t24 54.5l676 1180q37 64 70 89.5t73 25.5q51 0 84 -32.5t33 -82.5q0 -22 -8.5 -49.5t-26.5 -58.5z
M354 764q0 -67 -25.5 -99t-78.5 -32q-55 0 -81 32t-26 99v520h-20q-67 0 -103 22t-36 64q0 44 36 65t111 21h105q64 0 91 -30t27 -101v-561z" />
    <glyph glyph-name="threequarters" unicode="&#xbe;" horiz-adv-x="1845" 
d="M1280 340h215v311zM1686 176v-86q0 -48 -27 -74t-76 -26q-44 0 -66 26t-22 78v82h-324q-65 0 -96 17.5t-31 54.5q0 38 41 95q6 7 9 12l272 384q35 48 71 68t85 20q77 0 120.5 -49t43.5 -139v-299h12h18q52 0 83.5 -21.5t31.5 -56.5q0 -43 -31.5 -64.5t-95.5 -21.5h-18z
M645 82q-35 -60 -69.5 -88.5t-73.5 -28.5q-50 0 -83.5 34.5t-33.5 84.5q0 24 8.5 51.5t24.5 54.5l676 1180q37 64 69.5 89.5t73.5 25.5q50 0 83.5 -32.5t33.5 -82.5q0 -22 -9 -49.5t-26 -58.5zM498 1090q76 -36 113.5 -88t37.5 -121q0 -113 -93 -189t-234 -76q-56 0 -108 16
t-99 48q-54 37 -84.5 80.5t-30.5 83.5q0 38 27 63t67 25q27 0 47 -11t45 -42q4 -5 12 -14q63 -74 126 -74q46 0 78 30t32 74q0 43 -27.5 64t-105.5 32q-48 7 -67 25.5t-19 56.5q0 36 19 54t67 28q50 11 73 31t23 53q0 31 -20 50.5t-53 19.5q-24 0 -44 -8.5t-52 -36.5
l-12 -10q-56 -48 -99 -48q-36 0 -62 23t-26 55q0 72 91 133.5t206 61.5q119 0 197.5 -63.5t78.5 -158.5q0 -51 -25.5 -92t-78.5 -75z" />
    <glyph glyph-name="franc" unicode="&#x20a3;" horiz-adv-x="1778" 
d="M731 1456q118 0 177 -38.5t59 -117.5q0 -77 -58.5 -115t-177.5 -38h-270v-260h233q119 0 177.5 -38t58.5 -116t-58.5 -115.5t-177.5 -37.5h-233v-363q0 -119 -41 -177t-125 -58t-125 58t-41 177v1006q0 133 51 183t178 50h373zM1110 221v649q0 119 39.5 176.5t121.5 57.5
q49 0 87 -25.5t67 -77.5q50 54 106 81.5t113 27.5q67 0 115.5 -47.5t48.5 -112.5q0 -97 -178 -162q-64 -23 -96 -38q-61 -29 -81 -64.5t-20 -128.5v-336q0 -119 -40 -177t-122 -58t-121.5 58t-39.5 177z" />
    <glyph glyph-name="Gbreve" unicode="&#x11e;" horiz-adv-x="1479" 
d="M1075 567h-117q-120 0 -176.5 37.5t-56.5 116.5t57 117.5t176 38.5h244q124 0 178 -52t54 -170q0 -311 -187.5 -504.5t-492.5 -193.5q-307 0 -502 215t-195 557q0 353 199.5 561.5t536.5 208.5q223 0 379.5 -92t156.5 -211q0 -62 -42 -109t-99 -47q-37 0 -165 71t-241 71
q-169 0 -267.5 -119.5t-98.5 -327.5q0 -211 99 -336t265 -125q132 0 212 79.5t83 213.5zM739 1594q-141 0 -239.5 75t-98.5 175q0 52 28.5 82t78.5 30q57 0 97 -60q6 -9 9 -14q23 -33 50 -46t75 -13q44 0 71 11.5t48 37.5q6 8 16 25q38 59 94 59q51 0 80 -30t29 -82
q0 -102 -98.5 -176t-239.5 -74z" />
    <glyph glyph-name="gbreve" unicode="&#x11f;" horiz-adv-x="1223" 
d="M807 135q-53 -76 -126 -113.5t-167 -37.5q-196 0 -331.5 161t-135.5 400q0 241 146 406t356 165q82 0 145.5 -28t112.5 -87q26 48 64.5 75.5t78.5 27.5q83 0 122.5 -57.5t39.5 -176.5v-649q0 -179 -17.5 -279.5t-58.5 -166.5q-71 -119 -195.5 -180.5t-295.5 -61.5
q-209 0 -341 67t-132 169q0 61 39.5 101t99.5 40q29 0 139.5 -43t206.5 -43q120 0 186 71t66 201q0 6 -1 19t-1 20zM381 545q0 -121 59 -196t152 -75t153 75.5t60 195.5q0 117 -60 190.5t-153 73.5t-152 -73.5t-59 -190.5zM612 1223q-141 0 -239.5 75t-98.5 175
q0 52 28.5 82t78.5 30q57 0 97 -60q6 -9 9 -14q23 -33 50 -46t75 -13q44 0 71 11.5t48 37.5q6 8 16 25q38 59 94 59q51 0 80 -30t29 -82q0 -102 -98.5 -176t-239.5 -74z" />
    <glyph glyph-name="Idotaccent" unicode="&#x130;" horiz-adv-x="606" 
d="M469 217q0 -119 -41 -177t-125 -58t-125 58t-41 177v1022q0 119 41 177.5t125 58.5t125 -58.5t41 -177.5v-1022zM123 1747q0 80 52.5 135.5t127.5 55.5q73 0 125.5 -56t52.5 -135t-52 -134.5t-126 -55.5t-127 55.5t-53 134.5z" />
    <glyph glyph-name="Scedilla" unicode="&#x15e;" horiz-adv-x="1128" 
d="M1087 451q0 -219 -155.5 -354.5t-409.5 -135.5q-195 0 -333 70t-138 164q0 67 44.5 108t119.5 41q37 0 155 -37t199 -37q70 0 117 43t47 107q0 69 -48 111t-206 90q-229 68 -320 161.5t-91 251.5q0 203 146.5 332t381.5 129q173 0 285 -61.5t112 -153.5
q0 -66 -39.5 -103.5t-109.5 -37.5q-39 0 -127 25.5t-133 25.5q-74 0 -118 -34.5t-44 -90.5q0 -89 194 -150l70 -22q209 -70 305 -176.5t96 -265.5zM590 49q111 0 181 -61.5t70 -149.5q0 -106 -101 -172.5t-265 -66.5q-126 0 -198 41.5t-72 113.5q0 45 31.5 70.5t86.5 25.5
q23 0 66.5 -5t64.5 -5q45 0 70 17t25 47q0 27 -38 62.5t-38 51.5q0 17 25.5 24t91.5 7z" />
    <glyph glyph-name="scedilla" unicode="&#x15f;" horiz-adv-x="891" 
d="M420 -31q-173 0 -286.5 69t-113.5 171q0 61 36 103t87 42t150 -47t149 -47q40 0 65 19t25 47q0 48 -155 110l-21 8q-177 74 -242 146.5t-65 183.5q0 149 114.5 248.5t289.5 99.5q158 0 268 -67t110 -158q0 -57 -38.5 -96t-94.5 -39q-37 0 -125.5 39t-134.5 39
q-33 0 -53 -15.5t-20 -40.5q0 -45 128 -94q60 -23 95 -39q145 -65 206.5 -137.5t61.5 -175.5q0 -158 -123.5 -263.5t-312.5 -105.5zM471 49q111 0 181 -61.5t70 -149.5q0 -106 -101 -172.5t-265 -66.5q-126 0 -198 41.5t-72 113.5q0 45 31.5 70.5t86.5 25.5q23 0 66.5 -5
t64.5 -5q45 0 70 17t25 47q0 27 -38 62.5t-38 51.5q0 17 25.5 24t91.5 7z" />
    <glyph glyph-name="Cacute" unicode="&#x106;" horiz-adv-x="1233" 
d="M770 -43q-321 0 -517 211.5t-196 558.5q0 339 203 554.5t514 215.5q183 0 309.5 -70t126.5 -163q0 -60 -42 -105t-99 -45q-32 0 -129.5 28.5t-163.5 28.5q-163 0 -260.5 -122.5t-97.5 -329.5q0 -203 99.5 -321.5t268.5 -118.5q78 0 178 37.5t132 37.5q51 0 92 -44
t41 -101q0 -103 -132.5 -177.5t-326.5 -74.5zM805 1616q-29 -32 -56 -47.5t-54 -15.5q-50 0 -80.5 31t-30.5 81q0 22 9 44.5t26 45.5l149 205q23 32 53 49t64 17q55 0 92 -36t37 -87q0 -28 -13 -56t-40 -59z" />
    <glyph glyph-name="cacute" unicode="&#x107;" horiz-adv-x="973" 
d="M47 545q0 255 153 414t402 159q161 0 261 -57.5t100 -149.5q0 -59 -38 -98t-96 -39q-25 0 -101 24.5t-126 24.5q-100 0 -161.5 -75t-61.5 -197q0 -127 63 -199.5t172 -72.5q53 0 126.5 24.5t95.5 24.5q53 0 89 -40.5t36 -99.5q0 -89 -109 -152t-270 -63
q-238 0 -386.5 158.5t-148.5 413.5zM624 1245q-29 -32 -56 -47.5t-54 -15.5q-50 0 -80.5 31t-30.5 81q0 22 9 44.5t26 45.5l149 205q23 32 53 49t64 17q55 0 92 -36t37 -87q0 -28 -13 -56t-40 -59z" />
    <glyph glyph-name="Ccaron" unicode="&#x10c;" horiz-adv-x="1233" 
d="M770 -43q-321 0 -517 211.5t-196 558.5q0 339 203 554.5t514 215.5q183 0 309.5 -70t126.5 -163q0 -60 -42 -105t-99 -45q-32 0 -129.5 28.5t-163.5 28.5q-163 0 -260.5 -122.5t-97.5 -329.5q0 -203 99.5 -321.5t268.5 -118.5q78 0 178 37.5t132 37.5q51 0 92 -44
t41 -101q0 -103 -132.5 -177.5t-326.5 -74.5zM750 1850l178 106q27 16 51.5 24.5t42.5 8.5q42 0 69.5 -30.5t27.5 -76.5q0 -33 -13.5 -58t-48.5 -52l-223 -174q-19 -15 -41 -23t-43 -8t-43 8t-41 23l-223 174q-35 27 -48.5 52t-13.5 58q0 47 27.5 77t69.5 30q18 0 42.5 -8.5
t51.5 -24.5z" />
    <glyph glyph-name="ccaron" unicode="&#x10d;" horiz-adv-x="973" 
d="M47 545q0 255 153 414t402 159q161 0 261 -57.5t100 -149.5q0 -59 -38 -98t-96 -39q-25 0 -101 24.5t-126 24.5q-100 0 -161.5 -75t-61.5 -197q0 -127 63 -199.5t172 -72.5q53 0 126.5 24.5t95.5 24.5q53 0 89 -40.5t36 -99.5q0 -89 -109 -152t-270 -63
q-238 0 -386.5 158.5t-148.5 413.5zM569 1479l178 106q27 16 51.5 24.5t42.5 8.5q42 0 69.5 -30.5t27.5 -76.5q0 -33 -13.5 -58t-48.5 -52l-223 -174q-19 -15 -41 -23t-43 -8t-43 8t-41 23l-223 174q-35 27 -48.5 52t-13.5 58q0 47 27.5 77t69.5 30q18 0 42.5 -8.5
t51.5 -24.5z" />
    <glyph glyph-name="dcroat" unicode="&#x111;" horiz-adv-x="1255" 
d="M379 551q0 -120 60 -195t153 -75t152 74.5t59 195.5q0 123 -58.5 198.5t-152.5 75.5t-153.5 -76t-59.5 -198zM807 90q-50 -54 -116.5 -82t-145.5 -28q-203 0 -350.5 167.5t-147.5 407.5t145.5 404.5t352.5 164.5q75 0 137 -22.5t117 -69.5v180h-168q-56 0 -87.5 22
t-31.5 60q0 41 31 62.5t90 21.5h166q7 90 48.5 137.5t113.5 47.5q70 0 110 -46.5t49 -137.5l47 -1q56 0 88.5 -23t32.5 -61q0 -40 -30.5 -61t-90.5 -21h-47v-991q0 -120 -39 -177.5t-120 -57.5q-48 0 -87 26.5t-67 77.5z" />
    <glyph glyph-name="sfthyphen" unicode="&#xad;" horiz-adv-x="877" 
d="M229 428q-75 0 -117 37t-42 104t42 103.5t119 36.5h416q75 0 117.5 -38t42.5 -104q0 -68 -41.5 -103.5t-120.5 -35.5h-416z" />
    <glyph glyph-name="periodcentered" unicode="&#x2219;" horiz-adv-x="664" 
d="M145 727q0 77 55 131.5t132 54.5t131.5 -54.5t54.5 -131.5t-54.5 -130.5t-131.5 -53.5q-79 0 -133 53t-54 131z" />
    <glyph glyph-name="Euro" horiz-adv-x="1327" 
d="M838 -43q-253 0 -410.5 134t-208.5 390h-104q-52 0 -82.5 22t-30.5 56q0 37 29.5 57.5t83.5 20.5h88q0 3 -1 10q-3 50 -3 80q0 31 0.5 45.5t0.5 30.5h-77q-52 0 -82.5 20.5t-30.5 55.5q0 37 29.5 58t83.5 21h96q49 259 207.5 399t404.5 140q184 0 315.5 -70.5
t131.5 -162.5q0 -60 -42 -105t-99 -45q-33 0 -139.5 31t-172.5 31q-104 0 -167 -53.5t-89 -164.5h498q53 0 82 -21t29 -58q0 -35 -29.5 -55.5t-81.5 -20.5h-518q-1 -17 -1.5 -33t-0.5 -51t0.5 -51t1.5 -31h450q54 0 82.5 -20.5t28.5 -57.5q0 -35 -29.5 -56.5t-81.5 -21.5
h-430q30 -111 96 -163t177 -52q77 0 183.5 41t137.5 41q53 0 93 -41.5t40 -97.5q0 -103 -132 -177.5t-326 -74.5z" />
    <glyph glyph-name="Euro" unicode="&#x20ac;" horiz-adv-x="1327" 
d="M838 -43q-253 0 -410.5 134t-208.5 390h-104q-52 0 -82.5 22t-30.5 56q0 37 29.5 57.5t83.5 20.5h88q0 3 -1 10q-3 50 -3 80q0 31 0.5 45.5t0.5 30.5h-77q-52 0 -82.5 20.5t-30.5 55.5q0 37 29.5 58t83.5 21h96q49 259 207.5 399t404.5 140q184 0 315.5 -70.5
t131.5 -162.5q0 -60 -42 -105t-99 -45q-33 0 -139.5 31t-172.5 31q-104 0 -167 -53.5t-89 -164.5h498q53 0 82 -21t29 -58q0 -35 -29.5 -55.5t-81.5 -20.5h-518q-1 -17 -1.5 -33t-0.5 -51t0.5 -51t1.5 -31h450q54 0 82.5 -20.5t28.5 -57.5q0 -35 -29.5 -56.5t-81.5 -21.5
h-430q30 -111 96 -163t177 -52q77 0 183.5 41t137.5 41q53 0 93 -41.5t40 -97.5q0 -103 -132 -177.5t-326 -74.5z" />
    </font>
</defs>
</svg>
