<?xml version="1.0" standalone="no"?>
<!DOCTYPE svg PUBLIC "-//W3C//DTD SVG 1.1//EN" "http://www.w3.org/Graphics/SVG/1.1/DTD/svg11.dtd" >
<svg>
<metadata>
Created by FontForge 20110222 at Wed Sep 17 15:05:36 2014
 By Orthosie Webhosting
Copyright (c) 1990, 2002 Adobe Systems Incorporated.  All Rights Reserved. (c) 1981, 2002 Heidelberger Druckmaschinen AG. All rights reserved.
</metadata>
<defs>
<font id="UniversLTStd59UltraCondensed" horiz-adv-x="333" >
  <font-face 
    font-family="UniversLTStd59UltraCondensed"
    font-weight="400"
    font-stretch="ultra-condensed"
    units-per-em="1000"
    panose-1="2 11 6 8 3 5 2 6 2 4"
    ascent="724"
    descent="-276"
    x-height="502"
    cap-height="722"
    bbox="-63 -204 1000 924"
    underline-thickness="50"
    underline-position="-50"
    unicode-range="U+0020-FB02"
  />
<missing-glyph horiz-adv-x="500" 
d="M0 0v700h500v-700h-500zM250 395l170 255h-340zM280 350l170 -255v510zM80 50h340l-170 255zM50 605v-510l170 255z" />
    <glyph glyph-name="fi" unicode="fi" horiz-adv-x="352" 
d="M221 0v502h94v-502h-94zM221 622v100h94v-100h-94zM52 0v436h-47v66h47v118q0 56 24 79t96 23h32v-72h-17q-41 0 -41 -43v-105h58v-66h-58v-436h-94z" />
    <glyph glyph-name="fl" unicode="fl" horiz-adv-x="352" 
d="M221 0v722h94v-722h-94zM52 0v436h-47v66h47v118q0 56 24 79t96 23h32v-72h-17q-41 0 -41 -43v-105h58v-66h-58v-436h-94z" />
    <glyph glyph-name=".notdef" horiz-adv-x="500" 
d="M0 0v700h500v-700h-500zM250 395l170 255h-340zM280 350l170 -255v510zM80 50h340l-170 255zM50 605v-510l170 255z" />
    <glyph glyph-name=".null" horiz-adv-x="0" 
 />
    <glyph glyph-name="nonmarkingreturn" 
 />
    <glyph glyph-name="space" unicode=" " horiz-adv-x="186" 
 />
    <glyph glyph-name="exclam" unicode="!" horiz-adv-x="222" 
d="M72 165l-14 557h106l-14 -557h-78zM58 0v100h106v-100h-106z" />
    <glyph glyph-name="quotedbl" unicode="&#x22;" horiz-adv-x="278" 
d="M161 544v178h84v-178h-84zM33 544v178h84v-178h-84z" />
    <glyph glyph-name="numbersign" unicode="#" horiz-adv-x="372" 
d="M213 285l16 152h-70l-16 -152h70zM47 0l23 219h-66v66h73l16 152h-67v66h74l23 219h66l-23 -219h70l23 219h66l-23 -219h66v-66h-73l-16 -152h67v-66h-74l-23 -219h-66l23 219h-70l-23 -219h-66z" />
    <glyph glyph-name="dollar" unicode="$" horiz-adv-x="372" 
d="M155 -84v78q-60 6 -92 37q-36 33 -36 92v86h100v-59q0 -78 58 -78q66 0 66 83q0 49 -16.5 80t-90.5 104q-59 59 -88 106.5t-29 113.5q0 149 128 169v78h54v-78q128 -12 128 -132v-68h-94v57q0 65 -56 65q-31 0 -45.5 -18.5t-14.5 -60.5q0 -40 18.5 -73.5t83.5 -101.5
q73 -76 94.5 -117.5t21.5 -106.5q0 -81 -32 -125.5t-104 -52.5v-78h-54z" />
    <glyph glyph-name="percent" unicode="%" horiz-adv-x="611" 
d="M102 634v-273q0 -40 29 -40t29 40v273q0 40 -29 40t-29 -40zM161 -6l227 734h60l-227 -734h-60zM451 361v-273q0 -40 29 -40t29 40v273q0 40 -29 40t-29 -40zM36 346v303q0 40 26 59.5t69 19.5t69 -19.5t26 -59.5v-303q0 -40 -26 -59.5t-69 -19.5t-69 19.5t-26 59.5z
M385 73v303q0 40 26 59.5t69 19.5t69 -19.5t26 -59.5v-303q0 -40 -26 -59.5t-69 -19.5t-69 19.5t-26 59.5z" />
    <glyph glyph-name="ampersand" unicode="&#x26;" horiz-adv-x="407" 
d="M189 650q-44 0 -44 -74q0 -60 33 -132q32 40 43 69.5t11 67.5q0 69 -43 69zM212 379l66 -165h2v151h84v-145q0 -93 -23 -124l44 -96h-100l-9 21q-40 -27 -101 -27q-82 0 -111.5 45t-29.5 140q0 83 15 135.5t66 77.5q-54 100 -54 179q0 73 34.5 112t92.5 39
q128 0 128 -137q0 -62 -25.5 -109.5t-78.5 -96.5zM241 96l-95 221q-18 -26 -18 -131q0 -64 11.5 -92t42.5 -28q33 0 59 30z" />
    <glyph glyph-name="quotesingle" unicode="'" horiz-adv-x="186" 
d="M51 544v178h84v-178h-84z" />
    <glyph glyph-name="parenleft" unicode="(" horiz-adv-x="222" 
d="M215 -156h-66q-96 258 -96 439t96 439h66q-22 -65 -45 -206.5t-23 -232.5t23 -232.5t45 -206.5z" />
    <glyph glyph-name="parenright" unicode=")" horiz-adv-x="222" 
d="M7 722h66q96 -258 96 -439t-96 -439h-66q22 65 45 206.5t23 232.5t-23 232.5t-45 206.5z" />
    <glyph glyph-name="asterisk" unicode="*" horiz-adv-x="296" 
d="M112 581l-99 45l27 50l87 -59l-4 105h50l-4 -105l87 59l27 -50l-99 -45l99 -45l-27 -50l-87 59l4 -105h-50l4 105l-87 -59l-27 50z" />
    <glyph glyph-name="plus" unicode="+" horiz-adv-x="600" 
d="M258 0v211h-211v84h211v211h84v-211h211v-84h-211v-211h-84z" />
    <glyph glyph-name="comma" unicode="," horiz-adv-x="186" 
d="M29 -60l22 178h106l-56 -178h-72z" />
    <glyph glyph-name="hyphen" unicode="-" horiz-adv-x="296" 
d="M27 214v78h242v-78h-242z" />
    <glyph glyph-name="period" unicode="." horiz-adv-x="186" 
d="M34 0v118h118v-118h-118z" />
    <glyph glyph-name="slash" unicode="/" horiz-adv-x="296" 
d="M-2 -6l216 734h84l-216 -734h-84z" />
    <glyph glyph-name="zero" unicode="0" horiz-adv-x="372" 
d="M131 566v-410q0 -22 1 -33.5t5.5 -27t16.5 -22.5t32 -7t32 7t16.5 22.5t5.5 27t1 33.5v410q0 22 -1 33.5t-5.5 27t-16.5 22.5t-32 7t-32 -7t-16.5 -22.5t-5.5 -27t-1 -33.5zM37 172v378q0 100 31 139t118 39t118 -39t31 -139v-378q0 -100 -31 -139t-118 -39t-118 39
t-31 139z" />
    <glyph glyph-name="one" unicode="1" horiz-adv-x="372" 
d="M160 0v586h-2q-27 -36 -78 -75v94q18 13 49.5 53.5t40.5 63.5h84v-722h-94z" />
    <glyph glyph-name="two" unicode="2" horiz-adv-x="372" 
d="M34 0v96l147 272q31 58 43.5 102t12.5 100q0 48 -12.5 67t-37.5 19q-28 0 -38 -17t-10 -56v-47h-94v56q0 75 29.5 105.5t110.5 30.5q85 0 115.5 -35t30.5 -126q0 -64 -9 -105t-37 -96l-151 -282h204v-84h-304z" />
    <glyph glyph-name="three" unicode="3" horiz-adv-x="372" 
d="M37 172v23h94v-39q0 -90 55 -90t55 90v85q0 50 -17.5 68.5t-67.5 18.5h-25v84h32q45 0 60 17t15 70v80q0 44 -12 60.5t-35 16.5q-55 0 -55 -90v-24h-94q0 106 30.5 146t118.5 40q85 0 113 -42t28 -150q0 -93 -16.5 -123t-71.5 -40v-2q36 -6 52.5 -18t27.5 -54.5
t11 -126.5q0 -100 -31 -139t-118 -39t-118 39t-31 139z" />
    <glyph glyph-name="four" unicode="4" horiz-adv-x="372" 
d="M22 176v82l160 464h124v-474h44v-72h-44v-176h-94v176h-190zM212 248v334h-2l-104 -334h106z" />
    <glyph glyph-name="five" unicode="5" horiz-adv-x="372" 
d="M34 117v78h94v-64q0 -65 57 -65q21 0 34 9t18 27.5t6 31t1 34.5v154q0 69 -54 69q-25 0 -40 -19.5t-15 -55.5v-29h-94v435h280v-78h-186v-221h2q32 46 90 46q46 0 78.5 -30t32.5 -94v-206q0 -145 -156 -145q-73 0 -110.5 32.5t-37.5 90.5z" />
    <glyph glyph-name="six" unicode="6" horiz-adv-x="372" 
d="M332 601v-64h-94v35q0 43 -12 60.5t-42 17.5q-56 0 -56 -90v-133h2q31 42 94 42q65 0 89.5 -44.5t24.5 -129.5v-123q0 -101 -32.5 -139.5t-127.5 -38.5q-80 0 -112 36t-32 130v390q0 97 34.5 137.5t115.5 40.5q148 0 148 -127zM238 156v168q0 67 -54 67
q-29 0 -42.5 -21.5t-13.5 -69.5v-144q0 -24 1 -35.5t6 -26.5t17 -21.5t32 -6.5q16 0 26.5 4.5t16 10.5t8 20t3 23.5t0.5 31.5z" />
    <glyph glyph-name="seven" unicode="7" horiz-adv-x="372" 
d="M86 0l158 634h-218v88h312v-92l-148 -630h-104z" />
    <glyph glyph-name="eight" unicode="8" horiz-adv-x="372" 
d="M241 156v88q0 22 -1 33.5t-5.5 27t-16.5 22.5t-32 7t-32 -7t-16.5 -22.5t-5.5 -27t-1 -33.5v-88q0 -22 1 -33.5t5.5 -27t16.5 -22.5t32 -7t32 7t16.5 22.5t5.5 27t1 33.5zM235 479v90q0 16 -0.5 24.5t-3 21.5t-7 19t-14.5 11t-24 5t-24 -5t-14.5 -11t-7 -19t-3 -21.5
t-0.5 -24.5v-59q0 -24 0.5 -35t3 -26t7.5 -21t14.5 -11t23.5 -5q23 0 34.5 11.5t13 22.5t1.5 33zM37 172v60q0 74 17 100t63 39v2q-43 10 -58.5 39t-15.5 95v67q0 80 31.5 117t111.5 37t111.5 -37t31.5 -117v-67q0 -66 -15.5 -95t-58.5 -39v-2q46 -13 63 -39t17 -100v-60
q0 -100 -31 -139t-118 -39t-118 39t-31 139z" />
    <glyph glyph-name="nine" unicode="9" horiz-adv-x="372" 
d="M40 121v64h94v-35q0 -43 12 -60.5t42 -17.5q56 0 56 90v133h-2q-31 -42 -94 -42q-65 0 -89.5 44.5t-24.5 129.5v123q0 101 32.5 139.5t127.5 38.5q80 0 112 -36t32 -130v-390q0 -97 -34.5 -137.5t-115.5 -40.5q-148 0 -148 127zM134 566v-168q0 -67 54 -67
q29 0 42.5 21.5t13.5 69.5v144q0 24 -1 35.5t-6 26.5t-17 21.5t-32 6.5q-16 0 -26.5 -4.5t-16 -10.5t-8 -20t-3 -23.5t-0.5 -31.5z" />
    <glyph glyph-name="colon" unicode=":" horiz-adv-x="186" 
d="M34 0v118h118v-118h-118zM34 384v118h118v-118h-118z" />
    <glyph glyph-name="semicolon" unicode=";" horiz-adv-x="186" 
d="M29 -60l22 178h106l-56 -178h-72zM34 384v118h118v-118h-118z" />
    <glyph glyph-name="less" unicode="&#x3c;" horiz-adv-x="600" 
d="M47 217v72l506 223v-84l-403 -175l403 -175v-84z" />
    <glyph glyph-name="equal" unicode="=" horiz-adv-x="600" 
d="M47 315v84h506v-84h-506zM47 107v84h506v-84h-506z" />
    <glyph glyph-name="greater" unicode="&#x3e;" horiz-adv-x="600" 
d="M47 -6v84l403 175l-403 175v84l506 -223v-72z" />
    <glyph glyph-name="question" unicode="?" horiz-adv-x="315" 
d="M115 163v120q0 48 7.5 81.5t29.5 87.5l21 48q15 34 18 51t3 56q0 30 -7.5 42.5t-27.5 12.5q-33 0 -33 -49v-64h-94v64q0 63 31.5 89t95.5 26q73 0 101 -31.5t28 -104.5q0 -77 -25 -130l-31 -62q-22 -43 -30.5 -75t-8.5 -80v-82h-78zM101 0v100h106v-100h-106z" />
    <glyph glyph-name="at" unicode="@" horiz-adv-x="800" 
d="M502 401q0 38 -24.5 65.5t-59.5 27.5q-58 0 -101 -58.5t-43 -123.5q0 -42 22.5 -69t62.5 -27q58 0 100.5 62t42.5 123zM33 362q0 153 112 259.5t271 106.5q144 0 247.5 -85.5t103.5 -216.5q0 -65 -26.5 -121.5t-65 -90t-78.5 -52t-72 -18.5q-59 0 -68 57h-2
q-48 -57 -122 -57q-63 0 -100 46t-37 114q0 101 63 181.5t156 80.5q81 0 116 -73l20 58h72l-77 -265q-10 -40 -10 -49q0 -21 24 -21q43 0 86 62t43 136q0 106 -80.5 174t-192.5 68q-132 0 -218.5 -88t-86.5 -210q0 -121 90.5 -206.5t222.5 -85.5q66 0 128.5 27.5t98.5 66.5
h84q-51 -79 -134 -122.5t-181 -43.5q-163 0 -275 106.5t-112 261.5z" />
    <glyph glyph-name="A" unicode="A" horiz-adv-x="444" 
d="M11 0l159 722h116l147 -722h-100l-33 184h-156l-33 -184h-100zM222 616l-63 -348h127l-62 348h-2z" />
    <glyph glyph-name="B" unicode="B" horiz-adv-x="389" 
d="M37 0v722h174q89 0 116.5 -36t27.5 -139q0 -102 -18.5 -134.5t-72.5 -39.5v-2q60 -11 78 -42t18 -123q0 -63 -5.5 -98.5t-23 -62t-50 -36t-87.5 -9.5h-157zM137 334v-256h62q43 0 55 23t12 108q0 81 -11.5 103t-52.5 22h-65zM137 644v-232h58q45 0 55.5 20.5t10.5 109.5
q0 62 -14.5 82t-62.5 20h-47z" />
    <glyph glyph-name="C" unicode="C" horiz-adv-x="352" 
d="M26 173v365q0 190 169 190q73 0 109 -34.5t36 -96.5v-72h-94v50q0 75 -58 75q-37 0 -49.5 -27.5t-12.5 -96.5v-354q0 -58 15.5 -79t43.5 -21q61 0 61 86v50h94v-80q0 -63 -33 -98.5t-114 -35.5q-91 0 -129 45t-38 134z" />
    <glyph glyph-name="D" unicode="D" horiz-adv-x="407" 
d="M137 638v-554h48q54 0 71 33.5t17 129.5v248q0 85 -17.5 114t-78.5 29h-40zM37 0v722h161q36 0 61 -4t44.5 -11t31.5 -23t20 -33.5t11.5 -49t5 -62.5t1.5 -81v-215q0 -142 -37.5 -192.5t-153.5 -50.5h-145z" />
    <glyph glyph-name="E" unicode="E" horiz-adv-x="315" 
d="M37 0v722h272v-84h-172v-226h162v-84h-162v-244h172v-84h-272z" />
    <glyph glyph-name="F" unicode="F" horiz-adv-x="315" 
d="M37 0v722h272v-84h-172v-226h162v-84h-162v-328h-100z" />
    <glyph glyph-name="G" unicode="G" horiz-adv-x="407" 
d="M370 531h-100v37q0 38 -17.5 60t-46.5 22q-69 0 -69 -119v-364q0 -43 19 -69t50 -26q34 0 64 7v212h-66v84h166v-363q-78 -18 -165 -18q-91 0 -129.5 45t-38.5 134v365q0 103 37.5 146.5t132.5 43.5q163 0 163 -131v-66z" />
    <glyph glyph-name="H" unicode="H" horiz-adv-x="407" 
d="M37 0v722h100v-310h133v310h100v-722h-100v328h-133v-328h-100z" />
    <glyph glyph-name="I" unicode="I" horiz-adv-x="168" 
d="M34 0v722h100v-722h-100z" />
    <glyph glyph-name="J" unicode="J" horiz-adv-x="315" 
d="M8 118v93h94v-71q0 -68 38 -68q25 0 33 19t8 53v578h100v-589q0 -139 -141 -139q-67 0 -99.5 27t-32.5 97z" />
    <glyph glyph-name="K" unicode="K" horiz-adv-x="407" 
d="M37 0v722h100v-329h2l158 329h100l-168 -339l180 -383h-112l-158 361h-2v-361h-100z" />
    <glyph glyph-name="L" unicode="L" horiz-adv-x="315" 
d="M37 0v722h100v-638h168v-84h-268z" />
    <glyph glyph-name="M" unicode="M" horiz-adv-x="574" 
d="M37 0v722h159l92 -550h2l92 550h155v-722h-94v650h-2l-102 -650h-100l-112 650h-2v-650h-88z" />
    <glyph glyph-name="N" unicode="N" horiz-adv-x="426" 
d="M37 0v722h138l118 -600h2v600h94v-722h-144l-118 616h-2v-616h-88z" />
    <glyph glyph-name="O" unicode="O" horiz-adv-x="407" 
d="M134 546v-379q0 -46 19 -70.5t50 -24.5q32 0 51 24.5t19 70.5v379q0 104 -70 104q-69 0 -69 -104zM34 173v365q0 190 169 190q93 0 131.5 -45t38.5 -134v-365q0 -190 -170 -190q-92 0 -130.5 45t-38.5 134z" />
    <glyph glyph-name="P" unicode="P" horiz-adv-x="389" 
d="M137 638v-240h52q51 0 63 19t12 101t-12 101t-63 19h-52zM37 0v722h165q101 0 131.5 -39t30.5 -165t-30.5 -165t-131.5 -39h-65v-314h-100z" />
    <glyph glyph-name="Q" unicode="Q" horiz-adv-x="426" 
d="M134 546v-379q0 -46 19 -70.5t50 -24.5q32 0 51 24.5t19 70.5v379q0 104 -70 104q-69 0 -69 -104zM34 173v365q0 190 169 190q93 0 131.5 -45t38.5 -134v-341q0 -99 -42 -146l2 -2q24 12 94 12v-72q-41 0 -123.5 -3t-100.5 -3q-92 0 -130.5 45t-38.5 134z" />
    <glyph glyph-name="R" unicode="R" horiz-adv-x="389" 
d="M37 0v722h155q56 0 87 -7.5t48 -32.5t21.5 -58.5t4.5 -98.5q0 -77 -18 -111.5t-77 -52.5v-2q50 -5 70.5 -31.5t20.5 -78.5v-157q0 -62 6 -92h-94q-12 22 -12 65v163q0 52 -14.5 69t-63.5 17h-34v-314h-100zM137 638v-240h26q59 0 74.5 21t15.5 102q0 80 -10.5 98.5
t-57.5 18.5h-48z" />
    <glyph glyph-name="S" unicode="S" horiz-adv-x="370" 
d="M26 123v86h100v-59q0 -78 58 -78q66 0 66 83q0 49 -16.5 80t-90.5 104q-59 59 -88 106.5t-29 113.5q0 87 40.5 128t123.5 41q73 0 117 -40q29 -27 29 -92v-68h-94v57q0 65 -56 65q-31 0 -45.5 -18.5t-14.5 -60.5q0 -40 18.5 -73.5t83.5 -101.5q73 -76 94.5 -117.5
t21.5 -106.5q0 -88 -38.5 -133t-124.5 -45q-72 0 -113.5 32t-41.5 97z" />
    <glyph glyph-name="T" unicode="T" horiz-adv-x="352" 
d="M6 638v84h340v-84h-120v-638h-100v638h-120z" />
    <glyph glyph-name="U" unicode="U" horiz-adv-x="407" 
d="M373 722v-559q0 -169 -169 -169q-170 0 -170 169v559h100v-576q0 -38 16 -56t54 -18q37 0 53 18t16 56v576h100z" />
    <glyph glyph-name="V" unicode="V" horiz-adv-x="426" 
d="M155 0l-147 722h100l104 -574h2l104 574h100l-147 -722h-116z" />
    <glyph glyph-name="W" unicode="W" horiz-adv-x="667" 
d="M127 0l-114 722h103l72 -594h2l80 594h136l66 -594h2l86 594h94l-130 -722h-122l-67 604h-2l-85 -604h-121z" />
    <glyph glyph-name="X" unicode="X" horiz-adv-x="426" 
d="M8 0l156 375l-145 347h106l94 -254l94 254h100l-144 -357l149 -365h-106l-98 265l-106 -265h-100z" />
    <glyph glyph-name="Y" unicode="Y" horiz-adv-x="407" 
d="M153 296l-138 426h100l87 -304h2l100 304h88l-139 -426v-296h-100v296z" />
    <glyph glyph-name="Z" unicode="Z" horiz-adv-x="352" 
d="M11 0v91l225 547h-197v84h297v-84l-225 -554h230v-84h-330z" />
    <glyph glyph-name="bracketleft" unicode="[" horiz-adv-x="222" 
d="M57 -156v878h158v-72h-74v-734h74v-72h-158z" />
    <glyph glyph-name="backslash" unicode="\" horiz-adv-x="296" 
d="M82 728l216 -734h-84l-216 734h84z" />
    <glyph glyph-name="bracketright" unicode="]" horiz-adv-x="222" 
d="M7 -156v72h74v734h-74v72h158v-878h-158z" />
    <glyph glyph-name="asciicircum" unicode="^" horiz-adv-x="600" 
d="M57 308l204 414h78l204 -414h-84l-159 330l-159 -330h-84z" />
    <glyph glyph-name="underscore" unicode="_" horiz-adv-x="500" 
d="M0 -125v50h500v-50h-500z" />
    <glyph glyph-name="grave" unicode="`" horiz-adv-x="168" 
d="M73 597l-109 145h100l69 -145h-60z" />
    <glyph glyph-name="a" unicode="a" 
d="M32 354v45q0 109 134 109q66 0 99.5 -29t33.5 -93v-386h-88v52q-6 -6 -14 -16t-13 -15q-27 -27 -67 -27q-47 0 -69.5 27t-22.5 110q0 73 7 101.5t27 49.5q18 19 43.5 25t102.5 6v81q0 24 -8.5 36t-30.5 12q-40 0 -40 -42v-46h-94zM205 247h-30q-33 0 -44.5 -21.5
t-11.5 -81.5q0 -54 7 -69t30 -15t36 16t13 42v129z" />
    <glyph glyph-name="b" unicode="b" 
d="M206 126v248q0 68 -36 68q-43 0 -43 -82v-253q0 -26 11 -39.5t27 -13.5q20 0 30.5 15.5t10.5 56.5zM33 0v722h94v-256h2q12 21 36 32q21 10 47 10q41 0 64.5 -30.5t23.5 -85.5v-282q0 -55 -23.5 -85.5t-64.5 -30.5q-58 0 -89 42h-2v-36h-88z" />
    <glyph glyph-name="c" unicode="c" horiz-adv-x="296" 
d="M21 119v254q0 64 35 99.5t97 35.5q61 0 91.5 -27t30.5 -73v-75h-88v55q0 54 -36 54t-36 -59v-276q0 -47 36 -47t36 49v60h88v-76q0 -52 -35 -75.5t-86 -23.5q-59 0 -96 30t-37 95z" />
    <glyph glyph-name="d" unicode="d" 
d="M127 374v-248q0 -41 10.5 -56.5t30.5 -15.5q16 0 27 13.5t11 39.5v253q0 82 -43 82q-36 0 -36 -68zM33 110v282q0 55 23.5 85.5t64.5 30.5q26 0 47 -10q24 -11 36 -32h2v256h94v-722h-88v36h-2q-16 -20 -40 -31t-49 -11q-41 0 -64.5 30.5t-23.5 85.5z" />
    <glyph glyph-name="e" unicode="e" 
d="M30 119v254q0 64 35.5 99.5t100.5 35.5q62 0 99.5 -29.5t37.5 -95.5v-162h-179v-107q0 -34 11 -47t35 -13q45 0 45 65v46h88v-71q0 -43 -33.5 -71.5t-106.5 -28.5q-59 0 -96 30t-37 95zM124 393v-106h91v98q0 34 -10.5 48.5t-34.5 14.5q-25 0 -35.5 -13.5t-10.5 -41.5z
" />
    <glyph glyph-name="f" unicode="f" horiz-adv-x="204" 
d="M52 0v436h-47v66h47v118q0 56 24 79t96 23h32v-72h-17q-41 0 -41 -43v-105h58v-66h-58v-436h-94z" />
    <glyph glyph-name="g" unicode="g" 
d="M42 -88v42h94v-39q0 -43 35 -43t35 57v125h-2q-27 -42 -83 -42q-41 0 -64.5 30.5t-23.5 85.5v264q0 55 23.5 85.5t64.5 30.5q31 0 50.5 -11.5t38.5 -39.5h2v45h88v-551q0 -139 -135 -139q-123 0 -123 100zM127 390v-240q0 -41 10.5 -56.5t30.5 -15.5q16 0 27 13.5
t11 39.5v258q0 53 -42 53q-37 0 -37 -52z" />
    <glyph glyph-name="h" unicode="h" 
d="M34 0v722h94v-262h2q10 23 33 36q23 12 48 12q39 0 63.5 -23.5t24.5 -75.5v-409h-94v391q0 45 -36 45q-41 0 -41 -53v-383h-94z" />
    <glyph glyph-name="i" unicode="i" horiz-adv-x="168" 
d="M37 0v502h94v-502h-94zM37 622v100h94v-100h-94z" />
    <glyph glyph-name="j" unicode="j" horiz-adv-x="168" 
d="M37 -74v576h94v-594q0 -54 -28.5 -74.5t-114.5 -21.5v72q30 1 39.5 8.5t9.5 33.5zM37 622v100h94v-100h-94z" />
    <glyph glyph-name="k" unicode="k" horiz-adv-x="315" 
d="M34 0v722h94v-433h2l85 213h88l-91 -225l103 -277h-100l-85 258h-2v-258h-94z" />
    <glyph glyph-name="l" unicode="l" horiz-adv-x="168" 
d="M37 0v722h94v-722h-94z" />
    <glyph glyph-name="m" unicode="m" horiz-adv-x="520" 
d="M42 0v502h88v-42h2q12 20 36.5 34t52.5 14q52 0 82 -48q29 48 83 48q92 0 92 -99v-409h-94v391q0 45 -36 45q-41 0 -41 -53v-383h-94v391q0 45 -36 45q-41 0 -41 -53v-383h-94z" />
    <glyph glyph-name="n" unicode="n" 
d="M34 0v502h88v-42h2q14 23 36 35q22 13 51 13q39 0 63.5 -23.5t24.5 -75.5v-409h-94v391q0 45 -36 45q-41 0 -41 -53v-383h-94z" />
    <glyph glyph-name="o" unicode="o" 
d="M33 119v254q0 64 35 99.5t98 35.5q60 0 97 -30t37 -95v-254q0 -64 -35 -99.5t-98 -35.5q-60 0 -97 30t-37 95zM127 379v-256q0 -63 40 -63q39 0 39 63v256q0 63 -39 63q-40 0 -40 -63z" />
    <glyph glyph-name="p" unicode="p" 
d="M33 -182v684h88v-56h2q23 62 89 62q41 0 64.5 -30.5t23.5 -85.5v-282q0 -55 -23.5 -85.5t-64.5 -30.5q-55 0 -85 34v-210h-94zM127 354v-241q0 -26 11 -39.5t27 -13.5q20 0 30.5 15.5t10.5 56.5v236q0 68 -36 68q-43 0 -43 -82z" />
    <glyph glyph-name="q" unicode="q" 
d="M33 110v282q0 55 23.5 85.5t64.5 30.5q66 0 89 -62h2v56h88v-684h-94v210q-30 -34 -85 -34q-41 0 -64.5 30.5t-23.5 85.5zM127 368v-236q0 -41 10.5 -56.5t30.5 -15.5q16 0 27 13.5t11 39.5v241q0 82 -43 82q-36 0 -36 -68z" />
    <glyph glyph-name="r" unicode="r" horiz-adv-x="204" 
d="M34 0v502h88v-52h2q16 35 32.5 46.5t51.5 11.5v-94q-39 0 -59.5 -14t-20.5 -51v-349h-94z" />
    <glyph glyph-name="s" unicode="s" horiz-adv-x="296" 
d="M266 340h-84v48q0 30 -7 42t-26 12t-25.5 -10t-6.5 -36q0 -37 9.5 -52t57.5 -57q56 -49 71.5 -76.5t15.5 -81.5q0 -74 -30 -104.5t-104 -30.5q-112 0 -112 103v71h88v-69q0 -22 8.5 -30.5t26.5 -8.5q22 0 28.5 12t6.5 44q0 41 -8.5 57.5t-48.5 50.5l-21 18
q-55 47 -65.5 67.5t-10.5 73.5q0 69 32 97t98 28q107 0 107 -91v-77z" />
    <glyph glyph-name="t" unicode="t" horiz-adv-x="204" 
d="M52 67v369h-47v66h47v95l94 33v-128h58v-66h-58v-325q0 -27 11 -36t34 -9q15 0 24 3v-66q-33 -3 -61 -3q-55 0 -78.5 16t-23.5 51z" />
    <glyph glyph-name="u" unicode="u" 
d="M299 502v-502h-88v42h-2q-14 -23 -36 -35q-22 -13 -51 -13q-39 0 -63.5 23.5t-24.5 75.5v409h94v-391q0 -45 36 -45q41 0 41 53v383h94z" />
    <glyph glyph-name="v" unicode="v" 
d="M106 0l-101 502h97l65 -408h2l65 408h94l-112 -502h-110z" />
    <glyph glyph-name="w" unicode="w" horiz-adv-x="537" 
d="M99 0l-91 502h100l49 -390h2l59 390h107l56 -390h2l52 390h94l-100 -502h-107l-50 390h-2l-68 -390h-103z" />
    <glyph glyph-name="x" unicode="x" horiz-adv-x="315" 
d="M-2 0l108 265l-97 237h104l49 -154h2l57 154h88l-99 -249l107 -253h-103l-60 177h-2l-60 -177h-94z" />
    <glyph glyph-name="y" unicode="y" 
d="M120 7l-114 495h100l62 -363h2l63 363h94l-163 -684h-88z" />
    <glyph glyph-name="z" unicode="z" horiz-adv-x="241" 
d="M11 0v91l131 339h-131v72h219v-82l-135 -348h135v-72h-219z" />
    <glyph glyph-name="braceleft" unicode="{" horiz-adv-x="222" 
d="M-2 250v66q59 1 59 113v166q0 60 32.5 93.5t79.5 33.5h35v-72h-20q-43 0 -43 -74v-162q0 -59 -30 -91.5t-59 -39.5v-2q29 -6 59 -37.5t30 -91.5v-162q0 -74 43 -74h20v-72h-35q-47 0 -79.5 33.5t-32.5 93.5v166q0 112 -59 113z" />
    <glyph glyph-name="bar" unicode="|" horiz-adv-x="222" 
d="M69 -6v734h84v-734h-84z" />
    <glyph glyph-name="braceright" unicode="}" horiz-adv-x="222" 
d="M224 316v-66q-59 -1 -59 -113v-166q0 -60 -32.5 -93.5t-79.5 -33.5h-35v72h20q43 0 43 74v162q0 59 30 91.5t59 39.5v2q-29 6 -59 37.5t-30 91.5v162q0 74 -43 74h-20v72h35q47 0 79.5 -33.5t32.5 -93.5v-166q0 -112 59 -113z" />
    <glyph glyph-name="asciitilde" unicode="~" horiz-adv-x="600" 
d="M105 170l-42 75q53 86 131 86q51 0 116 -37q60 -35 97 -35q44 0 88 77l42 -75q-53 -86 -131 -86q-48 0 -116 36t-97 36q-44 0 -88 -77z" />
    <glyph glyph-name="uni00A0" unicode="&#xa0;" horiz-adv-x="186" 
 />
    <glyph glyph-name="exclamdown" unicode="&#xa1;" horiz-adv-x="222" 
d="M58 -182l14 557h78l14 -557h-106zM58 440v100h106v-100h-106z" />
    <glyph glyph-name="cent" unicode="&#xa2;" horiz-adv-x="372" 
d="M163 -87v81q-48 8 -74 36q-30 33 -30 89v254q0 56 27 91t77 44v69h46v-69q53 -4 79 -32q25 -25 25 -68v-75h-88v55q0 54 -36 54t-36 -59v-276q0 -47 36 -47t36 49v60h88v-76q0 -47 -29.5 -71t-74.5 -28v-81h-46z" />
    <glyph glyph-name="sterling" unicode="&#xa3;" horiz-adv-x="372" 
d="M9 0v78h45v275h-45v66h45l4 142q5 167 172 167q79 0 119.5 -37.5t40.5 -103.5v-61h-88v48q0 35 -18 55.5t-53 20.5q-39 0 -61 -22.5t-22 -64.5v-144h110v-66h-110v-275h234v-78h-373z" />
    <glyph glyph-name="currency" unicode="&#xa4;" horiz-adv-x="372" 
d="M189 516q51 0 92 -31l34 33l28 -28l-33 -34q31 -41 31 -95q0 -55 -31 -94l33 -35l-28 -28l-35 34q-38 -32 -91 -32q-57 0 -98 31l-34 -33l-28 28l33 34q-31 41 -31 95t31 95l-33 34l28 28l34 -33q42 31 98 31zM91 361q0 -39 28 -67t67 -28t67 28t28 67t-28 67t-67 28
t-67 -28t-28 -67z" />
    <glyph glyph-name="yen" unicode="&#xa5;" horiz-adv-x="372" 
d="M139 0v149h-103v66h103v86h-103v66h82l-103 355h88l82 -304h2l92 304h78l-105 -355h84v-66h-103v-86h103v-66h-103v-149h-94z" />
    <glyph glyph-name="brokenbar" unicode="&#xa6;" horiz-adv-x="222" 
d="M69 -6v274h84v-274h-84zM69 454v274h84v-274h-84z" />
    <glyph glyph-name="section" unicode="&#xa7;" horiz-adv-x="296" 
d="M259 722v-66q-57 6 -85 6q-33 0 -49 -12.5t-16 -42.5q0 -28 17 -47.5t41 -32.5t48 -29.5t41 -48t17 -78.5q0 -53 -20 -80t-48 -32v-2q30 -15 50 -49.5t20 -79.5q0 -67 -37.5 -100.5t-118.5 -33.5q-53 0 -98 6v66q36 -6 80 -6q45 0 65.5 14t20.5 49q0 29 -17 52
t-41.5 39.5t-49 34.5t-41.5 47.5t-17 69.5q0 42 11 67.5t44 46.5q-55 40 -55 123q0 70 36 97.5t107 27.5q35 0 95 -6zM105 380q0 -28 10 -44t38 -35q20 16 28 28.5t8 34.5q0 54 -51 77q-33 -23 -33 -61z" />
    <glyph glyph-name="dieresis" unicode="&#xa8;" horiz-adv-x="168" 
d="M-32 622v100h78v-100h-78zM122 622v100h78v-100h-78z" />
    <glyph glyph-name="copyright" unicode="&#xa9;" horiz-adv-x="800" 
d="M111 361q0 -124 83.5 -209.5t205.5 -85.5q121 0 205 86t84 209t-84 209t-205 86q-122 0 -205.5 -85.5t-83.5 -209.5zM503 296h84q-13 -73 -62 -114.5t-117 -41.5q-92 0 -149.5 63t-57.5 158q0 97 56 159t151 62q67 0 115 -40.5t58 -111.5h-78q-7 37 -34.5 58.5
t-68.5 21.5q-58 0 -89.5 -41t-31.5 -108q0 -65 34 -107t91 -42q41 0 67.5 21.5t31.5 62.5zM33 361q0 151 107.5 259t259.5 108t259.5 -108t107.5 -259t-107.5 -259t-259.5 -108t-259.5 108t-107.5 259z" />
    <glyph glyph-name="ordfeminine" unicode="&#xaa;" horiz-adv-x="216" 
d="M199 653v-222h-60v29q-3 -2 -6 -5t-6 -6.5t-5 -5.5q-19 -16 -44 -16q-31 0 -46 16t-15 63t4.5 64t17.5 29q12 11 28.5 14.5t65.5 3.5v32q0 33 -23 33q-22 0 -22 -33v-13h-66v26q0 66 87 66q90 0 90 -75zM133 571h-17q-19 0 -26 -11.5t-7 -42.5q0 -27 4 -35.5t16 -8.5
q30 0 30 33v65z" />
    <glyph glyph-name="guillemotleft" unicode="&#xab;" 
d="M21 253l80 198h72l-58 -198l58 -198h-72zM160 253l80 198h72l-58 -198l58 -198h-72z" />
    <glyph glyph-name="logicalnot" unicode="&#xac;" horiz-adv-x="600" 
d="M469 107v208h-422v84h506v-292h-84z" />
    <glyph glyph-name="uni00AD" unicode="&#xad;" horiz-adv-x="296" 
d="M27 214v78h242v-78h-242z" />
    <glyph glyph-name="registered" unicode="&#xae;" horiz-adv-x="800" 
d="M33 361q0 152 107.5 259.5t259.5 107.5t259.5 -107.5t107.5 -259.5t-107.5 -259.5t-259.5 -107.5t-259.5 108t-107.5 259zM111 361q0 -124 83 -209.5t206 -85.5q121 0 205 85.5t84 209.5t-84 209.5t-205 85.5q-123 0 -206 -85.5t-83 -209.5zM488 152l-110 181h-66v-181
h-72v419h165q80 0 119 -29t39 -92q0 -54 -30 -81t-77 -29l113 -188h-81zM312 393h75q31 0 49.5 3t33.5 18t15 42q0 55 -92 55h-81v-118z" />
    <glyph glyph-name="macron" unicode="&#xaf;" horiz-adv-x="168" 
d="M-48 643v54h264v-54h-264z" />
    <glyph glyph-name="degree" unicode="&#xb0;" horiz-adv-x="400" 
d="M50 578q0 62 44 106t106 44t106 -44t44 -106t-44 -106t-106 -44t-106 44t-44 106zM110 578q0 -38 26 -64t64 -26t64 26t26 64t-26 64t-64 26t-64 -26t-26 -64z" />
    <glyph glyph-name="plusminus" unicode="&#xb1;" horiz-adv-x="600" 
d="M258 354v152h84v-152h211v-84h-211v-152h-84v152h-211v84h211zM47 0v84h506v-84h-506z" />
    <glyph glyph-name="twosuperior" unicode="&#xb2;" horiz-adv-x="240" 
d="M195 511l-99 -160h128v-60h-209v60q20 31 96 161q21 37 28.5 61t7.5 61q0 44 -25 44t-25 -46v-22h-78v34q2 47 22 65.5t81 18.5t82 -22t21 -79q0 -62 -30 -116z" />
    <glyph glyph-name="threesuperior" unicode="&#xb3;" horiz-adv-x="240" 
d="M147 391v46q0 26 -10.5 36t-39.5 10h-15v60h19q26 0 35 9.5t9 36.5v46q0 43 -22 43q-28 0 -28 -50v-13h-78q0 64 20 88q22 25 86 25q61 0 80.5 -25t19.5 -91q0 -55 -11.5 -73t-51.5 -24v-2q38 -4 51.5 -24.5t13.5 -92.5q0 -62 -21.5 -85.5t-84.5 -23.5q-61 0 -82.5 23.5
t-21.5 85.5v13h78v-18q0 -54 26 -54q28 0 28 54z" />
    <glyph glyph-name="acute" unicode="&#xb4;" horiz-adv-x="168" 
d="M35 597l69 145h100l-109 -145h-60z" />
    <glyph glyph-name="mu" unicode="&#xb5;" 
d="M299 502v-502h-88v42h-2q-5 -21 -18 -34q-14 -14 -30 -14q-19 0 -33 12v-188h-94v684h94v-391q0 -45 36 -45q41 0 41 53v383h94z" />
    <glyph glyph-name="paragraph" unicode="&#xb6;" horiz-adv-x="400" 
d="M134 0v409q-52 0 -85 45t-33 109q0 75 43.5 117t112.5 42h180v-722h-78v662h-62v-662h-78z" />
    <glyph glyph-name="periodcentered" unicode="&#xb7;" horiz-adv-x="186" 
d="M23 300q0 29 20.5 49.5t49.5 20.5t49.5 -20.5t20.5 -49.5t-20.5 -49.5t-49.5 -20.5t-49.5 20.5t-20.5 49.5z" />
    <glyph glyph-name="cedilla" unicode="&#xb8;" horiz-adv-x="168" 
d="M18 -165l8 31q26 -12 48 -12q24 0 34.5 10.5t10.5 24.5q0 16 -12 24t-26 8q-24 0 -44 -10l25 97h39l-13 -51l2 -2q6 2 27 2q29 0 48.5 -17t19.5 -46q0 -33 -27.5 -54.5t-69.5 -21.5q-49 0 -70 17z" />
    <glyph glyph-name="onesuperior" unicode="&#xb9;" horiz-adv-x="240" 
d="M167 724v-433h-78v340h-2q-17 -21 -49 -45v66q12 8 32 33t25 39h72z" />
    <glyph glyph-name="ordmasculine" unicode="&#xba;" horiz-adv-x="240" 
d="M29 498v152q0 37 23.5 57.5t67.5 20.5q91 0 91 -72v-152q0 -37 -23.5 -57t-66.5 -20q-92 0 -92 71zM95 645v-135q0 -37 26 -37q24 0 24 37v135q0 37 -24 37q-26 0 -26 -37z" />
    <glyph glyph-name="guillemotright" unicode="&#xbb;" 
d="M21 55l58 198l-58 198h72l80 -198l-80 -198h-72zM160 55l58 198l-58 198h72l80 -198l-80 -198h-72z" />
    <glyph glyph-name="onequarter" unicode="&#xbc;" horiz-adv-x="555" 
d="M494 433v-279h28v-54h-28v-100h-78v100h-135v54l104 279h109zM416 154v195h-2l-67 -195h69zM114 -6l227 734h60l-227 -734h-60zM162 724v-433h-78v340h-2q-17 -21 -49 -45v66q12 8 32 33t25 39h72z" />
    <glyph glyph-name="onehalf" unicode="&#xbd;" horiz-adv-x="555" 
d="M105 -6l227 734h60l-227 -734h-60zM162 724v-433h-78v340h-2q-17 -21 -49 -45v66q12 8 32 33t25 39h72zM492 220l-99 -160h128v-60h-209v60q20 31 96 161q21 37 28.5 61t7.5 61q0 44 -25 44t-25 -46v-22h-78v34q2 47 22 65.5t81 18.5t82 -22t21 -79q0 -62 -30 -116z" />
    <glyph glyph-name="threequarters" unicode="&#xbe;" horiz-adv-x="555" 
d="M143 -6l227 734h60l-227 -734h-60zM147 391v46q0 26 -10.5 36t-39.5 10h-15v60h19q26 0 35 9.5t9 36.5v46q0 43 -22 43q-28 0 -28 -50v-13h-78q0 64 20 88q22 25 86 25q61 0 80.5 -25t19.5 -91q0 -55 -11.5 -73t-51.5 -24v-2q38 -4 51.5 -24.5t13.5 -92.5
q0 -62 -21.5 -85.5t-84.5 -23.5q-61 0 -82.5 23.5t-21.5 85.5v13h78v-18q0 -54 26 -54q28 0 28 54zM512 433v-279h28v-54h-28v-100h-78v100h-135v54l104 279h109zM434 154v195h-2l-67 -195h69z" />
    <glyph glyph-name="questiondown" unicode="&#xbf;" horiz-adv-x="315" 
d="M200 377v-120q0 -48 -7.5 -81.5t-29.5 -87.5l-21 -48q-15 -34 -18 -51t-3 -56q0 -30 7.5 -42.5t27.5 -12.5q33 0 33 49v64h94v-64q0 -63 -31.5 -89t-95.5 -26q-73 0 -101 31.5t-28 104.5q0 77 25 130l31 62q22 43 30.5 75t8.5 80v82h78zM214 540v-100h-106v100h106z" />
    <glyph glyph-name="Agrave" unicode="&#xc0;" horiz-adv-x="444" 
d="M11 0l159 722h116l147 -722h-100l-33 184h-156l-33 -184h-100zM222 616l-63 -348h127l-62 348h-2zM216 772l-109 145h100l69 -145h-60z" />
    <glyph glyph-name="Aacute" unicode="&#xc1;" horiz-adv-x="444" 
d="M11 0l159 722h116l147 -722h-100l-33 184h-156l-33 -184h-100zM222 616l-63 -348h127l-62 348h-2zM178 772l69 145h100l-109 -145h-60z" />
    <glyph glyph-name="Acircumflex" unicode="&#xc2;" horiz-adv-x="444" 
d="M11 0l159 722h116l147 -722h-100l-33 184h-156l-33 -184h-100zM222 616l-63 -348h127l-62 348h-2zM90 772l98 145h78l98 -145h-72l-65 85l-65 -85h-72z" />
    <glyph glyph-name="Atilde" unicode="&#xc3;" horiz-adv-x="444" 
d="M11 0l159 722h116l147 -722h-100l-33 184h-156l-33 -184h-100zM222 616l-63 -348h127l-62 348h-2zM134 788h-54q2 39 22 71q26 38 73 38q26 0 64.5 -18.5t48.5 -18.5q11 0 20.5 14t11.5 29h54q-2 -41 -25 -75t-70 -34q-26 0 -64.5 18.5t-48.5 18.5q-11 0 -20.5 -14
t-11.5 -29z" />
    <glyph glyph-name="Adieresis" unicode="&#xc4;" horiz-adv-x="444" 
d="M11 0l159 722h116l147 -722h-100l-33 184h-156l-33 -184h-100zM222 616l-63 -348h127l-62 348h-2zM111 797v100h78v-100h-78zM265 797v100h78v-100h-78z" />
    <glyph glyph-name="Aring" unicode="&#xc5;" horiz-adv-x="444" 
d="M11 0l159 722h116l147 -722h-100l-33 184h-156l-33 -184h-100zM222 616l-63 -348h127l-62 348h-2zM137 834q0 38 26.5 64t63.5 26t63.5 -26t26.5 -64t-26.5 -64t-63.5 -26t-63.5 26t-26.5 64zM183 834q0 -18 13 -31t31 -13t31 13t13 31t-13 31t-31 13t-31 -13t-13 -31z
" />
    <glyph glyph-name="AE" unicode="&#xc6;" horiz-adv-x="611" 
d="M316 268l-28 360h-2l-100 -360h130zM11 0l224 722h370v-84h-230l20 -226h200v-84h-193l21 -244h182v-84h-269l-14 184h-160l-51 -184h-100z" />
    <glyph glyph-name="Ccedilla" unicode="&#xc7;" horiz-adv-x="352" 
d="M340 208v-80q0 -62 -31.5 -97.5t-110.5 -36.5l-10 -37l2 -2q6 2 27 2q29 0 48.5 -17t19.5 -46q0 -33 -27.5 -54.5t-69.5 -21.5q-49 0 -70 17l8 31q26 -12 48 -12q24 0 34.5 10.5t10.5 24.5q0 16 -12 24t-26 8q-24 0 -44 -10l22 86q-72 7 -102.5 51.5t-30.5 124.5v365
q0 190 169 190q73 0 109 -34.5t36 -96.5v-72h-94v50q0 75 -58 75q-37 0 -49.5 -27.5t-12.5 -96.5v-354q0 -58 15.5 -79t43.5 -21q61 0 61 86v50h94z" />
    <glyph glyph-name="Egrave" unicode="&#xc8;" horiz-adv-x="315" 
d="M37 0v722h272v-84h-172v-226h162v-84h-162v-244h172v-84h-272zM159 772l-109 145h100l69 -145h-60z" />
    <glyph glyph-name="Eacute" unicode="&#xc9;" horiz-adv-x="315" 
d="M37 0v722h272v-84h-172v-226h162v-84h-162v-244h172v-84h-272zM121 772l69 145h100l-109 -145h-60z" />
    <glyph glyph-name="Ecircumflex" unicode="&#xca;" horiz-adv-x="315" 
d="M37 0v722h272v-84h-172v-226h162v-84h-162v-244h172v-84h-272zM33 772l98 145h78l98 -145h-72l-65 85l-65 -85h-72z" />
    <glyph glyph-name="Edieresis" unicode="&#xcb;" horiz-adv-x="315" 
d="M37 0v722h272v-84h-172v-226h162v-84h-162v-244h172v-84h-272zM54 797v100h78v-100h-78zM208 797v100h78v-100h-78z" />
    <glyph glyph-name="Igrave" unicode="&#xcc;" horiz-adv-x="168" 
d="M34 0v722h100v-722h-100zM73 772l-109 145h100l69 -145h-60z" />
    <glyph glyph-name="Iacute" unicode="&#xcd;" horiz-adv-x="168" 
d="M34 0v722h100v-722h-100zM35 772l69 145h100l-109 -145h-60z" />
    <glyph glyph-name="Icircumflex" unicode="&#xce;" horiz-adv-x="168" 
d="M34 0v722h100v-722h-100zM-53 772l98 145h78l98 -145h-72l-65 85l-65 -85h-72z" />
    <glyph glyph-name="Idieresis" unicode="&#xcf;" horiz-adv-x="168" 
d="M34 0v722h100v-722h-100zM-32 797v100h78v-100h-78zM122 797v100h78v-100h-78z" />
    <glyph glyph-name="Eth" unicode="&#xd0;" horiz-adv-x="407" 
d="M37 0v328h-37v84h37v310h161q36 0 61 -4t44.5 -11t31.5 -23t20 -33.5t11.5 -49t5 -62.5t1.5 -81v-215q0 -142 -37.5 -192.5t-153.5 -50.5h-145zM137 328v-244h48q54 0 71 33.5t17 129.5v248q0 85 -17.5 114t-78.5 29h-40v-226h67v-84h-67z" />
    <glyph glyph-name="Ntilde" unicode="&#xd1;" horiz-adv-x="426" 
d="M37 0v722h138l118 -600h2v600h94v-722h-144l-118 616h-2v-616h-88zM120 788h-54q2 39 22 71q26 38 73 38q26 0 64.5 -18.5t48.5 -18.5q11 0 20.5 14t11.5 29h54q-2 -41 -25 -75t-70 -34q-26 0 -64.5 18.5t-48.5 18.5q-11 0 -20.5 -14t-11.5 -29z" />
    <glyph glyph-name="Ograve" unicode="&#xd2;" horiz-adv-x="407" 
d="M134 546v-379q0 -46 19 -70.5t50 -24.5q32 0 51 24.5t19 70.5v379q0 104 -70 104q-69 0 -69 -104zM34 173v365q0 190 169 190q93 0 131.5 -45t38.5 -134v-365q0 -190 -170 -190q-92 0 -130.5 45t-38.5 134zM193 772l-109 145h100l69 -145h-60z" />
    <glyph glyph-name="Oacute" unicode="&#xd3;" horiz-adv-x="407" 
d="M134 546v-379q0 -46 19 -70.5t50 -24.5q32 0 51 24.5t19 70.5v379q0 104 -70 104q-69 0 -69 -104zM34 173v365q0 190 169 190q93 0 131.5 -45t38.5 -134v-365q0 -190 -170 -190q-92 0 -130.5 45t-38.5 134zM155 772l69 145h100l-109 -145h-60z" />
    <glyph glyph-name="Ocircumflex" unicode="&#xd4;" horiz-adv-x="407" 
d="M134 546v-379q0 -46 19 -70.5t50 -24.5q32 0 51 24.5t19 70.5v379q0 104 -70 104q-69 0 -69 -104zM34 173v365q0 190 169 190q93 0 131.5 -45t38.5 -134v-365q0 -190 -170 -190q-92 0 -130.5 45t-38.5 134zM67 772l98 145h78l98 -145h-72l-65 85l-65 -85h-72z" />
    <glyph glyph-name="Otilde" unicode="&#xd5;" horiz-adv-x="407" 
d="M134 546v-379q0 -46 19 -70.5t50 -24.5q32 0 51 24.5t19 70.5v379q0 104 -70 104q-69 0 -69 -104zM34 173v365q0 190 169 190q93 0 131.5 -45t38.5 -134v-365q0 -190 -170 -190q-92 0 -130.5 45t-38.5 134zM111 788h-54q2 39 22 71q26 38 73 38q26 0 64.5 -18.5
t48.5 -18.5q11 0 20.5 14t11.5 29h54q-2 -41 -25 -75t-70 -34q-26 0 -64.5 18.5t-48.5 18.5q-11 0 -20.5 -14t-11.5 -29z" />
    <glyph glyph-name="Odieresis" unicode="&#xd6;" horiz-adv-x="407" 
d="M134 546v-379q0 -46 19 -70.5t50 -24.5q32 0 51 24.5t19 70.5v379q0 104 -70 104q-69 0 -69 -104zM34 173v365q0 190 169 190q93 0 131.5 -45t38.5 -134v-365q0 -190 -170 -190q-92 0 -130.5 45t-38.5 134zM88 797v100h78v-100h-78zM242 797v100h78v-100h-78z" />
    <glyph glyph-name="multiply" unicode="&#xd7;" horiz-adv-x="600" 
d="M71 79l174 174l-174 174l55 55l174 -174l174 174l55 -55l-174 -174l174 -174l-55 -55l-174 174l-174 -174z" />
    <glyph glyph-name="Oslash" unicode="&#xd8;" horiz-adv-x="407" 
d="M134 546v-306h2l131 357q-3 22 -20 37.5t-44 15.5q-69 0 -69 -104zM38 -16l25 67q-29 41 -29 122v365q0 190 169 190q65 0 104 -24l24 64l37 -18l-28 -75q33 -40 33 -126v-365q0 -190 -170 -190q-71 0 -108 27l-20 -55zM273 167v329h-2l-134 -361q5 -28 21.5 -45.5
t44.5 -17.5q32 0 51 24.5t19 70.5z" />
    <glyph glyph-name="Ugrave" unicode="&#xd9;" horiz-adv-x="407" 
d="M373 722v-559q0 -169 -169 -169q-170 0 -170 169v559h100v-576q0 -38 16 -56t54 -18q37 0 53 18t16 56v576h100zM193 772l-109 145h100l69 -145h-60z" />
    <glyph glyph-name="Uacute" unicode="&#xda;" horiz-adv-x="407" 
d="M373 722v-559q0 -169 -169 -169q-170 0 -170 169v559h100v-576q0 -38 16 -56t54 -18q37 0 53 18t16 56v576h100zM155 772l69 145h100l-109 -145h-60z" />
    <glyph glyph-name="Ucircumflex" unicode="&#xdb;" horiz-adv-x="407" 
d="M373 722v-559q0 -169 -169 -169q-170 0 -170 169v559h100v-576q0 -38 16 -56t54 -18q37 0 53 18t16 56v576h100zM67 772l98 145h78l98 -145h-72l-65 85l-65 -85h-72z" />
    <glyph glyph-name="Udieresis" unicode="&#xdc;" horiz-adv-x="407" 
d="M373 722v-559q0 -169 -169 -169q-170 0 -170 169v559h100v-576q0 -38 16 -56t54 -18q37 0 53 18t16 56v576h100zM88 797v100h78v-100h-78zM242 797v100h78v-100h-78z" />
    <glyph glyph-name="Yacute" unicode="&#xdd;" horiz-adv-x="407" 
d="M153 296l-138 426h100l87 -304h2l100 304h88l-139 -426v-296h-100v296zM155 772l69 145h100l-109 -145h-60z" />
    <glyph glyph-name="Thorn" unicode="&#xde;" horiz-adv-x="389" 
d="M137 518v-240h52q51 0 63 19t12 101t-12 101t-63 19h-52zM37 0v722h100v-120h65q101 0 131.5 -39t30.5 -165t-30.5 -165t-131.5 -39h-65v-194h-100z" />
    <glyph glyph-name="germandbls" unicode="&#xdf;" horiz-adv-x="352" 
d="M34 0v605q0 123 139 123q125 0 125 -104v-129q-15 -16 -20.5 -22.5t-12.5 -20.5t-7 -29q0 -7 1 -14.5t4 -16.5t5.5 -15t8 -17.5t8 -17t9.5 -19t9 -18.5q30 -61 37 -91.5t7 -97.5t-28 -94.5t-101 -27.5q-34 0 -61 5v60q35 -5 42 -5q32 0 43 17.5t11 65.5q0 62 -44 150
q-37 75 -43 109q-2 13 -2 26q0 53 40 95v83q0 30 -8 43t-27 13q-41 0 -41 -53v-603h-94z" />
    <glyph glyph-name="agrave" unicode="&#xe0;" 
d="M32 354v45q0 109 134 109q66 0 99.5 -29t33.5 -93v-386h-88v52q-6 -6 -14 -16t-13 -15q-27 -27 -67 -27q-47 0 -69.5 27t-22.5 110q0 73 7 101.5t27 49.5q18 19 43.5 25t102.5 6v81q0 24 -8.5 36t-30.5 12q-40 0 -40 -42v-46h-94zM205 247h-30q-33 0 -44.5 -21.5
t-11.5 -81.5q0 -54 7 -69t30 -15t36 16t13 42v129zM156 597l-109 145h100l69 -145h-60z" />
    <glyph glyph-name="aacute" unicode="&#xe1;" 
d="M32 354v45q0 109 134 109q66 0 99.5 -29t33.5 -93v-386h-88v52q-6 -6 -14 -16t-13 -15q-27 -27 -67 -27q-47 0 -69.5 27t-22.5 110q0 73 7 101.5t27 49.5q18 19 43.5 25t102.5 6v81q0 24 -8.5 36t-30.5 12q-40 0 -40 -42v-46h-94zM205 247h-30q-33 0 -44.5 -21.5
t-11.5 -81.5q0 -54 7 -69t30 -15t36 16t13 42v129zM118 597l69 145h100l-109 -145h-60z" />
    <glyph glyph-name="acircumflex" unicode="&#xe2;" 
d="M32 354v45q0 109 134 109q66 0 99.5 -29t33.5 -93v-386h-88v52q-6 -6 -14 -16t-13 -15q-27 -27 -67 -27q-47 0 -69.5 27t-22.5 110q0 73 7 101.5t27 49.5q18 19 43.5 25t102.5 6v81q0 24 -8.5 36t-30.5 12q-40 0 -40 -42v-46h-94zM205 247h-30q-33 0 -44.5 -21.5
t-11.5 -81.5q0 -54 7 -69t30 -15t36 16t13 42v129zM30 597l98 145h78l98 -145h-72l-65 85l-65 -85h-72z" />
    <glyph glyph-name="atilde" unicode="&#xe3;" 
d="M32 354v45q0 109 134 109q66 0 99.5 -29t33.5 -93v-386h-88v52q-6 -6 -14 -16t-13 -15q-27 -27 -67 -27q-47 0 -69.5 27t-22.5 110q0 73 7 101.5t27 49.5q18 19 43.5 25t102.5 6v81q0 24 -8.5 36t-30.5 12q-40 0 -40 -42v-46h-94zM205 247h-30q-33 0 -44.5 -21.5
t-11.5 -81.5q0 -54 7 -69t30 -15t36 16t13 42v129zM74 613h-54q2 39 22 71q26 38 73 38q26 0 64.5 -18.5t48.5 -18.5q11 0 20.5 14t11.5 29h54q-2 -41 -25 -75t-70 -34q-26 0 -64.5 18.5t-48.5 18.5q-11 0 -20.5 -14t-11.5 -29z" />
    <glyph glyph-name="adieresis" unicode="&#xe4;" 
d="M32 354v45q0 109 134 109q66 0 99.5 -29t33.5 -93v-386h-88v52q-6 -6 -14 -16t-13 -15q-27 -27 -67 -27q-47 0 -69.5 27t-22.5 110q0 73 7 101.5t27 49.5q18 19 43.5 25t102.5 6v81q0 24 -8.5 36t-30.5 12q-40 0 -40 -42v-46h-94zM205 247h-30q-33 0 -44.5 -21.5
t-11.5 -81.5q0 -54 7 -69t30 -15t36 16t13 42v129zM205 622v100h78v-100h-78zM51 622v100h78v-100h-78z" />
    <glyph glyph-name="aring" unicode="&#xe5;" 
d="M32 354v45q0 109 134 109q66 0 99.5 -29t33.5 -93v-386h-88v52q-6 -6 -14 -16t-13 -15q-27 -27 -67 -27q-47 0 -69.5 27t-22.5 110q0 73 7 101.5t27 49.5q18 19 43.5 25t102.5 6v81q0 24 -8.5 36t-30.5 12q-40 0 -40 -42v-46h-94zM123 659q0 -18 13 -31t31 -13t31 13
t13 31t-13 31t-31 13t-31 -13t-13 -31zM205 247h-30q-33 0 -44.5 -21.5t-11.5 -81.5q0 -54 7 -69t30 -15t36 16t13 42v129zM77 659q0 37 26.5 63.5t63.5 26.5t63.5 -26.5t26.5 -63.5t-26.5 -63.5t-63.5 -26.5t-63.5 26.5t-26.5 63.5z" />
    <glyph glyph-name="ae" unicode="&#xe6;" horiz-adv-x="481" 
d="M196 115v119h-20q-32 0 -43.5 -13.5t-11.5 -49.5v-59q0 -34 7.5 -46t24.5 -12q24 0 33.5 12.5t9.5 48.5zM290 381v-81h76v72q0 41 -8.5 55.5t-31.5 14.5q-22 0 -29 -13.5t-7 -47.5zM33 354v39q0 54 30.5 84.5t83.5 30.5q39 0 65 -14t33 -32q27 46 94 46q115 0 115 -129
v-145h-164v-122q0 -58 38 -58t38 63v37h88v-31q0 -129 -121 -129q-69 0 -93 44q-15 -24 -34.5 -34t-58.5 -10q-69 0 -94.5 34t-25.5 107q0 66 6.5 90.5t25.5 43.5q20 19 49 25t88 6v93q0 28 -7.5 38.5t-25.5 10.5q-36 0 -36 -54v-34h-94z" />
    <glyph glyph-name="ccedilla" unicode="&#xe7;" horiz-adv-x="296" 
d="M275 169v-76q0 -50 -31.5 -73t-79.5 -26l-10 -37l2 -2q6 2 27 2q29 0 48.5 -17t19.5 -46q0 -33 -27.5 -54.5t-69.5 -21.5q-49 0 -70 17l8 31q26 -12 48 -12q24 0 34.5 10.5t10.5 24.5q0 16 -12 24t-26 8q-24 0 -44 -10l22 83q-104 18 -104 125v254q0 64 35 99.5t97 35.5
q61 0 91.5 -27t30.5 -73v-75h-88v55q0 54 -36 54t-36 -59v-276q0 -47 36 -47t36 49v60h88z" />
    <glyph glyph-name="egrave" unicode="&#xe8;" 
d="M30 119v254q0 64 35.5 99.5t100.5 35.5q62 0 99.5 -29.5t37.5 -95.5v-162h-179v-107q0 -34 11 -47t35 -13q45 0 45 65v46h88v-71q0 -43 -33.5 -71.5t-106.5 -28.5q-59 0 -96 30t-37 95zM124 393v-106h91v98q0 34 -10.5 48.5t-34.5 14.5q-25 0 -35.5 -13.5t-10.5 -41.5z
M156 597l-109 145h100l69 -145h-60z" />
    <glyph glyph-name="eacute" unicode="&#xe9;" 
d="M30 119v254q0 64 35.5 99.5t100.5 35.5q62 0 99.5 -29.5t37.5 -95.5v-162h-179v-107q0 -34 11 -47t35 -13q45 0 45 65v46h88v-71q0 -43 -33.5 -71.5t-106.5 -28.5q-59 0 -96 30t-37 95zM124 393v-106h91v98q0 34 -10.5 48.5t-34.5 14.5q-25 0 -35.5 -13.5t-10.5 -41.5z
M118 597l69 145h100l-109 -145h-60z" />
    <glyph glyph-name="ecircumflex" unicode="&#xea;" 
d="M30 119v254q0 64 35.5 99.5t100.5 35.5q62 0 99.5 -29.5t37.5 -95.5v-162h-179v-107q0 -34 11 -47t35 -13q45 0 45 65v46h88v-71q0 -43 -33.5 -71.5t-106.5 -28.5q-59 0 -96 30t-37 95zM124 393v-106h91v98q0 34 -10.5 48.5t-34.5 14.5q-25 0 -35.5 -13.5t-10.5 -41.5z
M30 597l98 145h78l98 -145h-72l-65 85l-65 -85h-72z" />
    <glyph glyph-name="edieresis" unicode="&#xeb;" 
d="M30 119v254q0 64 35.5 99.5t100.5 35.5q62 0 99.5 -29.5t37.5 -95.5v-162h-179v-107q0 -34 11 -47t35 -13q45 0 45 65v46h88v-71q0 -43 -33.5 -71.5t-106.5 -28.5q-59 0 -96 30t-37 95zM124 393v-106h91v98q0 34 -10.5 48.5t-34.5 14.5q-25 0 -35.5 -13.5t-10.5 -41.5z
M51 622v100h78v-100h-78zM205 622v100h78v-100h-78z" />
    <glyph glyph-name="igrave" unicode="&#xec;" horiz-adv-x="168" 
d="M37 0v502h94v-502h-94zM73 597l-109 145h100l69 -145h-60z" />
    <glyph glyph-name="iacute" unicode="&#xed;" horiz-adv-x="168" 
d="M37 0v502h94v-502h-94zM35 597l69 145h100l-109 -145h-60z" />
    <glyph glyph-name="icircumflex" unicode="&#xee;" horiz-adv-x="168" 
d="M37 0v502h94v-502h-94zM-53 597l98 145h78l98 -145h-72l-65 85l-65 -85h-72z" />
    <glyph glyph-name="idieresis" unicode="&#xef;" horiz-adv-x="168" 
d="M37 0v502h94v-502h-94zM-32 622v100h78v-100h-78zM122 622v100h78v-100h-78z" />
    <glyph glyph-name="eth" unicode="&#xf0;" 
d="M127 379v-256q0 -63 40 -63q39 0 39 63v256q0 63 -39 63q-40 0 -40 -63zM33 119v254q0 63 34 99t94 36q16 0 34.5 -6t23.5 -14l2 2q-2 63 -29 109l-72 -35l-30 39l73 36q-31 34 -80 54l69 35q49 -20 79 -56l69 34l30 -39l-72 -35q42 -75 42 -234v-269q0 -64 -35 -99.5
t-98 -35.5q-60 0 -97 30t-37 95z" />
    <glyph glyph-name="ntilde" unicode="&#xf1;" 
d="M34 0v502h88v-42h2q14 23 36 35q22 13 51 13q39 0 63.5 -23.5t24.5 -75.5v-409h-94v391q0 45 -36 45q-41 0 -41 -53v-383h-94zM74 613h-54q2 39 22 71q26 38 73 38q26 0 64.5 -18.5t48.5 -18.5q11 0 20.5 14t11.5 29h54q-2 -41 -25 -75t-70 -34q-26 0 -64.5 18.5
t-48.5 18.5q-11 0 -20.5 -14t-11.5 -29z" />
    <glyph glyph-name="ograve" unicode="&#xf2;" 
d="M33 119v254q0 64 35 99.5t98 35.5q60 0 97 -30t37 -95v-254q0 -64 -35 -99.5t-98 -35.5q-60 0 -97 30t-37 95zM127 379v-256q0 -63 40 -63q39 0 39 63v256q0 63 -39 63q-40 0 -40 -63zM156 597l-109 145h100l69 -145h-60z" />
    <glyph glyph-name="oacute" unicode="&#xf3;" 
d="M33 119v254q0 64 35 99.5t98 35.5q60 0 97 -30t37 -95v-254q0 -64 -35 -99.5t-98 -35.5q-60 0 -97 30t-37 95zM127 379v-256q0 -63 40 -63q39 0 39 63v256q0 63 -39 63q-40 0 -40 -63zM118 597l69 145h100l-109 -145h-60z" />
    <glyph glyph-name="ocircumflex" unicode="&#xf4;" 
d="M33 119v254q0 64 35 99.5t98 35.5q60 0 97 -30t37 -95v-254q0 -64 -35 -99.5t-98 -35.5q-60 0 -97 30t-37 95zM127 379v-256q0 -63 40 -63q39 0 39 63v256q0 63 -39 63q-40 0 -40 -63zM30 597l98 145h78l98 -145h-72l-65 85l-65 -85h-72z" />
    <glyph glyph-name="otilde" unicode="&#xf5;" 
d="M33 119v254q0 64 35 99.5t98 35.5q60 0 97 -30t37 -95v-254q0 -64 -35 -99.5t-98 -35.5q-60 0 -97 30t-37 95zM127 379v-256q0 -63 40 -63q39 0 39 63v256q0 63 -39 63q-40 0 -40 -63zM74 613h-54q2 39 22 71q26 38 73 38q26 0 64.5 -18.5t48.5 -18.5q11 0 20.5 14
t11.5 29h54q-2 -41 -25 -75t-70 -34q-26 0 -64.5 18.5t-48.5 18.5q-11 0 -20.5 -14t-11.5 -29z" />
    <glyph glyph-name="odieresis" unicode="&#xf6;" 
d="M33 119v254q0 64 35 99.5t98 35.5q60 0 97 -30t37 -95v-254q0 -64 -35 -99.5t-98 -35.5q-60 0 -97 30t-37 95zM127 379v-256q0 -63 40 -63q39 0 39 63v256q0 63 -39 63q-40 0 -40 -63zM51 622v100h78v-100h-78zM205 622v100h78v-100h-78z" />
    <glyph glyph-name="divide" unicode="&#xf7;" horiz-adv-x="600" 
d="M230 46q0 29 20.5 49.5t49.5 20.5t49.5 -20.5t20.5 -49.5t-20.5 -49.5t-49.5 -20.5t-49.5 20.5t-20.5 49.5zM47 211v84h506v-84h-506zM230 460q0 29 20.5 49.5t49.5 20.5t49.5 -20.5t20.5 -49.5t-20.5 -49.5t-49.5 -20.5t-49.5 20.5t-20.5 49.5z" />
    <glyph glyph-name="oslash" unicode="&#xf8;" 
d="M127 379v-171h2l77 186q-2 48 -39 48q-40 0 -40 -63zM206 123v184h-2l-77 -188q2 -59 40 -59q39 0 39 63zM30 -24l27 64q-24 27 -24 79v254q0 64 35 99.5t98 35.5q47 0 79 -18l27 64l31 -16l-30 -71q27 -30 27 -84v-254q0 -64 -35 -99.5t-98 -35.5q-49 0 -83 21l-23 -55z
" />
    <glyph glyph-name="ugrave" unicode="&#xf9;" 
d="M299 502v-502h-88v42h-2q-14 -23 -36 -35q-22 -13 -51 -13q-39 0 -63.5 23.5t-24.5 75.5v409h94v-391q0 -45 36 -45q41 0 41 53v383h94zM156 597l-109 145h100l69 -145h-60z" />
    <glyph glyph-name="uacute" unicode="&#xfa;" 
d="M299 502v-502h-88v42h-2q-14 -23 -36 -35q-22 -13 -51 -13q-39 0 -63.5 23.5t-24.5 75.5v409h94v-391q0 -45 36 -45q41 0 41 53v383h94zM118 597l69 145h100l-109 -145h-60z" />
    <glyph glyph-name="ucircumflex" unicode="&#xfb;" 
d="M299 502v-502h-88v42h-2q-14 -23 -36 -35q-22 -13 -51 -13q-39 0 -63.5 23.5t-24.5 75.5v409h94v-391q0 -45 36 -45q41 0 41 53v383h94zM30 597l98 145h78l98 -145h-72l-65 85l-65 -85h-72z" />
    <glyph glyph-name="udieresis" unicode="&#xfc;" 
d="M299 502v-502h-88v42h-2q-14 -23 -36 -35q-22 -13 -51 -13q-39 0 -63.5 23.5t-24.5 75.5v409h94v-391q0 -45 36 -45q41 0 41 53v383h94zM51 622v100h78v-100h-78zM205 622v100h78v-100h-78z" />
    <glyph glyph-name="yacute" unicode="&#xfd;" 
d="M120 7l-114 495h100l62 -363h2l63 363h94l-163 -684h-88zM118 597l69 145h100l-109 -145h-60z" />
    <glyph glyph-name="thorn" unicode="&#xfe;" 
d="M33 -182v904h94v-276h2q23 62 83 62q41 0 64.5 -30.5t23.5 -85.5v-282q0 -55 -23.5 -85.5t-64.5 -30.5q-55 0 -85 34v-210h-94zM127 354v-241q0 -26 11 -39.5t27 -13.5q20 0 30.5 15.5t10.5 56.5v236q0 68 -36 68q-43 0 -43 -82z" />
    <glyph glyph-name="ydieresis" unicode="&#xff;" 
d="M120 7l-114 495h100l62 -363h2l63 363h94l-163 -684h-88zM51 622v100h78v-100h-78zM205 622v100h78v-100h-78z" />
    <glyph glyph-name="dotlessi" unicode="&#x131;" horiz-adv-x="168" 
d="M37 0v502h94v-502h-94z" />
    <glyph glyph-name="Lslash" unicode="&#x141;" horiz-adv-x="315" 
d="M37 0v283l-37 -23v90l37 23v349h100v-287l97 61v-90l-97 -61v-261h168v-84h-268z" />
    <glyph glyph-name="lslash" unicode="&#x142;" horiz-adv-x="168" 
d="M37 0v287l-37 -23v78l37 23v357h94v-299l37 26v-78l-37 -26v-345h-94z" />
    <glyph glyph-name="OE" unicode="&#x152;" horiz-adv-x="574" 
d="M34 156v391q0 181 140 181q31 0 69 -3q8 0 33.5 -1.5t35.5 -1.5h237v-84h-172v-226h162v-84h-162v-244h172v-84h-237q-30 0 -69 -3q-6 0 -32 -1.5t-37 -1.5q-67 0 -103.5 43t-36.5 119zM134 509v-344q0 -46 17 -66.5t62 -20.5q43 0 64 3v560q-21 3 -56 3q-49 0 -68 -27
t-19 -108z" />
    <glyph glyph-name="oe" unicode="&#x153;" horiz-adv-x="481" 
d="M119 379v-262q0 -63 40 -63q39 0 39 63v262q0 63 -39 63q-40 0 -40 -63zM292 287h76v85q0 41 -8.5 55.5t-31.5 14.5q-22 0 -29 -13.5t-7 -47.5v-94zM25 106v277q0 57 30 91t89 34q76 0 99 -45q31 45 98 45q115 0 115 -129v-158h-164v-110q0 -57 38 -57t38 61v38h88v-30
q0 -129 -121 -129q-60 0 -93 44q-27 -44 -101 -44q-53 0 -84.5 29.5t-31.5 82.5z" />
    <glyph glyph-name="Scaron" unicode="&#x160;" horiz-adv-x="370" 
d="M26 123v86h100v-59q0 -78 58 -78q66 0 66 83q0 49 -16.5 80t-90.5 104q-59 59 -88 106.5t-29 113.5q0 87 40.5 128t123.5 41q73 0 117 -40q29 -27 29 -92v-68h-94v57q0 65 -56 65q-31 0 -45.5 -18.5t-14.5 -60.5q0 -40 18.5 -73.5t83.5 -101.5q73 -76 94.5 -117.5
t21.5 -106.5q0 -88 -38.5 -133t-124.5 -45q-72 0 -113.5 32t-41.5 97zM322 917l-98 -145h-78l-98 145h72l65 -85l65 85h72z" />
    <glyph glyph-name="scaron" unicode="&#x161;" horiz-adv-x="296" 
d="M266 340h-84v48q0 30 -7 42t-26 12t-25.5 -10t-6.5 -36q0 -37 9.5 -52t57.5 -57q56 -49 71.5 -76.5t15.5 -81.5q0 -74 -30 -104.5t-104 -30.5q-112 0 -112 103v71h88v-69q0 -22 8.5 -30.5t26.5 -8.5q22 0 28.5 12t6.5 44q0 41 -8.5 57.5t-48.5 50.5l-21 18
q-55 47 -65.5 67.5t-10.5 73.5q0 69 32 97t98 28q107 0 107 -91v-77zM285 742l-98 -145h-78l-98 145h72l65 -85l65 85h72z" />
    <glyph glyph-name="Ydieresis" unicode="&#x178;" horiz-adv-x="407" 
d="M153 296l-138 426h100l87 -304h2l100 304h88l-139 -426v-296h-100v296zM88 797v100h78v-100h-78zM242 797v100h78v-100h-78z" />
    <glyph glyph-name="Zcaron" unicode="&#x17d;" horiz-adv-x="352" 
d="M11 0v91l225 547h-197v84h297v-84l-225 -554h230v-84h-330zM313 917l-98 -145h-78l-98 145h72l65 -85l65 85h72z" />
    <glyph glyph-name="zcaron" unicode="&#x17e;" horiz-adv-x="241" 
d="M11 0v91l131 339h-131v72h219v-82l-135 -348h135v-72h-219zM258 742l-98 -145h-78l-98 145h72l65 -85l65 85h72z" />
    <glyph glyph-name="florin" unicode="&#x192;" horiz-adv-x="372" 
d="M76 422l7 66h62l14 127q6 57 26.5 85t61.5 28q28 0 72 -6l-6 -61q-8 1 -25 1q-25 0 -31.5 -13t-13.5 -75l-10 -86h64l-7 -66h-64l-54 -490q-7 -67 -28.5 -93.5t-77.5 -26.5q-23 0 -51 4l6 64q4 -2 15 -2q26 0 35 13.5t15 65.5l52 465h-62z" />
    <glyph glyph-name="circumflex" unicode="&#x2c6;" horiz-adv-x="168" 
d="M-53 597l98 145h78l98 -145h-72l-65 85l-65 -85h-72z" />
    <glyph glyph-name="caron" unicode="&#x2c7;" horiz-adv-x="168" 
d="M221 742l-98 -145h-78l-98 145h72l65 -85l65 85h72z" />
    <glyph glyph-name="uni02C9" unicode="&#x2c9;" horiz-adv-x="168" 
d="M-48 643v54h264v-54h-264z" />
    <glyph glyph-name="breve" unicode="&#x2d8;" horiz-adv-x="168" 
d="M-40 728h49q3 -26 21 -47q23 -23 54 -23q32 0 52 21.5t23 48.5h49q-4 -52 -29 -87q-33 -43 -95 -43t-91 38.5t-33 91.5z" />
    <glyph glyph-name="dotaccent" unicode="&#x2d9;" horiz-adv-x="168" 
d="M45 622v100h78v-100h-78z" />
    <glyph glyph-name="ring" unicode="&#x2da;" horiz-adv-x="168" 
d="M-6 659q0 37 26 63.5t64 26.5t64 -26.5t26 -63.5t-26 -63.5t-64 -26.5t-64 26.5t-26 63.5zM40 659q0 -18 13 -31t31 -13t31 13t13 31t-13 31t-31 13t-31 -13t-13 -31z" />
    <glyph glyph-name="ogonek" unicode="&#x2db;" horiz-adv-x="168" 
d="M270 -145l10 -43q-30 -16 -65 -16q-91 0 -91 71q0 40 24 82t63 69h46q-61 -76 -61 -131q0 -45 41 -45q14 0 33 13z" />
    <glyph glyph-name="tilde" unicode="&#x2dc;" horiz-adv-x="168" 
d="M-9 613h-54q2 39 22 71q26 38 73 38q26 0 64.5 -18.5t48.5 -18.5q11 0 20.5 14t11.5 29h54q-2 -41 -25 -75t-70 -34q-26 0 -64.5 18.5t-48.5 18.5q-11 0 -20.5 -14t-11.5 -29z" />
    <glyph glyph-name="hungarumlaut" unicode="&#x2dd;" horiz-adv-x="168" 
d="M-45 597l69 145h100l-109 -145h-60zM114 597l69 145h100l-109 -145h-60z" />
    <glyph glyph-name="uni03A9" unicode="&#x3a9;" horiz-adv-x="463" 
d="M121 74v4q-84 128 -84 313q0 147 55 237t143 90q60 0 103.5 -45.5t64 -116.5t20.5 -157q0 -96 -24.5 -181.5t-59.5 -139.5v-4h93v-74h-167v54q33 41 54.5 127t21.5 195q0 107 -27.5 185.5t-82.5 78.5q-53 0 -83 -73.5t-30 -192.5q0 -101 23 -191t54 -129v-54h-168v74h94z
" />
    <glyph glyph-name="uni03BC" unicode="&#x3bc;" 
d="M299 502v-502h-88v42h-2q-5 -21 -18 -34q-14 -14 -30 -14q-19 0 -33 12v-188h-94v684h94v-391q0 -45 36 -45q41 0 41 53v383h94z" />
    <glyph glyph-name="pi" unicode="&#x3c0;" horiz-adv-x="412" 
d="M390 451h-48v-319q0 -87 10 -132h-76q-13 31 -13 131v320h-100q-3 -102 -16.5 -237t-32.5 -214h-76q20 85 32.5 216.5t14.5 234.5q-41 0 -65 -8l-11 59q32 28 110 28h277z" />
    <glyph glyph-name="endash" unicode="&#x2013;" horiz-adv-x="500" 
d="M0 220v66h500v-66h-500z" />
    <glyph glyph-name="emdash" unicode="&#x2014;" horiz-adv-x="1000" 
d="M0 220v66h1000v-66h-1000z" />
    <glyph glyph-name="quoteleft" unicode="&#x2018;" horiz-adv-x="186" 
d="M29 544l56 178h72l-22 -178h-106z" />
    <glyph glyph-name="quoteright" unicode="&#x2019;" horiz-adv-x="186" 
d="M29 544l22 178h106l-56 -178h-72z" />
    <glyph glyph-name="quotesinglbase" unicode="&#x201a;" horiz-adv-x="186" 
d="M29 -60l22 178h106l-56 -178h-72z" />
    <glyph glyph-name="quotedblleft" unicode="&#x201c;" horiz-adv-x="278" 
d="M10 544l68 178h60l-25 -178h-103zM140 544l56 178h72l-22 -178h-106z" />
    <glyph glyph-name="quotedblright" unicode="&#x201d;" horiz-adv-x="278" 
d="M10 544l25 178h103l-68 -178h-60zM140 544l25 178h103l-68 -178h-60z" />
    <glyph glyph-name="quotedblbase" unicode="&#x201e;" horiz-adv-x="278" 
d="M140 -60l22 178h106l-56 -178h-72zM10 -60l22 178h106l-56 -178h-72z" />
    <glyph glyph-name="dagger" unicode="&#x2020;" horiz-adv-x="370" 
d="M141 0v475h-123v84h123v163h88v-163h123v-84h-123v-475h-88z" />
    <glyph glyph-name="daggerdbl" unicode="&#x2021;" horiz-adv-x="370" 
d="M141 0v184h-123v84h123v207h-123v84h123v163h88v-163h123v-84h-123v-207h123v-84h-123v-184h-88z" />
    <glyph glyph-name="bullet" unicode="&#x2022;" horiz-adv-x="501" 
d="M70 361q0 75 52.5 128t127.5 53t128 -53t53 -128t-53 -127.5t-128 -52.5t-127.5 52.5t-52.5 127.5z" />
    <glyph glyph-name="ellipsis" unicode="&#x2026;" horiz-adv-x="1000" 
d="M108 0v118h118v-118h-118zM441 0v118h118v-118h-118zM774 0v118h118v-118h-118z" />
    <glyph glyph-name="perthousand" unicode="&#x2030;" horiz-adv-x="852" 
d="M692 361v-273q0 -40 29 -40t29 40v273q0 40 -29 40t-29 -40zM161 -6l227 734h60l-227 -734h-60zM102 634v-273q0 -40 29 -40t29 40v273q0 40 -29 40t-29 -40zM626 73v303q0 40 26 59.5t69 19.5t69 -19.5t26 -59.5v-303q0 -40 -26 -59.5t-69 -19.5t-69 19.5t-26 59.5z
M36 346v303q0 40 26 59.5t69 19.5t69 -19.5t26 -59.5v-303q0 -40 -26 -59.5t-69 -19.5t-69 19.5t-26 59.5zM451 361v-273q0 -40 29 -40t29 40v273q0 40 -29 40t-29 -40zM385 73v303q0 40 26 59.5t69 19.5t69 -19.5t26 -59.5v-303q0 -40 -26 -59.5t-69 -19.5t-69 19.5
t-26 59.5z" />
    <glyph glyph-name="guilsinglleft" unicode="&#x2039;" horiz-adv-x="204" 
d="M26 253l80 198h72l-58 -198l58 -198h-72z" />
    <glyph glyph-name="guilsinglright" unicode="&#x203a;" horiz-adv-x="204" 
d="M26 55l58 198l-58 198h72l80 -198l-80 -198h-72z" />
    <glyph glyph-name="fraction" unicode="&#x2044;" horiz-adv-x="167" 
d="M-60 -6l227 734h60l-227 -734h-60z" />
    <glyph glyph-name="Euro" unicode="&#x20ac;" horiz-adv-x="372" 
d="M362 692l-20 -78q-16 19 -42 31q-25 11 -55 11q-38 0 -54 -22q-13 -18 -13 -68v-88h136l-16 -66h-120v-86h101l-16 -66h-85v-122q0 -37 15 -54q16 -18 52 -18q33 0 60 15q30 16 47 40v-92q-21 -15 -44 -24q-31 -11 -67 -11q-84 0 -119 34q-38 37 -38 144v88h-74l16 66h58
v86h-74l16 66h58v72q0 33 1 50.5t9.5 45.5t26.5 46q36 36 117 36q40 0 74 -10q29 -9 50 -26z" />
    <glyph glyph-name="afii61289" unicode="&#x2113;" horiz-adv-x="354" 
d="M308 142l33 -33q-47 -111 -134 -111q-129 0 -127 190v15q-6 -6 -19.5 -20t-20.5 -21l-21 47q39 41 61 70v272q0 120 34.5 177t88.5 57q43 0 66 -42.5t23 -117.5q0 -168 -135 -351v-54q0 -154 66 -154q43 0 85 76zM157 540v-177q89 142 89 268q0 87 -41 87q-48 0 -48 -178
z" />
    <glyph glyph-name="trademark" unicode="&#x2122;" horiz-adv-x="990" 
d="M189 308v348h-125v66h334v-66h-125v-348h-84zM466 308v414h117l113 -296l112 296h118v-414h-78v330h-2l-123 -330h-54l-123 330h-2v-330h-78z" />
    <glyph glyph-name="Omega" unicode="&#x2126;" horiz-adv-x="463" 
d="M121 74v4q-84 128 -84 313q0 147 55 237t143 90q60 0 103.5 -45.5t64 -116.5t20.5 -157q0 -96 -24.5 -181.5t-59.5 -139.5v-4h93v-74h-167v54q33 41 54.5 127t21.5 195q0 107 -27.5 185.5t-82.5 78.5q-53 0 -83 -73.5t-30 -192.5q0 -101 23 -191t54 -129v-54h-168v74h94z
" />
    <glyph glyph-name="estimated" unicode="&#x212e;" horiz-adv-x="885" 
d="M850 351h-660q-6 0 -6 -5v-199q0 -14 9 -23q106 -109 250 -109q156 0 262 122h59q-56 -66 -141 -104t-182 -38q-168 0 -287.5 107.5t-119.5 258.5q0 152 119.5 259.5t287.5 107.5q170 0 289.5 -107.5t119.5 -259.5v-10zM700 377v201q0 14 -10 24q-106 104 -247 104
q-143 0 -249 -108q-10 -9 -10 -25v-196q0 -7 6 -7h505q5 0 5 7z" />
    <glyph glyph-name="partialdiff" unicode="&#x2202;" horiz-adv-x="401" 
d="M77 683l-23 71q53 51 121 51q78 0 133 -92t55 -285q0 -211 -49.5 -319.5t-141.5 -108.5q-65 0 -102 64t-37 165q0 121 47.5 195t110.5 74q34 0 58 -18t35 -43h1v32q0 109 -33.5 185t-86.5 76q-47 0 -88 -47zM179 77h1q40 0 67 79t32 190q-7 32 -27 54.5t-49 22.5
q-39 0 -64.5 -59t-25.5 -139q0 -70 17.5 -109t48.5 -39z" />
    <glyph glyph-name="Delta" unicode="&#x2206;" horiz-adv-x="446" 
d="M24 0v54l157 669h91l151 -667v-56h-399zM102 72h241l-79 343q-5 26 -20 90t-19 91h-3q-3 -26 -17 -86t-19 -85z" />
    <glyph glyph-name="product" unicode="&#x220f;" horiz-adv-x="502" 
d="M477 626h-65v-724h-80v724h-163v-724h-81v724h-65v83h454v-83z" />
    <glyph glyph-name="summation" unicode="&#x2211;" horiz-adv-x="391" 
d="M375 -98h-354v62l178 343l-172 338v64h334v-74h-232v-3l159 -308l-178 -333v-3h265v-86z" />
    <glyph glyph-name="minus" unicode="&#x2212;" horiz-adv-x="600" 
d="M47 211v84h506v-84h-506z" />
    <glyph glyph-name="uni2215" unicode="&#x2215;" horiz-adv-x="167" 
d="M-60 -6l227 734h60l-227 -734h-60z" />
    <glyph glyph-name="uni2219" unicode="&#x2219;" horiz-adv-x="186" 
d="M23 300q0 29 20.5 49.5t49.5 20.5t49.5 -20.5t20.5 -49.5t-20.5 -49.5t-49.5 -20.5t-49.5 20.5t-20.5 49.5z" />
    <glyph glyph-name="radical" unicode="&#x221a;" horiz-adv-x="434" 
d="M426 850l-157 -995h-65l-110 461l-54 -21l-13 54l120 46l74 -322q2 -11 7.5 -46t6.5 -46l1 -1q9 87 10 93l125 777h55z" />
    <glyph glyph-name="infinity" unicode="&#x221e;" horiz-adv-x="629" 
d="M590 296v-1q0 -62 -38 -100.5t-90 -38.5q-38 0 -72 21t-74 72q-38 -45 -72.5 -69t-79.5 -24q-52 0 -89 38.5t-37 96.5q0 60 37 98.5t95 38.5q74 0 148 -93q19 22 23.5 27t23 22.5t30.5 23.5t31.5 13t40.5 7q54 -1 88.5 -37t34.5 -95zM170 206h2q22 0 45.5 15t34 26
t36.5 41q-23 31 -36 46t-36.5 29.5t-49.5 14.5q-36 0 -56 -25t-20 -63q0 -36 23 -60t57 -24zM462 378h-1q-11 0 -21 -3t-20 -9t-18 -11.5t-17.5 -16t-14.5 -15.5t-14.5 -16.5t-11.5 -13.5q41 -50 65 -68.5t55 -18.5q34 0 54.5 26t20.5 59q0 40 -21 63.5t-56 23.5z" />
    <glyph glyph-name="integral" unicode="&#x222b;" horiz-adv-x="311" 
d="M283 860l-11 -63q-14 6 -24 6q-22 0 -37 -25q-22 -36 -22 -177q0 -80 4.5 -248.5t4.5 -255.5q0 -148 -31 -207q-27 -57 -92 -57q-31 0 -51 13l12 66q24 -7 29 -7q23 0 34 23q19 35 19 166q0 89 -4.5 260.5t-4.5 253.5q0 160 44 219q33 43 87 43q25 0 43 -10z" />
    <glyph glyph-name="approxequal" unicode="&#x2248;" horiz-adv-x="404" 
d="M341 419l33 -25q-14 -38 -40 -63t-59 -25t-82 32q-40 29 -65 29q-22 0 -36.5 -15.5t-29.5 -45.5l-33 24q15 40 42.5 64t61.5 24q11 0 21 -2t19.5 -6.5t15.5 -7.5t15 -9t11 -7q47 -30 63 -30q20 0 34.5 16t28.5 47zM341 274l33 -25q-14 -39 -40 -63.5t-59 -24.5t-82 32
q-42 30 -65 30q-15 0 -28.5 -10t-20.5 -21t-17 -31l-33 24q15 40 42.5 64t61.5 24q33 0 82 -32q45 -29 64 -29q33 0 62 62z" />
    <glyph glyph-name="notequal" unicode="&#x2260;" horiz-adv-x="404" 
d="M294 468l-29 -72h100v-53h-118l-46 -112h164v-53h-181l-35 -87l-40 15l29 72h-101v53h119l45 112h-164v53h181l36 87z" />
    <glyph glyph-name="lessequal" unicode="&#x2264;" horiz-adv-x="404" 
d="M363 117l-321 193v56l321 193v-66l-271 -153v-3l271 -154v-66zM366 26h-327v56h327v-56z" />
    <glyph glyph-name="greaterequal" unicode="&#x2265;" horiz-adv-x="404" 
d="M43 559l322 -193v-56l-322 -193v66l271 154v2l-271 154v66zM367 26h-328v56h328v-56z" />
    <glyph glyph-name="lozenge" unicode="&#x25ca;" horiz-adv-x="434" 
d="M393 354l-144 -388h-69l-139 388l145 389h68zM319 352l-85 245q-7 25 -14 66h-3q-7 -42 -15 -66l-87 -241l86 -249q8 -24 13 -62h4q5 35 13 60z" />
    </font>
</defs>
</svg>
