<?xml version="1.0" standalone="no"?>
<!DOCTYPE svg PUBLIC "-//W3C//DTD SVG 1.1//EN" "http://www.w3.org/Graphics/SVG/1.1/DTD/svg11.dtd" >
<svg>
<metadata>
Created by FontForge 20110222 at Wed Sep 17 15:05:02 2014
 By Orthosie Webhosting
Copyright (c) 1988, 1991, 1995, 2001 Adobe Systems Incorporated.  All Rights Reserved.
</metadata>
<defs>
<font id="ItaliaStdBold" horiz-adv-x="556" >
  <font-face 
    font-family="ItaliaStdBold"
    font-weight="700"
    font-style="italic"
    font-stretch="normal"
    units-per-em="1000"
    panose-1="2 6 8 3 3 4 6 2 4 4"
    ascent="704"
    descent="-296"
    x-height="458"
    cap-height="677"
    bbox="-167 -250 1044 955"
    underline-thickness="50"
    underline-position="-50"
    unicode-range="U+0020-FB02"
  />
<missing-glyph horiz-adv-x="500" 
d="M0 0v700h500v-700h-500zM250 395l170 255h-340zM280 350l170 -255v510zM80 50h340l-170 255zM50 605v-510l170 255z" />
    <glyph glyph-name="fi" unicode="fi" horiz-adv-x="611" 
d="M564 0h-192q-27 0 -27 23v51q0 27 28 27q26 0 26 22v132q0 24 -32 24q-26 0 -26 29v44q0 20 22 33l165 75q19 8 28 8q19 0 19 -20v-60q0 -17 -20 -36.5t-20 -40.5v-186q0 -24 29 -24q27 0 27 -27v-51q0 -23 -27 -23zM275 0h-223q-27 0 -27 23v51q0 27 27 27q35 0 35 24
v159l-23 -8q-18 -4 -24 -4q-16 0 -16 18v73q0 12 11 18l52 22v50q0 115 54.5 183t174.5 68q77 0 135.5 -21.5t58.5 -52.5v-98q0 -24 -27 -24h-53q-13 0 -24 13.5t-19.5 29.5t-29 29.5t-49.5 13.5q-45 0 -65 -30.5t-20 -75.5v-41l49 16q18 5 28 5q15 0 15 -15v-73
q0 -17 -16 -23l-76 -29v-203q0 -24 51 -24q28 0 28 -27v-51q0 -23 -27 -23z" />
    <glyph glyph-name="fl" unicode="fl" horiz-adv-x="611" 
d="M275 0h-223q-27 0 -27 23v51q0 27 27 27q35 0 35 24v159l-23 -8q-18 -4 -24 -4q-16 0 -16 18v73q0 12 11 18l52 22v50q0 115 54.5 183t174.5 68q100 0 158 -32l52 24q19 8 35 8q19 0 19 -20v-60q0 -17 -22.5 -36.5t-22.5 -40.5v-422q0 -24 34 -24q27 0 27 -27v-51
q0 -23 -27 -23h-192q-27 0 -27 23v51q0 27 25 27q24 0 24 24v406q-1 1 -5 8.5t-7 11.5t-8.5 11.5t-12 12t-15 9.5t-19.5 7.5t-24 2.5q-44 0 -64.5 -30.5t-20.5 -75.5v-41l49 16q18 5 28 5q15 0 15 -15v-73q0 -17 -16 -23l-76 -29v-203q0 -24 51 -24q28 0 28 -27v-51
q0 -23 -27 -23z" />
    <glyph glyph-name=".notdef" horiz-adv-x="500" 
d="M0 0v700h500v-700h-500zM250 395l170 255h-340zM280 350l170 -255v510zM80 50h340l-170 255zM50 605v-510l170 255z" />
    <glyph glyph-name=".null" horiz-adv-x="0" 
 />
    <glyph glyph-name="nonmarkingreturn" horiz-adv-x="333" 
 />
    <glyph glyph-name="space" unicode=" " horiz-adv-x="278" 
 />
    <glyph glyph-name="exclam" unicode="!" horiz-adv-x="278" 
d="M163 185h-48q-24 0 -27 27l-18 230q-16 198 -16 205q0 30 30 30h110q30 0 30 -30q0 -7 -16 -205l-18 -230q-3 -27 -27 -27zM58 73q0 34 22.5 57.5t58.5 23.5t58.5 -23.5t22.5 -57.5t-22.5 -57.5t-58.5 -23.5t-58.5 23.5t-22.5 57.5z" />
    <glyph glyph-name="quotedbl" unicode="&#x22;" horiz-adv-x="333" 
d="M46 400l-21 208q-9 81 50 81t50 -81l-21 -208q-2 -15 -8 -21t-21 -6t-21 6t-8 21zM229 400l-21 208q-9 81 50 81t50 -81l-21 -208q-2 -15 -8 -21t-21 -6t-21 6t-8 21z" />
    <glyph glyph-name="numbersign" unicode="#" 
d="M496 279l-3 -86h-89l-28 -193h-95l28 193h-96l-28 -193h-95l28 193h-87l3 86h97l17 119h-88l3 86h98l28 193h95l-28 -193h96l28 193h95l-28 -193h78l-3 -86h-88l-17 -119h79zM339 398h-96l-17 -119h96z" />
    <glyph glyph-name="dollar" unicode="$" 
d="M311 -74h-68q-14 0 -19.5 5.5t-5.5 19.5v63q-112 10 -130 51q-35 82 -35 99q0 22 26 22h61q15 0 32.5 -16t44 -31.5t63.5 -15.5q87 0 87 67q0 36 -31.5 60.5t-76.5 39.5t-90 34t-76.5 57t-31.5 95q0 44 15.5 79t40.5 55t50.5 30.5t50.5 13.5v62q0 14 5.5 19.5t19.5 5.5
h68q14 0 19.5 -5.5t5.5 -19.5v-62q52 -4 84 -24q11 -8 31 -60t20 -64q0 -18 -19 -18h-62q-14 0 -32 15t-42 30.5t-51 15.5q-31 0 -48 -15t-17 -42q0 -31 32 -51.5t77.5 -35.5t91 -34t77.5 -59t32 -99q0 -52 -19.5 -91.5t-49.5 -60t-56.5 -30.5t-48.5 -12v-68
q0 -14 -5.5 -19.5t-19.5 -5.5z" />
    <glyph glyph-name="percent" unicode="%" horiz-adv-x="889" 
d="M126 481q0 -115 65 -115t65 115t-65 115t-65 -115zM205 73l414 593q13 19 26 19q12 0 33.5 -18t21.5 -30q0 -9 -11 -24l-419 -601q-14 -20 -24 -20q-15 0 -37 17t-22 29q0 9 18 35zM632 196q0 -115 65 -115t65 115t-65 115t-65 -115zM24 481q0 93 42.5 148.5t124.5 55.5
t124.5 -55.5t42.5 -148.5t-42.5 -148.5t-124.5 -55.5t-124.5 55.5t-42.5 148.5zM530 196q0 93 42.5 148.5t124.5 55.5t124.5 -55.5t42.5 -148.5t-42.5 -148.5t-124.5 -55.5t-124.5 55.5t-42.5 148.5z" />
    <glyph glyph-name="ampersand" unicode="&#x26;" horiz-adv-x="667" 
d="M375 162l-140 143q-57 -40 -57 -90q0 -45 26 -72.5t76 -27.5q65 0 95 47zM273 575q-19 0 -30.5 -10.5t-11.5 -28.5q0 -7 1.5 -13t4.5 -12t5.5 -10t8 -10t8 -8.5l9 -9t8.5 -7.5q47 38 47 69q0 15 -12.5 27.5t-37.5 12.5zM350 384l104 -119q14 20 14 49q0 23 -18 23t-18 21
v57q0 30 30 30h161q30 0 30 -30v-51q0 -27 -18 -27q-20 0 -36 -24q-9 -14 -28 -68.5t-36 -75.5l80 -83q22 -23 22 -38q0 -20 -25 -45t-40 -25t-33 17l-75 75q-27 -31 -79 -56.5t-122 -25.5q-115 0 -177 57t-62 152q0 130 127 192l-7.5 7.5t-9 9.5t-9 10t-9.5 12t-9 13t-9 15
t-7 16.5t-6 18t-3.5 19.5t-1.5 22q0 73 54.5 115t132.5 42q81 0 130.5 -42t49.5 -112q0 -13 -2 -25.5t-5 -22t-9 -20t-9.5 -17.5t-12 -16t-12.5 -13t-13.5 -12t-12 -9.5t-11.5 -8.5z" />
    <glyph glyph-name="quotesingle" unicode="'" horiz-adv-x="222" 
d="M82 400l-21 208q-9 81 50 81t50 -81l-21 -208q-2 -15 -8 -21t-21 -6t-21 6t-8 21z" />
    <glyph glyph-name="parenleft" unicode="(" horiz-adv-x="389" 
d="M67 271q0 80 28 161.5t65.5 135t71 87.5t47.5 34q17 0 42 -20t25 -34q0 -9 -20.5 -41.5t-44.5 -73.5t-44.5 -109.5t-20.5 -139.5q0 -70 20.5 -138.5t44.5 -109.5t44.5 -73.5t20.5 -41.5q0 -14 -25 -34t-42 -20q-14 0 -47.5 34t-71 87.5t-65.5 134.5t-28 161z" />
    <glyph glyph-name="parenright" unicode=")" horiz-adv-x="389" 
d="M322 272q0 -80 -28 -161.5t-65.5 -135t-71 -87.5t-47.5 -34q-17 0 -42 20t-25 34q0 8 20.5 41t44.5 74t44.5 109.5t20.5 139.5q0 70 -20.5 138.5t-44.5 109.5t-44.5 73.5t-20.5 41.5q0 14 25 34t42 20q14 0 47.5 -34t71 -87.5t65.5 -134.5t28 -161z" />
    <glyph glyph-name="asterisk" unicode="*" horiz-adv-x="500" 
d="M250 689q30 0 41.5 -9t11.5 -26q0 -37 -38 -135l2 -2q2 1 25 17.5t40.5 28.5t40.5 23t36 11q19 0 27.5 -30.5t8.5 -54.5q0 -7 -5 -12t-14 -8.5t-20.5 -5.5t-25 -2.5t-26 -0.5t-26 1t-22.5 1.5t-17.5 1.5t-9.5 1l-2 -2q18 -7 70 -44.5t52 -55.5q0 -19 -26.5 -38.5
t-48.5 -19.5q-21 0 -44.5 57.5t-29.5 88.5h-2q-5 -29 -30 -87.5t-44 -58.5q-21 0 -48 19t-27 39q0 18 48 53.5t75 49.5l-2 2q-124 -9 -153 8q-13 7 -13 19q0 24 8.5 53t27.5 29q13 0 36 -11t40.5 -23t40.5 -28.5t25 -17.5l2 2q-9 22 -23.5 68.5t-14.5 64.5q0 20 10.5 27
t43.5 7z" />
    <glyph glyph-name="plus" unicode="+" horiz-adv-x="600" 
d="M249 280v178h102v-178h178v-102h-178v-178h-102v178h-178v102h178z" />
    <glyph glyph-name="comma" unicode="," horiz-adv-x="278" 
d="M64 58q0 35 21 55.5t50 20.5q36 0 57.5 -24t21.5 -69q0 -53 -28 -110.5t-49 -57.5q-13 0 -30 10t-17 22q0 6 10.5 31t10.5 39q0 7 -11.5 18t-23.5 27t-12 38z" />
    <glyph glyph-name="hyphen" unicode="-" horiz-adv-x="333" 
d="M40 198v63q0 17 7 23.5t23 6.5h194q17 0 23.5 -6.5t6.5 -23.5v-63q0 -17 -6.5 -23.5t-23.5 -6.5h-194q-17 0 -23.5 6.5t-6.5 23.5z" />
    <glyph glyph-name="period" unicode="." horiz-adv-x="278" 
d="M58 73q0 34 22.5 57.5t58.5 23.5t58.5 -23.5t22.5 -57.5t-22.5 -57.5t-58.5 -23.5t-58.5 23.5t-22.5 57.5z" />
    <glyph glyph-name="slash" unicode="/" horiz-adv-x="278" 
d="M282 689l-187 -701h-99l187 701h99z" />
    <glyph glyph-name="zero" unicode="0" 
d="M30 338q0 157 66.5 252t181.5 95t181.5 -95t66.5 -252q0 -156 -66.5 -251t-181.5 -95t-181.5 95t-66.5 251zM178 338q0 -219 100 -219t100 219q0 220 -100 220t-100 -220z" />
    <glyph glyph-name="one" unicode="1" 
d="M441 0h-309q-16 0 -22.5 6t-6.5 22v47q0 22 13 30.5t47 8.5q52 0 52 29v319q0 36 -20 36q-7 0 -30 -7t-32 -7q-21 0 -21 21v62q0 21 22 32l157 73q29 13 46 13q26 0 26 -36v-506q0 -29 47 -29q34 0 47 -8.5t13 -30.5v-47q0 -16 -6.5 -22t-22.5 -6z" />
    <glyph glyph-name="two" unicode="2" 
d="M40 28v92q0 22 19 41l200 200q38 38 63.5 78t25.5 66q0 60 -74 60q-35 0 -76 -31.5t-63 -31.5h-57q-27 0 -27 30q0 12 18 56.5t27 55.5q12 15 66 28t109 13q101 0 166 -50.5t65 -141.5q0 -48 -17 -84t-66 -87l-194 -204h85q28 0 48 16t36.5 32t34.5 16h65q21 0 21 -23
q0 -10 -19 -66.5t-30 -77.5q-8 -15 -25 -15h-372q-16 0 -22.5 6t-6.5 22z" />
    <glyph glyph-name="three" unicode="3" 
d="M55 181h63q20 0 34.5 -11t23.5 -23.5t32 -23.5t57 -11q49 0 70.5 19.5t21.5 67.5q0 44 -32 64.5t-99 20.5q-15 0 -21.5 6t-6.5 22v71q0 16 6.5 22t22.5 6q60 0 82 20.5t22 65.5q0 68 -74 68q-29 0 -65 -33t-60 -33h-60q-22 0 -22 26q0 17 17 65.5t30 58.5q14 11 60 23.5
t103 12.5q111 0 165 -50t54 -129q0 -106 -75 -142v-2q38 -7 72.5 -49t34.5 -104q0 -60 -20.5 -103.5t-57.5 -67.5t-80.5 -35t-96.5 -11q-70 0 -116.5 10.5t-59.5 25.5q-11 12 -30 60t-19 62q0 31 24 31z" />
    <glyph glyph-name="four" unicode="4" 
d="M496 0h-247q-16 0 -22.5 6t-6.5 22v47q0 23 10 31t40 8q26 0 36 7t10 22v38h-257q-16 0 -22.5 6t-6.5 22v94q0 18 14 39l196 311q16 24 41 24h142q16 0 22.5 -6t6.5 -22v-350h45q16 0 22.5 -6t6.5 -22v-62q0 -16 -6.5 -22t-22.5 -6h-45v-38q0 -29 36 -29q20 0 28.5 -9
t8.5 -30v-47q0 -16 -6.5 -22t-22.5 -6zM314 545l-151 -246h153v246h-2z" />
    <glyph glyph-name="five" unicode="5" 
d="M222 559l-8 -120q45 15 92 15q99 0 157.5 -62.5t58.5 -158.5q0 -121 -76.5 -181t-210.5 -60q-50 0 -102.5 12t-64.5 39q-6 13 -20 54.5t-14 51.5q0 29 25 29h74q12 0 25.5 -10.5t25.5 -22.5t34 -22.5t49 -10.5q46 0 73.5 27.5t27.5 78.5q0 45 -24.5 77t-69.5 32
q-24 0 -57 -18.5t-52 -18.5h-73q-16 0 -22.5 7t-6.5 26q0 78 14 321q1 19 8 26t23 7h303q21 0 28 -13q3 -5 22.5 -58.5t19.5 -60.5q0 -22 -23 -22h-57q-15 0 -37.5 18t-44.5 18h-97z" />
    <glyph glyph-name="six" unicode="6" 
d="M479 499h-58q-21 0 -54.5 33t-64.5 33q-28 0 -49 -14t-31.5 -37t-16 -46t-6.5 -48q70 31 127 31q94 0 149.5 -62t55.5 -159q0 -43 -12.5 -82.5t-39 -75.5t-76 -58t-115.5 -22q-128 0 -193 83.5t-65 215.5q0 76 17.5 143.5t52.5 125t96 91.5t141 34q77 0 114 -33
q11 -11 28 -63t17 -66q0 -24 -17 -24zM184 270q0 -67 27 -109t84 -42q46 0 67 23t21 76q0 46 -26.5 76t-71.5 30q-62 0 -101 -54z" />
    <glyph glyph-name="seven" unicode="7" 
d="M40 547l44 109q5 12 12 16.5t23 4.5h376q16 0 22.5 -6t6.5 -22v-79q0 -22 -8 -38l-232 -516q-20 -42 -34 -42q-16 0 -54 12.5t-38 26.5q0 23 21 80l168 461h-94q-22 0 -52 -31t-50 -31h-92q-26 0 -26 27q0 11 7 28z" />
    <glyph glyph-name="eight" unicode="8" 
d="M174 200q0 -43 29 -65.5t75 -22.5t75 22.5t29 65.5q0 44 -29 66.5t-75 22.5t-75 -22.5t-29 -66.5zM198 487q0 -37 21 -57.5t60 -20.5t60 20.5t21 57.5t-21 57.5t-60 20.5t-60 -20.5t-21 -57.5zM20 194q0 68 34 109t84 59q-40 16 -64 51.5t-24 86.5q0 91 63.5 138
t165.5 47t165.5 -47t63.5 -138q0 -55 -26.5 -90t-61.5 -51q47 -18 81.5 -61t34.5 -104q0 -96 -66.5 -149t-191.5 -53t-191.5 53t-66.5 149z" />
    <glyph glyph-name="nine" unicode="9" 
d="M61 183h71q13 0 29 -17.5t39.5 -35.5t55.5 -18q50 0 78.5 43t32.5 96q-43 -26 -118 -26q-105 0 -165.5 62.5t-60.5 162.5q0 101 62.5 168t179.5 67q119 0 189 -88t70 -244q0 -361 -287 -361q-50 0 -98 13t-60 35q-9 17 -25 60.5t-16 54.5q0 28 23 28zM171 464
q0 -50 26 -81t73 -31q67 0 101 49q0 70 -30 113.5t-81 43.5q-41 0 -65 -26.5t-24 -67.5z" />
    <glyph glyph-name="colon" unicode=":" horiz-adv-x="278" 
d="M58 343q0 34 22.5 57.5t58.5 23.5t58.5 -23.5t22.5 -57.5t-22.5 -57.5t-58.5 -23.5t-58.5 23.5t-22.5 57.5zM58 73q0 34 22.5 57.5t58.5 23.5t58.5 -23.5t22.5 -57.5t-22.5 -57.5t-58.5 -23.5t-58.5 23.5t-22.5 57.5z" />
    <glyph glyph-name="semicolon" unicode=";" horiz-adv-x="278" 
d="M64 58q0 35 21 55.5t50 20.5q36 0 57.5 -24t21.5 -69q0 -53 -28 -110.5t-49 -57.5q-13 0 -30 10t-17 22q0 6 10.5 31t10.5 39q0 7 -11.5 18t-23.5 27t-12 38zM58 343q0 34 22.5 57.5t58.5 23.5t58.5 -23.5t22.5 -57.5t-22.5 -57.5t-58.5 -23.5t-58.5 23.5t-22.5 57.5z
" />
    <glyph glyph-name="less" unicode="&#x3c;" horiz-adv-x="600" 
d="M532 88v-98l-464 198v82l464 198v-99l-332 -141z" />
    <glyph glyph-name="equal" unicode="=" horiz-adv-x="600" 
d="M529 378v-102h-458v102h458zM529 182v-102h-458v102h458z" />
    <glyph glyph-name="greater" unicode="&#x3e;" horiz-adv-x="600" 
d="M68 -10v98l332 140l-332 141v99l464 -198v-82z" />
    <glyph glyph-name="question" unicode="?" horiz-adv-x="500" 
d="M247 187h-58q-30 0 -30 29q0 48 15 87t37 63.5t44 45.5t37 44t15 47q0 67 -69 67q-34 0 -65 -32.5t-64 -32.5h-54q-23 0 -23 27q0 21 20.5 69.5t48.5 59.5q72 28 153 28q99 0 157 -46.5t58 -135.5q0 -38 -17.5 -70.5t-43.5 -56.5t-52.5 -46t-48 -51t-26.5 -61
q-2 -15 -11.5 -25t-22.5 -10zM145 73q0 34 22.5 57.5t58.5 23.5t58.5 -23.5t22.5 -57.5t-22.5 -57.5t-58.5 -23.5t-58.5 23.5t-22.5 57.5z" />
    <glyph glyph-name="at" unicode="@" horiz-adv-x="800" 
d="M345 290q0 -38 14 -61t33 -23q41 0 76.5 51t35.5 144q0 64 -40 64q-39 0 -79 -52t-40 -123zM525 473l11 35h74l-60 -246q-5 -22 1.5 -45t27.5 -23q39 0 72 65t33 130q0 90 -74 162t-192 72q-47 0 -90.5 -17.5t-82 -52.5t-62 -97t-23.5 -143q0 -108 80.5 -183.5
t187.5 -75.5q104 0 201 50l11 -54q-115 -62 -211 -62q-94 0 -170.5 33t-120.5 84t-67 107.5t-23 110.5q0 161 108 263.5t262 102.5q142 0 238 -85.5t96 -213.5q0 -88 -52 -165t-136 -77q-44 0 -68.5 27.5t-23.5 46.5h-2q-8 -20 -42 -47t-74 -27q-36 0 -67 29t-31 96
q0 47 20.5 102.5t68.5 101.5t111 46q12 0 21 -2.5t14.5 -5t11.5 -9t8 -9.5t7.5 -12.5t6.5 -11.5z" />
    <glyph glyph-name="A" unicode="A" horiz-adv-x="667" 
d="M437 212h-217l-14 -44q-4 -16 -4 -32q0 -22 26 -22q30 0 42.5 -8t12.5 -28v-51q0 -27 -36 -27h-228q-32 0 -32 27v50q0 37 38 37q24 0 43 61l102 324q9 25 9 40q0 11 -9.5 17.5t-20.5 6.5q-12 0 -21 9t-9 26v51q0 16 8 22t27 6h349q35 0 35 -28v-56q0 -12 -9 -21t-24 -9
q-11 0 -19 -7t-8 -17q0 -17 9 -40l112 -330q10 -29 20 -42t24 -13q37 0 37 -37v-50q0 -27 -32 -27h-238q-36 0 -36 27v51q0 36 45 36q36 0 36 24q0 10 -6 32zM253 326h146l-72 234h-2z" />
    <glyph glyph-name="B" unicode="B" horiz-adv-x="611" 
d="M249 294v-176h61q65 0 89.5 22t24.5 66t-24.5 66t-89.5 22h-61zM249 559v-147h50q47 0 68 16.5t21 54.5q0 42 -20.5 59t-68.5 17h-50zM96 143v391q0 29 -37 29q-24 0 -33.5 7.5t-9.5 26.5v52q0 16 8 22t27 6h255q119 0 177 -45.5t58 -122.5q0 -39 -15 -70.5t-27 -43
t-36 -28.5q-3 -3 -5 -4q64 -23 94.5 -67.5t30.5 -123.5q0 -172 -273 -172h-259q-19 0 -27 6t-8 22v52q0 19 9.5 26.5t33.5 7.5q37 0 37 29z" />
    <glyph glyph-name="C" unicode="C" horiz-adv-x="611" 
d="M30 325q0 163 99.5 263.5t261.5 100.5q135 0 161 -46q12 -23 22 -61t10 -61q0 -15 -10.5 -20.5t-40.5 -5.5q-34 0 -59 10.5t-36.5 23t-33 23t-51.5 10.5q-69 0 -110 -64t-41 -149q0 -108 45 -171t130 -63q44 0 81 32.5t81 32.5q40 0 53.5 -6t13.5 -22q0 -33 -44 -119
q-11 -20 -69 -32.5t-128 -12.5q-155 0 -245 93t-90 244z" />
    <glyph glyph-name="D" unicode="D" horiz-adv-x="667" 
d="M256 559v-441h32q105 0 146.5 53t41.5 167q0 115 -41.5 168t-146.5 53h-32zM103 143v391q0 29 -37 29q-26 0 -35.5 7.5t-9.5 26.5v52q0 16 8 22t27 6h244q173 0 254 -85t81 -254q0 -168 -81 -253t-254 -85h-244q-19 0 -27 6t-8 22v52q0 19 9.5 26.5t35.5 7.5q37 0 37 29z
" />
    <glyph glyph-name="E" unicode="E" horiz-adv-x="611" 
d="M258 559v-146h70q49 0 64.5 15t54.5 15q46 0 51 -14q1 -3 16.5 -41.5t26 -67.5t10.5 -37q0 -28 -49 -28q-55 0 -79.5 20t-84.5 20h-80v-177h126q30 0 48.5 9.5t26 21t26.5 21t51 9.5q61 0 61 -26q0 -11 -51 -138q-6 -15 -33 -15h-453q-19 0 -27 6t-8 22v52q0 19 9.5 26.5
t33.5 7.5q37 0 37 29v391q0 29 -37 29q-24 0 -33.5 7.5t-9.5 26.5v52q0 16 8 22t27 6h426q18 0 26 -19q8 -17 26.5 -66.5t18.5 -60.5q0 -17 -14 -23.5t-49 -6.5q-32 0 -69 29t-87 29h-80z" />
    <glyph glyph-name="F" unicode="F" 
d="M105 143v391q0 29 -37 29q-24 0 -33.5 7.5t-9.5 26.5v52q0 16 8 22t27 6h419q18 0 26 -19q8 -17 26.5 -66.5t18.5 -60.5q0 -17 -14 -23.5t-49 -6.5q-28 0 -48 14.5t-44.5 29t-63.5 14.5h-73v-146h63q49 0 64.5 15t54.5 15q46 0 51 -14q1 -3 16.5 -41.5t26 -67.5t10.5 -37
q0 -28 -49 -28q-55 0 -79 20t-85 20h-73v-152q0 -29 34 -29q36 0 47.5 -6.5t11.5 -24.5v-55q0 -16 -8 -22t-27 -6h-256q-19 0 -27 6t-8 22v52q0 19 9.5 26.5t33.5 7.5q37 0 37 29z" />
    <glyph glyph-name="G" unicode="G" horiz-adv-x="667" 
d="M383 334h230q19 0 27 -6t8 -22v-52q0 -34 -24 -34q-37 0 -37 -29v-128q0 -11 -28.5 -28.5t-84 -32t-116.5 -14.5q-150 0 -239 89t-89 236q0 159 93 267.5t252 108.5q58 0 105.5 -12.5t64.5 -34.5q7 -10 22 -57t15 -58q0 -19 -12.5 -25.5t-55.5 -6.5q-35 0 -59.5 10.5
t-35 23t-29 23t-43.5 10.5q-62 0 -103.5 -67.5t-41.5 -176.5q0 -102 44 -156t115 -54q52 0 78 13v70q0 16 -10 22.5t-36 6.5t-35.5 7.5t-9.5 26.5v52q0 16 8 22t27 6z" />
    <glyph glyph-name="H" unicode="H" horiz-adv-x="722" 
d="M465 295h-208v-152q0 -29 37 -29q26 0 35.5 -7.5t9.5 -26.5v-52q0 -16 -8 -22t-27 -6h-247q-19 0 -27 6t-8 22v52q0 19 9.5 26.5t35.5 7.5q37 0 37 29v391q0 29 -37 29q-26 0 -35.5 7.5t-9.5 26.5v52q0 16 8 22t27 6h247q19 0 27 -6t8 -22v-52q0 -19 -9.5 -26.5
t-35.5 -7.5q-37 0 -37 -29v-121h208v121q0 29 -37 29q-26 0 -35.5 7.5t-9.5 26.5v52q0 16 8 22t27 6h247q19 0 27 -6t8 -22v-52q0 -19 -9.5 -26.5t-35.5 -7.5q-37 0 -37 -29v-391q0 -29 37 -29q26 0 35.5 -7.5t9.5 -26.5v-52q0 -16 -8 -22t-27 -6h-247q-19 0 -27 6t-8 22v52
q0 19 9.5 26.5t35.5 7.5q37 0 37 29v152z" />
    <glyph glyph-name="I" unicode="I" horiz-adv-x="389" 
d="M271 534v-391q0 -29 37 -29q26 0 35.5 -7.5t9.5 -26.5v-52q0 -16 -8 -22t-27 -6h-247q-19 0 -27 6t-8 22v52q0 19 9.5 26.5t35.5 7.5q37 0 37 29v391q0 29 -37 29q-26 0 -35.5 7.5t-9.5 26.5v52q0 16 8 22t27 6h247q19 0 27 -6t8 -22v-52q0 -19 -9.5 -26.5t-35.5 -7.5
q-37 0 -37 -29z" />
    <glyph glyph-name="J" unicode="J" horiz-adv-x="389" 
d="M285 534v-498q0 -88 -47 -137t-160 -49q-47 0 -97 18t-50 49q0 24 11.5 47.5t31.5 23.5q8 0 35 -5.5t43 -5.5q45 0 62.5 16.5t17.5 55.5v485q0 29 -37 29q-36 0 -47.5 7.5t-11.5 26.5v52q0 16 8 22t27 6h261q19 0 27 -6t8 -22v-52q0 -19 -9.5 -26.5t-35.5 -7.5
q-37 0 -37 -29z" />
    <glyph glyph-name="K" unicode="K" horiz-adv-x="667" 
d="M322 292l-67 -66v-83q0 -29 34 -29q40 0 52.5 -6.5t12.5 -24.5v-55q0 -16 -8 -22t-27 -6h-264q-19 0 -27 6t-8 22v55q0 18 9.5 24.5t38.5 6.5q34 0 34 29v391q0 29 -34 29q-29 0 -38.5 6.5t-9.5 24.5v55q0 16 8 22t27 6h226q19 0 27 -6t8 -22v-50q0 -17 -7 -23.5
t-23 -6.5q-31 0 -31 -29v-153l122 133q15 17 15 26q0 23 -21 23q-18 0 -18 23v57q0 16 8 22t27 6h228q35 0 35 -28v-51q0 -29 -24 -29q-28 0 -72 -45l-121 -122l217 -339q11 -16 11 -27q0 -16 -28.5 -36.5t-48.5 -20.5q-16 0 -32 21z" />
    <glyph glyph-name="L" unicode="L" 
d="M115 143v391q0 29 -37 29q-26 0 -35.5 7.5t-9.5 26.5v52q0 16 8 22t27 6h257q19 0 27 -6t8 -22v-55q0 -18 -11 -24.5t-47 -6.5q-34 0 -34 -29v-416h76q30 0 48.5 9.5t26 21t26.5 21t51 9.5q61 0 61 -26q0 -11 -51 -138q-6 -15 -33 -15h-405q-19 0 -27 6t-8 22v52
q0 19 9.5 26.5t35.5 7.5q37 0 37 29z" />
    <glyph glyph-name="M" unicode="M" horiz-adv-x="889" 
d="M259 0h-200q-19 0 -27 6t-8 22v47q0 23 9 31t37 8q18 0 25.5 6t7.5 23v395q0 14 -8.5 19.5t-32.5 5.5q-22 0 -30 6.5t-8 23.5v56q0 16 8 22t27 6h244q25 0 31 -22l114 -393h2l115 393q5 22 31 22h233q19 0 27 -6t8 -22v-53q0 -19 -8 -26t-32 -7q-22 0 -30 -6t-8 -23v-391
q0 -16 7 -22.5t25 -6.5q27 0 36.5 -7t9.5 -26v-53q0 -16 -8 -22t-27 -6h-202q-19 0 -27 6t-8 22v55q0 18 7 24.5t26 6.5q17 0 23 6t6 23v396h-2l-143 -512q-8 -27 -29 -27h-67q-21 0 -29 27l-155 512h-2v-396q0 -17 7.5 -23t27.5 -6q17 0 24.5 -7t7.5 -26v-53q0 -16 -8 -22
t-27 -6z" />
    <glyph glyph-name="N" unicode="N" horiz-adv-x="722" 
d="M98 143v391q0 17 -7 23t-22 6q-26 0 -34.5 8t-8.5 31v47q0 16 8 22t27 6h217q22 0 32 -19l197 -463h1v339q0 17 -7 23t-22 6q-28 0 -37 8t-9 31v47q0 16 8 22t27 6h196q19 0 27 -6t8 -22v-53q0 -19 -7.5 -26t-24.5 -7q-20 0 -27.5 -6t-7.5 -23v-505q0 -29 -29 -29h-134
q-27 0 -37 24l-208 487h-2v-368q0 -17 7.5 -23t25.5 -6q23 0 31 -8t8 -31v-47q0 -16 -8 -22t-27 -6h-198q-19 0 -27 6t-8 22v47q0 23 8 31t31 8q18 0 25.5 6t7.5 23z" />
    <glyph glyph-name="O" unicode="O" horiz-adv-x="722" 
d="M202 338q0 -100 40.5 -161.5t118.5 -61.5t118.5 61.5t40.5 161.5t-40.5 162t-118.5 62t-118.5 -62t-40.5 -162zM30 338q0 153 90.5 252t240.5 99t240.5 -99t90.5 -252q0 -152 -90.5 -251t-240.5 -99t-240.5 99t-90.5 251z" />
    <glyph glyph-name="P" unicode="P" horiz-adv-x="611" 
d="M260 559v-145h74q56 0 79.5 17t23.5 55t-23.5 55.5t-79.5 17.5h-74zM107 143v391q0 29 -37 29q-26 0 -35.5 7.5t-9.5 26.5v52q0 16 8 22t27 6h295q132 0 186.5 -48t54.5 -143t-54.5 -142.5t-186.5 -47.5h-95v-153q0 -16 11 -22.5t42 -6.5q26 0 35.5 -7.5t9.5 -26.5v-52
q0 -16 -8 -22t-27 -6h-263q-19 0 -27 6t-8 22v52q0 19 9.5 26.5t35.5 7.5q37 0 37 29z" />
    <glyph glyph-name="Q" unicode="Q" horiz-adv-x="722" 
d="M407 251l76 -69q37 58 37 156q0 100 -40.5 162t-118.5 62t-118.5 -62t-40.5 -162t40.5 -161.5t118.5 -61.5q7 0 10 1l-63 71q-9 11 -9 23t29 37t39 25q18 0 40 -21zM537 -67l-65 72q-51 -17 -111 -17q-150 0 -240.5 99t-90.5 251q0 153 90.5 252t240.5 99t240.5 -99
t90.5 -252q0 -158 -95 -255l57 -52q11 -10 11 -24q0 -11 -45 -50t-55 -39q-16 0 -28 15z" />
    <glyph glyph-name="R" unicode="R" horiz-adv-x="611" 
d="M251 559v-148h59q52 0 75 17t23 57t-23 57t-75 17h-59zM98 143v391q0 29 -37 29q-26 0 -35.5 7.5t-9.5 26.5v52q0 16 8 22t27 6h294q103 0 162.5 -47.5t59.5 -136.5q0 -147 -140 -186l168 -246q9 -13 9 -30q0 -15 -28 -33.5t-45 -18.5t-33 21l-245 310h-2v-167
q0 -16 10 -22.5t37 -6.5q26 0 35.5 -7.5t9.5 -26.5v-52q0 -16 -8 -22t-27 -6h-257q-19 0 -27 6t-8 22v52q0 19 9.5 26.5t35.5 7.5q37 0 37 29z" />
    <glyph glyph-name="S" unicode="S" 
d="M51 496q0 100 63 146.5t167 46.5q58 0 110.5 -15.5t67.5 -42.5q11 -21 23 -58t12 -55q0 -11 -12 -15t-54 -4q-40 0 -64 11.5t-31 24.5t-23 24.5t-43 11.5q-63 0 -63 -62q0 -28 24 -49.5t59.5 -33.5t77.5 -30t77.5 -39t59.5 -61t24 -94q0 -58 -22 -101t-60.5 -67t-84 -35
t-99.5 -11t-115 14t-79 50q-36 69 -36 106q0 16 13 23t52 7q44 0 72 -13t39 -28t31.5 -28t50.5 -13q45 0 65 17.5t20 56.5q0 30 -24 53t-59.5 36.5t-77.5 33t-77.5 41t-59.5 61t-24 91.5z" />
    <glyph glyph-name="T" unicode="T" horiz-adv-x="611" 
d="M441 0h-273q-19 0 -27 6t-8 22v52q0 19 9.5 26.5t35.5 7.5q27 0 37 6.5t10 22.5v403q-61 0 -85 -20t-79 -20q-49 0 -49 28q0 8 10.5 37t26 67.5t16.5 41.5q5 14 51 14q39 0 54.5 -15t64.5 -15h180q42 0 63 15t72 15q49 0 49 -28q0 -8 -10.5 -37t-26 -67.5t-16.5 -41.5
q-5 -14 -51 -14q-25 0 -50 20t-67 20v-403q0 -16 11 -22.5t42 -6.5q26 0 35.5 -7.5t9.5 -26.5v-52q0 -16 -8 -22t-27 -6z" />
    <glyph glyph-name="U" unicode="U" horiz-adv-x="722" 
d="M55 677h247q19 0 27 -6t8 -22v-52q0 -19 -9.5 -26.5t-35.5 -7.5q-37 0 -37 -29v-311q0 -51 28 -79.5t79 -28.5q55 0 81.5 25.5t26.5 82.5v311q0 29 -37 29q-26 0 -35.5 7.5t-9.5 26.5v52q0 16 8 22t27 6h247q19 0 27 -6t8 -22v-52q0 -19 -9.5 -26.5t-35.5 -7.5
q-37 0 -37 -29v-292q0 -129 -64 -191.5t-194 -62.5q-125 0 -194 65t-69 189v292q0 29 -37 29q-26 0 -35.5 7.5t-9.5 26.5v52q0 16 8 22t27 6z" />
    <glyph glyph-name="V" unicode="V" horiz-adv-x="667" 
d="M408 0h-137q-24 0 -30 21l-171 492q-17 50 -54 50q-23 0 -23 26v61q0 16 7 21.5t25 5.5h250q20 0 28 -6t8 -21v-55q0 -32 -46 -32q-35 0 -35 -24q0 -16 5 -31l105 -336h4l107 343q5 13 5 24q0 24 -43 24q-37 0 -37 27v60q0 16 7 21.5t25 5.5h230q36 0 36 -27v-61
q0 -26 -24 -26q-22 0 -34.5 -15t-23.5 -49l-154 -478q-6 -21 -30 -21z" />
    <glyph glyph-name="W" unicode="W" horiz-adv-x="889" 
d="M336 0h-105q-21 0 -29 27l-144 471q-9 31 -20 48t-31 17q-31 0 -31 27v59q0 17 7.5 22.5t27.5 5.5h206q19 0 27 -6t8 -22v-59q0 -27 -28 -27q-31 0 -31 -25q0 -12 8 -39l83 -308h3l67 312q5 22 5 36q0 24 -25 24q-24 0 -24 28v58q0 16 8 22t27 6h203q19 0 27 -6t8 -22
v-57q0 -29 -23 -29q-11 0 -18.5 -7t-7.5 -16q0 -14 6 -36l76 -313h3l78 308q7 26 7 35q0 29 -26 29q-32 0 -32 29v57q0 16 8 22t27 6h196q19 0 27 -6t8 -22v-61q0 -25 -20 -25q-18 0 -29.5 -16t-22.5 -49l-144 -471q-9 -27 -29 -27h-107q-23 0 -29 27l-87 334h-2l-77 -334
q-6 -27 -29 -27z" />
    <glyph glyph-name="X" unicode="X" horiz-adv-x="611" 
d="M239 0h-212q-36 0 -36 28v55q0 31 30 31q27 0 57 44l140 195l-125 178q-22 32 -45 32q-19 0 -26 7t-7 24v55q0 16 8 22t27 6h207q19 0 27 -6t8 -22v-56q0 -24 -21 -24q-18 0 -18 -16q0 -11 11 -26l51 -77l50 67q11 14 11 28q0 11 -6 17.5t-16 6.5q-21 0 -21 26v54
q0 16 8 22t27 6h192q19 0 27 -6t8 -22v-52q0 -18 -7.5 -26t-26.5 -8q-21 0 -45 -33l-120 -172l136 -200q30 -44 57 -44q17 0 23.5 -7t6.5 -26v-53q0 -16 -8 -22t-27 -6h-225q-19 0 -27 6t-8 22v55q0 25 23 25q15 0 21 6.5t6 22.5q0 14 -13 33l-62 87l-63 -87
q-12 -18 -12 -39q0 -23 29 -23q21 0 21 -25v-55q0 -16 -8 -22t-27 -6z" />
    <glyph glyph-name="Y" unicode="Y" horiz-adv-x="611" 
d="M404 0h-186q-21 0 -28 8t-7 31v26q0 41 21 91t38 77l-171 295q-8 14 -23 24.5t-29 10.5q-17 0 -23.5 6t-6.5 24v56q0 16 8 22t27 6h233q19 0 27 -6t8 -22v-51q0 -29 -22 -29q-25 0 -25 -23q0 -17 10 -37l65 -126l63 126q10 20 10 38q0 22 -24 22q-23 0 -23 27v53
q0 16 8 22t27 6h205q19 0 27 -6t8 -22v-59q0 -27 -34 -27q-30 0 -48 -37l-163 -338q-11 -23 -11 -48q0 -26 30 -26q26 0 35 -8t9 -29v-49q0 -16 -8 -22t-27 -6z" />
    <glyph glyph-name="Z" unicode="Z" 
d="M468 0h-422q-26 0 -26 27v85q0 16 15 36l306 411h-93q-23 0 -40 -9.5t-26.5 -21t-30 -21t-50.5 -9.5q-35 0 -47 5.5t-12 19.5q0 22 25.5 88t42.5 66h387q23 0 23 -27v-81q0 -20 -15 -40l-308 -411h134q23 0 39.5 9.5t26 21t30 21t50.5 9.5q35 0 47 -5.5t12 -19.5
q0 -23 -25.5 -88.5t-42.5 -65.5z" />
    <glyph glyph-name="bracketleft" unicode="[" horiz-adv-x="389" 
d="M90 -107v749q0 35 35 35h211q35 0 35 -35t-32 -35q-11 0 -35 1.5t-40 1.5q-25 0 -36 -17t-11 -58v-535q0 -41 11 -58t36 -17q16 0 40 1.5t35 1.5q32 0 32 -35t-35 -35h-211q-35 0 -35 35z" />
    <glyph glyph-name="backslash" unicode="\" horiz-adv-x="278" 
d="M-66 689h99l311 -701h-99z" />
    <glyph glyph-name="bracketright" unicode="]" horiz-adv-x="389" 
d="M299 642v-749q0 -35 -35 -35h-211q-35 0 -35 35t32 35q11 0 35 -1.5t40 -1.5q25 0 36 17t11 58v535q0 41 -11 58t-36 17q-16 0 -40 -1.5t-35 -1.5q-32 0 -32 35t35 35h211q35 0 35 -35z" />
    <glyph glyph-name="asciicircum" unicode="^" horiz-adv-x="600" 
d="M184 312h-109l175 365h100l175 -365h-110l-115 254z" />
    <glyph glyph-name="underscore" unicode="_" horiz-adv-x="500" 
d="M500 -125h-500v50h500v-50z" />
    <glyph glyph-name="grave" unicode="`" horiz-adv-x="278" 
d="M155 524l-142 86q-38 23 -38 55q0 21 15 34.5t40 13.5q10 0 20 -3.5t16.5 -7t16.5 -13.5t14.5 -15t16.5 -20t17 -21l90 -109h-66z" />
    <glyph glyph-name="a" unicode="a" horiz-adv-x="500" 
d="M427 331v-206q0 -23 28 -23q26 0 26 -20v-44q0 -18 -26 -30t-49 -15t-37 -3q-33 0 -68 39q-41 -39 -110 -39q-76 0 -118.5 35.5t-42.5 99.5q0 44 26 78t67 52t82.5 26.5t81.5 8.5h4v33q0 35 -49 35q-25 0 -55 -23.5t-54 -23.5h-50q-17 0 -17 18v84q0 26 67 40.5t117 14.5
q177 0 177 -137zM291 129v81q-20 0 -42 -4.5t-44.5 -21.5t-22.5 -44q0 -40 46 -40q42 0 63 29z" />
    <glyph glyph-name="b" unicode="b" 
d="M75 200v291q0 24 -36 24q-26 0 -26 29v44q0 21 26 33l165 75q19 8 35 8q19 0 19 -20v-60q0 -17 -23.5 -36.5t-23.5 -40.5v-131q25 18 36 25t39 17t57 10q78 0 129 -58.5t51 -153.5q0 -125 -70 -195.5t-192 -70.5q-92 0 -151.5 40t-59.5 81q0 17 12.5 45.5t12.5 43.5z
M211 286v-98q0 -43 25.5 -61.5t58.5 -18.5q96 0 96 111q0 49 -26.5 79.5t-70.5 30.5q-30 0 -47 -10t-36 -33z" />
    <glyph glyph-name="c" unicode="c" horiz-adv-x="444" 
d="M379 307h-60q-4 0 -7.5 1t-7.5 4.5t-5.5 5t-6 7.5t-5.5 7q-20 26 -46 26q-32 0 -50.5 -35t-18.5 -83q0 -56 30.5 -90.5t80.5 -34.5q35 0 68 14t39 14q11 0 30.5 -29t19.5 -43q0 -25 -55 -53t-107 -28q-120 0 -184 66t-64 173t64 173t184 66q54 0 91 -10t37 -25v-102
q0 -24 -27 -24z" />
    <glyph glyph-name="d" unicode="d" 
d="M346 161v116q0 31 -24 52t-63 21q-38 0 -65 -26.5t-27 -74.5q0 -60 27 -90t71 -30q52 0 81 32zM527 684v-60q0 -17 -22.5 -36.5t-22.5 -40.5v-422q0 -24 30 -24q27 0 27 -27v-51q0 -23 -27 -23h-139q-27 0 -27 23v25h-2q-12 -21 -44.5 -39.5t-73.5 -18.5q-87 0 -139 60
t-52 172q0 110 63.5 178t170.5 68q52 0 77 -9v32q0 24 -36 24q-28 0 -28 29v44q0 21 26 33l165 75q19 8 35 8q19 0 19 -20z" />
    <glyph glyph-name="e" unicode="e" horiz-adv-x="500" 
d="M400 236l-191 -87q33 -41 81 -41q44 0 88 21t47 21q16 0 33 -27.5t17 -42.5q0 -26 -63 -58t-133 -32q-120 0 -184 66t-64 173t64 173t184 66q51 0 90.5 -16.5t60 -41t30.5 -46.5t10 -37q0 -35 -14.5 -54t-55.5 -37zM162 244l80 34q56 24 56 45q0 17 -13.5 26t-33.5 9
q-40 0 -67 -36.5t-22 -77.5z" />
    <glyph glyph-name="f" unicode="f" horiz-adv-x="333" 
d="M275 0h-223q-27 0 -27 23v51q0 27 27 27q35 0 35 24v159l-23 -8q-18 -4 -24 -4q-16 0 -16 18v73q0 12 11 18l52 22v92q0 111 44 160t144 49q82 0 117 -28t35 -87v-35q0 -24 -12 -31.5t-52 -7.5q-38 0 -67 39q-2 3 -6.5 10t-6.5 9.5t-6.5 7.5t-7.5 7t-8 4t-10 2
q-28 0 -28 -48v-99l49 16q18 5 28 5q15 0 15 -15v-73q0 -17 -16 -23l-76 -29v-203q0 -24 51 -24q28 0 28 -27v-51q0 -23 -27 -23z" />
    <glyph glyph-name="g" unicode="g" horiz-adv-x="500" 
d="M185 297q0 -38 18.5 -61.5t48.5 -23.5q28 0 41 16t13 54t-18 61.5t-48 23.5q-29 0 -42 -16t-13 -54zM278 -33h-127q-102 0 -102 80q0 20 7.5 35.5t22.5 26t24 15.5t25 12q-38 23 -60 60t-22 81q0 91 50 141t144 50h29l63 52q31 26 73 26h41q25 0 32.5 -5t7.5 -22v-67
q0 -11 -6.5 -15.5t-22.5 -4.5h-19q-17 0 -35 8q-16 7 -22 7q-12 0 -20 -3q84 -59 84 -162q0 -89 -47.5 -130t-157.5 -41q-34 0 -44 -3.5t-10 -13.5q0 -17 28 -17h111q152 0 152 -126q0 -78 -64.5 -120t-182.5 -42q-21 0 -49 2.5t-66 9.5t-63.5 22.5t-25.5 38.5v59
q0 14 13 19t55 5q46 0 92.5 -23t72.5 -23q62 0 62 37q0 31 -43 31z" />
    <glyph glyph-name="h" unicode="h" 
d="M84 125v366q0 24 -36 24q-28 0 -28 29v44q0 21 26 33l165 75q19 8 32 8q19 0 19 -20v-60q0 -17 -21 -36.5t-21 -40.5v-126q67 47 132 47q62 0 97 -37t35 -103v-203q0 -24 37 -24q25 0 25 -27v-51q0 -23 -27 -23h-187q-27 0 -27 23v51q0 27 25 27q18 0 18 24v157
q0 24 -14 37t-39 13q-32 0 -75 -26v-181q0 -24 26 -24q25 0 25 -27v-51q0 -23 -27 -23h-190q-27 0 -27 23v51q0 27 25 27q32 0 32 24z" />
    <glyph glyph-name="i" unicode="i" horiz-adv-x="278" 
d="M236 0h-192q-27 0 -27 23v51q0 27 28 27q26 0 26 22v132q0 24 -32 24q-26 0 -26 29v44q0 20 22 33l165 75q19 8 28 8q19 0 19 -20v-60q0 -17 -20 -36.5t-20 -40.5v-186q0 -24 29 -24q27 0 27 -27v-51q0 -23 -27 -23zM46 472v126q0 19 17 26l106 46q16 7 26 7q12 0 12 -15
v-130q0 -13 -21 -22l-102 -44q-18 -8 -24 -8q-14 0 -14 14z" />
    <glyph glyph-name="j" unicode="j" horiz-adv-x="278" 
d="M27 308v44q0 20 22 33l165 75q19 8 28 8q19 0 19 -20v-60q0 -17 -20 -36.5t-20 -40.5v-363q0 -79 -48.5 -119t-130.5 -40q-58 0 -100.5 22t-42.5 73v40q0 24 11 32.5t44 8.5q48 0 65 -32q1 -2 4 -8.5t4 -8.5t4.5 -6.5t6.5 -6t7.5 -3t10.5 -1.5q29 0 29 31v325
q0 24 -32 24q-26 0 -26 29zM60 472v126q0 19 17 26l106 46q16 7 26 7q12 0 12 -15v-130q0 -13 -21 -22l-102 -44q-18 -8 -24 -8q-14 0 -14 14z" />
    <glyph glyph-name="k" unicode="k" horiz-adv-x="500" 
d="M72 125v366q0 24 -32 24q-26 0 -26 29v44q0 20 22 33l165 75q19 8 30 8q19 0 19 -20v-60q0 -17 -21 -36.5t-21 -40.5v-275h2q7 7 26 25.5t30 30.5t11 15q0 8 -9 13t-9 14v65q0 23 27 23h171q27 0 27 -23v-50q0 -28 -17 -28q-7 0 -15.5 -2.5t-18 -9t-17 -11.5t-18.5 -14.5
t-16 -13.5t-15.5 -14t-11.5 -11l120 -193q27 -43 27 -52q0 -13 -22 -29.5t-39 -16.5q-7 0 -28.5 17t-43.5 43l-118 142l-43 -35v-32q0 -24 49 -24q28 0 28 -27v-51q0 -23 -27 -23h-212q-27 0 -27 23v51q0 27 27 27q26 0 26 24z" />
    <glyph glyph-name="l" unicode="l" horiz-adv-x="278" 
d="M241 0h-202q-27 0 -27 23v51q0 27 25 27q34 0 34 24v366q0 24 -36 24q-28 0 -28 29v44q0 21 26 33l165 75q19 8 35 8q19 0 19 -20v-60q0 -17 -22.5 -36.5t-22.5 -40.5v-422q0 -24 34 -24q27 0 27 -27v-51q0 -23 -27 -23z" />
    <glyph glyph-name="m" unicode="m" horiz-adv-x="833" 
d="M84 123v146q0 21 -26 21q-19 0 -26.5 5.5t-7.5 19.5v51q0 15 14 22l137 71q18 9 28 9q17 0 17 -18v-36q73 54 138 54q77 0 117 -59q73 59 146 59q64 0 100.5 -35.5t36.5 -94.5v-213q0 -24 29 -24q27 0 27 -27v-51q0 -23 -27 -23h-178q-27 0 -27 23v51q0 27 27 27
q4 0 8.5 7t4.5 17v152q0 55 -57 55q-27 0 -76 -31v-176q0 -24 18 -24q27 0 27 -27v-51q0 -23 -27 -23h-169q-27 0 -27 23v51q0 27 28 27q4 0 9 6.5t5 15.5v154q0 25 -14.5 40t-42.5 15q-27 0 -76 -31v-176q0 -24 16 -24q27 0 27 -27v-51q0 -23 -27 -23h-185q-27 0 -27 23v51
q0 27 28 27q32 0 32 22z" />
    <glyph glyph-name="n" unicode="n" 
d="M84 125v144q0 21 -24 21q-19 0 -26.5 5.5t-7.5 19.5v51q0 15 14 22l135 71q18 9 28 9q17 0 17 -18v-36q63 54 132 54q62 0 97 -37t35 -103v-203q0 -24 37 -24q25 0 25 -27v-51q0 -23 -27 -23h-187q-27 0 -27 23v51q0 27 25 27q18 0 18 24v157q0 22 -14.5 36t-38.5 14
q-43 0 -75 -44v-163q0 -24 26 -24q25 0 25 -27v-51q0 -23 -27 -23h-190q-27 0 -27 23v51q0 27 25 27q32 0 32 24z" />
    <glyph glyph-name="o" unicode="o" 
d="M30 229q0 107 64 173t184 66t184 -66t64 -173t-64 -173t-184 -66t-184 66t-64 173zM182 266q0 -67 31.5 -116.5t78.5 -49.5q82 0 82 92q0 67 -31.5 116.5t-78.5 49.5q-82 0 -82 -92z" />
    <glyph glyph-name="p" unicode="p" 
d="M213 287v-85q0 -42 24 -68t66 -26q49 0 69 28.5t20 82.5q0 48 -23 79t-68 31q-50 0 -88 -42zM77 -86v355q0 21 -26 21q-19 0 -26.5 5.5t-7.5 19.5v51q0 15 14 22l137 71q18 9 28 9q17 0 17 -18v-51q60 69 129 69q82 0 132 -63t50 -162q0 -124 -55 -188.5t-159 -64.5
q-48 0 -97 20v-98q0 -22 49 -22q28 0 28 -27v-51q0 -23 -27 -23h-217q-27 0 -27 23v51q0 27 27 27q31 0 31 24z" />
    <glyph glyph-name="q" unicode="q" 
d="M519 -211h-215q-27 0 -27 23v51q0 27 28 27q44 0 44 22v138h-2q-12 -21 -47.5 -40.5t-80.5 -19.5q-84 0 -134 59.5t-50 156.5q0 122 60 192t177 70q23 0 55 -2q24 -3 36 -3q21 0 56.5 6t48.5 6q37 0 37 -36q0 -21 -10 -57t-10 -56v-412q0 -24 34 -24q27 0 27 -27v-51
q0 -23 -27 -23zM349 174v101q0 29 -26 52t-63 23q-42 0 -67.5 -30t-25.5 -77q0 -55 28 -84.5t74 -29.5q22 0 44.5 12t35.5 33z" />
    <glyph glyph-name="r" unicode="r" horiz-adv-x="389" 
d="M25 315v51q0 15 14 22l135 71q18 9 28 9q17 0 17 -18v-51l16 13q22 18 31.5 25t28.5 14t41 7q33 0 45.5 -9.5t12.5 -34.5v-91q0 -23 -10.5 -31t-35.5 -8q-32 0 -58.5 11t-39.5 11q-31 0 -31 -27v-154q0 -24 49 -24q28 0 28 -27v-51q0 -23 -27 -23h-214q-27 0 -27 23v51
q0 27 25 27q30 0 30 24v144q0 21 -24 21q-19 0 -26.5 5.5t-7.5 19.5z" />
    <glyph glyph-name="s" unicode="s" horiz-adv-x="444" 
d="M35 59v45q0 32 8 42t32 10h22q30 0 49.5 -16t40.5 -32.5t54 -16.5q37 0 37 33q0 17 -24.5 29t-59 22.5t-69.5 24.5t-59.5 43.5t-24.5 72.5q0 75 55.5 113.5t133.5 38.5q75 0 118.5 -19.5t43.5 -49.5v-71q0 -13 -5 -18t-18 -5h-41q-14 0 -25.5 5t-17 10t-15.5 16
q-33 31 -56 31q-32 0 -32 -28q0 -16 17.5 -27t44 -17.5t57 -18t57 -26t44 -43t17.5 -67.5q0 -150 -197 -150q-67 0 -127 17.5t-60 51.5z" />
    <glyph glyph-name="t" unicode="t" horiz-adv-x="333" 
d="M88 117v173l-15 -5q-8 -4 -18 -4q-14 0 -14 16v73q0 18 10 21l37 16v123q0 13 17 21l77 31q16 7 26 7q16 0 16 -17v-121l32 11q16 6 27 6q13 0 13 -18v-74q0 -15 -16 -22l-56 -23v-179q0 -44 32 -44q4 0 13 0.5t12 0.5q13 0 22.5 -24t9.5 -39q0 -21 -35.5 -38.5
t-84.5 -17.5q-105 0 -105 127z" />
    <glyph glyph-name="u" unicode="u" 
d="M510 0h-148q-19 0 -19 18v20q-52 -48 -127 -48q-139 0 -139 147v118q0 24 -38 24q-26 0 -26 29v45q0 21 28 33l165 74q19 8 32 8q19 0 19 -20v-60q0 -17 -22 -36.5t-22 -40.5v-139q0 -20 14 -33t43 -13q47 0 71 31v98q0 24 -31 24q-26 0 -26 29v45q0 23 21 33l165 74
q19 8 32 8q19 0 19 -20v-60q0 -17 -22 -36.5t-22 -40.5v-186q0 -24 33 -24q27 0 27 -27v-51q0 -23 -27 -23z" />
    <glyph glyph-name="v" unicode="v" horiz-adv-x="500" 
d="M14 458h198q27 0 27 -23v-55q0 -23 -27 -23t-27 -20q0 -7 10 -35l61 -161h2l65 163q9 29 9 33q0 20 -27 20t-27 23v55q0 23 27 23h180q27 0 27 -23v-55q0 -23 -27 -23q-17 0 -27 -24l-119 -311q-8 -22 -30 -22h-118q-17 0 -25 21l-127 315q-8 21 -25 21q-27 0 -27 23v55
q0 23 27 23z" />
    <glyph glyph-name="w" unicode="w" horiz-adv-x="722" 
d="M11 458h180q27 0 27 -23v-55q0 -23 -20 -23q-26 0 -26 -20q0 -2 9 -31l49 -156h2l52 156q6 18 6 28q0 23 -16 23q-20 0 -20 23v55q0 23 27 23h178q27 0 27 -23v-55q0 -23 -19 -23q-17 0 -17 -24q0 -6 7 -27l49 -157h2l48 154q7 21 7 32q0 22 -19 22q-21 0 -21 23v55
q0 23 27 23h161q27 0 27 -23v-55q0 -23 -23 -23q-20 0 -27 -24l-102 -312q-7 -21 -25 -21h-112q-19 0 -25 23l-58 184h-2l-56 -186q-6 -21 -25 -21h-115q-18 0 -27 27l-108 309q-7 21 -27 21q-22 0 -22 23v55q0 23 27 23z" />
    <glyph glyph-name="x" unicode="x" horiz-adv-x="500" 
d="M25 458h182q27 0 27 -23v-58q0 -15 -8 -21t-8 -12q0 -9 8 -17l31 -39l31 39q8 8 8 17q0 6 -8 12t-8 21v58q0 23 27 23h152q27 0 27 -23v-55q0 -23 -18 -23q-20 0 -44 -26l-85 -95l84 -89q44 -46 71 -46q16 0 16 -22v-56q0 -23 -27 -23h-188q-27 0 -27 23v58q0 12 9.5 20
t9.5 13q0 11 -10 22l-30 34l-34 -37q-8 -8 -8 -19q0 -5 9.5 -13t9.5 -20v-58q0 -23 -27 -23h-179q-27 0 -27 23v59q0 19 15 19q10 0 26.5 9t24.5 19l97 111l-87 91q-24 26 -51 26q-18 0 -18 22v56q0 23 27 23z" />
    <glyph glyph-name="y" unicode="y" horiz-adv-x="500" 
d="M14 458h195q27 0 27 -23v-53q0 -25 -18 -25q-28 0 -28 -20q0 -16 7 -30l62 -136l55 126q12 25 12 40q0 20 -28 20q-18 0 -18 25v53q0 23 27 23h180q27 0 27 -23v-50q0 -28 -18 -28q-23 0 -33 -21l-141 -323q-23 -55 -23 -85q0 -38 48 -38q33 0 33 -28v-50q0 -23 -27 -23
h-193q-27 0 -27 23v54q0 22 9 45l43 101l-149 324q-9 21 -31 21q-18 0 -18 22v56q0 23 27 23z" />
    <glyph glyph-name="z" unicode="z" horiz-adv-x="444" 
d="M198 110h52q22 0 56 22.5t43 22.5h50q27 0 27 -23v-109q0 -23 -27 -23h-344q-27 0 -27 23v74q0 21 14 35l200 216h-42q-14 0 -44 -19q-27 -19 -43 -19h-44q-27 0 -27 23v102q0 23 27 23h323q27 0 27 -23v-76q0 -18 -16 -34z" />
    <glyph glyph-name="braceleft" unicode="{" horiz-adv-x="333" 
d="M103 -1v162q0 49 -13.5 73.5t-53.5 36.5q40 13 53.5 37.5t13.5 73.5v162q0 85 39 115t154 30v-20q-41 -12 -53.5 -36t-12.5 -83v-157q0 -46 -14.5 -77.5t-57.5 -43.5v-2q43 -12 57.5 -43t14.5 -77v-157q0 -60 12.5 -84t53.5 -35v-20q-115 0 -154 28.5t-39 116.5z" />
    <glyph glyph-name="bar" unicode="|" horiz-adv-x="222" 
d="M60 -250v1000h102v-1000h-102z" />
    <glyph glyph-name="braceright" unicode="}" horiz-adv-x="333" 
d="M230 544v-162q0 -49 13.5 -73.5t53.5 -36.5q-40 -13 -53.5 -37.5t-13.5 -73.5v-162q0 -85 -39 -115t-154 -30v20q41 12 53.5 36t12.5 83v157q0 46 14.5 77.5t57.5 43.5v2q-43 12 -57.5 43t-14.5 77v157q0 60 -12.5 84t-53.5 35v20q115 0 154 -28.5t39 -116.5z" />
    <glyph glyph-name="asciitilde" unicode="~" horiz-adv-x="600" 
d="M495 319l36 -90q-20 -27 -33 -42t-38 -29.5t-54 -14.5q-32 0 -106 34t-111 34q-51 0 -84 -72l-36 90q45 86 125 86q41 0 111 -34t102 -34q20 0 37.5 12.5t26 23.5t24.5 36z" />
    <glyph glyph-name="uni00A0" unicode="&#xa0;" horiz-adv-x="278" 
 />
    <glyph glyph-name="exclamdown" unicode="&#xa1;" horiz-adv-x="278" 
d="M115 293h48q24 0 27 -27l18 -230q16 -198 16 -205q0 -30 -30 -30h-110q-30 0 -30 30q0 7 16 205l18 230q3 27 27 27zM220 405q0 -34 -22.5 -57.5t-58.5 -23.5t-58.5 23.5t-22.5 57.5t22.5 57.5t58.5 23.5t58.5 -23.5t22.5 -57.5z" />
    <glyph glyph-name="cent" unicode="&#xa2;" 
d="M197 25v88q-73 19 -111 81q-36 58 -36 140q0 90 41.5 151t105.5 84v83q0 14 5.5 19.5t19.5 5.5h68q14 0 19.5 -5.5t5.5 -19.5v-70q3 0 8 -1q20 -2 30.5 -4t25 -6t21 -11t6.5 -17v-94q0 -23 -23 -23h-52q-15 0 -37 20q-20 20 -43 20q-35 0 -53.5 -29t-18.5 -72
q0 -64 29 -97.5t77 -33.5q26 0 52 7.5t43 15t20 7.5q13 0 27.5 -24.5t14.5 -45.5q0 -25 -45.5 -51t-81.5 -31v-87q0 -14 -5.5 -19.5t-19.5 -5.5h-68q-14 0 -19.5 5.5t-5.5 19.5z" />
    <glyph glyph-name="sterling" unicode="&#xa3;" 
d="M252 290l-30 -172h102q36 0 58 16t37 32t34 16h66q19 0 19 -14q0 -24 -42 -138q-6 -17 -14.5 -23.5t-26.5 -6.5h-411q-27 0 -27 27v56q0 15 8.5 23.5t19.5 12t22 16.5t15 35l22 120h-40q-14 0 -19.5 5.5t-5.5 19.5v68q0 14 5.5 19.5t19.5 5.5h61l5 30q19 126 77 186.5
t161 60.5q76 0 105 -29q18 -18 34.5 -70.5t16.5 -68.5t-20 -16h-73q-3 0 -6 1t-5 2t-5 3.5t-4 3.5t-4 5t-4 5t-3.5 6t-3.5 6q-18 32 -45 32q-20 0 -36.5 -23.5t-24.5 -62.5l-15 -71h103q14 0 19.5 -5.5t5.5 -19.5v-68q0 -14 -5.5 -19.5t-19.5 -5.5h-126z" />
    <glyph glyph-name="currency" unicode="&#xa4;" 
d="M18 151l58 57q-47 55 -47 142q0 86 47 142l-58 57l61 61l54 -56q58 44 144 44q44 1 84 -13.5t54 -30.5l58 58l64 -64l-57 -56q1 -1 5.5 -7l6 -8t5.5 -9l6 -10.5t5.5 -11.5t5.5 -14.5t4.5 -16t3.5 -19t2 -21.5t1 -25q0 -89 -45 -142l56 -57l-58 -58l-57 57
q-46 -48 -144 -48q-91 0 -144 48l-56 -58zM277 205q70 0 104.5 38t34.5 107t-34.5 107t-104.5 38t-104.5 -38t-34.5 -107t34.5 -107t104.5 -38z" />
    <glyph glyph-name="yen" unicode="&#xa5;" 
d="M374 0h-176q-21 0 -28 8t-7 31v26q0 41 21 91.5t36 72.5h-150q-25 0 -25 25v36q0 25 25 25h103l-36 62h-86q-25 0 -25 25v36q0 25 25 25h36l-37 65q-8 14 -23 24.5t-29 10.5q-17 0 -23.5 6t-6.5 24v56q0 16 8 22t27 6h227q19 0 27 -6t8 -22v-51q0 -29 -22 -29
q-30 0 -30 -23q0 -18 11 -37l70 -136l65 136q10 22 10 36q0 9 -6.5 16.5t-19.5 7.5q-23 0 -23 33v47q0 28 35 28h198q19 0 27 -6t8 -22v-59q0 -27 -34 -27q-30 0 -48 -37l-30 -63h43q25 0 25 -25v-36q0 -25 -25 -25h-84l-30 -62h95q25 0 25 -25v-36q0 -25 -25 -25h-136
l-18 -41q-11 -23 -11 -48q0 -26 30 -26q26 0 35 -8t9 -29v-49q0 -16 -8 -22t-27 -6z" />
    <glyph glyph-name="brokenbar" unicode="&#xa6;" horiz-adv-x="222" 
d="M60 -175v350h102v-350h-102zM60 325v350h102v-350h-102z" />
    <glyph glyph-name="section" unicode="&#xa7;" horiz-adv-x="500" 
d="M143 322q0 -21 18.5 -46t38 -41.5t52.5 -41.5t41 -32q16 7 23.5 11t19 13t16.5 21.5t5 29.5q0 25 -25.5 53.5t-65 59.5t-49.5 41q-24 -6 -36 -10t-25 -19t-13 -39zM92 5h64q11 0 20.5 -11t17 -23.5t25 -23.5t42.5 -11q48 0 48 41q0 25 -41.5 62t-91 71t-91 84t-41.5 98
q0 101 121 141q-25 20 -39 33t-28.5 41t-14.5 60q0 122 170 122q118 0 146 -38q10 -14 23.5 -47.5t13.5 -41.5q0 -17 -21 -17h-64q-12 0 -24.5 11t-21.5 24.5t-26 24.5t-38 11t-33.5 -10.5t-12.5 -29.5q0 -22 41 -59t89.5 -72t89.5 -85t41 -95q0 -35 -11 -61t-32.5 -43
t-36 -25t-37.5 -17q24 -20 36 -30.5t29 -39.5t17 -58q0 -128 -183 -128q-60 0 -98 15t-44 31q-25 71 -25 83q0 13 21 13z" />
    <glyph glyph-name="dieresis" unicode="&#xa8;" horiz-adv-x="278" 
d="M181 527v91q0 20 19 29l72 34q18 9 29 9q12 0 12 -15v-96q0 -15 -19 -24l-77 -37q-12 -6 -23 -6q-13 0 -13 15zM-35 527v91q0 20 19 29l72 34q18 9 29 9q12 0 12 -15v-96q0 -15 -19 -24l-77 -37q-12 -6 -23 -6q-13 0 -13 15z" />
    <glyph glyph-name="copyright" unicode="&#xa9;" horiz-adv-x="800" 
d="M57 338q0 150 97 250.5t246 100.5t246 -100.5t97 -250.5q0 -152 -97.5 -251t-245.5 -99q-149 0 -246 100t-97 250zM142 338q0 -122 73 -206t185 -84t185 84t73 206q0 124 -72 207.5t-186 83.5q-112 0 -185 -84.5t-73 -206.5zM550 511v-76h-22q-9 19 -15 30t-18 26
t-28.5 22.5t-37.5 7.5q-49 0 -75 -45t-27 -121q-2 -181 100 -181q76 0 117 91h22l-15 -79q-3 -13 -50 -25t-83 -12q-101 0 -157.5 52t-56.5 149q0 34 11 66.5t35 62.5t69.5 48.5t107.5 18.5q30 0 59.5 -6t46.5 -14t17 -15z" />
    <glyph glyph-name="ordfeminine" unicode="&#xaa;" horiz-adv-x="300" 
d="M262 607v-124q0 -14 16 -14q19 0 19 -13v-26q0 -14 -28 -21.5t-45 -7.5q-20 0 -44 24q-28 -23 -72 -23q-49 0 -76.5 21.5t-27.5 59.5q0 50 53.5 74.5t113.5 24.5h2v17q0 24 -32 24q-18 0 -36.5 -15.5t-32.5 -15.5h-34q-11 0 -11 13v50q0 17 39 25.5t81 8.5q115 0 115 -82
zM173 485v49q-21 0 -45 -11t-24 -31q0 -24 28 -24q27 0 41 17z" />
    <glyph glyph-name="guillemotleft" unicode="&#xab;" horiz-adv-x="500" 
d="M237 229l108 131q22 26 46 26h48q17 0 17 -10q0 -8 -16 -28l-85 -119l85 -118q16 -20 16 -28q0 -10 -17 -10h-48q-24 0 -46 26zM44 229l108 131q22 26 46 26h48q17 0 17 -10q0 -8 -16 -28l-85 -119l85 -118q16 -20 16 -28q0 -10 -17 -10h-48q-24 0 -46 26z" />
    <glyph glyph-name="logicalnot" unicode="&#xac;" horiz-adv-x="600" 
d="M427 93v183h-356v102h458v-285h-102z" />
    <glyph glyph-name="uni00AD" unicode="&#xad;" horiz-adv-x="333" 
d="M40 198v63q0 17 7 23.5t23 6.5h194q17 0 23.5 -6.5t6.5 -23.5v-63q0 -17 -6.5 -23.5t-23.5 -6.5h-194q-17 0 -23.5 6.5t-6.5 23.5z" />
    <glyph glyph-name="registered" unicode="&#xae;" horiz-adv-x="800" 
d="M57 338q0 150 97 250.5t246 100.5t246 -100.5t97 -250.5q0 -152 -97.5 -251t-245.5 -99q-149 0 -246 100t-97 250zM142 338q0 -122 73 -206t185 -84t185 84t73 206q0 124 -72 207.5t-186 83.5q-112 0 -185 -84.5t-73 -206.5zM585 160h-93q-13 0 -28.5 25t-36.5 70.5
t-35 67.5h-23v-105q0 -20 7 -26t35 -7v-25h-176v25q28 1 35 7t7 26v258q0 20 -7 26t-35 7v25h202q48 0 78 -25t30 -74q0 -32 -20 -60.5t-55 -38.5l56 -82q40 -58 59 -81v-13zM369 509v-161h29q24 0 35.5 18t11.5 62t-11.5 62.5t-35.5 18.5h-29z" />
    <glyph glyph-name="macron" unicode="&#xaf;" horiz-adv-x="278" 
d="M311 563h-344v79h344v-79z" />
    <glyph glyph-name="degree" unicode="&#xb0;" horiz-adv-x="400" 
d="M113 532q0 -39 24.5 -65t62.5 -26t62.5 26t24.5 65t-24.5 65t-62.5 26t-62.5 -26t-24.5 -65zM47 532q0 64 44.5 108.5t108.5 44.5t108.5 -44.5t44.5 -108.5t-44.5 -108.5t-108.5 -44.5t-108.5 44.5t-44.5 108.5z" />
    <glyph glyph-name="plusminus" unicode="&#xb1;" horiz-adv-x="600" 
d="M249 346v112h102v-112h178v-102h-178v-113h-102v113h-178v102h178zM71 0v102h458v-102h-458z" />
    <glyph glyph-name="twosuperior" unicode="&#xb2;" horiz-adv-x="333" 
d="M273 274h-244q-17 0 -17 17v54q0 15 12 26l137 127q48 47 48 79q0 36 -45 36q-22 0 -49 -19t-41 -19h-37q-18 0 -18 15q0 10 11.5 36.5t17.5 33.5q8 9 43 17t71 8q66 0 108 -30.5t42 -84.5q0 -32 -13 -53.5t-41 -49.5l-123 -119h52q23 0 44 17.5t34 17.5h42q14 0 14 -14
q0 -6 -12.5 -38.5t-18.5 -44.5t-17 -12z" />
    <glyph glyph-name="threesuperior" unicode="&#xb3;" horiz-adv-x="333" 
d="M24 383h41q13 0 22.5 -6.5t15.5 -14.5t21 -14.5t37 -6.5q60 0 60 50q0 29 -17 41t-62 12q-25 0 -25 17v44q0 16 17 16q39 1 54 12.5t15 39.5q0 40 -48 40q-19 0 -42.5 -20t-38.5 -20h-39q-15 0 -15 17q0 10 11.5 38.5t19.5 34.5q29 22 106 22q72 0 107 -30t35 -77
q0 -65 -48 -85v-2q25 -4 47 -29.5t22 -62.5q0 -69 -46.5 -99.5t-119.5 -30.5q-96 0 -114 22q-8 9 -20 37t-12 40q0 15 16 15z" />
    <glyph glyph-name="acute" unicode="&#xb4;" horiz-adv-x="278" 
d="M123 524h-66l90 109q5 6 17 21t16.5 20t14.5 15t16.5 13.5t16.5 7t20 3.5q25 0 40 -13.5t15 -34.5q0 -32 -38 -55z" />
    <glyph glyph-name="mu" unicode="&#xb5;" 
d="M213 -10v-183q0 -18 -19 -18h-150q-27 0 -27 23v51q0 27 27 27q33 0 33 24v341q0 24 -38 24q-26 0 -26 29v45q0 21 28 33l165 74q19 8 32 8q19 0 19 -20v-60q0 -17 -22 -36.5t-22 -40.5v-139q0 -20 14 -33t43 -13q47 0 71 31v98q0 24 -31 24q-26 0 -26 29v45q0 23 21 33
l165 74q19 8 32 8q19 0 19 -20v-60q0 -17 -22 -36.5t-22 -40.5v-186q0 -24 33 -24q27 0 27 -27v-51q0 -23 -27 -23h-148q-19 0 -19 18v20q-52 -48 -127 -48h-3z" />
    <glyph glyph-name="paragraph" unicode="&#xb6;" horiz-adv-x="620" 
d="M314 617v-802h-112v451q-75 0 -118 54.5t-43 158.5t50 151t159 47h299v-60h-64v-802h-112v802h-59z" />
    <glyph glyph-name="periodcentered" unicode="&#xb7;" horiz-adv-x="278" 
d="M58 229q0 34 22.5 57.5t58.5 23.5t58.5 -23.5t22.5 -57.5t-22.5 -57.5t-58.5 -23.5t-58.5 23.5t-22.5 57.5z" />
    <glyph glyph-name="cedilla" unicode="&#xb8;" horiz-adv-x="278" 
d="M24 -99l47 99h44l-31 -63q18 5 41 5q43 0 64.5 -21t21.5 -53q0 -38 -31.5 -63.5t-99.5 -25.5q-66 0 -102 19l15 39q26 -13 59 -13q56 0 56 38q0 35 -41 35q-14 0 -26 -6z" />
    <glyph glyph-name="onesuperior" unicode="&#xb9;" horiz-adv-x="333" 
d="M279 274h-205q-17 0 -17 17v28q0 12 7 17.5t26 5.5q23 0 31.5 4.5t8.5 16.5v188q0 22 -15 22q-4 0 -18 -4.5t-20 -4.5q-14 0 -14 13v37q0 13 14 19l97 43q20 9 35 9q17 0 17 -22v-300q0 -12 7.5 -16.5t30.5 -4.5q18 0 25 -5.5t7 -17.5v-28q0 -17 -17 -17z" />
    <glyph glyph-name="ordmasculine" unicode="&#xba;" horiz-adv-x="334" 
d="M6 545q0 61 44 102.5t117 41.5q74 0 118 -41.5t44 -102.5q0 -60 -44 -101.5t-118 -41.5q-73 0 -117 41.5t-44 101.5zM105 568q0 -34 18.5 -67t52.5 -33q54 0 54 55q0 34 -18.5 67t-52.5 33q-54 0 -54 -55z" />
    <glyph glyph-name="guillemotright" unicode="&#xbb;" horiz-adv-x="500" 
d="M456 230l-108 -131q-22 -26 -46 -26h-48q-17 0 -17 10q0 8 16 28l85 119l-85 118q-16 20 -16 28q0 10 17 10h48q24 0 46 -26zM263 230l-108 -131q-22 -26 -46 -26h-48q-17 0 -17 10q0 8 16 28l85 119l-85 118q-16 20 -16 28q0 10 17 10h48q24 0 46 -26z" />
    <glyph glyph-name="onequarter" unicode="&#xbc;" horiz-adv-x="834" 
d="M664 107h-168q-17 0 -17 17v58q0 10 9 23l127 187q9 14 27 14h95q17 0 17 -17v-208h31q17 0 17 -17v-40q0 -17 -17 -17h-31v-21q0 -18 23 -18q24 0 24 -18v-33q0 -17 -17 -17h-165q-17 0 -17 17v33q0 18 32 18q30 0 30 18v21zM566 181h98v146h-2zM272 274h-205
q-17 0 -17 17v28q0 12 7 17.5t26 5.5q23 0 31.5 4.5t8.5 16.5v188q0 22 -15 22q-4 0 -18 -4.5t-20 -4.5q-14 0 -14 13v37q0 13 14 19l97 43q20 9 35 9q17 0 17 -22v-300q0 -12 7.5 -16.5t30.5 -4.5q18 0 25 -5.5t7 -17.5v-28q0 -17 -17 -17zM673 685l-401 -693h-100l401 693
h100z" />
    <glyph glyph-name="onehalf" unicode="&#xbd;" horiz-adv-x="834" 
d="M272 274h-205q-17 0 -17 17v28q0 12 7 17.5t26 5.5q23 0 31.5 4.5t8.5 16.5v188q0 22 -15 22q-4 0 -18 -4.5t-20 -4.5q-14 0 -14 13v37q0 13 14 19l97 43q20 9 35 9q17 0 17 -22v-300q0 -12 7.5 -16.5t30.5 -4.5q18 0 25 -5.5t7 -17.5v-28q0 -17 -17 -17zM754 0h-244
q-17 0 -17 17v54q0 15 12 26l137 127q48 47 48 79q0 36 -45 36q-22 0 -49 -19t-41 -19h-37q-18 0 -18 15q0 10 11.5 36.5t17.5 33.5q8 9 43 17t71 8q66 0 108 -30.5t42 -84.5q0 -32 -13 -53.5t-41 -49.5l-123 -119h52q23 0 44 17.5t34 17.5h42q14 0 14 -14q0 -6 -12.5 -38
t-18.5 -45q-6 -12 -17 -12zM649 685l-401 -693h-100l401 693h100z" />
    <glyph glyph-name="threequarters" unicode="&#xbe;" horiz-adv-x="834" 
d="M664 107h-168q-17 0 -17 17v58q0 10 9 23l127 187q9 14 27 14h95q17 0 17 -17v-208h31q17 0 17 -17v-40q0 -17 -17 -17h-31v-21q0 -18 23 -18q24 0 24 -18v-33q0 -17 -17 -17h-165q-17 0 -17 17v33q0 18 32 18q30 0 30 18v21zM566 181h98v146h-2zM682 685l-401 -693h-100
l401 693h100zM49 383h41q16 0 26 -10.5t26 -21t44 -10.5q60 0 60 50q0 29 -17 41t-62 12q-25 0 -25 17v44q0 16 17 16q39 1 54 12.5t15 39.5q0 40 -48 40q-19 0 -42.5 -20t-38.5 -20h-39q-15 0 -15 17q0 10 11.5 38.5t19.5 34.5q29 22 106 22q72 0 107 -30t35 -77
q0 -65 -48 -85v-2q25 -4 47 -29.5t22 -62.5q0 -69 -46.5 -99.5t-119.5 -30.5q-96 0 -114 22q-8 9 -20 37t-12 40q0 15 16 15z" />
    <glyph glyph-name="questiondown" unicode="&#xbf;" horiz-adv-x="500" 
d="M253 291h58q30 0 30 -29q0 -48 -15 -87t-37 -63.5t-44 -45.5t-37 -44t-15 -47q0 -67 69 -67q34 0 65 32.5t64 32.5h54q23 0 23 -27q0 -21 -20.5 -69.5t-48.5 -59.5q-72 -28 -153 -28q-99 0 -157 46.5t-58 135.5q0 38 17.5 70.5t43.5 56.5t52.5 46t48 51t26.5 61
q2 15 11.5 25t22.5 10zM355 405q0 -34 -22.5 -57.5t-58.5 -23.5t-58.5 23.5t-22.5 57.5t22.5 57.5t58.5 23.5t58.5 -23.5t22.5 -57.5z" />
    <glyph glyph-name="Agrave" unicode="&#xc0;" horiz-adv-x="667" 
d="M437 212h-217l-14 -44q-4 -16 -4 -32q0 -22 26 -22q30 0 42.5 -8t12.5 -28v-51q0 -27 -36 -27h-228q-32 0 -32 27v50q0 37 38 37q24 0 43 61l102 324q9 25 9 40q0 11 -9.5 17.5t-20.5 6.5q-12 0 -21 9t-9 26v51q0 16 8 22t27 6h349q35 0 35 -28v-56q0 -12 -9 -21t-24 -9
q-11 0 -19 -7t-8 -17q0 -17 9 -40l112 -330q10 -29 20 -42t24 -13q37 0 37 -37v-50q0 -27 -32 -27h-238q-36 0 -36 27v51q0 36 45 36q36 0 36 24q0 10 -6 32zM253 326h146l-72 234h-2zM350 719l-142 86q-38 23 -38 55q0 21 15 34.5t40 13.5q10 0 20 -3.5t16.5 -7t16.5 -13.5
t14.5 -15t16.5 -20t17 -21l90 -109h-66z" />
    <glyph glyph-name="Aacute" unicode="&#xc1;" horiz-adv-x="667" 
d="M437 212h-217l-14 -44q-4 -16 -4 -32q0 -22 26 -22q30 0 42.5 -8t12.5 -28v-51q0 -27 -36 -27h-228q-32 0 -32 27v50q0 37 38 37q24 0 43 61l102 324q9 25 9 40q0 11 -9.5 17.5t-20.5 6.5q-12 0 -21 9t-9 26v51q0 16 8 22t27 6h349q35 0 35 -28v-56q0 -12 -9 -21t-24 -9
q-11 0 -19 -7t-8 -17q0 -17 9 -40l112 -330q10 -29 20 -42t24 -13q37 0 37 -37v-50q0 -27 -32 -27h-238q-36 0 -36 27v51q0 36 45 36q36 0 36 24q0 10 -6 32zM253 326h146l-72 234h-2zM318 719h-66l90 109q5 6 17 21t16.5 20t14.5 15t16.5 13.5t16.5 7t20 3.5q25 0 40 -13.5
t15 -34.5q0 -32 -38 -55z" />
    <glyph glyph-name="Acircumflex" unicode="&#xc2;" horiz-adv-x="667" 
d="M437 212h-217l-14 -44q-4 -16 -4 -32q0 -22 26 -22q30 0 42.5 -8t12.5 -28v-51q0 -27 -36 -27h-228q-32 0 -32 27v50q0 37 38 37q24 0 43 61l102 324q9 25 9 40q0 11 -9.5 17.5t-20.5 6.5q-12 0 -21 9t-9 26v51q0 16 8 22t27 6h349q35 0 35 -28v-56q0 -12 -9 -21t-24 -9
q-11 0 -19 -7t-8 -17q0 -17 9 -40l112 -330q10 -29 20 -42t24 -13q37 0 37 -37v-50q0 -27 -32 -27h-238q-36 0 -36 27v51q0 36 45 36q36 0 36 24q0 10 -6 32zM253 326h146l-72 234h-2zM334 815l-110 -96h-66l123 179h106l123 -179h-66z" />
    <glyph glyph-name="Atilde" unicode="&#xc3;" horiz-adv-x="667" 
d="M437 212h-217l-14 -44q-4 -16 -4 -32q0 -22 26 -22q30 0 42.5 -8t12.5 -28v-51q0 -27 -36 -27h-228q-32 0 -32 27v50q0 37 38 37q24 0 43 61l102 324q9 25 9 40q0 11 -9.5 17.5t-20.5 6.5q-12 0 -21 9t-9 26v51q0 16 8 22t27 6h349q35 0 35 -28v-56q0 -12 -9 -21t-24 -9
q-11 0 -19 -7t-8 -17q0 -17 9 -40l112 -330q10 -29 20 -42t24 -13q37 0 37 -37v-50q0 -27 -32 -27h-238q-36 0 -36 27v51q0 36 45 36q36 0 36 24q0 10 -6 32zM253 326h146l-72 234h-2zM476 874h49q-26 -136 -126 -136q-33 0 -83 26t-72 26q-20 0 -34.5 -14t-16.5 -34h-49
q6 52 39 93.5t91 41.5q32 0 82 -25q52 -26 74 -26q36 0 46 48z" />
    <glyph glyph-name="Adieresis" unicode="&#xc4;" horiz-adv-x="667" 
d="M437 212h-217l-14 -44q-4 -16 -4 -32q0 -22 26 -22q30 0 42.5 -8t12.5 -28v-51q0 -27 -36 -27h-228q-32 0 -32 27v50q0 37 38 37q24 0 43 61l102 324q9 25 9 40q0 11 -9.5 17.5t-20.5 6.5q-12 0 -21 9t-9 26v51q0 16 8 22t27 6h349q35 0 35 -28v-56q0 -12 -9 -21t-24 -9
q-11 0 -19 -7t-8 -17q0 -17 9 -40l112 -330q10 -29 20 -42t24 -13q37 0 37 -37v-50q0 -27 -32 -27h-238q-36 0 -36 27v51q0 36 45 36q36 0 36 24q0 10 -6 32zM253 326h146l-72 234h-2zM376 722v91q0 20 19 29l72 34q18 9 29 9q12 0 12 -15v-96q0 -15 -19 -24l-77 -37
q-12 -6 -23 -6q-13 0 -13 15zM160 722v91q0 20 19 29l72 34q18 9 29 9q12 0 12 -15v-96q0 -15 -19 -24l-77 -37q-12 -6 -23 -6q-13 0 -13 15z" />
    <glyph glyph-name="Aring" unicode="&#xc5;" horiz-adv-x="667" 
d="M437 212h-217l-14 -44q-4 -16 -4 -32q0 -22 26 -22q30 0 42.5 -8t12.5 -28v-51q0 -27 -36 -27h-228q-32 0 -32 27v50q0 37 38 37q24 0 43 61l102 324q9 25 9 40q0 11 -9.5 17.5t-20.5 6.5q-12 0 -21 9t-9 26v51q0 16 8 22t27 6h349q35 0 35 -28v-56q0 -12 -9 -21t-24 -9
q-11 0 -19 -7t-8 -17q0 -17 9 -40l112 -330q10 -29 20 -42t24 -13q37 0 37 -37v-50q0 -27 -32 -27h-238q-36 0 -36 27v51q0 36 45 36q36 0 36 24q0 10 -6 32zM253 326h146l-72 234h-2zM216 837q0 55 32 86.5t86 31.5t86 -31.5t32 -86.5t-32 -86.5t-86 -31.5t-86 31.5
t-32 86.5zM281 837q0 -23 15.5 -38t37.5 -15t37.5 15t15.5 38t-15.5 38t-37.5 15t-37.5 -15t-15.5 -38z" />
    <glyph glyph-name="AE" unicode="&#xc6;" horiz-adv-x="1000" 
d="M495 554l-142 -228h144v228h-2zM650 559v-146h51q49 0 64.5 15t54.5 15q46 0 51 -14q1 -3 16.5 -41.5t26 -67.5t10.5 -37q0 -28 -49 -28q-55 0 -79 20t-85 20h-61v-177h107q30 0 48.5 9.5t26 21t26.5 21t51 9.5q61 0 61 -26q0 -11 -51 -138q-6 -15 -33 -15h-428
q-19 0 -27 6t-8 22v52q0 19 8.5 26.5t28.5 7.5q37 0 37 29v69h-218l-30 -53q-6 -12 -6 -26q0 -19 36 -19q26 0 36 -7t10 -24v-55q0 -16 -8 -22t-27 -6h-254q-19 0 -27 6t-8 22v55q0 31 27 31t51 37l220 348q13 22 13 39q0 25 -29 25q-33 0 -33 28v58q0 16 8 22t27 6h574
q18 0 26 -19q8 -17 26.5 -66.5t18.5 -60.5q0 -17 -14 -23.5t-49 -6.5q-28 0 -48 14.5t-44.5 29t-63.5 14.5h-61z" />
    <glyph glyph-name="Ccedilla" unicode="&#xc7;" horiz-adv-x="611" 
d="M295 -99l41 87q-142 9 -224 101t-82 236q0 163 99.5 263.5t261.5 100.5q135 0 161 -46q12 -23 22 -61t10 -61q0 -15 -10.5 -20.5t-40.5 -5.5q-34 0 -59 10.5t-36.5 23t-33 23t-51.5 10.5q-69 0 -110 -64t-41 -149q0 -108 45 -171t130 -63q44 0 81 32.5t81 32.5
q40 0 53.5 -6t13.5 -22q0 -33 -44 -119q-10 -18 -63.5 -31t-118.5 -14l-25 -51q18 5 41 5q43 0 64.5 -21t21.5 -53q0 -38 -31.5 -63.5t-99.5 -25.5q-66 0 -102 19l15 39q26 -13 59 -13q56 0 56 38q0 35 -41 35q-14 0 -26 -6z" />
    <glyph glyph-name="Egrave" unicode="&#xc8;" horiz-adv-x="611" 
d="M258 559v-146h70q49 0 64.5 15t54.5 15q46 0 51 -14q1 -3 16.5 -41.5t26 -67.5t10.5 -37q0 -28 -49 -28q-55 0 -79.5 20t-84.5 20h-80v-177h126q30 0 48.5 9.5t26 21t26.5 21t51 9.5q61 0 61 -26q0 -11 -51 -138q-6 -15 -33 -15h-453q-19 0 -27 6t-8 22v52q0 19 9.5 26.5
t33.5 7.5q37 0 37 29v391q0 29 -37 29q-24 0 -33.5 7.5t-9.5 26.5v52q0 16 8 22t27 6h426q18 0 26 -19q8 -17 26.5 -66.5t18.5 -60.5q0 -17 -14 -23.5t-49 -6.5q-32 0 -69 29t-87 29h-80zM322 719l-142 86q-38 23 -38 55q0 21 15 34.5t40 13.5q10 0 20 -3.5t16.5 -7
t16.5 -13.5t14.5 -15t16.5 -20t17 -21l90 -109h-66z" />
    <glyph glyph-name="Eacute" unicode="&#xc9;" horiz-adv-x="611" 
d="M258 559v-146h70q49 0 64.5 15t54.5 15q46 0 51 -14q1 -3 16.5 -41.5t26 -67.5t10.5 -37q0 -28 -49 -28q-55 0 -79.5 20t-84.5 20h-80v-177h126q30 0 48.5 9.5t26 21t26.5 21t51 9.5q61 0 61 -26q0 -11 -51 -138q-6 -15 -33 -15h-453q-19 0 -27 6t-8 22v52q0 19 9.5 26.5
t33.5 7.5q37 0 37 29v391q0 29 -37 29q-24 0 -33.5 7.5t-9.5 26.5v52q0 16 8 22t27 6h426q18 0 26 -19q8 -17 26.5 -66.5t18.5 -60.5q0 -17 -14 -23.5t-49 -6.5q-32 0 -69 29t-87 29h-80zM290 719h-66l90 109q5 6 17 21t16.5 20t14.5 15t16.5 13.5t16.5 7t20 3.5
q25 0 40 -13.5t15 -34.5q0 -32 -38 -55z" />
    <glyph glyph-name="Ecircumflex" unicode="&#xca;" horiz-adv-x="611" 
d="M258 559v-146h70q49 0 64.5 15t54.5 15q46 0 51 -14q1 -3 16.5 -41.5t26 -67.5t10.5 -37q0 -28 -49 -28q-55 0 -79.5 20t-84.5 20h-80v-177h126q30 0 48.5 9.5t26 21t26.5 21t51 9.5q61 0 61 -26q0 -11 -51 -138q-6 -15 -33 -15h-453q-19 0 -27 6t-8 22v52q0 19 9.5 26.5
t33.5 7.5q37 0 37 29v391q0 29 -37 29q-24 0 -33.5 7.5t-9.5 26.5v52q0 16 8 22t27 6h426q18 0 26 -19q8 -17 26.5 -66.5t18.5 -60.5q0 -17 -14 -23.5t-49 -6.5q-32 0 -69 29t-87 29h-80zM306 815l-110 -96h-66l123 179h106l123 -179h-66z" />
    <glyph glyph-name="Edieresis" unicode="&#xcb;" horiz-adv-x="611" 
d="M258 559v-146h70q49 0 64.5 15t54.5 15q46 0 51 -14q1 -3 16.5 -41.5t26 -67.5t10.5 -37q0 -28 -49 -28q-55 0 -79.5 20t-84.5 20h-80v-177h126q30 0 48.5 9.5t26 21t26.5 21t51 9.5q61 0 61 -26q0 -11 -51 -138q-6 -15 -33 -15h-453q-19 0 -27 6t-8 22v52q0 19 9.5 26.5
t33.5 7.5q37 0 37 29v391q0 29 -37 29q-24 0 -33.5 7.5t-9.5 26.5v52q0 16 8 22t27 6h426q18 0 26 -19q8 -17 26.5 -66.5t18.5 -60.5q0 -17 -14 -23.5t-49 -6.5q-32 0 -69 29t-87 29h-80zM348 722v91q0 20 19 29l72 34q18 9 29 9q12 0 12 -15v-96q0 -15 -19 -24l-77 -37
q-12 -6 -23 -6q-13 0 -13 15zM132 722v91q0 20 19 29l72 34q18 9 29 9q12 0 12 -15v-96q0 -15 -19 -24l-77 -37q-12 -6 -23 -6q-13 0 -13 15z" />
    <glyph glyph-name="Igrave" unicode="&#xcc;" horiz-adv-x="389" 
d="M271 534v-391q0 -29 37 -29q26 0 35.5 -7.5t9.5 -26.5v-52q0 -16 -8 -22t-27 -6h-247q-19 0 -27 6t-8 22v52q0 19 9.5 26.5t35.5 7.5q37 0 37 29v391q0 29 -37 29q-26 0 -35.5 7.5t-9.5 26.5v52q0 16 8 22t27 6h247q19 0 27 -6t8 -22v-52q0 -19 -9.5 -26.5t-35.5 -7.5
q-37 0 -37 -29zM211 719l-142 86q-38 23 -38 55q0 21 15 34.5t40 13.5q10 0 20 -3.5t16.5 -7t16.5 -13.5t14.5 -15t16.5 -20t17 -21l90 -109h-66z" />
    <glyph glyph-name="Iacute" unicode="&#xcd;" horiz-adv-x="389" 
d="M271 534v-391q0 -29 37 -29q26 0 35.5 -7.5t9.5 -26.5v-52q0 -16 -8 -22t-27 -6h-247q-19 0 -27 6t-8 22v52q0 19 9.5 26.5t35.5 7.5q37 0 37 29v391q0 29 -37 29q-26 0 -35.5 7.5t-9.5 26.5v52q0 16 8 22t27 6h247q19 0 27 -6t8 -22v-52q0 -19 -9.5 -26.5t-35.5 -7.5
q-37 0 -37 -29zM179 719h-66l90 109q5 6 17 21t16.5 20t14.5 15t16.5 13.5t16.5 7t20 3.5q25 0 40 -13.5t15 -34.5q0 -32 -38 -55z" />
    <glyph glyph-name="Icircumflex" unicode="&#xce;" horiz-adv-x="389" 
d="M271 534v-391q0 -29 37 -29q26 0 35.5 -7.5t9.5 -26.5v-52q0 -16 -8 -22t-27 -6h-247q-19 0 -27 6t-8 22v52q0 19 9.5 26.5t35.5 7.5q37 0 37 29v391q0 29 -37 29q-26 0 -35.5 7.5t-9.5 26.5v52q0 16 8 22t27 6h247q19 0 27 -6t8 -22v-52q0 -19 -9.5 -26.5t-35.5 -7.5
q-37 0 -37 -29zM195 815l-110 -96h-66l123 179h106l123 -179h-66z" />
    <glyph glyph-name="Idieresis" unicode="&#xcf;" horiz-adv-x="389" 
d="M271 534v-391q0 -29 37 -29q26 0 35.5 -7.5t9.5 -26.5v-52q0 -16 -8 -22t-27 -6h-247q-19 0 -27 6t-8 22v52q0 19 9.5 26.5t35.5 7.5q37 0 37 29v391q0 29 -37 29q-26 0 -35.5 7.5t-9.5 26.5v52q0 16 8 22t27 6h247q19 0 27 -6t8 -22v-52q0 -19 -9.5 -26.5t-35.5 -7.5
q-37 0 -37 -29zM237 722v91q0 20 19 29l72 34q18 9 29 9q12 0 12 -15v-96q0 -15 -19 -24l-77 -37q-12 -6 -23 -6q-13 0 -13 15zM21 722v91q0 20 19 29l72 34q18 9 29 9q12 0 12 -15v-96q0 -15 -19 -24l-77 -37q-12 -6 -23 -6q-13 0 -13 15z" />
    <glyph glyph-name="Eth" unicode="&#xd0;" horiz-adv-x="667" 
d="M256 317v-199h32q105 0 146.5 53t41.5 167q0 115 -41.5 168t-146.5 53h-32v-156h89q30 0 30 -32v-23q0 -31 -30 -31h-89zM103 317h-44q-30 0 -30 31v23q0 32 30 32h44v118q0 24 -7 33t-30 9q-26 0 -35.5 7.5t-9.5 26.5v52q0 16 8 22t27 6h244q173 0 254 -85t81 -254
q0 -168 -81 -253t-254 -85h-244q-19 0 -27 6t-8 22v52q0 19 9.5 26.5t35.5 7.5q23 0 30 9t7 33v161z" />
    <glyph glyph-name="Ntilde" unicode="&#xd1;" horiz-adv-x="722" 
d="M98 143v391q0 17 -7 23t-22 6q-26 0 -34.5 8t-8.5 31v47q0 16 8 22t27 6h217q22 0 32 -19l197 -463h1v339q0 17 -7 23t-22 6q-28 0 -37 8t-9 31v47q0 16 8 22t27 6h196q19 0 27 -6t8 -22v-53q0 -19 -7.5 -26t-24.5 -7q-20 0 -27.5 -6t-7.5 -23v-505q0 -29 -29 -29h-134
q-27 0 -37 24l-208 487h-2v-368q0 -17 7.5 -23t25.5 -6q23 0 31 -8t8 -31v-47q0 -16 -8 -22t-27 -6h-198q-19 0 -27 6t-8 22v47q0 23 8 31t31 8q18 0 25.5 6t7.5 23zM515 874h49q-26 -136 -126 -136q-33 0 -83 26t-72 26q-20 0 -34.5 -14t-16.5 -34h-49q6 52 39 93.5
t91 41.5q32 0 82 -25q52 -26 74 -26q36 0 46 48z" />
    <glyph glyph-name="Ograve" unicode="&#xd2;" horiz-adv-x="722" 
d="M202 338q0 -100 40.5 -161.5t118.5 -61.5t118.5 61.5t40.5 161.5t-40.5 162t-118.5 62t-118.5 -62t-40.5 -162zM30 338q0 153 90.5 252t240.5 99t240.5 -99t90.5 -252q0 -152 -90.5 -251t-240.5 -99t-240.5 99t-90.5 251zM377 719l-142 86q-38 23 -38 55q0 21 15 34.5
t40 13.5q10 0 20 -3.5t16.5 -7t16.5 -13.5t14.5 -15t16.5 -20t17 -21l90 -109h-66z" />
    <glyph glyph-name="Oacute" unicode="&#xd3;" horiz-adv-x="722" 
d="M202 338q0 -100 40.5 -161.5t118.5 -61.5t118.5 61.5t40.5 161.5t-40.5 162t-118.5 62t-118.5 -62t-40.5 -162zM30 338q0 153 90.5 252t240.5 99t240.5 -99t90.5 -252q0 -152 -90.5 -251t-240.5 -99t-240.5 99t-90.5 251zM345 719h-66l90 109q5 6 17 21t16.5 20t14.5 15
t16.5 13.5t16.5 7t20 3.5q25 0 40 -13.5t15 -34.5q0 -32 -38 -55z" />
    <glyph glyph-name="Ocircumflex" unicode="&#xd4;" horiz-adv-x="722" 
d="M202 338q0 -100 40.5 -161.5t118.5 -61.5t118.5 61.5t40.5 161.5t-40.5 162t-118.5 62t-118.5 -62t-40.5 -162zM30 338q0 153 90.5 252t240.5 99t240.5 -99t90.5 -252q0 -152 -90.5 -251t-240.5 -99t-240.5 99t-90.5 251zM361 815l-110 -96h-66l123 179h106l123 -179h-66
z" />
    <glyph glyph-name="Otilde" unicode="&#xd5;" horiz-adv-x="722" 
d="M202 338q0 -100 40.5 -161.5t118.5 -61.5t118.5 61.5t40.5 161.5t-40.5 162t-118.5 62t-118.5 -62t-40.5 -162zM30 338q0 153 90.5 252t240.5 99t240.5 -99t90.5 -252q0 -152 -90.5 -251t-240.5 -99t-240.5 99t-90.5 251zM503 874h49q-26 -136 -126 -136q-33 0 -83 26
t-72 26q-20 0 -34.5 -14t-16.5 -34h-49q6 52 39 93.5t91 41.5q32 0 82 -25q52 -26 74 -26q36 0 46 48z" />
    <glyph glyph-name="Odieresis" unicode="&#xd6;" horiz-adv-x="722" 
d="M202 338q0 -100 40.5 -161.5t118.5 -61.5t118.5 61.5t40.5 161.5t-40.5 162t-118.5 62t-118.5 -62t-40.5 -162zM30 338q0 153 90.5 252t240.5 99t240.5 -99t90.5 -252q0 -152 -90.5 -251t-240.5 -99t-240.5 99t-90.5 251zM403 722v91q0 20 19 29l72 34q18 9 29 9
q12 0 12 -15v-96q0 -15 -19 -24l-77 -37q-12 -6 -23 -6q-13 0 -13 15zM187 722v91q0 20 19 29l72 34q18 9 29 9q12 0 12 -15v-96q0 -15 -19 -24l-77 -37q-12 -6 -23 -6q-13 0 -13 15z" />
    <glyph glyph-name="multiply" unicode="&#xd7;" horiz-adv-x="600" 
d="M228 229l-157 157l72 72l157 -157l157 157l72 -72l-157 -157l157 -157l-72 -72l-157 157l-157 -157l-72 72z" />
    <glyph glyph-name="Oslash" unicode="&#xd8;" horiz-adv-x="722" 
d="M222 215l238 308q-37 39 -99 39q-78 0 -118.5 -62t-40.5 -162q0 -68 20 -123zM41 -20l81 106q-92 98 -92 252q0 153 90.5 252t240.5 99q105 0 186 -53l51 66q9 11 26 11h44q14 0 14 -6q0 -8 -8 -16l-76 -98q94 -97 94 -255q0 -152 -90.5 -251t-240.5 -99q-107 0 -189 55
l-55 -71q-11 -15 -29 -15h-38q-15 0 -15 8q0 7 6 15zM498 464l-239 -308q39 -41 102 -41q78 0 118.5 61.5t40.5 161.5q0 73 -22 126z" />
    <glyph glyph-name="Ugrave" unicode="&#xd9;" horiz-adv-x="722" 
d="M55 677h247q19 0 27 -6t8 -22v-52q0 -19 -9.5 -26.5t-35.5 -7.5q-37 0 -37 -29v-311q0 -51 28 -79.5t79 -28.5q55 0 81.5 25.5t26.5 82.5v311q0 29 -37 29q-26 0 -35.5 7.5t-9.5 26.5v52q0 16 8 22t27 6h247q19 0 27 -6t8 -22v-52q0 -19 -9.5 -26.5t-35.5 -7.5
q-37 0 -37 -29v-292q0 -129 -64 -191.5t-194 -62.5q-125 0 -194 65t-69 189v292q0 29 -37 29q-26 0 -35.5 7.5t-9.5 26.5v52q0 16 8 22t27 6zM389 719l-142 86q-38 23 -38 55q0 21 15 34.5t40 13.5q10 0 20 -3.5t16.5 -7t16.5 -13.5t14.5 -15t16.5 -20t17 -21l90 -109h-66z
" />
    <glyph glyph-name="Uacute" unicode="&#xda;" horiz-adv-x="722" 
d="M55 677h247q19 0 27 -6t8 -22v-52q0 -19 -9.5 -26.5t-35.5 -7.5q-37 0 -37 -29v-311q0 -51 28 -79.5t79 -28.5q55 0 81.5 25.5t26.5 82.5v311q0 29 -37 29q-26 0 -35.5 7.5t-9.5 26.5v52q0 16 8 22t27 6h247q19 0 27 -6t8 -22v-52q0 -19 -9.5 -26.5t-35.5 -7.5
q-37 0 -37 -29v-292q0 -129 -64 -191.5t-194 -62.5q-125 0 -194 65t-69 189v292q0 29 -37 29q-26 0 -35.5 7.5t-9.5 26.5v52q0 16 8 22t27 6zM357 719h-66l90 109q5 6 17 21t16.5 20t14.5 15t16.5 13.5t16.5 7t20 3.5q25 0 40 -13.5t15 -34.5q0 -32 -38 -55z" />
    <glyph glyph-name="Ucircumflex" unicode="&#xdb;" horiz-adv-x="722" 
d="M55 677h247q19 0 27 -6t8 -22v-52q0 -19 -9.5 -26.5t-35.5 -7.5q-37 0 -37 -29v-311q0 -51 28 -79.5t79 -28.5q55 0 81.5 25.5t26.5 82.5v311q0 29 -37 29q-26 0 -35.5 7.5t-9.5 26.5v52q0 16 8 22t27 6h247q19 0 27 -6t8 -22v-52q0 -19 -9.5 -26.5t-35.5 -7.5
q-37 0 -37 -29v-292q0 -129 -64 -191.5t-194 -62.5q-125 0 -194 65t-69 189v292q0 29 -37 29q-26 0 -35.5 7.5t-9.5 26.5v52q0 16 8 22t27 6zM373 815l-110 -96h-66l123 179h106l123 -179h-66z" />
    <glyph glyph-name="Udieresis" unicode="&#xdc;" horiz-adv-x="722" 
d="M55 677h247q19 0 27 -6t8 -22v-52q0 -19 -9.5 -26.5t-35.5 -7.5q-37 0 -37 -29v-311q0 -51 28 -79.5t79 -28.5q55 0 81.5 25.5t26.5 82.5v311q0 29 -37 29q-26 0 -35.5 7.5t-9.5 26.5v52q0 16 8 22t27 6h247q19 0 27 -6t8 -22v-52q0 -19 -9.5 -26.5t-35.5 -7.5
q-37 0 -37 -29v-292q0 -129 -64 -191.5t-194 -62.5q-125 0 -194 65t-69 189v292q0 29 -37 29q-26 0 -35.5 7.5t-9.5 26.5v52q0 16 8 22t27 6zM415 722v91q0 20 19 29l72 34q18 9 29 9q12 0 12 -15v-96q0 -15 -19 -24l-77 -37q-12 -6 -23 -6q-13 0 -13 15zM199 722v91
q0 20 19 29l72 34q18 9 29 9q12 0 12 -15v-96q0 -15 -19 -24l-77 -37q-12 -6 -23 -6q-13 0 -13 15z" />
    <glyph glyph-name="Yacute" unicode="&#xdd;" horiz-adv-x="611" 
d="M404 0h-186q-21 0 -28 8t-7 31v26q0 41 21 91t38 77l-171 295q-8 14 -23 24.5t-29 10.5q-17 0 -23.5 6t-6.5 24v56q0 16 8 22t27 6h233q19 0 27 -6t8 -22v-51q0 -29 -22 -29q-25 0 -25 -23q0 -17 10 -37l65 -126l63 126q10 20 10 38q0 22 -24 22q-23 0 -23 27v53
q0 16 8 22t27 6h205q19 0 27 -6t8 -22v-59q0 -27 -34 -27q-30 0 -48 -37l-163 -338q-11 -23 -11 -48q0 -26 30 -26q26 0 35 -8t9 -29v-49q0 -16 -8 -22t-27 -6zM296 719h-66l90 109q5 6 17 21t16.5 20t14.5 15t16.5 13.5t16.5 7t20 3.5q25 0 40 -13.5t15 -34.5
q0 -32 -38 -55z" />
    <glyph glyph-name="Thorn" unicode="&#xde;" horiz-adv-x="611" 
d="M107 143v391q0 29 -37 29q-26 0 -35.5 7.5t-9.5 26.5v52q0 16 8 22t27 6h247q19 0 27 -6t8 -22v-52q0 -19 -9.5 -26.5t-35.5 -7.5q-37 0 -37 -29v-22h84q132 0 186.5 -42.5t54.5 -126.5t-54.5 -126.5t-186.5 -42.5h-84v-31q0 -29 37 -29q26 0 35.5 -7.5t9.5 -26.5v-52
q0 -16 -8 -22t-27 -6h-247q-19 0 -27 6t-8 22v52q0 19 9.5 26.5t35.5 7.5q37 0 37 29zM260 407v-128h63q56 0 79.5 15t23.5 49q0 33 -23.5 48.5t-79.5 15.5h-63z" />
    <glyph glyph-name="germandbls" unicode="&#xdf;" 
d="M188 0h-142q-27 0 -27 23v51q0 27 25 27q35 0 35 24v389q0 82 52.5 128.5t139.5 46.5q77 0 123.5 -40t46.5 -107q0 -72 -67 -110q72 -21 113.5 -79.5t41.5 -135.5q0 -104 -53.5 -165.5t-164.5 -61.5q-39 0 -50 4.5t-11 19.5v61q0 15 8.5 20t36.5 5q43 0 67.5 22t24.5 84
q0 67 -33.5 106t-89.5 39q-22 0 -22 19v41q0 22 15 37t30.5 33.5t15.5 48.5q0 20 -11 34.5t-32 14.5t-33 -14.5t-12 -40.5v-501q0 -23 -27 -23z" />
    <glyph glyph-name="agrave" unicode="&#xe0;" horiz-adv-x="500" 
d="M427 331v-206q0 -23 28 -23q26 0 26 -20v-44q0 -18 -26 -30t-49 -15t-37 -3q-33 0 -68 39q-41 -39 -110 -39q-76 0 -118.5 35.5t-42.5 99.5q0 44 26 78t67 52t82.5 26.5t81.5 8.5h4v33q0 35 -49 35q-25 0 -55 -23.5t-54 -23.5h-50q-17 0 -17 18v84q0 26 67 40.5t117 14.5
q177 0 177 -137zM291 129v81q-20 0 -42 -4.5t-44.5 -21.5t-22.5 -44q0 -40 46 -40q42 0 63 29zM266 524l-142 86q-38 23 -38 55q0 21 15 34.5t40 13.5q10 0 20 -3.5t16.5 -7t16.5 -13.5t14.5 -15t16.5 -20t17 -21l90 -109h-66z" />
    <glyph glyph-name="aacute" unicode="&#xe1;" horiz-adv-x="500" 
d="M427 331v-206q0 -23 28 -23q26 0 26 -20v-44q0 -18 -26 -30t-49 -15t-37 -3q-33 0 -68 39q-41 -39 -110 -39q-76 0 -118.5 35.5t-42.5 99.5q0 44 26 78t67 52t82.5 26.5t81.5 8.5h4v33q0 35 -49 35q-25 0 -55 -23.5t-54 -23.5h-50q-17 0 -17 18v84q0 26 67 40.5t117 14.5
q177 0 177 -137zM291 129v81q-20 0 -42 -4.5t-44.5 -21.5t-22.5 -44q0 -40 46 -40q42 0 63 29zM234 524h-66l90 109q5 6 17 21t16.5 20t14.5 15t16.5 13.5t16.5 7t20 3.5q25 0 40 -13.5t15 -34.5q0 -32 -38 -55z" />
    <glyph glyph-name="acircumflex" unicode="&#xe2;" horiz-adv-x="500" 
d="M427 331v-206q0 -23 28 -23q26 0 26 -20v-44q0 -18 -26 -30t-49 -15t-37 -3q-33 0 -68 39q-41 -39 -110 -39q-76 0 -118.5 35.5t-42.5 99.5q0 44 26 78t67 52t82.5 26.5t81.5 8.5h4v33q0 35 -49 35q-25 0 -55 -23.5t-54 -23.5h-50q-17 0 -17 18v84q0 26 67 40.5t117 14.5
q177 0 177 -137zM291 129v81q-20 0 -42 -4.5t-44.5 -21.5t-22.5 -44q0 -40 46 -40q42 0 63 29zM250 620l-110 -96h-66l123 179h106l123 -179h-66z" />
    <glyph glyph-name="atilde" unicode="&#xe3;" horiz-adv-x="500" 
d="M427 331v-206q0 -23 28 -23q26 0 26 -20v-44q0 -18 -26 -30t-49 -15t-37 -3q-33 0 -68 39q-41 -39 -110 -39q-76 0 -118.5 35.5t-42.5 99.5q0 44 26 78t67 52t82.5 26.5t81.5 8.5h4v33q0 35 -49 35q-25 0 -55 -23.5t-54 -23.5h-50q-17 0 -17 18v84q0 26 67 40.5t117 14.5
q177 0 177 -137zM291 129v81q-20 0 -42 -4.5t-44.5 -21.5t-22.5 -44q0 -40 46 -40q42 0 63 29zM392 679h49q-26 -136 -126 -136q-33 0 -83 26t-72 26q-20 0 -34.5 -14t-16.5 -34h-49q6 52 39 93.5t91 41.5q32 0 82 -25q52 -26 74 -26q36 0 46 48z" />
    <glyph glyph-name="adieresis" unicode="&#xe4;" horiz-adv-x="500" 
d="M427 331v-206q0 -23 28 -23q26 0 26 -20v-44q0 -18 -26 -30t-49 -15t-37 -3q-33 0 -68 39q-41 -39 -110 -39q-76 0 -118.5 35.5t-42.5 99.5q0 44 26 78t67 52t82.5 26.5t81.5 8.5h4v33q0 35 -49 35q-25 0 -55 -23.5t-54 -23.5h-50q-17 0 -17 18v84q0 26 67 40.5t117 14.5
q177 0 177 -137zM291 129v81q-20 0 -42 -4.5t-44.5 -21.5t-22.5 -44q0 -40 46 -40q42 0 63 29zM292 527v91q0 20 19 29l72 34q18 9 29 9q12 0 12 -15v-96q0 -15 -19 -24l-77 -37q-12 -6 -23 -6q-13 0 -13 15zM76 527v91q0 20 19 29l72 34q18 9 29 9q12 0 12 -15v-96
q0 -15 -19 -24l-77 -37q-12 -6 -23 -6q-13 0 -13 15z" />
    <glyph glyph-name="aring" unicode="&#xe5;" horiz-adv-x="500" 
d="M427 331v-206q0 -23 28 -23q26 0 26 -20v-44q0 -18 -26 -30t-49 -15t-37 -3q-33 0 -68 39q-41 -39 -110 -39q-76 0 -118.5 35.5t-42.5 99.5q0 44 26 78t67 52t82.5 26.5t81.5 8.5h4v33q0 35 -49 35q-25 0 -55 -23.5t-54 -23.5h-50q-17 0 -17 18v84q0 26 67 40.5t117 14.5
q177 0 177 -137zM291 129v81q-20 0 -42 -4.5t-44.5 -21.5t-22.5 -44q0 -40 46 -40q42 0 63 29zM132 642q0 55 32 86.5t86 31.5t86 -31.5t32 -86.5t-32 -86.5t-86 -31.5t-86 31.5t-32 86.5zM197 642q0 -22 15.5 -37.5t37.5 -15.5t37.5 15.5t15.5 37.5t-15.5 37.5t-37.5 15.5
t-37.5 -15.5t-15.5 -37.5z" />
    <glyph glyph-name="ae" unicode="&#xe6;" horiz-adv-x="722" 
d="M174 143q0 -43 49 -43q25 0 45.5 12.5t26.5 25.5q-10 38 -10 72q-111 -13 -111 -67zM396 244l80 34q56 24 56 45q0 17 -13.5 26t-33.5 9q-40 0 -67 -36.5t-22 -77.5zM634 236l-191 -87q33 -41 81 -41q44 0 88 21t47 21q16 0 33 -27.5t17 -42.5q0 -26 -63 -58t-133 -32
q-109 0 -173 73q-58 -73 -156 -73q-76 0 -119 35.5t-43 99.5q0 44 26 78t67.5 52t83 26.5t81.5 8.5h4v33q0 35 -49 35q-25 0 -55 -23.5t-54 -23.5h-50q-17 0 -17 18v84q0 26 67 40.5t117 14.5q94 0 142 -42q62 42 128 42q51 0 90.5 -16.5t60 -41t30.5 -46.5t10 -37
q0 -35 -14.5 -54t-55.5 -37z" />
    <glyph glyph-name="ccedilla" unicode="&#xe7;" horiz-adv-x="444" 
d="M406 433v-102q0 -24 -27 -24h-60q-4 0 -7.5 1t-7.5 4.5t-5.5 5t-6 7.5t-5.5 7q-20 26 -46 26q-32 0 -50.5 -35t-18.5 -83q0 -56 30.5 -90.5t80.5 -34.5q35 0 68 14t39 14q11 0 30.5 -29t19.5 -43q0 -25 -55 -53t-107 -28h-4l-26 -53q18 5 41 5q43 0 64.5 -21t21.5 -53
q0 -38 -31.5 -63.5t-99.5 -25.5q-66 0 -102 19l15 39q26 -13 59 -13q56 0 56 38q0 35 -41 35q-14 0 -26 -6l-17 10l44 93q-98 12 -150 76t-52 159q0 107 64 173t184 66q54 0 91 -10t37 -25z" />
    <glyph glyph-name="egrave" unicode="&#xe8;" horiz-adv-x="500" 
d="M400 236l-191 -87q33 -41 81 -41q44 0 88 21t47 21q16 0 33 -27.5t17 -42.5q0 -26 -63 -58t-133 -32q-120 0 -184 66t-64 173t64 173t184 66q51 0 90.5 -16.5t60 -41t30.5 -46.5t10 -37q0 -35 -14.5 -54t-55.5 -37zM162 244l80 34q56 24 56 45q0 17 -13.5 26t-33.5 9
q-40 0 -67 -36.5t-22 -77.5zM278 524l-142 86q-38 23 -38 55q0 21 15 34.5t40 13.5q10 0 20 -3.5t16.5 -7t16.5 -13.5t14.5 -15t16.5 -20t17 -21l90 -109h-66z" />
    <glyph glyph-name="eacute" unicode="&#xe9;" horiz-adv-x="500" 
d="M400 236l-191 -87q33 -41 81 -41q44 0 88 21t47 21q16 0 33 -27.5t17 -42.5q0 -26 -63 -58t-133 -32q-120 0 -184 66t-64 173t64 173t184 66q51 0 90.5 -16.5t60 -41t30.5 -46.5t10 -37q0 -35 -14.5 -54t-55.5 -37zM162 244l80 34q56 24 56 45q0 17 -13.5 26t-33.5 9
q-40 0 -67 -36.5t-22 -77.5zM246 524h-66l90 109q5 6 17 21t16.5 20t14.5 15t16.5 13.5t16.5 7t20 3.5q25 0 40 -13.5t15 -34.5q0 -32 -38 -55z" />
    <glyph glyph-name="ecircumflex" unicode="&#xea;" horiz-adv-x="500" 
d="M400 236l-191 -87q33 -41 81 -41q44 0 88 21t47 21q16 0 33 -27.5t17 -42.5q0 -26 -63 -58t-133 -32q-120 0 -184 66t-64 173t64 173t184 66q51 0 90.5 -16.5t60 -41t30.5 -46.5t10 -37q0 -35 -14.5 -54t-55.5 -37zM162 244l80 34q56 24 56 45q0 17 -13.5 26t-33.5 9
q-40 0 -67 -36.5t-22 -77.5zM262 620l-110 -96h-66l123 179h106l123 -179h-66z" />
    <glyph glyph-name="edieresis" unicode="&#xeb;" horiz-adv-x="500" 
d="M400 236l-191 -87q33 -41 81 -41q44 0 88 21t47 21q16 0 33 -27.5t17 -42.5q0 -26 -63 -58t-133 -32q-120 0 -184 66t-64 173t64 173t184 66q51 0 90.5 -16.5t60 -41t30.5 -46.5t10 -37q0 -35 -14.5 -54t-55.5 -37zM162 244l80 34q56 24 56 45q0 17 -13.5 26t-33.5 9
q-40 0 -67 -36.5t-22 -77.5zM304 527v91q0 20 19 29l72 34q18 9 29 9q12 0 12 -15v-96q0 -15 -19 -24l-77 -37q-12 -6 -23 -6q-13 0 -13 15zM88 527v91q0 20 19 29l72 34q18 9 29 9q12 0 12 -15v-96q0 -15 -19 -24l-77 -37q-12 -6 -23 -6q-13 0 -13 15z" />
    <glyph glyph-name="igrave" unicode="&#xec;" horiz-adv-x="278" 
d="M236 0h-192q-27 0 -27 23v51q0 27 28 27q26 0 26 22v132q0 24 -32 24q-26 0 -26 29v44q0 20 22 33l165 75q19 8 28 8q19 0 19 -20v-60q0 -17 -20 -36.5t-20 -40.5v-186q0 -24 29 -24q27 0 27 -27v-51q0 -23 -27 -23zM155 524l-142 86q-38 23 -38 55q0 21 15 34.5t40 13.5
q10 0 20 -3.5t16.5 -7t16.5 -13.5t14.5 -15t16.5 -20t17 -21l90 -109h-66z" />
    <glyph glyph-name="iacute" unicode="&#xed;" horiz-adv-x="278" 
d="M236 0h-192q-27 0 -27 23v51q0 27 28 27q26 0 26 22v132q0 24 -32 24q-26 0 -26 29v44q0 20 22 33l165 75q19 8 28 8q19 0 19 -20v-60q0 -17 -20 -36.5t-20 -40.5v-186q0 -24 29 -24q27 0 27 -27v-51q0 -23 -27 -23zM123 524h-66l90 109q5 6 17 21t16.5 20t14.5 15
t16.5 13.5t16.5 7t20 3.5q25 0 40 -13.5t15 -34.5q0 -32 -38 -55z" />
    <glyph glyph-name="icircumflex" unicode="&#xee;" horiz-adv-x="278" 
d="M236 0h-192q-27 0 -27 23v51q0 27 28 27q26 0 26 22v132q0 24 -32 24q-26 0 -26 29v44q0 20 22 33l165 75q19 8 28 8q19 0 19 -20v-60q0 -17 -20 -36.5t-20 -40.5v-186q0 -24 29 -24q27 0 27 -27v-51q0 -23 -27 -23zM139 620l-110 -96h-66l123 179h106l123 -179h-66z" />
    <glyph glyph-name="idieresis" unicode="&#xef;" horiz-adv-x="278" 
d="M236 0h-192q-27 0 -27 23v51q0 27 28 27q26 0 26 22v132q0 24 -32 24q-26 0 -26 29v44q0 20 22 33l165 75q19 8 28 8q19 0 19 -20v-60q0 -17 -20 -36.5t-20 -40.5v-186q0 -24 29 -24q27 0 27 -27v-51q0 -23 -27 -23zM181 527v91q0 20 19 29l72 34q18 9 29 9q12 0 12 -15
v-96q0 -15 -19 -24l-77 -37q-12 -6 -23 -6q-13 0 -13 15zM-35 527v91q0 20 19 29l72 34q18 9 29 9q12 0 12 -15v-96q0 -15 -19 -24l-77 -37q-12 -6 -23 -6q-13 0 -13 15z" />
    <glyph glyph-name="eth" unicode="&#xf0;" 
d="M291 92q36 0 56.5 23.5t20.5 66.5q0 54 -29.5 110.5t-79.5 56.5q-36 0 -56.5 -24.5t-20.5 -67.5q0 -53 29.5 -109t79.5 -56zM124 548l53 28q-12 8 -44 23q-33 15 -50.5 28.5t-17.5 31.5q0 45 54 45q77 0 178 -63l100 53q19 10 31 10q15 0 25 -11.5t10 -24.5
q0 -20 -25 -34l-77 -41q153 -135 153 -338q0 -125 -59.5 -195t-184.5 -70q-104 0 -169 66t-65 170q0 96 55 157.5t150 61.5q35 0 77 -14q-32 62 -74 99l-79 -42q-19 -10 -31 -10q-15 0 -25 11.5t-10 24.5q0 22 25 34z" />
    <glyph glyph-name="ntilde" unicode="&#xf1;" 
d="M84 125v144q0 21 -24 21q-19 0 -26.5 5.5t-7.5 19.5v51q0 15 14 22l135 71q18 9 28 9q17 0 17 -18v-36q63 54 132 54q62 0 97 -37t35 -103v-203q0 -24 37 -24q25 0 25 -27v-51q0 -23 -27 -23h-187q-27 0 -27 23v51q0 27 25 27q18 0 18 24v157q0 22 -14.5 36t-38.5 14
q-43 0 -75 -44v-163q0 -24 26 -24q25 0 25 -27v-51q0 -23 -27 -23h-190q-27 0 -27 23v51q0 27 25 27q32 0 32 24zM420 679h49q-26 -136 -126 -136q-33 0 -83 26t-72 26q-20 0 -34.5 -14t-16.5 -34h-49q6 52 39 93.5t91 41.5q32 0 82 -25q52 -26 74 -26q36 0 46 48z" />
    <glyph glyph-name="ograve" unicode="&#xf2;" 
d="M30 229q0 107 64 173t184 66t184 -66t64 -173t-64 -173t-184 -66t-184 66t-64 173zM182 266q0 -67 31.5 -116.5t78.5 -49.5q82 0 82 92q0 67 -31.5 116.5t-78.5 49.5q-82 0 -82 -92zM294 524l-142 86q-38 23 -38 55q0 21 15 34.5t40 13.5q10 0 20 -3.5t16.5 -7
t16.5 -13.5t14.5 -15t16.5 -20t17 -21l90 -109h-66z" />
    <glyph glyph-name="oacute" unicode="&#xf3;" 
d="M30 229q0 107 64 173t184 66t184 -66t64 -173t-64 -173t-184 -66t-184 66t-64 173zM182 266q0 -67 31.5 -116.5t78.5 -49.5q82 0 82 92q0 67 -31.5 116.5t-78.5 49.5q-82 0 -82 -92zM262 524h-66l90 109q5 6 17 21t16.5 20t14.5 15t16.5 13.5t16.5 7t20 3.5
q25 0 40 -13.5t15 -34.5q0 -32 -38 -55z" />
    <glyph glyph-name="ocircumflex" unicode="&#xf4;" 
d="M30 229q0 107 64 173t184 66t184 -66t64 -173t-64 -173t-184 -66t-184 66t-64 173zM182 266q0 -67 31.5 -116.5t78.5 -49.5q82 0 82 92q0 67 -31.5 116.5t-78.5 49.5q-82 0 -82 -92zM278 620l-110 -96h-66l123 179h106l123 -179h-66z" />
    <glyph glyph-name="otilde" unicode="&#xf5;" 
d="M30 229q0 107 64 173t184 66t184 -66t64 -173t-64 -173t-184 -66t-184 66t-64 173zM182 266q0 -67 31.5 -116.5t78.5 -49.5q82 0 82 92q0 67 -31.5 116.5t-78.5 49.5q-82 0 -82 -92zM420 679h49q-26 -136 -126 -136q-33 0 -83 26t-72 26q-20 0 -34.5 -14t-16.5 -34h-49
q6 52 39 93.5t91 41.5q32 0 82 -25q52 -26 74 -26q36 0 46 48z" />
    <glyph glyph-name="odieresis" unicode="&#xf6;" 
d="M30 229q0 107 64 173t184 66t184 -66t64 -173t-64 -173t-184 -66t-184 66t-64 173zM182 266q0 -67 31.5 -116.5t78.5 -49.5q82 0 82 92q0 67 -31.5 116.5t-78.5 49.5q-82 0 -82 -92zM320 527v91q0 20 19 29l72 34q18 9 29 9q12 0 12 -15v-96q0 -15 -19 -24l-77 -37
q-12 -6 -23 -6q-13 0 -13 15zM104 527v91q0 20 19 29l72 34q18 9 29 9q12 0 12 -15v-96q0 -15 -19 -24l-77 -37q-12 -6 -23 -6q-13 0 -13 15z" />
    <glyph glyph-name="divide" unicode="&#xf7;" horiz-adv-x="600" 
d="M529 178h-458v102h458v-102zM219 419q0 33 24 57t57 24t57 -24t24 -57t-24 -57t-57 -24t-57 24t-24 57zM219 39q0 33 24 57t57 24t57 -24t24 -57t-24 -57t-57 -24t-57 24t-24 57z" />
    <glyph glyph-name="oslash" unicode="&#xf8;" 
d="M201 174l121 159q-27 25 -58 25q-82 0 -82 -92q0 -51 19 -92zM356 284l-121 -159q23 -25 57 -25q82 0 82 92q0 50 -18 92zM42 -35l62 82q-74 65 -74 182q0 107 64 173t184 66q75 0 126 -27l43 57q11 14 38 14q32 0 32 -13q0 -4 -12 -19l-53 -69q74 -65 74 -182
q0 -107 -64 -173t-184 -66q-76 0 -125 27l-54 -71q-7 -10 -40 -10q-31 0 -31 8q0 2 14 21z" />
    <glyph glyph-name="ugrave" unicode="&#xf9;" 
d="M510 0h-148q-19 0 -19 18v20q-52 -48 -127 -48q-139 0 -139 147v118q0 24 -38 24q-26 0 -26 29v45q0 21 28 33l165 74q19 8 32 8q19 0 19 -20v-60q0 -17 -22 -36.5t-22 -40.5v-139q0 -20 14 -33t43 -13q47 0 71 31v98q0 24 -31 24q-26 0 -26 29v45q0 23 21 33l165 74
q19 8 32 8q19 0 19 -20v-60q0 -17 -22 -36.5t-22 -40.5v-186q0 -24 33 -24q27 0 27 -27v-51q0 -23 -27 -23zM306 524l-142 86q-38 23 -38 55q0 21 15 34.5t40 13.5q10 0 20 -3.5t16.5 -7t16.5 -13.5t14.5 -15t16.5 -20t17 -21l90 -109h-66z" />
    <glyph glyph-name="uacute" unicode="&#xfa;" 
d="M510 0h-148q-19 0 -19 18v20q-52 -48 -127 -48q-139 0 -139 147v118q0 24 -38 24q-26 0 -26 29v45q0 21 28 33l165 74q19 8 32 8q19 0 19 -20v-60q0 -17 -22 -36.5t-22 -40.5v-139q0 -20 14 -33t43 -13q47 0 71 31v98q0 24 -31 24q-26 0 -26 29v45q0 23 21 33l165 74
q19 8 32 8q19 0 19 -20v-60q0 -17 -22 -36.5t-22 -40.5v-186q0 -24 33 -24q27 0 27 -27v-51q0 -23 -27 -23zM274 524h-66l90 109q5 6 17 21t16.5 20t14.5 15t16.5 13.5t16.5 7t20 3.5q25 0 40 -13.5t15 -34.5q0 -32 -38 -55z" />
    <glyph glyph-name="ucircumflex" unicode="&#xfb;" 
d="M510 0h-148q-19 0 -19 18v20q-52 -48 -127 -48q-139 0 -139 147v118q0 24 -38 24q-26 0 -26 29v45q0 21 28 33l165 74q19 8 32 8q19 0 19 -20v-60q0 -17 -22 -36.5t-22 -40.5v-139q0 -20 14 -33t43 -13q47 0 71 31v98q0 24 -31 24q-26 0 -26 29v45q0 23 21 33l165 74
q19 8 32 8q19 0 19 -20v-60q0 -17 -22 -36.5t-22 -40.5v-186q0 -24 33 -24q27 0 27 -27v-51q0 -23 -27 -23zM290 620l-110 -96h-66l123 179h106l123 -179h-66z" />
    <glyph glyph-name="udieresis" unicode="&#xfc;" 
d="M510 0h-148q-19 0 -19 18v20q-52 -48 -127 -48q-139 0 -139 147v118q0 24 -38 24q-26 0 -26 29v45q0 21 28 33l165 74q19 8 32 8q19 0 19 -20v-60q0 -17 -22 -36.5t-22 -40.5v-139q0 -20 14 -33t43 -13q47 0 71 31v98q0 24 -31 24q-26 0 -26 29v45q0 23 21 33l165 74
q19 8 32 8q19 0 19 -20v-60q0 -17 -22 -36.5t-22 -40.5v-186q0 -24 33 -24q27 0 27 -27v-51q0 -23 -27 -23zM332 527v91q0 20 19 29l72 34q18 9 29 9q12 0 12 -15v-96q0 -15 -19 -24l-77 -37q-12 -6 -23 -6q-13 0 -13 15zM116 527v91q0 20 19 29l72 34q18 9 29 9
q12 0 12 -15v-96q0 -15 -19 -24l-77 -37q-12 -6 -23 -6q-13 0 -13 15z" />
    <glyph glyph-name="yacute" unicode="&#xfd;" horiz-adv-x="500" 
d="M14 458h195q27 0 27 -23v-53q0 -25 -18 -25q-28 0 -28 -20q0 -16 7 -30l62 -136l55 126q12 25 12 40q0 20 -28 20q-18 0 -18 25v53q0 23 27 23h180q27 0 27 -23v-50q0 -28 -18 -28q-23 0 -33 -21l-141 -323q-23 -55 -23 -85q0 -38 48 -38q33 0 33 -28v-50q0 -23 -27 -23
h-193q-27 0 -27 23v54q0 22 9 45l43 101l-149 324q-9 21 -31 21q-18 0 -18 22v56q0 23 27 23zM234 524h-66l90 109q5 6 17 21t16.5 20t14.5 15t16.5 13.5t16.5 7t20 3.5q25 0 40 -13.5t15 -34.5q0 -32 -38 -55z" />
    <glyph glyph-name="thorn" unicode="&#xfe;" 
d="M213 287v-85q0 -42 24 -68t66 -26q49 0 69 28.5t20 82.5q0 48 -23 79t-68 31q-52 0 -88 -42zM77 -86v577q0 24 -36 24q-26 0 -26 29v44q0 21 26 33l165 75q19 8 35 8q19 0 19 -20v-60q0 -17 -23.5 -36.5t-23.5 -40.5v-141h2q19 24 54.5 43t70.5 19q83 0 133.5 -63
t50.5 -162q0 -98 -60.5 -175.5t-156.5 -77.5q-45 0 -94 20v-98q0 -22 49 -22q28 0 28 -27v-51q0 -23 -27 -23h-217q-27 0 -27 23v51q0 27 27 27q31 0 31 24z" />
    <glyph glyph-name="ydieresis" unicode="&#xff;" horiz-adv-x="500" 
d="M14 458h195q27 0 27 -23v-53q0 -25 -18 -25q-28 0 -28 -20q0 -16 7 -30l62 -136l55 126q12 25 12 40q0 20 -28 20q-18 0 -18 25v53q0 23 27 23h180q27 0 27 -23v-50q0 -28 -18 -28q-23 0 -33 -21l-141 -323q-23 -55 -23 -85q0 -38 48 -38q33 0 33 -28v-50q0 -23 -27 -23
h-193q-27 0 -27 23v54q0 22 9 45l43 101l-149 324q-9 21 -31 21q-18 0 -18 22v56q0 23 27 23zM292 527v91q0 20 19 29l72 34q18 9 29 9q12 0 12 -15v-96q0 -15 -19 -24l-77 -37q-12 -6 -23 -6q-13 0 -13 15zM76 527v91q0 20 19 29l72 34q18 9 29 9q12 0 12 -15v-96
q0 -15 -19 -24l-77 -37q-12 -6 -23 -6q-13 0 -13 15z" />
    <glyph glyph-name="dotlessi" unicode="&#x131;" horiz-adv-x="278" 
d="M236 0h-192q-27 0 -27 23v51q0 27 28 27q26 0 26 22v132q0 24 -32 24q-26 0 -26 29v44q0 20 22 33l165 75q19 8 28 8q19 0 19 -20v-60q0 -17 -20 -36.5t-20 -40.5v-186q0 -24 29 -24q27 0 27 -27v-51q0 -23 -27 -23z" />
    <glyph glyph-name="Lslash" unicode="&#x141;" 
d="M115 143v123l-30 -12q-37 -14 -43 -14q-12 0 -12 15v69q0 22 23 31l62 25v154q0 29 -37 29q-26 0 -35.5 7.5t-9.5 26.5v52q0 16 8 22t27 6h257q19 0 27 -6t8 -22v-55q0 -18 -11 -24.5t-47 -6.5q-34 0 -34 -29v-92l75 30q28 11 37 11q14 0 14 -14v-66q0 -22 -23 -31
l-103 -44v-210h76q30 0 48.5 9.5t26 21t26.5 21t51 9.5q61 0 61 -26q0 -11 -51 -138q-6 -15 -33 -15h-405q-19 0 -27 6t-8 22v52q0 19 9.5 26.5t35.5 7.5q37 0 37 29z" />
    <glyph glyph-name="lslash" unicode="&#x142;" horiz-adv-x="278" 
d="M241 0h-202q-27 0 -27 23v51q0 27 25 27q34 0 34 24v152l-40 -16q-16 -7 -25 -7q-12 0 -12 18v52q0 20 22 30l55 23v114q0 24 -36 24q-28 0 -28 29v44q0 21 26 33l165 75q19 8 35 8q19 0 19 -20v-60q0 -17 -22.5 -36.5t-22.5 -40.5v-112l45 19q11 4 19 4q14 0 14 -16v-58
q0 -18 -17 -26l-61 -25v-208q0 -24 34 -24q27 0 27 -27v-51q0 -23 -27 -23z" />
    <glyph glyph-name="OE" unicode="&#x152;" horiz-adv-x="944" 
d="M445 157v354q0 55 -68 55q-85 0 -136 -64.5t-51 -163.5q0 -105 46 -166t124 -61q47 0 66 11.5t19 34.5zM598 559v-146h61q49 0 64.5 15t54.5 15q46 0 51 -14q1 -3 16.5 -41.5t26 -67.5t10.5 -37q0 -28 -49 -28q-54 0 -78.5 20t-85.5 20h-71v-177h117q30 0 48.5 9.5t26 21
t26.5 21t51 9.5q61 0 61 -26q0 -11 -51 -138q-6 -15 -33 -15h-365q-10 0 -58 -6q-46 -6 -75 -6q-75 0 -136 28.5t-99.5 77t-59 111.5t-20.5 135q0 156 85 252.5t236 96.5q26 0 66 -6t61 -6h338q18 0 26 -19q8 -17 26.5 -66.5t18.5 -60.5q0 -17 -14 -23.5t-49 -6.5
q-32 0 -69.5 29t-86.5 29h-71z" />
    <glyph glyph-name="oe" unicode="&#x153;" horiz-adv-x="778" 
d="M166 266q0 -66 30 -116t72 -50q32 0 52 22t20 70q0 66 -30 116t-72 50q-32 0 -52 -22t-20 -70zM452 244l80 34q56 24 56 45q0 17 -13.5 26t-33.5 9q-40 0 -67 -36.5t-22 -77.5zM24 229q0 107 64 173t184 66q72 0 138 -60q29 24 73 42t86 18q51 0 90.5 -16.5t60 -41
t30.5 -46.5t10 -37q0 -35 -14.5 -54t-55.5 -37l-191 -87q33 -41 81 -41q44 0 88 21t47 21q16 0 33 -27.5t17 -42.5q0 -26 -63 -58t-133 -32q-48 0 -83 12.5t-73 42.5q-64 -55 -141 -55q-120 0 -184 66t-64 173z" />
    <glyph glyph-name="Scaron" unicode="&#x160;" 
d="M51 496q0 100 63 146.5t167 46.5q58 0 110.5 -15.5t67.5 -42.5q11 -21 23 -58t12 -55q0 -11 -12 -15t-54 -4q-40 0 -64 11.5t-31 24.5t-23 24.5t-43 11.5q-63 0 -63 -62q0 -28 24 -49.5t59.5 -33.5t77.5 -30t77.5 -39t59.5 -61t24 -94q0 -58 -22 -101t-60.5 -67t-84 -35
t-99.5 -11t-115 14t-79 50q-36 69 -36 106q0 16 13 23t52 7q44 0 72 -13t39 -28t31.5 -28t50.5 -13q45 0 65 17.5t20 56.5q0 30 -24 53t-59.5 36.5t-77.5 33t-77.5 41t-59.5 61t-24 91.5zM284 801l110 97h66l-123 -179h-106l-123 179h66z" />
    <glyph glyph-name="scaron" unicode="&#x161;" horiz-adv-x="444" 
d="M35 59v45q0 32 8 42t32 10h22q30 0 49.5 -16t40.5 -32.5t54 -16.5q37 0 37 33q0 17 -24.5 29t-59 22.5t-69.5 24.5t-59.5 43.5t-24.5 72.5q0 75 55.5 113.5t133.5 38.5q75 0 118.5 -19.5t43.5 -49.5v-71q0 -13 -5 -18t-18 -5h-41q-14 0 -25.5 5t-17 10t-15.5 16
q-33 31 -56 31q-32 0 -32 -28q0 -16 17.5 -27t44 -17.5t57 -18t57 -26t44 -43t17.5 -67.5q0 -150 -197 -150q-67 0 -127 17.5t-60 51.5zM222 606l110 97h66l-123 -179h-106l-123 179h66z" />
    <glyph glyph-name="Ydieresis" unicode="&#x178;" horiz-adv-x="611" 
d="M404 0h-186q-21 0 -28 8t-7 31v26q0 41 21 91t38 77l-171 295q-8 14 -23 24.5t-29 10.5q-17 0 -23.5 6t-6.5 24v56q0 16 8 22t27 6h233q19 0 27 -6t8 -22v-51q0 -29 -22 -29q-25 0 -25 -23q0 -17 10 -37l65 -126l63 126q10 20 10 38q0 22 -24 22q-23 0 -23 27v53
q0 16 8 22t27 6h205q19 0 27 -6t8 -22v-59q0 -27 -34 -27q-30 0 -48 -37l-163 -338q-11 -23 -11 -48q0 -26 30 -26q26 0 35 -8t9 -29v-49q0 -16 -8 -22t-27 -6zM354 722v91q0 20 19 29l72 34q18 9 29 9q12 0 12 -15v-96q0 -15 -19 -24l-77 -37q-12 -6 -23 -6q-13 0 -13 15z
M138 722v91q0 20 19 29l72 34q18 9 29 9q12 0 12 -15v-96q0 -15 -19 -24l-77 -37q-12 -6 -23 -6q-13 0 -13 15z" />
    <glyph glyph-name="Zcaron" unicode="&#x17d;" 
d="M468 0h-422q-26 0 -26 27v85q0 16 15 36l306 411h-93q-23 0 -40 -9.5t-26.5 -21t-30 -21t-50.5 -9.5q-35 0 -47 5.5t-12 19.5q0 22 25.5 88t42.5 66h387q23 0 23 -27v-81q0 -20 -15 -40l-308 -411h134q23 0 39.5 9.5t26 21t30 21t50.5 9.5q35 0 47 -5.5t12 -19.5
q0 -23 -25.5 -88.5t-42.5 -65.5zM284 801l110 97h66l-123 -179h-106l-123 179h66z" />
    <glyph glyph-name="zcaron" unicode="&#x17e;" horiz-adv-x="444" 
d="M198 110h52q22 0 56 22.5t43 22.5h50q27 0 27 -23v-109q0 -23 -27 -23h-344q-27 0 -27 23v74q0 21 14 35l200 216h-42q-14 0 -44 -19q-27 -19 -43 -19h-44q-27 0 -27 23v102q0 23 27 23h323q27 0 27 -23v-76q0 -18 -16 -34zM222 606l110 97h66l-123 -179h-106l-123 179
h66z" />
    <glyph glyph-name="florin" unicode="&#x192;" 
d="M13 -146v91q0 27 27 27h55q23 0 39 -36q6 -12 9.5 -18.5t11 -12.5t15.5 -6q22 0 25 28q9 73 10.5 209t3.5 177h-73q-25 0 -25 25v60q0 25 25 25h76q1 39 4.5 70.5t15.5 69.5t32.5 63t57 42t85.5 17q55 0 95.5 -19t40.5 -45v-96q0 -27 -27 -27h-55q-8 0 -14.5 6.5t-9 12.5
t-7.5 20q-5 13 -8 19t-10.5 12.5t-17.5 6.5q-38 0 -38 -152h80q25 0 25 -25v-60q0 -25 -25 -25h-83q-2 -32 -5 -155.5t-8 -176.5q-8 -95 -51.5 -143.5t-138.5 -48.5q-54 0 -95.5 17t-41.5 48z" />
    <glyph glyph-name="circumflex" unicode="&#x2c6;" horiz-adv-x="278" 
d="M139 620l-110 -96h-66l123 179h106l123 -179h-66z" />
    <glyph glyph-name="caron" unicode="&#x2c7;" horiz-adv-x="278" 
d="M139 606l110 97h66l-123 -179h-106l-123 179h66z" />
    <glyph glyph-name="uni02C9" unicode="&#x2c9;" horiz-adv-x="278" 
d="M311 563h-344v79h344v-79z" />
    <glyph glyph-name="breve" unicode="&#x2d8;" horiz-adv-x="278" 
d="M-18 691h50q10 -82 107 -82q45 0 70.5 19.5t36.5 62.5h50q-15 -167 -157 -167q-78 0 -117.5 45.5t-39.5 121.5z" />
    <glyph glyph-name="dotaccent" unicode="&#x2d9;" horiz-adv-x="278" 
d="M73 527v91q0 20 19 29l72 34q18 9 29 9q12 0 12 -15v-96q0 -15 -19 -24l-77 -37q-12 -6 -23 -6q-13 0 -13 15z" />
    <glyph glyph-name="ring" unicode="&#x2da;" horiz-adv-x="278" 
d="M21 642q0 55 32 86.5t86 31.5t86 -31.5t32 -86.5t-32 -86.5t-86 -31.5t-86 31.5t-32 86.5zM86 642q0 -22 15 -37.5t38 -15.5t38 15.5t15 37.5t-15 37.5t-38 15.5t-38 -15.5t-15 -37.5z" />
    <glyph glyph-name="ogonek" unicode="&#x2db;" horiz-adv-x="278" 
d="M258 25v-15q-52 -18 -95 -51.5t-43 -81.5q0 -26 15 -39.5t38 -13.5q45 0 87 40l22 -40q-59 -45 -156 -45q-46 0 -77.5 26t-31.5 72q0 33 26.5 61t67 45.5t78 27.5t69.5 14z" />
    <glyph glyph-name="tilde" unicode="&#x2dc;" horiz-adv-x="278" 
d="M281 679h49q-26 -136 -126 -136q-33 0 -83 26t-72 26q-20 0 -34.5 -14t-16.5 -34h-49q6 52 39 93.5t91 41.5q32 0 82 -25q52 -26 74 -26q36 0 46 48z" />
    <glyph glyph-name="hungarumlaut" unicode="&#x2dd;" horiz-adv-x="278" 
d="M-9 524h-66l86 132q16 25 39.5 41t45.5 16q25 0 40 -13.5t15 -34.5q0 -29 -38 -55zM192 524h-66l86 132q16 25 39.5 41t45.5 16q25 0 40 -13.5t15 -34.5q0 -29 -38 -55z" />
    <glyph glyph-name="uni03A9" unicode="&#x3a9;" horiz-adv-x="704" 
d="M170 105v3q-51 45 -85.5 112t-34.5 152q0 127 85.5 216.5t218.5 89.5q92 0 162.5 -46.5t103.5 -113.5t33 -141q0 -85 -35 -154.5t-87 -114.5v-3h135v-105h-267v78q52 33 86 100.5t34 171.5q0 93 -44 157t-121 64q-76 0 -123 -63.5t-47 -162.5q0 -97 34.5 -167.5
t85.5 -99.5v-78h-268v105h134z" />
    <glyph glyph-name="uni03BC" unicode="&#x3bc;" 
d="M213 -10v-183q0 -18 -19 -18h-150q-27 0 -27 23v51q0 27 27 27q33 0 33 24v341q0 24 -38 24q-26 0 -26 29v45q0 21 28 33l165 74q19 8 32 8q19 0 19 -20v-60q0 -17 -22 -36.5t-22 -40.5v-139q0 -20 14 -33t43 -13q47 0 71 31v98q0 24 -31 24q-26 0 -26 29v45q0 23 21 33
l165 74q19 8 32 8q19 0 19 -20v-60q0 -17 -22 -36.5t-22 -40.5v-186q0 -24 33 -24q27 0 27 -27v-51q0 -23 -27 -23h-148q-19 0 -19 18v20q-52 -48 -127 -48h-3z" />
    <glyph glyph-name="pi" unicode="&#x3c0;" horiz-adv-x="600" 
d="M576 392h-68v-247q0 -95 13 -145h-129q-17 28 -17 139v253h-131q-3 -88 -20.5 -206.5t-41.5 -185.5h-128q23 82 40.5 198t19.5 194q-63 0 -96 -9l-15 86q41 33 165 33h419z" />
    <glyph glyph-name="endash" unicode="&#x2013;" horiz-adv-x="500" 
d="M500 188h-500v83h500v-83z" />
    <glyph glyph-name="emdash" unicode="&#x2014;" horiz-adv-x="1000" 
d="M1000 271v-83h-1000v83h1000z" />
    <glyph glyph-name="quoteleft" unicode="&#x2018;" horiz-adv-x="222" 
d="M181 504q0 -35 -21 -55.5t-50 -20.5q-36 0 -57.5 24t-21.5 69q0 53 28 110.5t49 57.5q13 0 30 -10t17 -22q0 -6 -10.5 -31t-10.5 -39q0 -8 12 -18.5t23.5 -26.5t11.5 -38z" />
    <glyph glyph-name="quoteright" unicode="&#x2019;" horiz-adv-x="222" 
d="M41 613q0 35 21 55.5t50 20.5q36 0 57.5 -24t21.5 -69q0 -53 -28 -110.5t-49 -57.5q-13 0 -30 10t-17 22q0 6 10.5 31t10.5 39q0 8 -12 18.5t-23.5 26.5t-11.5 38z" />
    <glyph glyph-name="quotesinglbase" unicode="&#x201a;" horiz-adv-x="222" 
d="M41 58q0 35 21 55.5t50 20.5q36 0 57.5 -24t21.5 -69q0 -53 -28 -110.5t-49 -57.5q-13 0 -30 10t-17 22q0 6 10.5 31t10.5 39q0 7 -12 18t-23.5 27t-11.5 38z" />
    <glyph glyph-name="quotedblleft" unicode="&#x201c;" horiz-adv-x="389" 
d="M368 504q0 -35 -21 -55.5t-50 -20.5q-36 0 -57.5 24t-21.5 69q0 53 28 110.5t49 57.5q13 0 30 -10t17 -22q0 -6 -10.5 -31t-10.5 -39q0 -8 11.5 -18.5t23.5 -26.5t12 -38zM164 504q0 -35 -21 -55.5t-50 -20.5q-36 0 -57.5 24t-21.5 69q0 53 28 110.5t49 57.5q13 0 30 -10
t17 -22q0 -6 -10.5 -31t-10.5 -39q0 -8 11.5 -18.5t23.5 -26.5t12 -38z" />
    <glyph glyph-name="quotedblright" unicode="&#x201d;" horiz-adv-x="389" 
d="M21 613q0 35 21 55.5t50 20.5q36 0 57.5 -24t21.5 -69q0 -53 -28 -110.5t-49 -57.5q-13 0 -30 10t-17 22q0 6 10.5 31t10.5 39q0 8 -12 18.5t-23.5 26.5t-11.5 38zM225 613q0 35 21 55.5t50 20.5q36 0 57.5 -24t21.5 -69q0 -53 -28 -110.5t-49 -57.5q-13 0 -30 10t-17 22
q0 6 10.5 31t10.5 39q0 8 -12 18.5t-23.5 26.5t-11.5 38z" />
    <glyph glyph-name="quotedblbase" unicode="&#x201e;" horiz-adv-x="389" 
d="M21 58q0 35 21 55.5t50 20.5q36 0 57.5 -24t21.5 -69q0 -53 -28 -110.5t-49 -57.5q-13 0 -30 10t-17 22q0 6 10.5 31t10.5 39q0 7 -12 18t-23.5 27t-11.5 38zM225 58q0 35 21 55.5t50 20.5q36 0 57.5 -24t21.5 -69q0 -53 -28 -110.5t-49 -57.5q-13 0 -30 10t-17 22
q0 6 10.5 31t10.5 39q0 8 -12 18.5t-23.5 26.5t-11.5 38z" />
    <glyph glyph-name="dagger" unicode="&#x2020;" horiz-adv-x="500" 
d="M193 432v220q0 25 25 25h65q25 0 25 -25v-220h116q25 0 25 -25v-37q0 -25 -25 -25h-116v-469q0 -25 -25 -25h-65q-25 0 -25 25v469h-116q-25 0 -25 25v37q0 25 25 25h116z" />
    <glyph glyph-name="daggerdbl" unicode="&#x2021;" horiz-adv-x="500" 
d="M193 445v207q0 25 25 25h65q25 0 25 -25v-207h116q25 0 25 -25v-37q0 -25 -25 -25h-116v-189h116q25 0 25 -25v-37q0 -25 -25 -25h-116v-206q0 -25 -25 -25h-65q-25 0 -25 25v206h-116q-25 0 -25 25v37q0 25 25 25h116v189h-116q-25 0 -25 25v37q0 25 25 25h116z" />
    <glyph glyph-name="bullet" unicode="&#x2022;" horiz-adv-x="500" 
d="M81 338q0 72 47.5 120.5t121.5 48.5t121.5 -48.5t47.5 -120.5t-47.5 -120.5t-121.5 -48.5t-121.5 48.5t-47.5 120.5z" />
    <glyph glyph-name="ellipsis" unicode="&#x2026;" horiz-adv-x="1000" 
d="M86 73q0 34 22.5 57.5t58.5 23.5t58.5 -23.5t22.5 -57.5t-22.5 -57.5t-58.5 -23.5t-58.5 23.5t-22.5 57.5zM419 73q0 34 22.5 57.5t58.5 23.5t58.5 -23.5t22.5 -57.5t-22.5 -57.5t-58.5 -23.5t-58.5 23.5t-22.5 57.5zM752 73q0 34 22.5 57.5t58.5 23.5t58.5 -23.5
t22.5 -57.5t-22.5 -57.5t-58.5 -23.5t-58.5 23.5t-22.5 57.5z" />
    <glyph glyph-name="perthousand" unicode="&#x2030;" horiz-adv-x="1000" 
d="M149 67l359 598q12 20 22 20q12 0 30 -18t18 -30q0 -9 -7 -19l-362 -603q-13 -23 -23 -23q-13 0 -30.5 17t-17.5 28q0 10 11 30zM515 196q0 -115 57 -115t57 115t-57 115t-57 -115zM86 481q0 -115 57 -115t57 115t-57 115t-57 -115zM429 196q0 100 39.5 152t103.5 52
t103.5 -52t39.5 -152t-39.5 -152t-103.5 -52t-103.5 52t-39.5 152zM0 481q0 100 39.5 152t103.5 52t103.5 -52t39.5 -152t-39.5 -152t-103.5 -52t-103.5 52t-39.5 152zM844 196q0 -115 57 -115t57 115t-57 115t-57 -115zM758 196q0 100 39.5 152t103.5 52t103.5 -52
t39.5 -152t-39.5 -152t-103.5 -52t-103.5 52t-39.5 152z" />
    <glyph glyph-name="guilsinglleft" unicode="&#x2039;" horiz-adv-x="333" 
d="M57 229l108 131q22 26 46 26h48q17 0 17 -10q0 -8 -16 -28l-85 -119l85 -118q16 -20 16 -28q0 -10 -17 -10h-48q-24 0 -46 26z" />
    <glyph glyph-name="guilsinglright" unicode="&#x203a;" horiz-adv-x="333" 
d="M276 230l-108 -131q-22 -26 -46 -26h-48q-17 0 -17 10q0 8 16 28l85 119l-85 118q-16 20 -16 28q0 10 17 10h48q24 0 46 -26z" />
    <glyph glyph-name="fraction" unicode="&#x2044;" horiz-adv-x="167" 
d="M-167 -8l401 693h100l-401 -693h-100z" />
    <glyph glyph-name="Euro" unicode="&#x20ac;" 
d="M418 254q0 -25 -25 -25h-161q26 -110 124 -110q25 0 43 10t26 21.5t22.5 21.5t35.5 10q33 0 43.5 -6t10.5 -22q0 -39 -35 -118q-9 -20 -52.5 -32t-102.5 -12q-105 0 -174.5 63t-90.5 174h-57q-25 0 -25 25v36q0 25 25 25h48v10q0 27 1 40h-49q-25 0 -25 25v36q0 25 25 25
h62q27 111 101 172.5t180 61.5t126 -45q11 -24 21 -61.5t10 -59.5q0 -15 -9 -20.5t-33 -5.5q-43 0 -75.5 32.5t-70.5 32.5q-82 0 -106 -107h162q25 0 25 -25v-36q0 -25 -25 -25h-172v-16q0 -6 0.5 -17.5t0.5 -16.5h171q25 0 25 -25v-36z" />
    <glyph glyph-name="afii61289" unicode="&#x2113;" horiz-adv-x="515" 
d="M442 187l54 -55q-72 -137 -210 -137q-82 0 -126 42.5t-54 111.5v9q-8 -6 -25 -18.5t-25 -18.5l-33 69q10 8 38.5 30.5t42.5 34.5v235q0 123 50 185.5t130 62.5q70 0 106 -48.5t36 -123.5q0 -81 -49.5 -161t-145.5 -170l1 -38q1 -46 24.5 -71.5t60.5 -25.5q68 0 125 87z
M231 496v-143q111 125 111 217q0 76 -52 76q-25 0 -42 -34.5t-17 -115.5z" />
    <glyph glyph-name="trademark" unicode="&#x2122;" horiz-adv-x="1000" 
d="M10 591v86h379v-86h-26q-13 60 -63 60h-43v-324q0 -15 9 -20.5t42 -7.5v-26h-217v26q33 2 42 7.5t9 20.5v324h-43q-50 0 -63 -60h-26zM665 274l-131 278h-2v-180q0 -45 8 -58.5t44 -14.5v-26h-135v26q35 1 42.5 14.5t7.5 58.5v228q-19 30 -32.5 39.5t-38.5 11.5v26h157
l131 -270l141 270h133v-26q-32 -2 -41.5 -8t-9.5 -20v-296q0 -15 9 -20.5t42 -7.5v-26h-217v26q33 2 42 7.5t9 20.5v225h-2l-141 -278h-16z" />
    <glyph glyph-name="Omega" unicode="&#x2126;" horiz-adv-x="704" 
d="M170 105v3q-51 45 -85.5 112t-34.5 152q0 127 85.5 216.5t218.5 89.5q92 0 162.5 -46.5t103.5 -113.5t33 -141q0 -85 -35 -154.5t-87 -114.5v-3h135v-105h-267v78q52 33 86 100.5t34 171.5q0 93 -44 157t-121 64q-76 0 -123 -63.5t-47 -162.5q0 -97 34.5 -167.5
t85.5 -99.5v-78h-268v105h134z" />
    <glyph glyph-name="estimated" unicode="&#x212e;" horiz-adv-x="835" 
d="M802 329h-623q-5 0 -5 -4v-189q0 -11 8 -21q98 -103 236 -103q148 0 248 115h55q-52 -62 -132 -98t-172 -36q-159 0 -272 101t-113 244q0 144 113 245.5t272 101.5q160 0 272.5 -101.5t112.5 -245.5v-9zM661 353v190q0 13 -10 23q-100 98 -233 98q-136 0 -235 -101
q-9 -11 -9 -24v-186q0 -6 5 -6h478q4 0 4 6z" />
    <glyph glyph-name="partialdiff" unicode="&#x2202;" horiz-adv-x="571" 
d="M101 606l-37 96q76 56 185 56q117 0 196.5 -97t79.5 -269q0 -179 -75.5 -287.5t-205.5 -108.5q-51 0 -92 21t-66 55t-38 73.5t-13 78.5q0 112 61.5 181.5t152.5 69.5q53 0 91 -25.5t55 -51.5h1v30q0 91 -45.5 157t-119.5 66q-68 0 -130 -45zM257 104h1q49 0 83 57.5
t42 130.5q-7 27 -36 53t-70 26q-48 0 -79.5 -44.5t-31.5 -106.5q0 -49 25.5 -82.5t65.5 -33.5z" />
    <glyph glyph-name="Delta" unicode="&#x2206;" horiz-adv-x="652" 
d="M25 0v74l225 608h158l217 -606v-76h-600zM162 105h320l-104 272q-7 26 -28 87.5t-26 81.5h-3q-4 -17 -23 -74t-26 -80z" />
    <glyph glyph-name="product" unicode="&#x220f;" horiz-adv-x="715" 
d="M691 550h-101v-642h-130v642h-207v-642h-130v642h-100v117h668v-117z" />
    <glyph glyph-name="summation" unicode="&#x2211;" horiz-adv-x="553" 
d="M535 -92h-513v82l235 298l-226 289v90h488v-110h-311v-3l197 -246l-219 -278v-3h349v-119z" />
    <glyph glyph-name="minus" unicode="&#x2212;" horiz-adv-x="600" 
d="M529 178h-458v102h458v-102z" />
    <glyph glyph-name="uni2215" unicode="&#x2215;" horiz-adv-x="167" 
d="M-167 -8l401 693h100l-401 -693h-100z" />
    <glyph glyph-name="uni2219" unicode="&#x2219;" horiz-adv-x="278" 
d="M58 229q0 34 22.5 57.5t58.5 23.5t58.5 -23.5t22.5 -57.5t-22.5 -57.5t-58.5 -23.5t-58.5 23.5t-22.5 57.5z" />
    <glyph glyph-name="radical" unicode="&#x221a;" horiz-adv-x="587" 
d="M598 801l-223 -935h-104l-147 416l-72 -29l-22 71l172 70l101 -302q3 -15 10 -43.5t10 -39.5l1 -1q1 4 6.5 37t9.5 54l167 702h91z" />
    <glyph glyph-name="infinity" unicode="&#x221e;" horiz-adv-x="758" 
d="M711 276v-1q0 -77 -47 -123.5t-111 -46.5q-91 0 -174 110q-43 -54 -84 -82t-95 -28q-63 0 -108.5 46.5t-45.5 118.5q0 74 46.5 121t116.5 47q92 0 174 -107q3 3 8 9q27 31 44 47.5t51.5 33.5t72.5 17q65 0 108.5 -45t43.5 -117zM209 176h2q25 0 50.5 15.5t40.5 31
t39 44.5q-23 30 -31 40.5t-27 29.5t-37 26t-40 7q-40 0 -64 -28t-24 -73q0 -39 26 -66t65 -27zM551 370h-1q-14 0 -28.5 -5.5t-24 -11t-24 -19t-19.5 -19t-19.5 -23t-15.5 -18.5q45 -56 73 -77t63 -21q38 0 60.5 29.5t22.5 64.5q0 44 -24 72t-63 28z" />
    <glyph glyph-name="integral" unicode="&#x222b;" horiz-adv-x="390" 
d="M369 816l-13 -88q-20 8 -36 8q-31 0 -49 -25q-26 -34 -26 -159q0 -76 7.5 -221.5t7.5 -234.5q0 -127 -35 -190q-37 -73 -129 -73q-48 0 -78 16l16 91q25 -10 43 -10q29 0 43 19q27 37 27 146q0 90 -8 239.5t-8 229.5q0 84 14 134.5t46 83.5q42 45 117 45q35 0 61 -11z
" />
    <glyph glyph-name="approxequal" unicode="&#x2248;" horiz-adv-x="540" 
d="M456 437l46 -43q-25 -46 -59.5 -73t-74.5 -27q-46 0 -110 38q-51 33 -84 33q-20 0 -38 -11.5t-28 -23.5t-26 -35l-46 43q23 44 61.5 72t82.5 28q10 0 19 -1t18 -3.5t15 -4.5t15 -6.5t12.5 -6.5t12.5 -7t11 -6q5 -3 14.5 -8.5t13 -7.5t11 -6t12 -6t10.5 -4t12 -2.5
t12 -0.5q45 0 88 69zM456 254l46 -43q-54 -100 -135 -100q-45 0 -109 38q-53 33 -84 33q-20 0 -38.5 -12t-27 -22.5t-26.5 -35.5l-46 43q23 44 61.5 72t82.5 28q10 0 19 -1t18 -3.5t15 -4.5t15 -6.5t12.5 -6.5t12.5 -7t11 -6q5 -3 16.5 -10t17.5 -10l15 -7.5t17.5 -6
t17.5 -1.5q27 0 46 16.5t43 52.5z" />
    <glyph glyph-name="notequal" unicode="&#x2260;" horiz-adv-x="540" 
d="M399 495l-38 -85h132v-74h-160l-57 -130h217v-74h-246l-49 -111l-59 24l39 87h-131v74h160l56 130h-216v74h245l48 109z" />
    <glyph glyph-name="lessequal" unicode="&#x2264;" horiz-adv-x="540" 
d="M491 97l-440 215v81l439 215v-87l-364 -167v-2l365 -169v-86zM494 -15h-446v76h446v-76z" />
    <glyph glyph-name="greaterequal" unicode="&#x2265;" horiz-adv-x="540" 
d="M53 608l439 -216v-80l-439 -215v86l364 168v2l-364 168v87zM492 -15h-443v76h443v-76z" />
    <glyph glyph-name="lozenge" unicode="&#x25ca;" horiz-adv-x="587" 
d="M539 333l-196 -381h-104l-191 381l196 382h104zM424 330l-111 225q-14 39 -18 56h-3q-7 -28 -19 -56l-110 -219l111 -229q12 -30 17 -53h4q7 31 17 52z" />
    </font>
</defs>
</svg>
