<?xml version="1.0" standalone="no"?>
<!DOCTYPE svg PUBLIC "-//W3C//DTD SVG 1.1//EN" "http://www.w3.org/Graphics/SVG/1.1/DTD/svg11.dtd" >
<svg xmlns="http://www.w3.org/2000/svg" xmlns:xlink="http://www.w3.org/1999/xlink" version="1.1">
<metadata>
Created by FontForge 20161116 at Sun Mar 20 10:33:14 2011
 By Jimmy Wärting
(c) SoJa, Omen Type 2011
</metadata>
<defs>
<font id="SoupofJustice" horiz-adv-x="482" >
  <font-face 
    font-family="Soup of Justice"
    font-weight="400"
    font-stretch="normal"
    units-per-em="1000"
    panose-1="0 0 0 0 0 0 0 0 0 0"
    ascent="750"
    descent="-250"
    x-height="610"
    cap-height="621"
    bbox="-3 -113.404 735 724.404"
    underline-thickness="50"
    underline-position="-100"
    unicode-range="U+0020-00A9"
  />
<missing-glyph horiz-adv-x="208" 
 />
    <glyph glyph-name=".notdef" horiz-adv-x="208" 
 />
    <glyph glyph-name=".null" horiz-adv-x="0" 
 />
    <glyph glyph-name="nonmarkingreturn" horiz-adv-x="208" 
 />
    <glyph glyph-name="space" unicode=" " horiz-adv-x="208" 
 />
    <glyph glyph-name="space" unicode="&#xa0;" horiz-adv-x="208" 
 />
    <glyph glyph-name="D" unicode="D" horiz-adv-x="545" 
d="M34 638l285 -7q70 -6 112 -37t64 -78t28 -106t4 -120q-12 -88 -31 -143t-49 -86t-73.5 -42t-104.5 -10l-126 2q-24 0 -46.5 0.5t-40 0.5t-28 0.5l-10.5 0.5zM242 209q15 2 32 4t33.5 11t29.5 28t20 55q-1 22 -0.5 44.5t-5 43.5t-20 39t-45.5 32q-1 0 -15 0.5t-31 1.5
q-20 1 -45 2l-11 -258q17 0 29 -1q11 -1 19.5 -1.5t9.5 -0.5z" />
    <glyph glyph-name="F" unicode="F" horiz-adv-x="567" 
d="M41 15l39 578l450 22q3 -42 6 -75q1 -14 2 -27.5t1.5 -24t0.5 -16.5v-6l-11.5 -1t-30 -3.5t-41.5 -6t-47 -6.5q-57 -8 -129 -18l-3 -75l147 -5l-16 -102l-135 -2l9 -218z" />
    <glyph glyph-name="G" unicode="G" horiz-adv-x="591" 
d="M566 84q-13 -9 -43 -26.5t-73 -32.5t-97.5 -20.5t-116.5 9.5q-36 9 -64.5 25t-50.5 37t-37.5 44.5t-25.5 47.5q-26 55 -33 120q0 38 1.5 79.5t16 85t47.5 87t96 86.5q72 29 136 28t113 -14q57 -15 106 -44l-56 -185q-19 16 -44 26q-21 8 -49.5 11.5t-60.5 -8.5
q-18 -6 -35 -18.5t-30.5 -30.5t-20 -41.5t-3.5 -51.5q9 -59 41 -82t83 -9l-10 98q12 2 26 5q12 2 27 5t32 6l86 16z" />
    <glyph glyph-name="H" unicode="H" horiz-adv-x="590" 
d="M347 617l190 -17l25 -598l-216 -5l4 243h-99l-11 -240l-201 3l34 620l180 -16l-2 -223l95 -1z" />
    <glyph glyph-name="I" unicode="I" horiz-adv-x="287" 
d="M246 3h-221l36 607l182 11z" />
    <glyph glyph-name="J" unicode="J" horiz-adv-x="479" 
d="M434 208q-7 -55 -31 -98q-10 -18 -24.5 -36t-35 -32t-46.5 -23t-60 -10q-55 -1 -92.5 13t-62 35.5t-37.5 47t-19 48t-7 37.5t0 15l154 23q-5 -18 7 -35.5t29 -23.5t32.5 4.5t18.5 49.5l20 398l182 -11z" />
    <glyph glyph-name="K" unicode="K" horiz-adv-x="525" 
d="M28 621l182 -11l6 -139l171 153q37 -40 66 -73q12 -14 24 -27.5t21 -24t14 -17l5 -6.5l-208 -184l219 -168q-37 -39 -65 -70q-12 -13 -23.5 -25.5t-20.5 -22.5t-14 -16t-4 -6l-159 114l4 -95h-221z" />
    <glyph glyph-name="L" unicode="L" horiz-adv-x="465" 
d="M60 7l-13 626l196 -12l20 -428l153 -4l27 -181z" />
    <glyph glyph-name="M" unicode="M" horiz-adv-x="707" 
d="M452 607l180 16l34 -620l-216 9l4 228l-46 -147l-102 3l-55 144l-4 -231l-208 -7l25 598l190 17l100 -238z" />
    <glyph glyph-name="N" unicode="N" horiz-adv-x="576" 
d="M333 617l190 -17l25 -598l-216 -5l-114 290l8 -287l-201 3l34 620l180 -16l102 -257z" />
    <glyph glyph-name="O" unicode="O" horiz-adv-x="678" 
d="M542 45q-29 -11 -55.5 -23.5t-61 -20t-81.5 -6t-117 18.5q-36 9 -64.5 25.5t-50 38.5t-37 46.5t-25.5 49.5q-25 57 -32 125q-7 63 6 120q6 24 16.5 49.5t28.5 49.5t44.5 45t63.5 36q96 42 170 46.5t129.5 -15t94 -56.5t62.5 -76q17 -40 26 -90q8 -43 6.5 -102t-21.5 -130
q-12 -41 -29 -66.5t-33 -39.5t-27.5 -19.5t-12.5 -5.5zM322 440q-18 -6 -34.5 -18t-28.5 -29.5t-18 -40.5t-3 -51q6 -40 20.5 -62t35 -31t45.5 -7.5t52 7.5q26 8 44.5 19t28.5 29t12.5 45t-3.5 68q-4 30 -18 47.5t-35 25t-46.5 6.5t-51.5 -8z" />
    <glyph glyph-name="P" unicode="P" horiz-adv-x="490" 
d="M382 167q-16 -6 -30.5 -12.5t-30 -12t-34 -9t-42.5 -3.5l-1 -126l-219 -1l31 634l153 -10q56 -4 95.5 -14t67 -25t45.5 -35t33 -43q14 -30 20 -68q5 -32 4.5 -76.5t-15.5 -98.5q-9 -31 -22.5 -50.5t-25.5 -30.5t-20.5 -15zM267 291q40 12 53.5 42.5t8.5 79.5
q-14 29 -37.5 41.5t-48.5 13.5l1 -182q6 1 11.5 2t11.5 3z" />
    <glyph glyph-name="Q" unicode="Q" horiz-adv-x="690" 
d="M139 45q-1 0 -12.5 5.5t-27.5 19.5t-33 39.5t-29 66.5q-21 71 -22 130t7 102q9 50 26 90q24 39 62.5 76t94 56.5t129.5 15t170 -46.5q36 -15 62.5 -36t44.5 -45t29 -49.5t17 -49.5q13 -57 6 -120q-2 -21 -6 -44q-4 -20 -12 -45.5t-21 -51.5l111 -81l-163 -127l-66 82
q-24 -12 -52 -18q-70 -17 -117 -18.5t-81.5 6t-61 20t-55.5 23.5zM441 293l2 8q3 28 -3 51t-18 40.5t-28.5 29.5t-34.5 18q-18 4 -39.5 3t-42.5 -8.5t-39 -23.5t-30 -42q-5 -64 12 -104t70 -57q22 -5 42 -7t38 2l-51 65l61 70z" />
    <glyph glyph-name="R" unicode="R" 
d="M488 123l-113 -138l-139 116l-1 -97l-198 8l15 608l148 7q56 3 97 -3.5t70 -20t49 -33t35 -42.5q11 -18 19 -59.5t6 -91t-19.5 -98t-57.5 -79.5zM254 320q33 11 44.5 36t7.5 66q-11 25 -31 35t-41 11l1 -152q5 1 9.5 2t9.5 2z" />
    <glyph glyph-name="S" unicode="S" 
d="M58 352q0 -2 -3 8t-5 27.5t-0.5 41t9.5 48t26 49t49 43.5q35 22 82.5 32t89.5 12q49 3 100 -1l-11 -212q6 3 -4 10t-27.5 13.5t-39.5 11.5t-41.5 3t-32 -12.5t-11.5 -33.5q-2 -13 12.5 -24t38 -22.5t50.5 -25t51.5 -31.5t41 -42t17.5 -57q0 -29 -8 -55
q-7 -23 -21.5 -47.5t-40.5 -42.5q-36 -26 -76 -37.5t-79.5 -14t-74.5 1.5t-61.5 11t-40.5 14t-11 9l11 135q26 -7 52 -9q23 -2 48.5 0.5t46.5 14.5q16 11 14 20t-15.5 19.5t-34.5 22.5t-42 29t-37.5 39t-21.5 52z" />
    <glyph glyph-name="T" unicode="T" horiz-adv-x="470" 
d="M431 501l-83 -5l3 -493h-221l30 482l-132 -7l5 146l394 20z" />
    <glyph glyph-name="U" unicode="U" horiz-adv-x="550" 
d="M509 205q0 -16 -5 -38t-15.5 -45.5t-28 -46t-43 -39.5t-59 -26t-77.5 -5t-77 14.5t-57.5 25.5t-41.5 33t-28 36q-26 42 -31 94l-28 402l207 11l20 -372q5 -28 19.5 -40t29.5 -10.5t26.5 15.5t11.5 40v369l190 -9z" />
    <glyph glyph-name="V" unicode="V" horiz-adv-x="586" 
d="M23 614l208 9l51 -397l56 395l216 -11l-101 -614l-313 -9z" />
    <glyph glyph-name="W" unicode="W" horiz-adv-x="703" 
d="M332 222l-66 -226l-182 -9l-66 623h187l25 -239l20 142l159 -3l22 -153l46 253l197 -20l-71 -594l-218 16z" />
    <glyph glyph-name="X" unicode="X" horiz-adv-x="594" 
d="M560 65l-154 -97l-108 161l-94 -161l-180 128l139 201l-139 215l180 128l94 -176l108 176l154 -97l-144 -246z" />
    <glyph glyph-name="Y" unicode="Y" horiz-adv-x="546" 
d="M399 175l-4 -171l-243 8l-6 163l-149 439l209 12l66 -251l74 263l191 -34z" />
    <glyph glyph-name="E" unicode="E" horiz-adv-x="493" 
d="M465 8l-452 -4l23 609l420 3q-3 -49 -5 -88q-1 -17 -1.5 -32.5t-1 -28t-0.5 -19.5v-7l-208 -1v-55l155 2l-14 -150l-148 -5l-3 -48q64 1 115 2q22 0 42.5 0.5t37 1t27 0.5h10.5z" />
    <glyph glyph-name="Z" unicode="Z" horiz-adv-x="572" 
d="M497 3l-467 4l185 402l-198 5v203l535 -18l-202 -418l170 7z" />
    <glyph glyph-name="a" unicode="a" horiz-adv-x="598" 
d="M11 13l154 603l272 4l146 -608l-191 -18l-24 120h-140l-23 -120zM333 272l-39 187l-33 -190z" />
    <glyph glyph-name="b" unicode="b" horiz-adv-x="546" 
d="M40 614l259 10q45 -3 83 -18q16 -6 32.5 -16t30.5 -24t25 -32t16 -42q8 -42 1.5 -74t-17.5 -55q-13 -27 -33 -48q21 -15 38.5 -32t29.5 -38t16 -47.5t-2 -62.5q-8 -47 -30.5 -73t-44.5 -39q-27 -15 -58 -18q-103 3 -184 5q-35 1 -68 1.5t-58.5 1.5t-41.5 1.5l-16 0.5z
M222 413l66 -2q24 -1 33.5 11t15.5 40q-1 13 -6.5 22t-13.5 14.5t-17 8.5t-17 4l-58 -4zM203 133l91 3q16 1 33 6t21 29q-4 27 -14.5 41.5t-33.5 16.5l-91 7z" />
    <glyph glyph-name="c" unicode="c" horiz-adv-x="587" 
d="M568 83q0 -1 -27 -18t-73.5 -34t-108.5 -25.5t-132 8.5q-36 9 -64.5 25.5t-50 38.5t-37 46.5t-25.5 49.5q-25 57 -32 125q-7 63 6 120q6 24 16.5 49.5t28.5 49.5t44.5 45t63.5 36q55 23 117.5 26t115.5 -4q62 -8 122 -25l-56 -185q-19 16 -44 26q-21 8 -49.5 11.5
t-60.5 -8.5q-18 -6 -35 -18.5t-30.5 -30.5t-20 -41.5t-3.5 -51.5q12 -80 66 -93.5t140 40.5z" />
    <glyph glyph-name="d" unicode="d" horiz-adv-x="545" 
d="M34 638l285 -7q70 -6 112 -37t64 -78t28 -106t4 -120q-12 -88 -31 -143t-49 -86t-73.5 -42t-104.5 -10l-126 2q-24 0 -46.5 0.5t-40 0.5t-28 0.5l-10.5 0.5zM242 209q15 2 32 4t33.5 11t29.5 28t20 55q-1 22 -0.5 44.5t-5 43.5t-20 39t-45.5 32q-1 0 -15 0.5t-31 1.5
q-20 1 -45 2l-11 -258q17 0 29 -1q11 -1 19.5 -1.5t9.5 -0.5z" />
    <glyph glyph-name="e" unicode="e" horiz-adv-x="493" 
d="M465 8l-452 -4l23 609l420 3q-3 -49 -5 -88q-1 -17 -1.5 -32.5t-1 -28t-0.5 -19.5v-7l-208 -1v-55l155 2l-14 -150l-148 -5l-3 -48q64 1 115 2q22 0 42.5 0.5t37 1t27 0.5h10.5z" />
    <glyph glyph-name="f" unicode="f" horiz-adv-x="567" 
d="M41 15l39 578l450 22q3 -42 6 -75q1 -14 2 -27.5t1.5 -24t0.5 -16.5v-6l-11.5 -1t-30 -3.5t-41.5 -6t-47 -6.5q-57 -8 -129 -18l-3 -75l147 -5l-16 -102l-135 -2l9 -218z" />
    <glyph glyph-name="g" unicode="g" horiz-adv-x="591" 
d="M566 84q-13 -9 -43 -26.5t-73 -32.5t-97.5 -20.5t-116.5 9.5q-36 9 -64.5 25t-50.5 37t-37.5 44.5t-25.5 47.5q-26 55 -33 120q0 38 1.5 79.5t16 85t47.5 87t96 86.5q72 29 136 28t113 -14q57 -15 106 -44l-56 -185q-19 16 -44 26q-21 8 -49.5 11.5t-60.5 -8.5
q-18 -6 -35 -18.5t-30.5 -30.5t-20 -41.5t-3.5 -51.5q9 -59 41 -82t83 -9l-10 98q12 2 26 5q12 2 27 5t32 6l86 16z" />
    <glyph glyph-name="h" unicode="h" horiz-adv-x="590" 
d="M347 617l190 -17l25 -598l-216 -5l4 243h-99l-11 -240l-201 3l34 620l180 -16l-2 -223l95 -1z" />
    <glyph glyph-name="i" unicode="i" horiz-adv-x="287" 
d="M246 3h-221l36 607l182 11z" />
    <glyph glyph-name="j" unicode="j" horiz-adv-x="479" 
d="M434 208q-7 -55 -31 -98q-10 -18 -24.5 -36t-35 -32t-46.5 -23t-60 -10q-55 -1 -92.5 13t-62 35.5t-37.5 47t-19 48t-7 37.5t0 15l154 23q-5 -18 7 -35.5t29 -23.5t32.5 4.5t18.5 49.5l20 398l182 -11z" />
    <glyph glyph-name="k" unicode="k" horiz-adv-x="525" 
d="M28 621l182 -11l6 -139l171 153q37 -40 66 -73q12 -14 24 -27.5t21 -24t14 -17l5 -6.5l-208 -184l219 -168q-37 -39 -65 -70q-12 -13 -23.5 -25.5t-20.5 -22.5t-14 -16t-4 -6l-159 114l4 -95h-221z" />
    <glyph glyph-name="l" unicode="l" horiz-adv-x="465" 
d="M60 7l-13 626l196 -12l20 -428l153 -4l27 -181z" />
    <glyph glyph-name="m" unicode="m" horiz-adv-x="707" 
d="M452 607l180 16l34 -620l-216 9l4 228l-46 -147l-102 3l-55 144l-4 -231l-208 -7l25 598l190 17l100 -238z" />
    <glyph glyph-name="n" unicode="n" horiz-adv-x="576" 
d="M333 617l190 -17l25 -598l-216 -5l-114 290l8 -287l-201 3l34 620l180 -16l102 -257z" />
    <glyph glyph-name="o" unicode="o" horiz-adv-x="678" 
d="M542 45q-29 -11 -55.5 -23.5t-61 -20t-81.5 -6t-117 18.5q-36 9 -64.5 25.5t-50 38.5t-37 46.5t-25.5 49.5q-25 57 -32 125q-7 63 6 120q6 24 16.5 49.5t28.5 49.5t44.5 45t63.5 36q96 42 170 46.5t129.5 -15t94 -56.5t62.5 -76q17 -40 26 -90q8 -43 6.5 -102t-21.5 -130
q-12 -41 -29 -66.5t-33 -39.5t-27.5 -19.5t-12.5 -5.5zM322 440q-18 -6 -34.5 -18t-28.5 -29.5t-18 -40.5t-3 -51q6 -40 20.5 -62t35 -31t45.5 -7.5t52 7.5q26 8 44.5 19t28.5 29t12.5 45t-3.5 68q-4 30 -18 47.5t-35 25t-46.5 6.5t-51.5 -8z" />
    <glyph glyph-name="p" unicode="p" horiz-adv-x="490" 
d="M382 167q-16 -6 -30.5 -12.5t-30 -12t-34 -9t-42.5 -3.5l-1 -126l-219 -1l31 634l153 -10q56 -4 95.5 -14t67 -25t45.5 -35t33 -43q14 -30 20 -68q5 -32 4.5 -76.5t-15.5 -98.5q-9 -31 -22.5 -50.5t-25.5 -30.5t-20.5 -15zM267 291q40 12 53.5 42.5t8.5 79.5
q-14 29 -37.5 41.5t-48.5 13.5l1 -182q6 1 11.5 2t11.5 3z" />
    <glyph glyph-name="q" unicode="q" horiz-adv-x="690" 
d="M139 45q-1 0 -12.5 5.5t-27.5 19.5t-33 39.5t-29 66.5q-21 71 -22 130t7 102q9 50 26 90q24 39 62.5 76t94 56.5t129.5 15t170 -46.5q36 -15 62.5 -36t44.5 -45t29 -49.5t17 -49.5q13 -57 6 -120q-2 -21 -6 -44q-4 -20 -12 -45.5t-21 -51.5l111 -81l-163 -127l-66 82
q-24 -12 -52 -18q-70 -17 -117 -18.5t-81.5 6t-61 20t-55.5 23.5zM441 293l2 8q3 28 -3 51t-18 40.5t-28.5 29.5t-34.5 18q-18 4 -39.5 3t-42.5 -8.5t-39 -23.5t-30 -42q-5 -64 12 -104t70 -57q22 -5 42 -7t38 2l-51 65l61 70z" />
    <glyph glyph-name="r" unicode="r" 
d="M488 123l-113 -138l-139 116l-1 -97l-198 8l15 608l148 7q56 3 97 -3.5t70 -20t49 -33t35 -42.5q11 -18 19 -59.5t6 -91t-19.5 -98t-57.5 -79.5zM254 320q33 11 44.5 36t7.5 66q-11 25 -31 35t-41 11l1 -152q5 1 9.5 2t9.5 2z" />
    <glyph glyph-name="s" unicode="s" 
d="M58 352q0 -2 -3 8t-5 27.5t-0.5 41t9.5 48t26 49t49 43.5q35 22 82.5 32t89.5 12q49 3 100 -1l-11 -212q6 3 -4 10t-27.5 13.5t-39.5 11.5t-41.5 3t-32 -12.5t-11.5 -33.5q-2 -13 12.5 -24t38 -22.5t50.5 -25t51.5 -31.5t41 -42t17.5 -57q0 -29 -8 -55
q-7 -23 -21.5 -47.5t-40.5 -42.5q-36 -26 -76 -37.5t-79.5 -14t-74.5 1.5t-61.5 11t-40.5 14t-11 9l11 135q26 -7 52 -9q23 -2 48.5 0.5t46.5 14.5q16 11 14 20t-15.5 19.5t-34.5 22.5t-42 29t-37.5 39t-21.5 52z" />
    <glyph glyph-name="t" unicode="t" horiz-adv-x="470" 
d="M431 501l-83 -5l3 -493h-221l30 482l-132 -7l5 146l394 20z" />
    <glyph glyph-name="u" unicode="u" horiz-adv-x="550" 
d="M509 205q0 -16 -5 -38t-15.5 -45.5t-28 -46t-43 -39.5t-59 -26t-77.5 -5t-77 14.5t-57.5 25.5t-41.5 33t-28 36q-26 42 -31 94l-28 402l207 11l20 -372q5 -28 19.5 -40t29.5 -10.5t26.5 15.5t11.5 40v369l190 -9z" />
    <glyph glyph-name="v" unicode="v" horiz-adv-x="586" 
d="M23 614l208 9l51 -397l56 395l216 -11l-101 -614l-313 -9z" />
    <glyph glyph-name="w" unicode="w" horiz-adv-x="703" 
d="M332 222l-66 -226l-182 -9l-66 623h187l25 -239l20 142l159 -3l22 -153l46 253l197 -20l-71 -594l-218 16z" />
    <glyph glyph-name="x" unicode="x" horiz-adv-x="594" 
d="M560 65l-154 -97l-108 161l-94 -161l-180 128l139 201l-139 215l180 128l94 -176l108 176l154 -97l-144 -246z" />
    <glyph glyph-name="y" unicode="y" horiz-adv-x="546" 
d="M399 175l-4 -171l-243 8l-6 163l-149 439l209 12l66 -251l74 263l191 -34z" />
    <glyph glyph-name="z" unicode="z" horiz-adv-x="572" 
d="M497 3l-467 4l185 402l-198 5v203l535 -18l-202 -418l170 7z" />
    <glyph glyph-name="zero" unicode="0" horiz-adv-x="529" 
d="M416 45q-22 -11 -42.5 -23.5t-47 -20t-62.5 -6t-90 18.5q-28 9 -49.5 25.5t-38 38.5t-28.5 46.5t-20 49.5q-19 57 -25 125q-6 63 5 120q4 24 12.5 49.5t22.5 49.5t34 45t48 36q73 42 130 46.5t100 -15t72.5 -56.5t47.5 -76q14 -40 21 -90q6 -43 5 -102t-17 -130
q-9 -41 -22 -66.5t-25.5 -39.5t-21.5 -19.5zM252 413q-21 -5 -40.5 -28.5t-23.5 -73.5q-2 -35 3.5 -56t15.5 -32.5t24 -15t30 -3.5q16 2 27.5 8t19 19t12 35.5t6.5 57.5q1 26 -4.5 43.5t-16 28t-24.5 14.5t-29 3z" />
    <glyph glyph-name="one" unicode="1" horiz-adv-x="287" 
d="M246 3h-221l36 607l182 11z" />
    <glyph glyph-name="two" unicode="2" horiz-adv-x="494" 
d="M362 182l105 6l-23 -185l-414 4l117 271q26 51 29.5 80.5t-7 43.5t-31 16t-42 -2t-40 -9.5t-24.5 -6.5l-7 189q63 21 123 32q25 4 52 7t53 2.5t49 -5.5t41 -16q31 -20 49 -44t26 -48.5t9.5 -48t-0.5 -41t-5 -27.5t-3 -8z" />
    <glyph glyph-name="three" unicode="3" horiz-adv-x="454" 
d="M70 362q55 7 76.5 25t15.5 32.5t-36 19t-78 -14.5l-31 156q70 22 134 33q27 4 56 6t56 -0.5t51 -10t42 -22.5q10 -8 22 -26.5t22.5 -43t16.5 -53t4 -57.5t-15 -55.5t-41 -46.5q22 -6 42.5 -33.5t28 -67t-5 -85.5t-56.5 -89q-15 -15 -37.5 -24.5t-49 -15.5t-55 -8.5
t-56.5 -2.5q-65 -1 -138 8l14 176q25 -7 49.5 -13.5t43 -7t30.5 6t12 24.5q1 36 -29 43.5t-84 -0.5z" />
    <glyph glyph-name="four" unicode="4" horiz-adv-x="492" 
d="M45 603l176 -11l-18 -235l75 3l11 240l147 -2l22 -596l-184 2l8 167l-265 7z" />
    <glyph glyph-name="exclam" unicode="!" horiz-adv-x="302" 
d="M242 264l-185 -3l-1 379l198 22zM50 81q0 -42 25 -63t67 -21q21 0 40 11t33.5 28t23.5 38.5t9 42.5t-9 36.5t-23.5 25.5t-33.5 14.5t-40 4.5t-38 -10.5t-29 -27t-18.5 -37.5t-6.5 -42z" />
    <glyph glyph-name="question" unicode="?" horiz-adv-x="390" 
d="M60 241q0 32 9.5 56t23 41.5t28.5 30.5t27.5 24.5t20.5 21.5t6 23q1 22 -11.5 32t-31 12t-40 -2.5t-38.5 -11t-26.5 -13.5t-4.5 -10l-10 205q49 4 97 1q41 -2 86 -11t80 -31q45 -28 65 -61t25 -61.5t1.5 -48t-5.5 -22.5q-28 -43 -53 -67t-42.5 -40.5t-26 -30.5t-2.5 -35z
M50 81q0 -42 25 -63t67 -21q21 0 40 11t33.5 28t23.5 38.5t9 42.5t-9 36.5t-23.5 25.5t-33.5 14.5t-40 4.5t-38 -10.5t-29 -27t-18.5 -37.5t-6.5 -42z" />
    <glyph glyph-name="hyphen" unicode="-" horiz-adv-x="390" 
d="M311 185l-222 4l-17 185l254 9z" />
    <glyph glyph-name="five" unicode="5" horiz-adv-x="501" 
d="M80 593l351 10q1 -50 2 -89q0 -17 0.5 -32.5t0.5 -28t-0.5 -19.5l-0.5 -7q-1 1 -26 2t-55 3q-35 2 -79 4l-4 -91q47 -3 79 -15t52.5 -32.5t32 -47.5t17.5 -60q0 -29 -8 -55q-7 -23 -21.5 -47.5t-40.5 -42.5q-36 -26 -76 -37.5t-79.5 -14t-74.5 1.5t-61.5 11t-40.5 14
t-11 9l7 104q33 -11 65 -16q27 -5 56.5 -4.5t50.5 12.5q31 24 30 48t-24 44t-63 32t-87 12z" />
    <glyph glyph-name="six" unicode="6" horiz-adv-x="487" 
d="M25 411q15 63 45 111q13 21 30 40t40 34t51.5 23t63.5 7q65 -3 104.5 -24.5t61.5 -46.5t31 -46t14 -23l-90 -69q-14 14 -39 24t-51 13.5t-48.5 -2t-32.5 -23.5l-4 -50q23 18 54 21.5t62.5 -4.5t60.5 -27t47 -47q17 -24 26 -53q8 -25 9 -59t-14 -76q-8 -24 -21.5 -44.5
t-26 -35.5t-22.5 -23.5l-10 -8.5q-21 -6 -36 -12.5t-34.5 -9.5t-49 -1.5t-79.5 11.5q-52 10 -81.5 37t-44.5 56q-18 33 -23 73q-5 23 -7 56q-2 29 0.5 73t13.5 106zM212 236q-13 -12 -19 -30.5t6 -41.5q9 -15 18.5 -21.5t19.5 -6.5t20 5t20 13q20 17 23 32.5t-15 47.5
q-13 22 -33.5 19t-39.5 -17z" />
    <glyph glyph-name="seven" unicode="7" horiz-adv-x="443" 
d="M232 3l-203 4l161 419l-162 -7l4 186l429 -28z" />
    <glyph glyph-name="eight" unicode="8" horiz-adv-x="507" 
d="M140 594q24 16 67 20.5t89 -1.5t87 -22.5t60 -42.5q17 -22 27 -49q8 -23 9 -55t-15 -70q-7 -19 -16.5 -34t-20.5 -29q4 -2 7.5 -6t5.5 -6q17 -23 27 -50q8 -23 9.5 -55t-14.5 -70q-8 -23 -22 -41.5t-27 -32.5t-23 -22t-11 -8q-22 -6 -37 -12t-35.5 -9t-51 -1t-82.5 11
q-53 8 -84 33.5t-47 51.5q-18 31 -24 68q8 54 24 87.5t35 53.5q-20 17 -31 36.5t-17 36.5q-7 19 -9 37q7 49 21.5 81.5t31.5 53t35 31t32 15.5zM212 219q-14 -13 -21 -31.5t7 -41.5q10 -16 20.5 -22.5t22 -6.5t22.5 5.5t23 13.5q23 16 26.5 32.5t-16.5 48.5q-16 22 -39 19
t-45 -17zM218 452q-11 -9 -16 -22.5t5 -30.5q15 -23 31.5 -21.5t34.5 14.5q17 12 19 24t-13 35q-11 16 -28 14t-33 -13z" />
    <glyph glyph-name="nine" unicode="9" horiz-adv-x="502" 
d="M459 208q-15 -63 -45 -111q-13 -21 -30.5 -40.5t-40 -34t-51 -23t-63.5 -6.5q-65 3 -104.5 24.5t-61.5 46.5t-31.5 46t-13.5 23l90 69q14 -14 39 -24t51 -13.5t48.5 2t32.5 23.5l4 50q-23 -18 -54 -21.5t-62.5 4.5t-60.5 27t-47 47q-17 24 -26 53q-8 25 -9.5 59t14.5 76
q8 24 21.5 44.5t26 35.5t22.5 23.5l10 8.5q21 6 36 12.5t34.5 9.5t49 1.5t79.5 -11.5q51 -10 81 -37t45 -56q18 -33 23 -73q5 -23 7 -56q2 -29 -0.5 -73t-13.5 -106zM272 383q13 12 19 30.5t-6 41.5q-9 15 -18.5 21.5t-19.5 6.5t-20 -5t-20 -13q-20 -17 -23 -32.5t15 -47.5
q13 -22 33.5 -19t39.5 17z" />
    <glyph glyph-name="period" unicode="." horiz-adv-x="306" 
d="M50 81q0 21 6.5 42t18.5 37.5t29 27t38 10.5t40 -4.5t33.5 -14.5t23.5 -25.5t9 -36.5t-9 -42.5t-23.5 -38.5t-33.5 -28t-40 -11q-42 0 -67 21t-25 63z" />
    <glyph glyph-name="comma" unicode="," horiz-adv-x="276" 
d="M50 81q0 21 6.5 42t18.5 37.5t29 27t38 10.5t40 -4.5t33.5 -14.5t23.5 -25.5t9 -36.5q0 -18 -6 -36q-10 -26 -25 -50.5t-33.5 -46t-40 -36.5t-43.5 -22q13 42 17 73q-31 5 -49 26t-18 56z" />
    <glyph glyph-name="plus" unicode="+" horiz-adv-x="493" 
d="M149 81l1 108l-113 2l-17 185l132 2l1 117l185 17l2 -131l115 2l-15 -198l-96 1l3 -120z" />
    <glyph glyph-name="equal" unicode="=" horiz-adv-x="399" 
d="M292 101l-203 -11l-17 185l262 -2zM334 324l-273 -8l11 186l250 -8z" />
    <glyph glyph-name="parenright" unicode=")" horiz-adv-x="421" 
d="M63 62q42 7 72 44.5t46 89.5t16 113t-17.5 115t-54.5 95t-96 55l31 148q85 10 148.5 -23.5t106 -94.5t65 -141.5t24.5 -164.5t-16.5 -163t-56.5 -138t-95.5 -89.5t-134.5 -16.5z" />
    <glyph glyph-name="parenleft" unicode="(" horiz-adv-x="421" 
d="M370 549q-42 -8 -72 -45t-46 -89t-16 -113t17.5 -115t54.5 -95.5t96 -54.5l-31 -148q-85 -10 -148.5 23.5t-106 94.5t-65 141.5t-24.5 164.5t16.5 163t56.5 138t95.5 89.5t134.5 16.5z" />
    <glyph glyph-name="colon" unicode=":" horiz-adv-x="292" 
d="M52 117q0 21 6.5 42t18.5 37.5t29 27t38 10.5t40 -4.5t33.5 -14.5t23.5 -25.5t9 -36.5t-9 -42.5t-23.5 -38.5t-33.5 -28t-40 -11q-42 0 -67 21t-25 63zM236 522q0 -21 -6.5 -42t-18.5 -37.5t-29 -27t-38 -10.5t-40 4.5t-33.5 14.5t-23.5 25.5t-9 36.5t9 42.5t23.5 38.5
t33.5 28t40 11q42 0 67 -21t25 -63z" />
    <glyph glyph-name="semicolon" unicode=";" horiz-adv-x="292" 
d="M236 522q0 -21 -6.5 -42t-18.5 -37.5t-29 -27t-38 -10.5t-40 4.5t-33.5 14.5t-23.5 25.5t-9 36.5t9 42.5t23.5 38.5t33.5 28t40 11q42 0 67 -21t25 -63zM43 119q0 21 6.5 42t18.5 37.5t29 27t38 10.5t40 -4.5t33.5 -14.5t23.5 -25.5t9 -36.5q0 -18 -6 -36
q-10 -26 -25 -50.5t-33.5 -46t-40 -36.5t-43.5 -22q13 42 17 73q-31 5 -49 26t-18 56z" />
    <glyph glyph-name="quotesingle" unicode="'" horiz-adv-x="224" 
d="M188 410l-131 -3l-25 233l168 22z" />
    <glyph glyph-name="quotedbl" unicode="&#x22;" horiz-adv-x="429" 
d="M188 410l-131 -3l-25 233l168 22zM234 635l147 -12l-12 -206l-147 -34z" />
    <glyph glyph-name="copyright" unicode="&#xa9;" horiz-adv-x="736" 
d="M126 87q-48 48 -72 109t-24 124.5t24.5 124.5t73.5 110t110 73.5t124.5 24.5t124.5 -24t109 -72t72 -109t24 -124.5t-24.5 -124.5t-73.5 -110t-110 -73.5t-124.5 -24.5t-124.5 24t-109 72zM154 272q16 -17 39.5 -17t39.5 17q17 17 17 41.5t-17 40.5q-16 16 -39.5 16
t-39.5 -16q-17 -16 -17 -40.5t17 -41.5zM516 434q56 -56 53.5 -122t-73.5 -138q-72 -72 -136.5 -68.5t-120.5 60.5q-14 8 -21.5 3t-9.5 -15.5t1.5 -24t13.5 -23.5q28 -29 66.5 -40t80.5 -6t84 25.5t78 56.5t57 78t25.5 84t-7 80t-39.5 67q-11 14 -24 17t-22.5 -1t-12.5 -13
t7 -20zM349 463q17 -17 40.5 -17t40.5 17q17 16 17 39.5t-17 39.5q-17 17 -40.5 17t-40.5 -17q-16 -16 -16 -39.5t16 -39.5zM326 266q17 -17 41 -17t41 17q17 16 17 40.5t-17 40.5q-17 17 -41 17t-41 -17q-16 -16 -16 -40.5t16 -40.5z" />
    <glyph glyph-name="A" unicode="A" horiz-adv-x="598" 
d="M11 13l154 603l272 4l146 -608l-191 -18l-24 120h-140l-23 -120zM333 272l-39 187l-33 -190z" />
    <glyph glyph-name="B" unicode="B" horiz-adv-x="546" 
d="M40 614l259 10q45 -3 83 -18q16 -6 32.5 -16t30.5 -24t25 -32t16 -42q8 -42 1.5 -74t-17.5 -55q-13 -27 -33 -48q21 -15 38.5 -32t29.5 -38t16 -47.5t-2 -62.5q-8 -47 -30.5 -73t-44.5 -39q-27 -15 -58 -18q-103 3 -184 5q-35 1 -68 1.5t-58.5 1.5t-41.5 1.5l-16 0.5z
M222 413l66 -2q24 -1 33.5 11t15.5 40q-1 13 -6.5 22t-13.5 14.5t-17 8.5t-17 4l-58 -4zM203 133l91 3q16 1 33 6t21 29q-4 27 -14.5 41.5t-33.5 16.5l-91 7z" />
    <glyph glyph-name="C" unicode="C" horiz-adv-x="587" 
d="M568 83q0 -1 -27 -18t-73.5 -34t-108.5 -25.5t-132 8.5q-36 9 -64.5 25.5t-50 38.5t-37 46.5t-25.5 49.5q-25 57 -32 125q-7 63 6 120q6 24 16.5 49.5t28.5 49.5t44.5 45t63.5 36q55 23 117.5 26t115.5 -4q62 -8 122 -25l-56 -185q-19 16 -44 26q-21 8 -49.5 11.5
t-60.5 -8.5q-18 -6 -35 -18.5t-30.5 -30.5t-20 -41.5t-3.5 -51.5q12 -80 66 -93.5t140 40.5z" />
  </font>
</defs>
</svg>
