<?xml version="1.0" standalone="no"?>
<!DOCTYPE svg PUBLIC "-//W3C//DTD SVG 1.1//EN" "http://www.w3.org/Graphics/SVG/1.1/DTD/svg11.dtd" >
<svg xmlns="http://www.w3.org/2000/svg" xmlns:xlink="http://www.w3.org/1999/xlink" version="1.1">
<metadata>
Created by FontForge 20161116 at Thu Apr  2 17:02:48 2015
 By Jimmy Wärting
(c) 2011 Klim Type Foundry. All rights reserved.
</metadata>
<defs>
<font id="JFCalibre-Medium" horiz-adv-x="500" >
  <font-face 
    font-family="JFCalibre Medium"
    font-weight="500"
    font-stretch="normal"
    units-per-em="1000"
    panose-1="2 11 6 3 3 2 2 6 2 3"
    ascent="650"
    descent="-350"
    x-height="444"
    cap-height="614"
    bbox="-120 -217 942 894"
    underline-thickness="30"
    underline-position="-100"
    unicode-range="U+0020-FB02"
  />
<missing-glyph horiz-adv-x="608" 
 />
    <glyph glyph-name="f_f" unicode="ff" horiz-adv-x="601" 
d="M591 648v-88q-21 14 -49 14q-30 0 -47.5 -17.5t-17.5 -50.5v-62h97v-83h-97v-361h-98v361h-186v-361h-98v361h-77v83h77v63q0 69 41 108t105 39q39 0 66 -12v-88q-21 14 -49 14q-30 0 -47.5 -17.5t-17.5 -50.5v-56h186v69q0 69 41 108t105 39q39 0 66 -12z" />
    <glyph glyph-name=".notdef" horiz-adv-x="608" 
 />
    <glyph glyph-name=".null" horiz-adv-x="0" 
 />
    <glyph glyph-name="nonmarkingreturn" horiz-adv-x="333" 
 />
    <glyph glyph-name="space" unicode=" " horiz-adv-x="221" 
 />
    <glyph glyph-name="exclam" unicode="!" horiz-adv-x="200" 
d="M65 193l-25 421h120l-25 -421h-70zM32 62q0 29 19.5 49t48.5 20t48.5 -20t19.5 -49t-19.5 -49t-48.5 -20t-48.5 20t-19.5 49z" />
    <glyph glyph-name="quotedbl" unicode="&#x22;" horiz-adv-x="305" 
d="M180 374v240h85v-240h-85zM40 374v240h85v-240h-85z" />
    <glyph glyph-name="numbersign" unicode="#" horiz-adv-x="601" 
d="M253 376l-33 -138h128l33 138h-128zM538 238l-15 -76h-106l-38 -162h-88l39 162h-128l-39 -162h-87l38 162h-94l16 76h96l33 138h-102l15 76h105l39 162h88l-39 -162h128l39 162h87l-39 -162h95l-16 -76h-97l-33 -138h103z" />
    <glyph glyph-name="dollar" unicode="$" horiz-adv-x="490" 
d="M209 -92v99q-74 11 -122 54.5t-61 115.5h100q28 -87 130 -87q51 0 80.5 22.5t29.5 62.5q0 31 -19.5 50t-63.5 29l-98 24q-144 35 -144 160q0 69 46 116.5t122 54.5v90h90v-95q127 -27 156 -157h-97q-11 35 -42 57t-80 22q-46 0 -73.5 -22.5t-27.5 -58.5q0 -58 76 -77
l100 -24q70 -16 109.5 -58t39.5 -106q0 -71 -43.5 -116.5t-117.5 -56.5v-99h-90z" />
    <glyph glyph-name="percent" unicode="%" horiz-adv-x="662" 
d="M307 485q0 -58 -40.5 -98t-98.5 -40t-98 40t-40 98t40 98.5t98 40.5t98.5 -40.5t40.5 -98.5zM107 0l369 614h79l-369 -614h-79zM105 485q0 -26 18.5 -44.5t44.5 -18.5t45 18.5t19 44.5t-19 45t-45 19t-44.5 -19t-18.5 -45zM632 129q0 -58 -40 -98.5t-98 -40.5t-98.5 40.5
t-40.5 98.5t40.5 98t98.5 40t98 -40t40 -98zM557 129q0 26 -18.5 44.5t-44.5 18.5t-45 -18.5t-19 -44.5t19 -45t45 -19t44.5 19t18.5 45z" />
    <glyph glyph-name="ampersand" unicode="&#x26;" horiz-adv-x="606" 
d="M244 72q67 0 113 44l-157 167q-30 -13 -48 -41t-18 -62q0 -48 30 -78t80 -30zM444 475h-99q0 29 -18 49.5t-51 20.5t-56.5 -21t-23.5 -56q0 -19 9.5 -38t19 -31t29.5 -33l154 -165q17 46 20 111h92q-3 -100 -48 -179l124 -133h-130l-54 56q-71 -66 -168 -66
q-90 0 -147 53t-57 137q0 52 29 95t77 69q-46 57 -46 121q0 73 49.5 116t126.5 43q79 0 123.5 -42.5t44.5 -106.5z" />
    <glyph glyph-name="quotesingle" unicode="'" horiz-adv-x="169" 
d="M40 374v240h89v-240h-89z" />
    <glyph glyph-name="parenleft" unicode="(" horiz-adv-x="318" 
d="M30 283q0 137 72.5 236t195.5 131v-108q-75 -18 -122 -88t-47 -171t47 -171t122 -88v-108q-123 32 -195.5 131t-72.5 236z" />
    <glyph glyph-name="parenright" unicode=")" horiz-adv-x="318" 
d="M288 283q0 -137 -72.5 -236t-195.5 -131v108q75 18 122 88t47 171t-47 171t-122 88v108q123 -32 195.5 -131t72.5 -236z" />
    <glyph glyph-name="asterisk" unicode="*" horiz-adv-x="348" 
d="M118 500l-88 51l28 48l88 -51v102h56v-102l88 51l28 -48l-89 -51l89 -51l-28 -48l-88 51v-102h-56v102l-88 -51l-28 48z" />
    <glyph glyph-name="plus" unicode="+" horiz-adv-x="564" 
d="M242 507h80v-168h168v-80h-168v-167h-80v167h-168v80h168v168z" />
    <glyph glyph-name="comma" unicode="," horiz-adv-x="200" 
d="M16 -113l72 111q-25 4 -40.5 21t-15.5 43q0 29 19.5 48t48.5 19q30 0 49 -19.5t19 -55.5t-29 -80l-58 -87h-65z" />
    <glyph glyph-name="hyphen" unicode="-" horiz-adv-x="321" 
d="M40 217v91h241v-91h-241z" />
    <glyph glyph-name="period" unicode="." horiz-adv-x="200" 
d="M32 62q0 29 19.5 49t48.5 20t48.5 -20t19.5 -49t-19.5 -49t-48.5 -20t-48.5 20t-19.5 49z" />
    <glyph glyph-name="slash" unicode="/" horiz-adv-x="357" 
d="M5 -84l248 734h99l-248 -734h-99z" />
    <glyph glyph-name="zero" unicode="0" horiz-adv-x="540" 
d="M270 -10q-104 0 -168 88t-64 229t64 229t168 88t168 -88t64 -229t-64 -229t-168 -88zM270 530q-66 0 -98.5 -60.5t-32.5 -162.5t32.5 -162.5t98.5 -60.5q65 0 97.5 60.5t32.5 162.5t-32.5 162.5t-97.5 60.5z" />
    <glyph glyph-name="one" unicode="1" horiz-adv-x="329" 
d="M264 614v-614h-101v489l-144 -73v105l184 93h61z" />
    <glyph glyph-name="two" unicode="2" horiz-adv-x="470" 
d="M329 445q0 39 -25.5 63t-68.5 24q-44 0 -69.5 -28.5t-28.5 -73.5h-107q9 87 64.5 140.5t140.5 53.5q92 0 143.5 -48t51.5 -130q0 -12 -2 -24t-7 -25t-9 -22.5t-14 -23.5t-14.5 -21.5t-18 -23.5t-18.5 -21.5t-21.5 -23.5t-20.5 -23l-132 -147h267v-91h-409v68l182 202
q7 7 20.5 22t20 22.5t17.5 20t16.5 20t13.5 18.5t12 19t8.5 17.5t6 18t1.5 17.5z" />
    <glyph glyph-name="three" unicode="3" horiz-adv-x="465" 
d="M186 270v87h36q46 0 74.5 23.5t28.5 65.5q0 38 -25.5 63t-68.5 25q-47 0 -74 -27t-30 -69h-102q10 82 65.5 134t139.5 52q89 0 140.5 -47.5t51.5 -124.5q0 -48 -21.5 -85t-58.5 -53q45 -19 68.5 -56.5t23.5 -82.5q0 -80 -55 -132.5t-148 -52.5q-94 0 -154.5 53.5
t-65.5 140.5h101q5 -48 35.5 -76.5t82.5 -28.5q47 0 76.5 26.5t29.5 68.5q0 44 -31 70t-80 26h-39z" />
    <glyph glyph-name="four" unicode="4" horiz-adv-x="517" 
d="M359 614l-223 -400h164v144h96v-144h101v-86h-101v-128h-96v128h-277v72l231 414h105z" />
    <glyph glyph-name="five" unicode="5" horiz-adv-x="477" 
d="M243 316q-61 0 -100 -48h-79v346h346v-92h-261v-149q41 32 105 32q86 0 140 -57.5t54 -149.5q0 -91 -57 -149.5t-146 -58.5q-91 0 -149 52.5t-66 141.5h101q6 -48 35 -76t79 -28q48 0 77 33t29 85q0 53 -29 85.5t-79 32.5z" />
    <glyph glyph-name="six" unicode="6" horiz-adv-x="484" 
d="M242 -10q-92 0 -152 60.5t-60 151.5q0 84 63 192l127 220h107l-121 -210q16 8 44 8q90 0 147 -60t57 -150q0 -91 -60 -151.5t-152 -60.5zM360 202q0 52 -33 87t-85 35q-51 0 -84.5 -35t-33.5 -87t33.5 -87t84.5 -35q52 0 85 35t33 87z" />
    <glyph glyph-name="seven" unicode="7" horiz-adv-x="450" 
d="M426 543l-245 -543h-107l240 524h-300v90h412v-71z" />
    <glyph glyph-name="eight" unicode="8" horiz-adv-x="492" 
d="M246 -10q-91 0 -151.5 48t-60.5 129q0 59 32.5 99t80.5 52q-41 16 -67.5 52t-26.5 86q0 78 56 123t137 45t137 -45t56 -123q0 -50 -26.5 -86t-67.5 -52q48 -12 80.5 -52t32.5 -99q0 -81 -60.5 -129t-151.5 -48zM246 363q39 0 66.5 24t27.5 64q0 42 -27.5 66t-66.5 24
t-66.5 -24t-27.5 -66q0 -40 27.5 -64t66.5 -24zM246 74q49 0 80.5 27.5t31.5 73.5q0 47 -31.5 74t-80.5 27t-80.5 -27t-31.5 -74q0 -46 31.5 -73.5t80.5 -27.5z" />
    <glyph glyph-name="nine" unicode="9" horiz-adv-x="484" 
d="M242 624q92 0 152 -60.5t60 -151.5q0 -84 -63 -192l-127 -220h-107l121 210q-16 -8 -44 -8q-90 0 -147 60t-57 150q0 91 60 151.5t152 60.5zM124 412q0 -52 33 -87t85 -35q51 0 84.5 35t33.5 87t-33.5 87t-84.5 35q-52 0 -85 -35t-33 -87z" />
    <glyph glyph-name="colon" unicode=":" horiz-adv-x="200" 
d="M32 362q0 29 19.5 49t48.5 20t48.5 -20t19.5 -49t-19.5 -49t-48.5 -20t-48.5 20t-19.5 49zM32 62q0 29 19.5 49t48.5 20t48.5 -20t19.5 -49t-19.5 -49t-48.5 -20t-48.5 20t-19.5 49z" />
    <glyph glyph-name="semicolon" unicode=";" horiz-adv-x="200" 
d="M32 362q0 29 19.5 49t48.5 20t48.5 -20t19.5 -49t-19.5 -49t-48.5 -20t-48.5 20t-19.5 49zM16 -113l72 111q-25 4 -40.5 21t-15.5 43q0 29 19.5 48t48.5 19q30 0 49 -19.5t19 -55.5t-29 -80l-58 -87h-65z" />
    <glyph glyph-name="less" unicode="&#x3c;" horiz-adv-x="446" 
d="M65 244v107l316 152v-92l-243 -114l243 -113v-93z" />
    <glyph glyph-name="equal" unicode="=" horiz-adv-x="578" 
d="M82 336v76h415v-76h-415zM82 188v74h415v-74h-415z" />
    <glyph glyph-name="greater" unicode="&#x3e;" horiz-adv-x="446" 
d="M382 351v-107l-317 -153v93l243 113l-243 114v92z" />
    <glyph glyph-name="question" unicode="?" horiz-adv-x="441" 
d="M421 446q0 -27 -7.5 -50t-28 -49.5t-28.5 -35.5t-38 -39q-42 -43 -42 -79h-98q2 40 14.5 66t46.5 63q6 7 25.5 27t28 30t17 28.5t8.5 37.5q0 39 -25 63t-68 24q-45 0 -70 -28t-28 -74h-108q9 86 65 140t141 54q92 0 143.5 -48t51.5 -130zM156 62q0 29 19.5 49t48.5 20
t48.5 -20t19.5 -49t-19.5 -49t-48.5 -20t-48.5 20t-19.5 49z" />
    <glyph glyph-name="at" unicode="@" horiz-adv-x="774" 
d="M570 382l-40 -231q-5 -27 2.5 -38.5t30.5 -11.5q47 0 76.5 47t29.5 126q0 104 -72.5 164.5t-185.5 60.5q-134 0 -218.5 -86t-84.5 -223q0 -61 19 -109t49 -78.5t70.5 -50t81.5 -27.5t84 -8q116 0 224 48v-72q-94 -47 -224 -47q-76 0 -143 20.5t-122 60.5t-87 108t-32 155
q0 161 107 271t276 110q148 0 241.5 -84.5t93.5 -212.5q0 -116 -58.5 -178.5t-140.5 -62.5q-76 0 -108 54q-13 -24 -40.5 -39t-55.5 -15q-60 0 -97.5 42.5t-37.5 106.5q0 85 52.5 147.5t131.5 62.5q60 0 85 -37l6 27h87zM441 160l21 111q-6 18 -23.5 29.5t-40.5 11.5
q-43 0 -70.5 -37.5t-27.5 -87.5q0 -32 17 -52.5t48 -20.5q45 0 76 46z" />
    <glyph glyph-name="A" unicode="A" horiz-adv-x="612" 
d="M305 487l-84 -227h168zM256 614h100l236 -614h-106l-63 170h-235l-63 -170h-105z" />
    <glyph glyph-name="B" unicode="B" horiz-adv-x="551" 
d="M411 317q44 -14 72 -53.5t28 -87.5q0 -85 -55.5 -130.5t-152.5 -45.5h-235v614h215q98 0 153 -43t55 -124q0 -48 -22.5 -83t-57.5 -47zM169 356h113q109 0 109 85q0 83 -109 83h-113v-168zM169 270v-180h132q52 0 80 24t28 66t-28 66t-80 24h-132z" />
    <glyph glyph-name="C" unicode="C" horiz-adv-x="597" 
d="M35 307q0 140 79.5 228.5t199.5 88.5q102 0 167 -54.5t83 -148.5h-102q-40 109 -148 109q-80 0 -127 -62.5t-47 -160.5t47 -160.5t127 -62.5q108 0 148 110h102q-18 -95 -83 -149.5t-167 -54.5q-120 0 -199.5 88.5t-79.5 228.5z" />
    <glyph glyph-name="D" unicode="D" horiz-adv-x="608" 
d="M68 0v614h207q136 0 217 -83.5t81 -223.5t-81 -223.5t-217 -83.5h-207zM172 93h99q95 0 146.5 57t51.5 157t-51.5 157.5t-146.5 57.5h-99v-429z" />
    <glyph glyph-name="E" unicode="E" horiz-adv-x="514" 
d="M68 614h401v-92h-299v-162h271v-91h-271v-176h299v-93h-401v614z" />
    <glyph glyph-name="F" unicode="F" horiz-adv-x="495" 
d="M172 0h-104v614h392v-92h-288v-182h269v-91h-269v-249z" />
    <glyph glyph-name="G" unicode="G" horiz-adv-x="620" 
d="M486 228h-134v89h233v-48q0 -126 -73.5 -202.5t-187.5 -76.5q-125 0 -207 88.5t-82 228.5t81.5 228.5t203.5 88.5q103 0 168.5 -54t83.5 -148h-104q-20 53 -54.5 80.5t-93.5 27.5q-81 0 -130.5 -62.5t-49.5 -160.5q0 -99 50 -162t134 -63q68 0 110 39.5t52 106.5z" />
    <glyph glyph-name="H" unicode="H" horiz-adv-x="653" 
d="M481 614h104v-614h-104v269h-309v-269h-104v614h104v-253h309v253z" />
    <glyph glyph-name="I" unicode="I" horiz-adv-x="240" 
d="M172 614v-614h-104v614h104z" />
    <glyph glyph-name="J" unicode="J" horiz-adv-x="485" 
d="M15 179h108q11 -94 98 -94q104 0 104 127v402h104v-402q0 -108 -55 -165t-151 -57q-95 0 -148 51.5t-60 137.5z" />
    <glyph glyph-name="K" unicode="K" horiz-adv-x="582" 
d="M172 614v-294l255 294h131l-248 -279l257 -335h-130l-202 263l-63 -72v-191h-104v614h104z" />
    <glyph glyph-name="L" unicode="L" horiz-adv-x="505" 
d="M68 0v614h104v-521h295v-93h-399z" />
    <glyph glyph-name="M" unicode="M" horiz-adv-x="743" 
d="M410 0h-74l-169 427v-427h-99v614h119l187 -472l185 472h116v-614h-100v427z" />
    <glyph glyph-name="N" unicode="N" horiz-adv-x="630" 
d="M562 614v-614h-80l-314 447v-447h-100v614h98l296 -426v426h100z" />
    <glyph glyph-name="O" unicode="O" horiz-adv-x="637" 
d="M602 307q0 -138 -80 -227.5t-204 -89.5t-203.5 89.5t-79.5 227.5t79.5 227.5t203.5 89.5t204 -89.5t80 -227.5zM497 307q0 98 -49.5 161t-129.5 63t-129 -62.5t-49 -161.5t49 -161.5t129 -62.5t129.5 63t49.5 161z" />
    <glyph glyph-name="P" unicode="P" horiz-adv-x="545" 
d="M305 229h-133v-229h-104v614h237q97 0 153.5 -50t56.5 -143q0 -92 -56.5 -142t-153.5 -50zM412 421q0 47 -28 75t-81 28h-131v-205h131q52 0 80.5 28t28.5 74z" />
    <glyph glyph-name="Q" unicode="Q" horiz-adv-x="636" 
d="M497 -41l-50 62q-59 -31 -129 -31q-124 0 -203.5 89.5t-79.5 227.5t79.5 227.5t203.5 89.5t204 -89.5t80 -227.5q0 -141 -85 -231l51 -63zM497 307q0 98 -49.5 161t-129.5 63t-129 -62.5t-49 -161.5t49 -161.5t129 -62.5q38 0 70 12l-51 63l72 53l49 -61q39 58 39 157z
" />
    <glyph glyph-name="R" unicode="R" horiz-adv-x="555" 
d="M172 524v-188h131q51 0 79.5 25.5t28.5 68.5t-28.5 68.5t-79.5 25.5h-131zM246 249h-74v-249h-104v614h237q97 0 153 -47.5t56 -136.5q0 -76 -41.5 -120.5t-115.5 -56.5l178 -253h-118z" />
    <glyph glyph-name="S" unicode="S" horiz-adv-x="519" 
d="M20 170h106q29 -92 139 -92q54 0 86.5 24.5t32.5 66.5q0 33 -20.5 52.5t-68.5 30.5l-104 25q-153 36 -153 165q0 79 58.5 130.5t150.5 51.5q97 0 156.5 -45.5t76.5 -124.5h-104q-29 82 -128 82q-50 0 -80.5 -23.5t-30.5 -61.5q0 -61 81 -80l107 -25q75 -17 117 -60
t42 -110q0 -85 -61 -135.5t-158 -50.5q-98 0 -163.5 47.5t-81.5 132.5z" />
    <glyph glyph-name="T" unicode="T" horiz-adv-x="572" 
d="M30 522v92h512v-92h-204v-522h-104v522h-204z" />
    <glyph glyph-name="U" unicode="U" horiz-adv-x="608" 
d="M304 -10q-113 0 -179.5 65.5t-66.5 189.5v369h104v-358q0 -173 142 -173t142 173v358h104v-370q0 -123 -66.5 -188.5t-179.5 -65.5z" />
    <glyph glyph-name="V" unicode="V" horiz-adv-x="603" 
d="M351 0h-99l-232 614h109l174 -479l174 479h106z" />
    <glyph glyph-name="W" unicode="W" horiz-adv-x="775" 
d="M347 614h84l116 -452l111 452h100l-158 -614h-96l-116 439l-118 -439h-95l-158 614h102l111 -452z" />
    <glyph glyph-name="X" unicode="X" horiz-adv-x="573" 
d="M553 614l-208 -299l218 -315h-119l-159 231l-159 -231h-116l217 313l-207 301h119l148 -217l151 217h115z" />
    <glyph glyph-name="Y" unicode="Y" horiz-adv-x="578" 
d="M291 339l162 275h110l-223 -369v-245h-103v245l-222 369h113z" />
    <glyph glyph-name="Z" unicode="Z" horiz-adv-x="549" 
d="M504 93v-93h-459v73l324 449h-319v92h449v-72l-323 -449h328z" />
    <glyph glyph-name="bracketleft" unicode="[" horiz-adv-x="315" 
d="M162 560v-554h133v-90h-227v734h227v-90h-133z" />
    <glyph glyph-name="backslash" unicode="\" horiz-adv-x="357" 
d="M104 650l248 -734h-99l-248 734h99z" />
    <glyph glyph-name="bracketright" unicode="]" horiz-adv-x="315" 
d="M153 6v554h-133v90h227v-734h-227v90h133z" />
    <glyph glyph-name="asciicircum" unicode="^" horiz-adv-x="391" 
d="M145 614h102l134 -206h-101l-84 126l-84 -126h-102z" />
    <glyph glyph-name="underscore" unicode="_" horiz-adv-x="381" 
d="M20 -129v87h341v-87h-341z" />
    <glyph glyph-name="grave" unicode="`" 
d="M340 513h-89l-91 137h103z" />
    <glyph glyph-name="a" unicode="a" horiz-adv-x="512" 
d="M350 138v168q-13 26 -39 42.5t-57 16.5q-57 0 -90 -40t-33 -103t33 -103t90 -40q31 0 57 16.5t39 42.5zM350 0v38q-16 -20 -47 -34t-66 -14q-95 0 -150.5 66.5t-55.5 165.5t55.5 165.5t150.5 66.5q35 0 66 -14t47 -34v38h100v-444h-100z" />
    <glyph glyph-name="b" unicode="b" horiz-adv-x="512" 
d="M162 38v-38h-100v650h100v-244q16 20 47 34t66 14q95 0 150.5 -66.5t55.5 -165.5t-55.5 -165.5t-150.5 -66.5q-35 0 -66 14t-47 34zM162 306v-168q13 -26 39 -42.5t57 -16.5q57 0 90 40t33 103t-33 103t-90 40q-31 0 -57 -16.5t-39 -42.5z" />
    <glyph glyph-name="c" unicode="c" horiz-adv-x="451" 
d="M31 222q0 103 58 167.5t149 64.5q78 0 127 -40.5t59 -108.5h-100q-6 30 -28.5 46t-56.5 16q-49 0 -78.5 -40.5t-29.5 -104.5t29.5 -104.5t78.5 -40.5q34 0 56.5 16t28.5 46h100q-10 -68 -59 -108.5t-127 -40.5q-91 0 -149 64.5t-58 167.5z" />
    <glyph glyph-name="d" unicode="d" horiz-adv-x="512" 
d="M350 138v168q-13 26 -39 42.5t-57 16.5q-57 0 -90 -40t-33 -103t33 -103t90 -40q31 0 57 16.5t39 42.5zM350 0v38q-16 -20 -47 -34t-66 -14q-95 0 -150.5 66.5t-55.5 165.5t55.5 165.5t150.5 66.5q35 0 66 -14t47 -34v244h100v-650h-100z" />
    <glyph glyph-name="e" unicode="e" horiz-adv-x="462" 
d="M336 138h92q-12 -68 -60.5 -108t-126.5 -40q-93 0 -151.5 64t-58.5 167q0 100 59 166.5t149 66.5q92 0 142.5 -59.5t50.5 -159.5v-36h-303q2 -58 32.5 -91.5t79.5 -33.5q79 0 95 64zM240 370q-42 0 -70.5 -25.5t-37.5 -72.5h201q-1 43 -25 70.5t-68 27.5z" />
    <glyph glyph-name="f" unicode="f" horiz-adv-x="317" 
d="M307 648v-88q-21 14 -49 14q-30 0 -47.5 -17.5t-17.5 -50.5v-62h97v-83h-97v-361h-98v361h-77v83h77v69q0 69 41 108t105 39q39 0 66 -12z" />
    <glyph glyph-name="g" unicode="g" horiz-adv-x="512" 
d="M350 145v168q-13 23 -39 38t-57 15q-56 0 -88.5 -38t-32.5 -99t32.5 -99t88.5 -38q31 0 57 15t39 38zM350 30v20q-16 -19 -46.5 -32.5t-66.5 -13.5q-94 0 -150 66t-56 159t56 159t150 66q36 0 66.5 -13.5t46.5 -32.5v36h100v-407q0 -108 -57.5 -162.5t-151.5 -54.5
q-84 0 -136.5 41.5t-60.5 114.5h97q15 -74 100 -74q109 0 109 128z" />
    <glyph glyph-name="h" unicode="h" horiz-adv-x="495" 
d="M62 0v650h100v-248q45 52 120 52q74 0 115.5 -45t41.5 -120v-289h-100v272q0 43 -21 67t-63 24q-33 0 -59 -19.5t-34 -51.5v-292h-100z" />
    <glyph glyph-name="i" unicode="i" horiz-adv-x="224" 
d="M174 578q0 -25 -18.5 -43t-43.5 -18t-43.5 18t-18.5 43t18.5 43t43.5 18t43.5 -18t18.5 -43zM162 444v-444h-100v444h100z" />
    <glyph glyph-name="j" unicode="j" horiz-adv-x="222" 
d="M174 578q0 -25 -18.5 -43t-43.5 -18t-43.5 18t-18.5 43t18.5 43t43.5 18t43.5 -18t18.5 -43zM162 444v-484q0 -67 -37 -103.5t-108 -36.5q-28 0 -40 5v84q14 -4 30 -4q55 0 55 62v477h100z" />
    <glyph glyph-name="k" unicode="k" horiz-adv-x="481" 
d="M350 0l-147 189l-41 -42v-147h-100v650h100v-388l174 182h128l-189 -192l196 -252h-121z" />
    <glyph glyph-name="l" unicode="l" horiz-adv-x="224" 
d="M162 650v-650h-100v650h100z" />
    <glyph glyph-name="m" unicode="m" horiz-adv-x="722" 
d="M390 395q51 59 132 59q68 0 106 -44.5t38 -120.5v-289h-100v273q0 42 -18.5 66.5t-54.5 24.5q-28 0 -50.5 -17t-28.5 -49v-298h-100v273q0 42 -18.5 66.5t-54.5 24.5q-28 0 -50.5 -17t-28.5 -49v-298h-100v444h100v-37q35 47 111 47q37 0 68 -16.5t49 -42.5z" />
    <glyph glyph-name="n" unicode="n" horiz-adv-x="495" 
d="M62 0v444h100v-42q45 52 120 52q74 0 115.5 -45t41.5 -120v-289h-100v272q0 43 -21 67t-63 24q-33 0 -59 -19.5t-34 -51.5v-292h-100z" />
    <glyph glyph-name="o" unicode="o" horiz-adv-x="484" 
d="M453 222q0 -102 -58.5 -167t-152.5 -65t-152.5 65t-58.5 167t58.5 167t152.5 65t152.5 -65t58.5 -167zM353 222q0 65 -29 105.5t-82 40.5t-82 -40.5t-29 -105.5t29 -105.5t82 -40.5t82 40.5t29 105.5z" />
    <glyph glyph-name="p" unicode="p" horiz-adv-x="512" 
d="M162 306v-168q13 -26 39 -42.5t57 -16.5q57 0 90 40t33 103t-33 103t-90 40q-31 0 -57 -16.5t-39 -42.5zM162 38v-208h-100v614h100v-38q16 20 47 34t66 14q94 0 150 -67.5t56 -164.5t-56 -164.5t-150 -67.5q-35 0 -66 14t-47 34z" />
    <glyph glyph-name="q" unicode="q" horiz-adv-x="512" 
d="M350 -170v208q-16 -20 -47 -34t-66 -14q-94 0 -150 67.5t-56 164.5t56 164.5t150 67.5q35 0 66 -14t47 -34v38h100v-614h-100zM350 138v168q-13 26 -39 42.5t-57 16.5q-57 0 -90 -40t-33 -103t33 -103t90 -40q31 0 57 16.5t39 42.5z" />
    <glyph glyph-name="r" unicode="r" horiz-adv-x="340" 
d="M310 446v-103q-21 15 -59 15q-32 0 -57 -18.5t-32 -52.5v-287h-100v444h100v-46q13 25 40 40.5t59 15.5q35 0 49 -8z" />
    <glyph glyph-name="s" unicode="s" horiz-adv-x="429" 
d="M31 128h102q17 -56 88 -56q35 0 55.5 13.5t20.5 39.5q0 18 -12 28.5t-40 17.5l-92 22q-110 26 -110 122q0 60 47.5 99.5t120.5 39.5q76 0 121 -34.5t57 -96.5h-98q-15 49 -81 49q-29 0 -50 -13t-21 -38q0 -29 46 -41l94 -22q114 -27 114 -126q0 -65 -48.5 -103.5
t-124.5 -38.5q-78 0 -128.5 37t-60.5 101z" />
    <glyph glyph-name="t" unicode="t" horiz-adv-x="335" 
d="M85 120v241h-70v83h70v119h100v-119h100v-83h-100v-230q0 -52 53 -52q32 0 57 18v-91q-27 -16 -75 -16q-62 0 -98.5 33t-36.5 97z" />
    <glyph glyph-name="u" unicode="u" horiz-adv-x="493" 
d="M431 444v-444h-100v42q-45 -52 -119 -52t-115 45t-41 120v289h100v-272q0 -91 83 -91q33 0 58.5 19.5t33.5 51.5v292h100z" />
    <glyph glyph-name="v" unicode="v" horiz-adv-x="476" 
d="M289 0h-103l-168 444h107l115 -325l114 325h104z" />
    <glyph glyph-name="w" unicode="w" horiz-adv-x="652" 
d="M373 444l78 -315l86 315h97l-129 -444h-100l-79 309l-79 -309h-100l-129 444h100l86 -315l78 315h91z" />
    <glyph glyph-name="x" unicode="x" horiz-adv-x="465" 
d="M441 444l-154 -212l166 -232h-113l-110 157l-111 -157h-107l165 228l-153 216h113l97 -140l100 140h107z" />
    <glyph glyph-name="y" unicode="y" horiz-adv-x="476" 
d="M224 -170h-97l63 158l-172 456h107l116 -327l114 327h103z" />
    <glyph glyph-name="z" unicode="z" horiz-adv-x="450" 
d="M403 83v-83h-360v63l228 298h-218v83h346v-63l-227 -298h231z" />
    <glyph glyph-name="braceleft" unicode="{" horiz-adv-x="344" 
d="M197 200v-165q0 -29 29 -29h98v-90h-96q-57 0 -93 36t-36 94v162q0 29 -29 29h-50v92h50q29 0 29 29v162q0 58 36 94t93 36h96v-90h-98q-29 0 -29 -29v-165q0 -54 -47 -83q47 -29 47 -83z" />
    <glyph glyph-name="bar" unicode="|" horiz-adv-x="232" 
d="M68 -84v734h96v-734h-96z" />
    <glyph glyph-name="braceright" unicode="}" horiz-adv-x="344" 
d="M147 35v165q0 54 47 83q-47 29 -47 83v165q0 29 -29 29h-98v90h96q57 0 93 -36t36 -94v-162q0 -29 29 -29h50v-92h-50q-29 0 -29 -29v-162q0 -58 -36 -94t-93 -36h-96v90h98q29 0 29 29z" />
    <glyph glyph-name="asciitilde" unicode="~" horiz-adv-x="429" 
d="M309 341h80q0 -69 -27.5 -106.5t-75.5 -37.5q-26 0 -50.5 15.5t-44 31t-34.5 15.5q-37 0 -37 -58h-80q0 68 27 105.5t76 37.5q33 0 73 -30.5t56 -30.5q37 0 37 58z" />
    <glyph glyph-name="uni00A0" unicode="&#xa0;" horiz-adv-x="221" 
 />
    <glyph glyph-name="exclamdown" unicode="&#xa1;" horiz-adv-x="210" 
d="M32 456q0 29 19.5 49t48.5 20t48.5 -20t19.5 -49t-19.5 -49t-48.5 -20t-48.5 20t-19.5 49zM40 -96l25 421h70l25 -421h-120z" />
    <glyph glyph-name="cent" unicode="&#xa2;" horiz-adv-x="451" 
d="M31 232q0 90 46 152t121 76v87h90v-88q58 -13 93 -52.5t42 -98.5h-98q-4 32 -28 50.5t-59 18.5q-49 0 -78 -40.5t-29 -104.5t29 -104.5t78 -40.5q35 0 59 18.5t28 50.5h98q-7 -59 -42 -98.5t-93 -52.5v-94h-90v93q-75 14 -121 75.5t-46 152.5z" />
    <glyph glyph-name="sterling" unicode="&#xa3;" horiz-adv-x="492" 
d="M203 426v-83h141v-81h-141v-88q0 -63 -21 -91h286v-83h-438v83h57q20 35 20 91v88h-77v81h77v83q0 84 51.5 141t134.5 57q75 0 121 -42.5t54 -113.5h-95q-10 70 -80 70q-44 0 -67 -31t-23 -81z" />
    <glyph glyph-name="yen" unicode="&#xa5;" horiz-adv-x="552" 
d="M67 265v77h112l-157 272h110l146 -263l145 263h107l-158 -272h112v-77h-157v-63h157v-77h-157v-125h-103v125h-157v77h157v63h-157z" />
    <glyph glyph-name="section" unicode="&#xa7;" horiz-adv-x="465" 
d="M174 244l139 -92q41 10 41 54q0 15 -11 30t-21.5 23t-30.5 21l-139 92q-41 -10 -41 -54q0 -15 11 -30t21.5 -23t30.5 -21zM377 90q14 -25 14 -56q0 -61 -45.5 -97.5t-118.5 -36.5q-79 0 -125.5 38.5t-54.5 104.5h96q11 -63 84 -63q29 0 48.5 12.5t19.5 36.5
q0 20 -13 33.5t-44 32.5l-108 70q-52 33 -81 67.5t-29 82.5q0 80 68 119q-14 23 -14 56q0 61 45.5 97.5t118.5 36.5q79 0 125.5 -38.5t54.5 -104.5h-96q-11 63 -84 63q-29 0 -48.5 -12.5t-19.5 -36.5q0 -20 13 -33.5t44 -32.5l108 -70q52 -33 81 -67.5t29 -82.5
q0 -80 -68 -119z" />
    <glyph glyph-name="dieresis" unicode="&#xa8;" 
d="M268 572q0 25 17 42t41 17t41.5 -17t17.5 -42q0 -24 -17.5 -41t-41.5 -17t-41 17t-17 41zM114 572q0 25 17 42t42 17q24 0 41 -17t17 -42q0 -24 -17 -41t-41 -17q-25 0 -42 17t-17 41z" />
    <glyph glyph-name="copyright" unicode="&#xa9;" horiz-adv-x="704" 
d="M669 307q0 -136 -92.5 -226.5t-224.5 -90.5t-224.5 90.5t-92.5 226.5t92.5 226.5t224.5 90.5t224.5 -90.5t92.5 -226.5zM622 307q0 116 -79 193.5t-191 77.5t-191 -77.5t-79 -193.5t79 -193.5t191 -77.5t191 77.5t79 193.5zM170 309q0 88 51.5 143.5t133.5 55.5
q70 0 112.5 -37t53.5 -99h-98q-15 47 -68 47q-40 0 -64 -31t-24 -79t24 -79t64 -31q53 0 68 47h98q-11 -62 -53.5 -99t-112.5 -37q-82 0 -133.5 55.5t-51.5 143.5z" />
    <glyph glyph-name="ordfeminine" unicode="&#xaa;" horiz-adv-x="299" 
d="M192 403v20q-12 24 -50 24q-20 0 -34 -9t-14 -25q0 -17 14 -25.5t34 -8.5q39 0 50 24zM277 321h-85v16q-21 -21 -72 -21q-47 0 -78.5 25.5t-31.5 70.5q0 42 33 68.5t82 26.5q41 0 67 -17v21q0 19 -11.5 31t-33.5 12q-34 0 -42 -27h-82q7 43 41.5 70.5t85.5 27.5
q60 0 93.5 -30.5t33.5 -85.5v-188z" />
    <glyph glyph-name="guillemotleft" unicode="&#xab;" horiz-adv-x="397" 
d="M372 64h-90l-92 158l92 158h90l-92 -158zM207 64h-90l-92 158l92 158h90l-92 -158z" />
    <glyph glyph-name="registered" unicode="&#xae;" horiz-adv-x="407" 
d="M384 441q0 -78 -53 -130.5t-128 -52.5t-128 52.5t-53 130.5t53 130.5t128 52.5t128 -52.5t53 -130.5zM351 441q0 66 -43 109t-105 43t-105 -43t-43 -109t43 -109t105 -43t105 43t43 109zM240 472q0 24 -26 24h-35v-47h35q26 0 26 23zM200 409h-21v-63h-50v192h89
q33 0 51.5 -17.5t18.5 -48.5q0 -45 -38 -58l45 -68h-55z" />
    <glyph glyph-name="macron" unicode="&#xaf;" 
d="M137 524v79h225v-79h-225z" />
    <glyph glyph-name="degree" unicode="&#xb0;" horiz-adv-x="354" 
d="M309 491q0 -55 -38.5 -94t-93.5 -39t-93.5 39t-38.5 94t38.5 94t93.5 39t93.5 -39t38.5 -94zM115 491q0 -26 18 -44.5t44 -18.5t44 18.5t18 44.5t-18 44.5t-44 18.5t-44 -18.5t-18 -44.5z" />
    <glyph glyph-name="plusminus" unicode="&#xb1;" horiz-adv-x="570" 
d="M246 539h79v-132h164v-79h-164v-132h-79v132h-164v79h164v132zM82 73v79h407v-79h-407z" />
    <glyph glyph-name="twosuperior" unicode="&#xb2;" horiz-adv-x="288" 
d="M178 514q0 15 -9.5 24t-24.5 9q-16 0 -26.5 -11.5t-11.5 -27.5h-84q5 49 38 80t83 31q54 0 85 -28t31 -75q0 -20 -10.5 -40.5t-20.5 -32t-32 -34.5l-63 -61h128v-69h-237v55l111 113q43 43 43 67z" />
    <glyph glyph-name="threesuperior" unicode="&#xb3;" horiz-adv-x="290" 
d="M118 418v61h23q43 0 43 36q0 16 -10.5 26t-27.5 10t-28.5 -12t-13.5 -29h-80q6 47 37 78t82 31q54 0 85 -27.5t31 -73.5q0 -49 -38 -70q42 -20 42 -69q0 -47 -32 -76t-87 -29t-88 30t-37 81h83q2 -19 13.5 -31t30.5 -12t30.5 10.5t11.5 28.5q0 37 -44 37h-26z" />
    <glyph glyph-name="acute" unicode="&#xb4;" 
d="M249 513h-89l77 137h103z" />
    <glyph glyph-name="paragraph" unicode="&#xb6;" horiz-adv-x="528" 
d="M227 -90v357q-86 0 -150.5 44.5t-64.5 129.5t64 129t151 44h81v-704h-81zM379 -90v704h81v-704h-81z" />
    <glyph glyph-name="periodcentered" unicode="&#xb7;" horiz-adv-x="200" 
d="M32 263q0 29 19.5 49t48.5 20t48.5 -20t19.5 -49t-19.5 -49t-48.5 -20t-48.5 20t-19.5 49z" />
    <glyph glyph-name="cedilla" unicode="&#xb8;" 
d="M258 -190h-93l71 137h99z" />
    <glyph glyph-name="onesuperior" unicode="&#xb9;" horiz-adv-x="234" 
d="M190 614v-335h-81v241l-89 -44v82l115 56h55z" />
    <glyph glyph-name="ordmasculine" unicode="&#xba;" horiz-adv-x="315" 
d="M305 470q0 -69 -41 -112.5t-107 -43.5q-65 0 -106.5 43.5t-41.5 112.5q0 68 41.5 111.5t106.5 43.5q66 0 107 -43.5t41 -111.5zM216 470q0 36 -15.5 58t-43.5 22q-27 0 -42.5 -22.5t-15.5 -57.5q0 -36 15.5 -58t42.5 -22q28 0 43.5 22t15.5 58z" />
    <glyph glyph-name="guillemotright" unicode="&#xbb;" horiz-adv-x="397" 
d="M115 64h-90l92 158l-92 158h90l92 -158zM280 64h-90l92 158l-92 158h90l92 -158z" />
    <glyph glyph-name="onequarter" unicode="&#xbc;" horiz-adv-x="689" 
d="M205 614v-335h-81v241l-89 -44v82l115 56h55zM596 614l-439 -614h-87l439 614h87zM560 335l-97 -204h59v59h71v-59h48v-68h-48v-63h-71v63h-147v61l105 211h80z" />
    <glyph glyph-name="onehalf" unicode="&#xbd;" horiz-adv-x="709" 
d="M205 614v-335h-81v241l-89 -44v82l115 56h55zM596 614l-439 -614h-87l439 614h87zM568 235q0 15 -9.5 24t-24.5 9q-16 0 -26.5 -11.5t-11.5 -27.5h-84q5 49 38 80t83 31q54 0 85 -28t31 -75q0 -20 -10.5 -40.5t-20.5 -32t-32 -34.5l-63 -61h128v-69h-237v55l111 113
q43 43 43 67z" />
    <glyph glyph-name="threequarters" unicode="&#xbe;" horiz-adv-x="726" 
d="M633 614l-439 -614h-87l439 614h87zM144 418v61h23q43 0 43 36q0 16 -10.5 26t-27.5 10t-28.5 -12t-13.5 -29h-80q6 47 37 78t82 31q54 0 85 -27.5t31 -73.5q0 -49 -38 -70q42 -20 42 -69q0 -47 -32 -76t-87 -29t-88 30t-37 81h83q2 -19 13.5 -31t30.5 -12t30.5 10.5
t11.5 28.5q0 37 -44 37h-26zM597 335l-97 -204h59v59h71v-59h48v-68h-48v-63h-71v63h-147v61l105 211h80z" />
    <glyph glyph-name="questiondown" unicode="&#xbf;" horiz-adv-x="441" 
d="M285 456q0 -29 -19.5 -49t-48.5 -20t-48.5 20t-19.5 49t19.5 49t48.5 20t48.5 -20t19.5 -49zM20 72q0 27 7.5 50t28 49.5t28.5 35.5t38 39q42 43 42 79h98q-2 -40 -14.5 -66t-46.5 -63q-6 -7 -25.5 -27t-28 -30t-17 -28.5t-8.5 -37.5q0 -39 25 -63t68 -24q45 0 70 28
t28 74h108q-9 -86 -65 -140t-141 -54q-92 0 -143.5 48t-51.5 130z" />
    <glyph glyph-name="Agrave" unicode="&#xc0;" horiz-adv-x="612" 
d="M359 671h-98l-95 117h116zM305 487l-84 -227h168zM256 614h100l236 -614h-106l-63 170h-235l-63 -170h-105z" />
    <glyph glyph-name="Aacute" unicode="&#xc1;" horiz-adv-x="612" 
d="M348 671h-98l77 117h116zM305 487l-84 -227h168zM256 614h100l236 -614h-106l-63 170h-235l-63 -170h-105z" />
    <glyph glyph-name="Acircumflex" unicode="&#xc2;" horiz-adv-x="612" 
d="M352 795l94 -124h-89l-51 60l-51 -60h-89l94 124h92zM305 487l-84 -227h168zM256 614h100l236 -614h-106l-63 170h-235l-63 -170h-105z" />
    <glyph glyph-name="Atilde" unicode="&#xc3;" horiz-adv-x="612" 
d="M389 797h60q0 -60 -21.5 -95.5t-61.5 -35.5q-26 0 -60 24t-51 24q-31 0 -32 -45h-60q0 60 21.5 95.5t61.5 35.5q26 0 60 -24t51 -24q31 0 32 45zM305 487l-84 -227h168zM256 614h100l236 -614h-106l-63 170h-235l-63 -170h-105z" />
    <glyph glyph-name="Adieresis" unicode="&#xc4;" horiz-adv-x="612" 
d="M325 728q0 25 17 42t41 17t41.5 -17t17.5 -42q0 -24 -17.5 -41t-41.5 -17t-41 17t-17 41zM171 728q0 25 17 42t42 17q24 0 41 -17t17 -42q0 -24 -17 -41t-41 -17q-25 0 -42 17t-17 41zM305 487l-84 -227h168zM256 614h100l236 -614h-106l-63 170h-235l-63 -170h-105z" />
    <glyph glyph-name="Aring" unicode="&#xc5;" horiz-adv-x="612" 
d="M399 740q0 -39 -27 -65t-66 -26t-66 26t-27 65t27 65t66 26t66 -26t27 -65zM348 740q0 18 -12.5 30t-29.5 12t-29.5 -12t-12.5 -30t12.5 -30t29.5 -12t29.5 12t12.5 30zM305 487l-84 -227h168zM256 614h100l236 -614h-106l-63 170h-235l-63 -170h-105z" />
    <glyph glyph-name="AE" unicode="&#xc6;" horiz-adv-x="865" 
d="M439 533l-160 -273h160v273zM375 614h445v-92h-279v-162h251v-91h-251v-176h279v-93h-381v170h-212l-99 -170h-108z" />
    <glyph glyph-name="Ccedilla" unicode="&#xc7;" horiz-adv-x="597" 
d="M35 307q0 140 79.5 228.5t199.5 88.5q102 0 167 -54.5t83 -148.5h-102q-40 109 -148 109q-80 0 -127 -62.5t-47 -160.5t47 -160.5t127 -62.5q108 0 148 110h102q-18 -95 -83 -149.5t-167 -54.5q-120 0 -199.5 88.5t-79.5 228.5zM295 -190h-93l71 137h99z" />
    <glyph glyph-name="Egrave" unicode="&#xc8;" horiz-adv-x="514" 
d="M325 671h-98l-95 117h116zM68 614h401v-92h-299v-162h271v-91h-271v-176h299v-93h-401v614z" />
    <glyph glyph-name="Eacute" unicode="&#xc9;" horiz-adv-x="514" 
d="M314 671h-98l77 117h116zM68 614h401v-92h-299v-162h271v-91h-271v-176h299v-93h-401v614z" />
    <glyph glyph-name="Ecircumflex" unicode="&#xca;" horiz-adv-x="514" 
d="M318 795l94 -124h-89l-51 60l-51 -60h-89l94 124h92zM68 614h401v-92h-299v-162h271v-91h-271v-176h299v-93h-401v614z" />
    <glyph glyph-name="Edieresis" unicode="&#xcb;" horiz-adv-x="514" 
d="M291 728q0 25 17 42t41 17t41.5 -17t17.5 -42q0 -24 -17.5 -41t-41.5 -17t-41 17t-17 41zM137 728q0 25 17 42t42 17q24 0 41 -17t17 -42q0 -24 -17 -41t-41 -17q-25 0 -42 17t-17 41zM68 614h401v-92h-299v-162h271v-91h-271v-176h299v-93h-401v614z" />
    <glyph glyph-name="Igrave" unicode="&#xcc;" horiz-adv-x="240" 
d="M173 671h-98l-95 117h116zM172 614v-614h-104v614h104z" />
    <glyph glyph-name="Iacute" unicode="&#xcd;" horiz-adv-x="240" 
d="M162 671h-98l77 117h116zM172 614v-614h-104v614h104z" />
    <glyph glyph-name="Icircumflex" unicode="&#xce;" horiz-adv-x="240" 
d="M166 795l94 -124h-89l-51 60l-51 -60h-89l94 124h92zM172 614v-614h-104v614h104z" />
    <glyph glyph-name="Idieresis" unicode="&#xcf;" horiz-adv-x="240" 
d="M139 728q0 25 17 42t41 17t41.5 -17t17.5 -42q0 -24 -17.5 -41t-41.5 -17t-41 17t-17 41zM-15 728q0 25 17 42t42 17q24 0 41 -17t17 -42q0 -24 -17 -41t-41 -17q-25 0 -42 17t-17 41zM172 614v-614h-104v614h104z" />
    <glyph glyph-name="Eth" unicode="&#xd0;" horiz-adv-x="625" 
d="M30 273v88h55v253h207q136 0 217 -83.5t81 -223.5t-81 -223.5t-217 -83.5h-207v273h-55zM189 93h99q95 0 146.5 57t51.5 157t-51.5 157.5t-146.5 57.5h-99v-161h116v-88h-116v-180z" />
    <glyph glyph-name="Ntilde" unicode="&#xd1;" horiz-adv-x="630" 
d="M398 797h60q0 -60 -21.5 -95.5t-61.5 -35.5q-25 0 -60 24t-51 24q-31 0 -32 -45h-60q0 60 21.5 95.5t61.5 35.5q25 0 60 -24t51 -24q31 0 32 45zM562 614v-614h-80l-314 447v-447h-100v614h98l296 -426v426h100z" />
    <glyph glyph-name="Ograve" unicode="&#xd2;" horiz-adv-x="637" 
d="M371 671h-98l-95 117h116zM602 307q0 -138 -80 -227.5t-204 -89.5t-203.5 89.5t-79.5 227.5t79.5 227.5t203.5 89.5t204 -89.5t80 -227.5zM497 307q0 98 -49.5 161t-129.5 63t-129 -62.5t-49 -161.5t49 -161.5t129 -62.5t129.5 63t49.5 161z" />
    <glyph glyph-name="Oacute" unicode="&#xd3;" horiz-adv-x="637" 
d="M360 671h-98l77 117h116zM602 307q0 -138 -80 -227.5t-204 -89.5t-203.5 89.5t-79.5 227.5t79.5 227.5t203.5 89.5t204 -89.5t80 -227.5zM497 307q0 98 -49.5 161t-129.5 63t-129 -62.5t-49 -161.5t49 -161.5t129 -62.5t129.5 63t49.5 161z" />
    <glyph glyph-name="Ocircumflex" unicode="&#xd4;" horiz-adv-x="637" 
d="M364 795l94 -124h-89l-51 60l-51 -60h-89l94 124h92zM602 307q0 -138 -80 -227.5t-204 -89.5t-203.5 89.5t-79.5 227.5t79.5 227.5t203.5 89.5t204 -89.5t80 -227.5zM497 307q0 98 -49.5 161t-129.5 63t-129 -62.5t-49 -161.5t49 -161.5t129 -62.5t129.5 63t49.5 161z
" />
    <glyph glyph-name="Otilde" unicode="&#xd5;" horiz-adv-x="637" 
d="M401 797h60q0 -60 -21.5 -95.5t-61.5 -35.5q-26 0 -60 24t-51 24q-31 0 -32 -45h-60q0 60 21.5 95.5t61.5 35.5q26 0 60 -24t51 -24q31 0 32 45zM602 307q0 -138 -80 -227.5t-204 -89.5t-203.5 89.5t-79.5 227.5t79.5 227.5t203.5 89.5t204 -89.5t80 -227.5zM497 307
q0 98 -49.5 161t-129.5 63t-129 -62.5t-49 -161.5t49 -161.5t129 -62.5t129.5 63t49.5 161z" />
    <glyph glyph-name="Odieresis" unicode="&#xd6;" horiz-adv-x="637" 
d="M337 728q0 25 17 42t41 17t41.5 -17t17.5 -42q0 -24 -17.5 -41t-41.5 -17t-41 17t-17 41zM183 728q0 25 17 42t42 17q24 0 41 -17t17 -42q0 -24 -17 -41t-41 -17q-25 0 -42 17t-17 41zM602 307q0 -138 -80 -227.5t-204 -89.5t-203.5 89.5t-79.5 227.5t79.5 227.5
t203.5 89.5t204 -89.5t80 -227.5zM497 307q0 98 -49.5 161t-129.5 63t-129 -62.5t-49 -161.5t49 -161.5t129 -62.5t129.5 63t49.5 161z" />
    <glyph glyph-name="multiply" unicode="&#xd7;" horiz-adv-x="496" 
d="M194 297l-123 121l55 55l121 -122l122 122l55 -55l-122 -121l122 -121l-55 -56l-122 122l-121 -122l-55 56z" />
    <glyph glyph-name="Oslash" unicode="&#xd8;" horiz-adv-x="647" 
d="M145 307q0 -82 29 -136l253 327q-42 33 -104 33q-80 0 -129 -62.5t-49 -161.5zM502 307q0 75 -28 133l-253 -326q42 -31 102 -31q80 0 129.5 63t49.5 161zM62 27l49 63q-71 87 -71 217q0 138 79.5 227.5t203.5 89.5q91 0 162 -52l43 56l60 -41l-51 -65q70 -88 70 -215
q0 -138 -80 -227.5t-204 -89.5q-91 0 -160 49l-41 -53z" />
    <glyph glyph-name="Ugrave" unicode="&#xd9;" horiz-adv-x="608" 
d="M357 671h-98l-95 117h116zM304 -10q-113 0 -179.5 65.5t-66.5 189.5v369h104v-358q0 -173 142 -173t142 173v358h104v-370q0 -123 -66.5 -188.5t-179.5 -65.5z" />
    <glyph glyph-name="Uacute" unicode="&#xda;" horiz-adv-x="608" 
d="M346 671h-98l77 117h116zM304 -10q-113 0 -179.5 65.5t-66.5 189.5v369h104v-358q0 -173 142 -173t142 173v358h104v-370q0 -123 -66.5 -188.5t-179.5 -65.5z" />
    <glyph glyph-name="Ucircumflex" unicode="&#xdb;" horiz-adv-x="608" 
d="M350 795l94 -124h-89l-51 60l-51 -60h-89l94 124h92zM304 -10q-113 0 -179.5 65.5t-66.5 189.5v369h104v-358q0 -173 142 -173t142 173v358h104v-370q0 -123 -66.5 -188.5t-179.5 -65.5z" />
    <glyph glyph-name="Udieresis" unicode="&#xdc;" horiz-adv-x="608" 
d="M323 728q0 25 17 42t41 17t41.5 -17t17.5 -42q0 -24 -17.5 -41t-41.5 -17t-41 17t-17 41zM169 728q0 25 17 42t42 17q24 0 41 -17t17 -42q0 -24 -17 -41t-41 -17q-25 0 -42 17t-17 41zM304 -10q-113 0 -179.5 65.5t-66.5 189.5v369h104v-358q0 -173 142 -173t142 173v358
h104v-370q0 -123 -66.5 -188.5t-179.5 -65.5z" />
    <glyph glyph-name="Yacute" unicode="&#xdd;" horiz-adv-x="578" 
d="M331 671h-98l77 117h116zM291 339l162 275h110l-223 -369v-245h-103v245l-222 369h113z" />
    <glyph glyph-name="Thorn" unicode="&#xde;" horiz-adv-x="545" 
d="M305 123h-133v-123h-104v614h104v-106h133q97 0 153.5 -50t56.5 -143q0 -92 -56.5 -142t-153.5 -50zM412 315q0 47 -28 75t-81 28h-131v-205h131q52 0 80.5 28t28.5 74z" />
    <glyph glyph-name="germandbls" unicode="&#xdf;" horiz-adv-x="518" 
d="M371 365q51 -17 83.5 -64.5t32.5 -111.5q0 -91 -55 -142.5t-143 -51.5q-47 0 -79 11v89q28 -11 69 -11q54 0 83.5 30.5t29.5 84.5q0 55 -36 86t-101 31h-40v86h40q44 0 68.5 22t24.5 65q0 38 -24.5 62t-65.5 24q-49 0 -73.5 -32t-24.5 -83v-460h-98v459q0 91 53.5 146
t141.5 55t136.5 -46.5t48.5 -119.5q0 -48 -20 -82t-51 -47z" />
    <glyph glyph-name="agrave" unicode="&#xe0;" horiz-adv-x="512" 
d="M308 513h-89l-91 137h103zM350 138v168q-13 26 -39 42.5t-57 16.5q-57 0 -90 -40t-33 -103t33 -103t90 -40q31 0 57 16.5t39 42.5zM350 0v38q-16 -20 -47 -34t-66 -14q-95 0 -150.5 66.5t-55.5 165.5t55.5 165.5t150.5 66.5q35 0 66 -14t47 -34v38h100v-444h-100z" />
    <glyph glyph-name="aacute" unicode="&#xe1;" horiz-adv-x="512" 
d="M306 513h-89l77 137h103zM350 138v168q-13 26 -39 42.5t-57 16.5q-57 0 -90 -40t-33 -103t33 -103t90 -40q31 0 57 16.5t39 42.5zM350 0v38q-16 -20 -47 -34t-66 -14q-95 0 -150.5 66.5t-55.5 165.5t55.5 165.5t150.5 66.5q35 0 66 -14t47 -34v38h100v-444h-100z" />
    <glyph glyph-name="acircumflex" unicode="&#xe2;" horiz-adv-x="512" 
d="M311 646l94 -140h-84l-56 79l-56 -79h-84l94 140h92zM350 138v168q-13 26 -39 42.5t-57 16.5q-57 0 -90 -40t-33 -103t33 -103t90 -40q31 0 57 16.5t39 42.5zM350 0v38q-16 -20 -47 -34t-66 -14q-95 0 -150.5 66.5t-55.5 165.5t55.5 165.5t150.5 66.5q35 0 66 -14t47 -34
v38h100v-444h-100z" />
    <glyph glyph-name="atilde" unicode="&#xe3;" horiz-adv-x="512" 
d="M332 641h60q0 -60 -21.5 -95.5t-61.5 -35.5q-23 0 -55.5 26t-45.5 26q-30 0 -32 -49h-60q0 60 21.5 95.5t61.5 35.5q24 0 56.5 -26t44.5 -26q30 0 32 49zM350 138v168q-13 26 -39 42.5t-57 16.5q-57 0 -90 -40t-33 -103t33 -103t90 -40q31 0 57 16.5t39 42.5zM350 0v38
q-16 -20 -47 -34t-66 -14q-95 0 -150.5 66.5t-55.5 165.5t55.5 165.5t150.5 66.5q35 0 66 -14t47 -34v38h100v-444h-100z" />
    <glyph glyph-name="adieresis" unicode="&#xe4;" horiz-adv-x="512" 
d="M275 572q0 25 17 42t41 17t41.5 -17t17.5 -42q0 -24 -17.5 -41t-41.5 -17t-41 17t-17 41zM121 572q0 25 17 42t42 17q24 0 41 -17t17 -42q0 -24 -17 -41t-41 -17q-25 0 -42 17t-17 41zM350 138v168q-13 26 -39 42.5t-57 16.5q-57 0 -90 -40t-33 -103t33 -103t90 -40
q31 0 57 16.5t39 42.5zM350 0v38q-16 -20 -47 -34t-66 -14q-95 0 -150.5 66.5t-55.5 165.5t55.5 165.5t150.5 66.5q35 0 66 -14t47 -34v38h100v-444h-100z" />
    <glyph glyph-name="aring" unicode="&#xe5;" horiz-adv-x="512" 
d="M346 580q0 -39 -27 -65t-66 -26t-66 26t-27 65t27 65t66 26t66 -26t27 -65zM295 580q0 18 -12.5 30t-29.5 12t-29.5 -12t-12.5 -30t12.5 -30t29.5 -12t29.5 12t12.5 30zM350 138v168q-13 26 -39 42.5t-57 16.5q-57 0 -90 -40t-33 -103t33 -103t90 -40q31 0 57 16.5
t39 42.5zM350 0v38q-16 -20 -47 -34t-66 -14q-95 0 -150.5 66.5t-55.5 165.5t55.5 165.5t150.5 66.5q35 0 66 -14t47 -34v38h100v-444h-100z" />
    <glyph glyph-name="ae" unicode="&#xe6;" horiz-adv-x="796" 
d="M592 -9q-99 0 -145 67v-58h-95v58q-20 -28 -55.5 -47.5t-75.5 -19.5q-93 0 -143 66.5t-50 166.5t50 166.5t143 66.5q40 0 75.5 -19.5t55.5 -47.5v58h95v-65q19 35 53.5 53t73.5 18q93 0 143.5 -59.5t50.5 -159.5v-36h-303q2 -58 32.5 -91.5t80.5 -33.5q78 0 94 64h92
q-11 -66 -58 -106.5t-114 -40.5zM352 148v153q-36 69 -106 69q-54 0 -85 -40.5t-31 -105.5q0 -64 31 -104.5t85 -40.5q71 0 106 69zM576 370q-42 0 -70.5 -25.5t-37.5 -72.5h201q-1 43 -25 70.5t-68 27.5z" />
    <glyph glyph-name="ccedilla" unicode="&#xe7;" horiz-adv-x="451" 
d="M31 222q0 103 58 167.5t149 64.5q78 0 127 -40.5t59 -108.5h-100q-6 30 -28.5 46t-56.5 16q-49 0 -78.5 -40.5t-29.5 -104.5t29.5 -104.5t78.5 -40.5q34 0 56.5 16t28.5 46h100q-10 -68 -59 -108.5t-127 -40.5q-91 0 -149 64.5t-58 167.5zM221 -190h-93l71 137h99z" />
    <glyph glyph-name="egrave" unicode="&#xe8;" horiz-adv-x="462" 
d="M294 513h-89l-91 137h103zM336 138h92q-12 -68 -60.5 -108t-126.5 -40q-93 0 -151.5 64t-58.5 167q0 100 59 166.5t149 66.5q92 0 142.5 -59.5t50.5 -159.5v-36h-303q2 -58 32.5 -91.5t79.5 -33.5q79 0 95 64zM240 370q-42 0 -70.5 -25.5t-37.5 -72.5h201q-1 43 -25 70.5
t-68 27.5z" />
    <glyph glyph-name="eacute" unicode="&#xe9;" horiz-adv-x="462" 
d="M283 513h-89l77 137h103zM336 138h92q-12 -68 -60.5 -108t-126.5 -40q-93 0 -151.5 64t-58.5 167q0 100 59 166.5t149 66.5q92 0 142.5 -59.5t50.5 -159.5v-36h-303q2 -58 32.5 -91.5t79.5 -33.5q79 0 95 64zM240 370q-42 0 -70.5 -25.5t-37.5 -72.5h201q-1 43 -25 70.5
t-68 27.5z" />
    <glyph glyph-name="ecircumflex" unicode="&#xea;" horiz-adv-x="462" 
d="M289 646l94 -140h-84l-56 79l-56 -79h-84l94 140h92zM336 138h92q-12 -68 -60.5 -108t-126.5 -40q-93 0 -151.5 64t-58.5 167q0 100 59 166.5t149 66.5q92 0 142.5 -59.5t50.5 -159.5v-36h-303q2 -58 32.5 -91.5t79.5 -33.5q79 0 95 64zM240 370q-42 0 -70.5 -25.5
t-37.5 -72.5h201q-1 43 -25 70.5t-68 27.5z" />
    <glyph glyph-name="edieresis" unicode="&#xeb;" horiz-adv-x="462" 
d="M263 572q0 25 17 42t41 17t41.5 -17t17.5 -42q0 -24 -17.5 -41t-41.5 -17t-41 17t-17 41zM109 572q0 25 17 42t42 17q24 0 41 -17t17 -42q0 -24 -17 -41t-41 -17q-25 0 -42 17t-17 41zM336 138h92q-12 -68 -60.5 -108t-126.5 -40q-93 0 -151.5 64t-58.5 167
q0 100 59 166.5t149 66.5q92 0 142.5 -59.5t50.5 -159.5v-36h-303q2 -58 32.5 -91.5t79.5 -33.5q79 0 95 64zM240 370q-42 0 -70.5 -25.5t-37.5 -72.5h201q-1 43 -25 70.5t-68 27.5z" />
    <glyph glyph-name="igrave" unicode="&#xec;" horiz-adv-x="224" 
d="M162 513h-89l-91 137h103zM162 444v-444h-100v444h100z" />
    <glyph glyph-name="iacute" unicode="&#xed;" horiz-adv-x="224" 
d="M151 513h-89l77 137h103zM162 444v-444h-100v444h100z" />
    <glyph glyph-name="icircumflex" unicode="&#xee;" horiz-adv-x="224" 
d="M158 646l76 -140h-82l-40 76l-40 -76h-82l76 140h92zM162 444v-444h-100v444h100z" />
    <glyph glyph-name="idieresis" unicode="&#xef;" horiz-adv-x="224" 
d="M124 572q0 25 17 42t41 17t41.5 -17t17.5 -42q0 -24 -17.5 -41t-41.5 -17t-41 17t-17 41zM-16 572q0 25 17 42t42 17q24 0 41 -17t17 -42q0 -24 -17 -41t-41 -17q-25 0 -42 17t-17 41zM162 444v-444h-100v444h100z" />
    <glyph glyph-name="eth" unicode="&#xf0;" horiz-adv-x="484" 
d="M140 488l-23 59l65 21q-47 39 -103 78v4h130q35 -24 66 -51l89 30l22 -59l-61 -21q128 -143 128 -321q0 -107 -58.5 -172.5t-152.5 -65.5q-93 0 -152 64t-59 165q0 100 57 165t142 65q53 0 87 -32h4q-16 37 -85 103zM353 219q0 65 -29 104.5t-82 39.5t-82 -39.5
t-29 -104.5q0 -64 29 -103.5t82 -39.5t82 39.5t29 103.5z" />
    <glyph glyph-name="ntilde" unicode="&#xf1;" horiz-adv-x="495" 
d="M329 641h60q0 -60 -21.5 -95.5t-61.5 -35.5q-23 0 -55.5 26t-45.5 26q-30 0 -32 -49h-60q0 60 21.5 95.5t61.5 35.5q24 0 56.5 -26t44.5 -26q30 0 32 49zM62 0v444h100v-42q45 52 120 52q74 0 115.5 -45t41.5 -120v-289h-100v272q0 43 -21 67t-63 24q-33 0 -59 -19.5
t-34 -51.5v-292h-100z" />
    <glyph glyph-name="ograve" unicode="&#xf2;" horiz-adv-x="484" 
d="M292 513h-89l-91 137h103zM453 222q0 -102 -58.5 -167t-152.5 -65t-152.5 65t-58.5 167t58.5 167t152.5 65t152.5 -65t58.5 -167zM353 222q0 65 -29 105.5t-82 40.5t-82 -40.5t-29 -105.5t29 -105.5t82 -40.5t82 40.5t29 105.5z" />
    <glyph glyph-name="oacute" unicode="&#xf3;" horiz-adv-x="484" 
d="M281 513h-89l77 137h103zM453 222q0 -102 -58.5 -167t-152.5 -65t-152.5 65t-58.5 167t58.5 167t152.5 65t152.5 -65t58.5 -167zM353 222q0 65 -29 105.5t-82 40.5t-82 -40.5t-29 -105.5t29 -105.5t82 -40.5t82 40.5t29 105.5z" />
    <glyph glyph-name="ocircumflex" unicode="&#xf4;" horiz-adv-x="484" 
d="M288 646l94 -140h-84l-56 79l-56 -79h-84l94 140h92zM453 222q0 -102 -58.5 -167t-152.5 -65t-152.5 65t-58.5 167t58.5 167t152.5 65t152.5 -65t58.5 -167zM353 222q0 65 -29 105.5t-82 40.5t-82 -40.5t-29 -105.5t29 -105.5t82 -40.5t82 40.5t29 105.5z" />
    <glyph glyph-name="otilde" unicode="&#xf5;" horiz-adv-x="484" 
d="M320 641h60q0 -60 -21.5 -95.5t-61.5 -35.5q-23 0 -55.5 26t-45.5 26q-30 0 -32 -49h-60q0 60 21.5 95.5t61.5 35.5q24 0 56.5 -26t44.5 -26q30 0 32 49zM453 222q0 -102 -58.5 -167t-152.5 -65t-152.5 65t-58.5 167t58.5 167t152.5 65t152.5 -65t58.5 -167zM353 222
q0 65 -29 105.5t-82 40.5t-82 -40.5t-29 -105.5t29 -105.5t82 -40.5t82 40.5t29 105.5z" />
    <glyph glyph-name="odieresis" unicode="&#xf6;" horiz-adv-x="484" 
d="M261 572q0 25 17 42t41 17t41.5 -17t17.5 -42q0 -24 -17.5 -41t-41.5 -17t-41 17t-17 41zM107 572q0 25 17 42t42 17q24 0 41 -17t17 -42q0 -24 -17 -41t-41 -17q-25 0 -42 17t-17 41zM453 222q0 -102 -58.5 -167t-152.5 -65t-152.5 65t-58.5 167t58.5 167t152.5 65
t152.5 -65t58.5 -167zM353 222q0 65 -29 105.5t-82 40.5t-82 -40.5t-29 -105.5t29 -105.5t82 -40.5t82 40.5t29 105.5z" />
    <glyph glyph-name="divide" unicode="&#xf7;" horiz-adv-x="564" 
d="M219 467q0 26 18.5 45t44.5 19t45 -19t19 -45t-19 -44.5t-45 -18.5t-44.5 18.5t-18.5 44.5zM74 259v80h416v-80h-416zM219 131q0 26 18.5 44.5t44.5 18.5t45 -18.5t19 -44.5t-19 -45t-45 -19t-44.5 19t-18.5 45z" />
    <glyph glyph-name="oslash" unicode="&#xf8;" horiz-adv-x="494" 
d="M134 222q0 -45 13 -77l159 206q-25 17 -59 17q-53 0 -83 -40.5t-30 -105.5zM360 222q0 44 -14 78l-160 -206q26 -18 61 -18q53 0 83 40.5t30 105.5zM37 2l49 63q-50 63 -50 157q0 102 58.5 167t152.5 65q64 0 114 -33l41 54l51 -36l-46 -60q51 -64 51 -157
q0 -102 -58.5 -167t-152.5 -65q-65 0 -115 33l-44 -57z" />
    <glyph glyph-name="ugrave" unicode="&#xf9;" horiz-adv-x="493" 
d="M297 513h-89l-91 137h103zM431 444v-444h-100v42q-45 -52 -119 -52t-115 45t-41 120v289h100v-272q0 -91 83 -91q33 0 58.5 19.5t33.5 51.5v292h100z" />
    <glyph glyph-name="uacute" unicode="&#xfa;" horiz-adv-x="493" 
d="M286 513h-89l77 137h103zM431 444v-444h-100v42q-45 -52 -119 -52t-115 45t-41 120v289h100v-272q0 -91 83 -91q33 0 58.5 19.5t33.5 51.5v292h100z" />
    <glyph glyph-name="ucircumflex" unicode="&#xfb;" horiz-adv-x="493" 
d="M293 646l94 -140h-84l-56 79l-56 -79h-84l94 140h92zM431 444v-444h-100v42q-45 -52 -119 -52t-115 45t-41 120v289h100v-272q0 -91 83 -91q33 0 58.5 19.5t33.5 51.5v292h100z" />
    <glyph glyph-name="udieresis" unicode="&#xfc;" horiz-adv-x="493" 
d="M266 572q0 25 17 42t41 17t41.5 -17t17.5 -42q0 -24 -17.5 -41t-41.5 -17t-41 17t-17 41zM112 572q0 25 17 42t42 17q24 0 41 -17t17 -42q0 -24 -17 -41t-41 -17q-25 0 -42 17t-17 41zM431 444v-444h-100v42q-45 -52 -119 -52t-115 45t-41 120v289h100v-272q0 -91 83 -91
q33 0 58.5 19.5t33.5 51.5v292h100z" />
    <glyph glyph-name="yacute" unicode="&#xfd;" horiz-adv-x="476" 
d="M277 513h-89l77 137h103zM224 -170h-97l63 158l-172 456h107l116 -327l114 327h103z" />
    <glyph glyph-name="thorn" unicode="&#xfe;" horiz-adv-x="512" 
d="M162 306v-168q13 -26 39 -42.5t57 -16.5q57 0 90 40t33 103t-33 103t-90 40q-31 0 -57 -16.5t-39 -42.5zM162 38v-208h-100v820h100v-244q16 20 47 34t66 14q94 0 150 -67.5t56 -164.5t-56 -164.5t-150 -67.5q-35 0 -66 14t-47 34z" />
    <glyph glyph-name="ydieresis" unicode="&#xff;" horiz-adv-x="476" 
d="M257 572q0 25 17 42t41 17t41.5 -17t17.5 -42q0 -24 -17.5 -41t-41.5 -17t-41 17t-17 41zM103 572q0 25 17 42t42 17q24 0 41 -17t17 -42q0 -24 -17 -41t-41 -17q-25 0 -42 17t-17 41zM224 -170h-97l63 158l-172 456h107l116 -327l114 327h103z" />
    <glyph glyph-name="Amacron" unicode="&#x100;" horiz-adv-x="612" 
d="M194 671v79h225v-79h-225zM305 487l-84 -227h168zM256 614h100l236 -614h-106l-63 170h-235l-63 -170h-105z" />
    <glyph glyph-name="amacron" unicode="&#x101;" horiz-adv-x="512" 
d="M143 524v79h225v-79h-225zM350 138v168q-13 26 -39 42.5t-57 16.5q-57 0 -90 -40t-33 -103t33 -103t90 -40q31 0 57 16.5t39 42.5zM350 0v38q-16 -20 -47 -34t-66 -14q-95 0 -150.5 66.5t-55.5 165.5t55.5 165.5t150.5 66.5q35 0 66 -14t47 -34v38h100v-444h-100z" />
    <glyph glyph-name="Abreve" unicode="&#x102;" horiz-adv-x="612" 
d="M306 667q-59 0 -93 32.5t-34 91.5h73q0 -51 54 -51q55 0 55 51h73q0 -59 -34.5 -91.5t-93.5 -32.5zM305 487l-84 -227h168zM256 614h100l236 -614h-106l-63 170h-235l-63 -170h-105z" />
    <glyph glyph-name="abreve" unicode="&#x103;" horiz-adv-x="512" 
d="M262 495q-57 0 -91 35.5t-34 99.5h73q0 -65 52 -65t52 65h73q0 -64 -34 -99.5t-91 -35.5zM350 138v168q-13 26 -39 42.5t-57 16.5q-57 0 -90 -40t-33 -103t33 -103t90 -40q31 0 57 16.5t39 42.5zM350 0v38q-16 -20 -47 -34t-66 -14q-95 0 -150.5 66.5t-55.5 165.5
t55.5 165.5t150.5 66.5q35 0 66 -14t47 -34v38h100v-444h-100z" />
    <glyph glyph-name="Aogonek" unicode="&#x104;" horiz-adv-x="612" 
d="M256 614h100l236 -614q-5 -7 -12 -18t-10 -16l-7.5 -12.5t-6.5 -11t-5 -9t-4 -8.5t-2 -7t-1.5 -7.5t-0.5 -7.5q0 -23 21 -23q14 0 37 16v-64q-29 -22 -59 -22q-37 0 -56 20t-19 52q0 8 1.5 16t3 14t5.5 15l6 13.5t8.5 15t9 14t10.5 15.5l10 15h-35l-63 170h-235l-63 -170
h-105zM305 487l-84 -227h168z" />
    <glyph glyph-name="aogonek" unicode="&#x105;" horiz-adv-x="512" 
d="M458 -168q-29 -22 -59 -22q-37 0 -56 20t-19 52q0 10 2.5 21t5.5 19t9.5 20.5t10.5 18.5t13.5 20t12.5 19h-28v38q-16 -20 -47 -34t-66 -14q-95 0 -150.5 66.5t-55.5 165.5t55.5 165.5t150.5 66.5q35 0 66 -14t47 -34v38h100v-444q-4 -6 -10 -15.5t-9 -14t-7.5 -12
t-6.5 -11t-5.5 -9t-4.5 -8.5t-3 -7t-2.5 -7t-1 -6.5t-0.5 -6.5q0 -23 21 -23q14 0 37 16v-64zM350 138v168q-13 26 -39 42.5t-57 16.5q-57 0 -90 -40t-33 -103t33 -103t90 -40q31 0 57 16.5t39 42.5z" />
    <glyph glyph-name="Cacute" unicode="&#x106;" horiz-adv-x="597" 
d="M363 671h-98l77 117h116zM35 307q0 140 79.5 228.5t199.5 88.5q102 0 167 -54.5t83 -148.5h-102q-40 109 -148 109q-80 0 -127 -62.5t-47 -160.5t47 -160.5t127 -62.5q108 0 148 110h102q-18 -95 -83 -149.5t-167 -54.5q-120 0 -199.5 88.5t-79.5 228.5z" />
    <glyph glyph-name="cacute" unicode="&#x107;" horiz-adv-x="451" 
d="M282 513h-89l77 137h103zM31 222q0 103 58 167.5t149 64.5q78 0 127 -40.5t59 -108.5h-100q-6 30 -28.5 46t-56.5 16q-49 0 -78.5 -40.5t-29.5 -104.5t29.5 -104.5t78.5 -40.5q34 0 56.5 16t28.5 46h100q-10 -68 -59 -108.5t-127 -40.5q-91 0 -149 64.5t-58 167.5z" />
    <glyph glyph-name="Ccircumflex" unicode="&#x108;" horiz-adv-x="597" 
d="M368 795l94 -124h-89l-51 60l-51 -60h-89l94 124h92zM35 307q0 140 79.5 228.5t199.5 88.5q102 0 167 -54.5t83 -148.5h-102q-40 109 -148 109q-80 0 -127 -62.5t-47 -160.5t47 -160.5t127 -62.5q108 0 148 110h102q-18 -95 -83 -149.5t-167 -54.5q-120 0 -199.5 88.5
t-79.5 228.5z" />
    <glyph glyph-name="ccircumflex" unicode="&#x109;" horiz-adv-x="451" 
d="M289 646l94 -140h-84l-56 79l-56 -79h-84l94 140h92zM31 222q0 103 58 167.5t149 64.5q78 0 127 -40.5t59 -108.5h-100q-6 30 -28.5 46t-56.5 16q-49 0 -78.5 -40.5t-29.5 -104.5t29.5 -104.5t78.5 -40.5q34 0 56.5 16t28.5 46h100q-10 -68 -59 -108.5t-127 -40.5
q-91 0 -149 64.5t-58 167.5z" />
    <glyph glyph-name="Cdotaccent" unicode="&#x10a;" horiz-adv-x="597" 
d="M379 728q0 -25 -18.5 -43t-43.5 -18t-43.5 18t-18.5 43t18.5 43t43.5 18t43.5 -18t18.5 -43zM35 307q0 140 79.5 228.5t199.5 88.5q102 0 167 -54.5t83 -148.5h-102q-40 109 -148 109q-80 0 -127 -62.5t-47 -160.5t47 -160.5t127 -62.5q108 0 148 110h102
q-18 -95 -83 -149.5t-167 -54.5q-120 0 -199.5 88.5t-79.5 228.5z" />
    <glyph glyph-name="cdotaccent" unicode="&#x10b;" horiz-adv-x="451" 
d="M305 578q0 -25 -18.5 -43t-43.5 -18t-43.5 18t-18.5 43t18.5 43t43.5 18t43.5 -18t18.5 -43zM31 222q0 103 58 167.5t149 64.5q78 0 127 -40.5t59 -108.5h-100q-6 30 -28.5 46t-56.5 16q-49 0 -78.5 -40.5t-29.5 -104.5t29.5 -104.5t78.5 -40.5q34 0 56.5 16t28.5 46h100
q-10 -68 -59 -108.5t-127 -40.5q-91 0 -149 64.5t-58 167.5z" />
    <glyph glyph-name="Ccaron" unicode="&#x10c;" horiz-adv-x="597" 
d="M271 671l-94 124h89l51 -60l51 60h89l-94 -124h-92zM35 307q0 140 79.5 228.5t199.5 88.5q102 0 167 -54.5t83 -148.5h-102q-40 109 -148 109q-80 0 -127 -62.5t-47 -160.5t47 -160.5t127 -62.5q108 0 148 110h102q-18 -95 -83 -149.5t-167 -54.5q-120 0 -199.5 88.5
t-79.5 228.5z" />
    <glyph glyph-name="ccaron" unicode="&#x10d;" horiz-adv-x="451" 
d="M383 646l-94 -140h-92l-94 140h84l56 -79l56 79h84zM31 222q0 103 58 167.5t149 64.5q78 0 127 -40.5t59 -108.5h-100q-6 30 -28.5 46t-56.5 16q-49 0 -78.5 -40.5t-29.5 -104.5t29.5 -104.5t78.5 -40.5q34 0 56.5 16t28.5 46h100q-10 -68 -59 -108.5t-127 -40.5
q-91 0 -149 64.5t-58 167.5z" />
    <glyph glyph-name="Dcaron" unicode="&#x10e;" horiz-adv-x="608" 
d="M236 671l-94 124h89l51 -60l51 60h89l-94 -124h-92zM68 0v614h207q136 0 217 -83.5t81 -223.5t-81 -223.5t-217 -83.5h-207zM172 93h99q95 0 146.5 57t51.5 157t-51.5 157.5t-146.5 57.5h-99v-429z" />
    <glyph glyph-name="dcaron" unicode="&#x10f;" horiz-adv-x="512" 
d="M578 483h-78l34 167h78zM350 138v168q-13 26 -39 42.5t-57 16.5q-57 0 -90 -40t-33 -103t33 -103t90 -40q31 0 57 16.5t39 42.5zM350 0v38q-16 -20 -47 -34t-66 -14q-95 0 -150.5 66.5t-55.5 165.5t55.5 165.5t150.5 66.5q35 0 66 -14t47 -34v244h100v-650h-100z" />
    <glyph glyph-name="Dcroat" unicode="&#x110;" horiz-adv-x="625" 
d="M30 273v88h55v253h207q136 0 217 -83.5t81 -223.5t-81 -223.5t-217 -83.5h-207v273h-55zM189 93h99q95 0 146.5 57t51.5 157t-51.5 157.5t-146.5 57.5h-99v-161h116v-88h-116v-180z" />
    <glyph glyph-name="dcroat" unicode="&#x111;" horiz-adv-x="512" 
d="M350 138v168q-13 26 -39 42.5t-57 16.5q-57 0 -90 -40t-33 -103t33 -103t90 -40q31 0 57 16.5t39 42.5zM249 502v70h101v78h100v-78h60v-70h-60v-502h-100v38q-16 -20 -47 -34t-66 -14q-95 0 -150.5 66.5t-55.5 165.5t55.5 165.5t150.5 66.5q35 0 66 -14t47 -34v96h-101z
" />
    <glyph glyph-name="Emacron" unicode="&#x112;" horiz-adv-x="514" 
d="M160 671v79h225v-79h-225zM68 614h401v-92h-299v-162h271v-91h-271v-176h299v-93h-401v614z" />
    <glyph glyph-name="emacron" unicode="&#x113;" horiz-adv-x="462" 
d="M132 524v79h225v-79h-225zM336 138h92q-12 -68 -60.5 -108t-126.5 -40q-93 0 -151.5 64t-58.5 167q0 100 59 166.5t149 66.5q92 0 142.5 -59.5t50.5 -159.5v-36h-303q2 -58 32.5 -91.5t79.5 -33.5q79 0 95 64zM240 370q-42 0 -70.5 -25.5t-37.5 -72.5h201q-1 43 -25 70.5
t-68 27.5z" />
    <glyph glyph-name="Ebreve" unicode="&#x114;" horiz-adv-x="514" 
d="M272 667q-59 0 -93 32.5t-34 91.5h73q0 -51 54 -51q55 0 55 51h73q0 -59 -34.5 -91.5t-93.5 -32.5zM68 614h401v-92h-299v-162h271v-91h-271v-176h299v-93h-401v614z" />
    <glyph glyph-name="ebreve" unicode="&#x115;" horiz-adv-x="462" 
d="M244 495q-57 0 -91 35.5t-34 99.5h73q0 -65 52 -65t52 65h73q0 -64 -34 -99.5t-91 -35.5zM336 138h92q-12 -68 -60.5 -108t-126.5 -40q-93 0 -151.5 64t-58.5 167q0 100 59 166.5t149 66.5q92 0 142.5 -59.5t50.5 -159.5v-36h-303q2 -58 32.5 -91.5t79.5 -33.5
q79 0 95 64zM240 370q-42 0 -70.5 -25.5t-37.5 -72.5h201q-1 43 -25 70.5t-68 27.5z" />
    <glyph glyph-name="Edotaccent" unicode="&#x116;" horiz-adv-x="514" 
d="M334 728q0 -25 -18.5 -43t-43.5 -18t-43.5 18t-18.5 43t18.5 43t43.5 18t43.5 -18t18.5 -43zM68 614h401v-92h-299v-162h271v-91h-271v-176h299v-93h-401v614z" />
    <glyph glyph-name="edotaccent" unicode="&#x117;" horiz-adv-x="462" 
d="M306 578q0 -25 -18.5 -43t-43.5 -18t-43.5 18t-18.5 43t18.5 43t43.5 18t43.5 -18t18.5 -43zM336 138h92q-12 -68 -60.5 -108t-126.5 -40q-93 0 -151.5 64t-58.5 167q0 100 59 166.5t149 66.5q92 0 142.5 -59.5t50.5 -159.5v-36h-303q2 -58 32.5 -91.5t79.5 -33.5
q79 0 95 64zM240 370q-42 0 -70.5 -25.5t-37.5 -72.5h201q-1 43 -25 70.5t-68 27.5z" />
    <glyph glyph-name="Eogonek" unicode="&#x118;" horiz-adv-x="514" 
d="M68 614h401v-92h-299v-162h271v-91h-271v-176h299v-93h-34q-3 -5 -9 -14q-38 -65 -40 -83q0 -23 21 -23q14 0 37 16v-64q-29 -22 -59 -22q-37 0 -56 20t-19 52q0 8 1.5 16t3 14t5.5 15l6 13.5t8.5 15t9 14t10.5 15.5l10 15h-296v614z" />
    <glyph glyph-name="eogonek" unicode="&#x119;" horiz-adv-x="462" 
d="M269 -8q-18 -2 -28 -2q-93 0 -151.5 64t-58.5 167q0 100 59 166.5t149 66.5q92 0 142.5 -59.5t50.5 -159.5v-36h-303q2 -58 32.5 -91.5t79.5 -33.5q79 0 95 64h92q-10 -62 -61 -111q-72 -70 -72 -122q0 -25 23 -25q14 0 37 16v-64q-29 -22 -59 -22q-37 0 -57 21t-20 53
q0 47 50 108zM240 370q-42 0 -70.5 -25.5t-37.5 -72.5h201q-1 43 -25 70.5t-68 27.5z" />
    <glyph glyph-name="Ecaron" unicode="&#x11a;" horiz-adv-x="514" 
d="M232 671l-94 124h89l51 -60l51 60h89l-94 -124h-92zM68 614h401v-92h-299v-162h271v-91h-271v-176h299v-93h-401v614z" />
    <glyph glyph-name="ecaron" unicode="&#x11b;" horiz-adv-x="462" 
d="M384 646l-94 -140h-92l-94 140h84l56 -79l56 79h84zM336 138h92q-12 -68 -60.5 -108t-126.5 -40q-93 0 -151.5 64t-58.5 167q0 100 59 166.5t149 66.5q92 0 142.5 -59.5t50.5 -159.5v-36h-303q2 -58 32.5 -91.5t79.5 -33.5q79 0 95 64zM240 370q-42 0 -70.5 -25.5
t-37.5 -72.5h201q-1 43 -25 70.5t-68 27.5z" />
    <glyph glyph-name="Gcircumflex" unicode="&#x11c;" horiz-adv-x="620" 
d="M365 795l94 -124h-89l-51 60l-51 -60h-89l94 124h92zM486 228h-134v89h233v-48q0 -126 -73.5 -202.5t-187.5 -76.5q-125 0 -207 88.5t-82 228.5t81.5 228.5t203.5 88.5q103 0 168.5 -54t83.5 -148h-104q-20 53 -54.5 80.5t-93.5 27.5q-81 0 -130.5 -62.5t-49.5 -160.5
q0 -99 50 -162t134 -63q68 0 110 39.5t52 106.5z" />
    <glyph glyph-name="gcircumflex" unicode="&#x11d;" horiz-adv-x="512" 
d="M314 646l94 -140h-84l-56 79l-56 -79h-84l94 140h92zM350 145v168q-13 23 -39 38t-57 15q-56 0 -88.5 -38t-32.5 -99t32.5 -99t88.5 -38q31 0 57 15t39 38zM350 30v20q-16 -19 -46.5 -32.5t-66.5 -13.5q-94 0 -150 66t-56 159t56 159t150 66q36 0 66.5 -13.5t46.5 -32.5
v36h100v-407q0 -108 -57.5 -162.5t-151.5 -54.5q-84 0 -136.5 41.5t-60.5 114.5h97q15 -74 100 -74q109 0 109 128z" />
    <glyph glyph-name="Gbreve" unicode="&#x11e;" horiz-adv-x="620" 
d="M321 667q-59 0 -93 32.5t-34 91.5h73q0 -51 54 -51q55 0 55 51h73q0 -59 -34.5 -91.5t-93.5 -32.5zM486 228h-134v89h233v-48q0 -126 -73.5 -202.5t-187.5 -76.5q-125 0 -207 88.5t-82 228.5t81.5 228.5t203.5 88.5q103 0 168.5 -54t83.5 -148h-104q-20 53 -54.5 80.5
t-93.5 27.5q-81 0 -130.5 -62.5t-49.5 -160.5q0 -99 50 -162t134 -63q68 0 110 39.5t52 106.5z" />
    <glyph glyph-name="gbreve" unicode="&#x11f;" horiz-adv-x="512" 
d="M268 495q-57 0 -91 35.5t-34 99.5h73q0 -65 52 -65t52 65h73q0 -64 -34 -99.5t-91 -35.5zM350 145v168q-13 23 -39 38t-57 15q-56 0 -88.5 -38t-32.5 -99t32.5 -99t88.5 -38q31 0 57 15t39 38zM350 30v20q-16 -19 -46.5 -32.5t-66.5 -13.5q-94 0 -150 66t-56 159t56 159
t150 66q36 0 66.5 -13.5t46.5 -32.5v36h100v-407q0 -108 -57.5 -162.5t-151.5 -54.5q-84 0 -136.5 41.5t-60.5 114.5h97q15 -74 100 -74q109 0 109 128z" />
    <glyph glyph-name="Gdotaccent" unicode="&#x120;" horiz-adv-x="620" 
d="M384 728q0 -25 -18.5 -43t-43.5 -18t-43.5 18t-18.5 43t18.5 43t43.5 18t43.5 -18t18.5 -43zM486 228h-134v89h233v-48q0 -126 -73.5 -202.5t-187.5 -76.5q-125 0 -207 88.5t-82 228.5t81.5 228.5t203.5 88.5q103 0 168.5 -54t83.5 -148h-104q-20 53 -54.5 80.5
t-93.5 27.5q-81 0 -130.5 -62.5t-49.5 -160.5q0 -99 50 -162t134 -63q68 0 110 39.5t52 106.5z" />
    <glyph glyph-name="gdotaccent" unicode="&#x121;" horiz-adv-x="512" 
d="M330 578q0 -25 -18.5 -43t-43.5 -18t-43.5 18t-18.5 43t18.5 43t43.5 18t43.5 -18t18.5 -43zM350 145v168q-13 23 -39 38t-57 15q-56 0 -88.5 -38t-32.5 -99t32.5 -99t88.5 -38q31 0 57 15t39 38zM350 30v20q-16 -19 -46.5 -32.5t-66.5 -13.5q-94 0 -150 66t-56 159
t56 159t150 66q36 0 66.5 -13.5t46.5 -32.5v36h100v-407q0 -108 -57.5 -162.5t-151.5 -54.5q-84 0 -136.5 41.5t-60.5 114.5h97q15 -74 100 -74q109 0 109 128z" />
    <glyph glyph-name="uni0122" unicode="&#x122;" horiz-adv-x="620" 
d="M486 228h-134v89h233v-48q0 -126 -73.5 -202.5t-187.5 -76.5q-125 0 -207 88.5t-82 228.5t81.5 228.5t203.5 88.5q103 0 168.5 -54t83.5 -148h-104q-20 53 -54.5 80.5t-93.5 27.5q-81 0 -130.5 -62.5t-49.5 -160.5q0 -99 50 -162t134 -63q68 0 110 39.5t52 106.5z
M265 -217l42 60q-22 3 -36.5 18t-14.5 37q0 25 18 41.5t45 16.5q26 0 43.5 -17t17.5 -45q0 -29 -28 -71l-27 -40h-60z" />
    <glyph glyph-name="uni0123" unicode="&#x123;" horiz-adv-x="512" 
d="M323 696l-43 -62q23 -3 37.5 -18.5t14.5 -38.5q0 -26 -19 -43t-46 -17t-45 17.5t-18 46.5q0 31 29 74l28 41h62zM350 145v168q-13 23 -39 38t-57 15q-56 0 -88.5 -38t-32.5 -99t32.5 -99t88.5 -38q31 0 57 15t39 38zM350 30v20q-16 -19 -46.5 -32.5t-66.5 -13.5
q-94 0 -150 66t-56 159t56 159t150 66q36 0 66.5 -13.5t46.5 -32.5v36h100v-407q0 -108 -57.5 -162.5t-151.5 -54.5q-84 0 -136.5 41.5t-60.5 114.5h97q15 -74 100 -74q109 0 109 128z" />
    <glyph glyph-name="Hcircumflex" unicode="&#x124;" horiz-adv-x="653" 
d="M372 795l94 -124h-89l-51 60l-51 -60h-89l94 124h92zM481 614h104v-614h-104v269h-309v-269h-104v614h104v-253h309v253z" />
    <glyph glyph-name="hcircumflex" unicode="&#x125;" horiz-adv-x="495" 
d="M296 815l94 -124h-89l-51 60l-51 -60h-89l94 124h92zM62 0v650h100v-248q45 52 120 52q74 0 115.5 -45t41.5 -120v-289h-100v272q0 43 -21 67t-63 24q-33 0 -59 -19.5t-34 -51.5v-292h-100z" />
    <glyph glyph-name="Hbar" unicode="&#x126;" horiz-adv-x="683" 
d="M187 315h309v108h-309v-108zM30 423v86h53v105h104v-105h309v105h104v-105h53v-86h-53v-423h-104v229h-309v-229h-104v423h-53z" />
    <glyph glyph-name="hbar" unicode="&#x127;" horiz-adv-x="495" 
d="M2 502v70h60v78h100v-78h101v-70h-101v-100q45 52 120 52q74 0 115.5 -45t41.5 -120v-289h-100v272q0 43 -21 67t-63 24q-33 0 -59 -19.5t-34 -51.5v-292h-100v502h-60z" />
    <glyph glyph-name="Itilde" unicode="&#x128;" horiz-adv-x="240" 
d="M203 797h60q0 -60 -21.5 -95.5t-61.5 -35.5q-26 0 -60 24t-51 24q-31 0 -32 -45h-60q0 60 21.5 95.5t61.5 35.5q26 0 60 -24t51 -24q31 0 32 45zM172 614v-614h-104v614h104z" />
    <glyph glyph-name="itilde" unicode="&#x129;" horiz-adv-x="224" 
d="M174 641h58q0 -60 -19 -95.5t-54 -35.5q-21 0 -47.5 24.5t-36.5 24.5q-26 0 -27 -46h-58q0 60 19 95.5t54 35.5q21 0 48 -24.5t36 -24.5q26 0 27 46zM162 444v-444h-100v444h100z" />
    <glyph glyph-name="Imacron" unicode="&#x12a;" horiz-adv-x="240" 
d="M8 671v79h225v-79h-225zM172 614v-614h-104v614h104z" />
    <glyph glyph-name="imacron" unicode="&#x12b;" horiz-adv-x="224" 
d="M13 524v79h198v-79h-198zM162 444v-444h-100v444h100z" />
    <glyph glyph-name="Ibreve" unicode="&#x12c;" horiz-adv-x="240" 
d="M120 667q-59 0 -93 32.5t-34 91.5h73q0 -51 54 -51q55 0 55 51h73q0 -59 -34.5 -91.5t-93.5 -32.5zM172 614v-614h-104v614h104z" />
    <glyph glyph-name="ibreve" unicode="&#x12d;" horiz-adv-x="224" 
d="M112 495q-51 0 -81.5 35.5t-30.5 99.5h71q0 -65 41 -65t41 65h71q0 -64 -30.5 -99.5t-81.5 -35.5zM162 444v-444h-100v444h100z" />
    <glyph glyph-name="Iogonek" unicode="&#x12e;" horiz-adv-x="240" 
d="M172 614v-614q-5 -7 -12 -18t-10 -16l-7.5 -12.5t-6.5 -11t-5 -9t-4 -8.5t-2 -7t-1.5 -7.5t-0.5 -7.5q0 -23 21 -23q14 0 37 16v-64q-29 -22 -59 -22q-37 0 -56 20t-19 52q0 8 1.5 16t3 14t5.5 15l6 13.5t8.5 15t9 14t10.5 15.5l10 15h-33v614h104z" />
    <glyph glyph-name="iogonek" unicode="&#x12f;" horiz-adv-x="224" 
d="M174 578q0 -25 -18.5 -43t-43.5 -18t-43.5 18t-18.5 43t18.5 43t43.5 18t43.5 -18t18.5 -43zM162 444v-444q-5 -7 -12 -18t-10 -16l-7.5 -12.5t-6.5 -11t-5 -9t-4 -8.5t-2 -7t-1.5 -7.5t-0.5 -7.5q0 -23 21 -23q14 0 37 16v-64q-29 -22 -59 -22q-37 0 -56 20t-19 52
q0 8 1.5 16t3 14t5.5 15l6 13.5t8.5 15t9 14t10.5 15.5l10 15h-29v444h100z" />
    <glyph glyph-name="Idotaccent" unicode="&#x130;" horiz-adv-x="240" 
d="M182 728q0 -25 -18.5 -43t-43.5 -18t-43.5 18t-18.5 43t18.5 43t43.5 18t43.5 -18t18.5 -43zM172 614v-614h-104v614h104z" />
    <glyph glyph-name="dotlessi" unicode="&#x131;" horiz-adv-x="224" 
d="M162 444v-444h-100v444h100z" />
    <glyph glyph-name="IJ" unicode="&#x132;" horiz-adv-x="685" 
d="M172 614v-614h-104v614h104zM215 179h108q11 -94 98 -94q104 0 104 127v402h104v-402q0 -108 -55 -165t-151 -57q-95 0 -148 51.5t-60 137.5z" />
    <glyph glyph-name="ij" unicode="&#x133;" horiz-adv-x="446" 
d="M398 578q0 -25 -18.5 -43t-43.5 -18t-43.5 18t-18.5 43t18.5 43t43.5 18t43.5 -18t18.5 -43zM174 578q0 -25 -18.5 -43t-43.5 -18t-43.5 18t-18.5 43t18.5 43t43.5 18t43.5 -18t18.5 -43zM162 444v-444h-100v444h100zM386 444v-484q0 -67 -37 -103.5t-108 -36.5
q-27 0 -40 5v84q14 -4 30 -4q55 0 55 62v477h100z" />
    <glyph glyph-name="Jcircumflex" unicode="&#x134;" horiz-adv-x="485" 
d="M424 795l94 -124h-89l-51 60l-51 -60h-89l94 124h92zM15 179h108q11 -94 98 -94q104 0 104 127v402h104v-402q0 -108 -55 -165t-151 -57q-95 0 -148 51.5t-60 137.5z" />
    <glyph glyph-name="jcircumflex" unicode="&#x135;" horiz-adv-x="222" 
d="M158 646l76 -140h-82l-40 76l-40 -76h-82l76 140h92zM162 444v-484q0 -67 -37 -103.5t-108 -36.5q-28 0 -40 5v84q14 -4 30 -4q55 0 55 62v477h100z" />
    <glyph glyph-name="uni0136" unicode="&#x136;" horiz-adv-x="582" 
d="M172 614v-294l255 294h131l-248 -279l257 -335h-130l-202 263l-63 -72v-191h-104v614h104zM219 -217l42 60q-22 3 -36.5 18t-14.5 37q0 25 18 41.5t45 16.5q26 0 43.5 -17t17.5 -45q0 -29 -28 -71l-27 -40h-60z" />
    <glyph glyph-name="uni0137" unicode="&#x137;" horiz-adv-x="481" 
d="M350 0l-147 189l-41 -42v-147h-100v650h100v-388l174 182h128l-189 -192l196 -252h-121zM185 -217l42 60q-22 3 -36.5 18t-14.5 37q0 25 18 41.5t45 16.5q26 0 43.5 -17t17.5 -45q0 -29 -28 -71l-27 -40h-60z" />
    <glyph glyph-name="kgreenlandic" unicode="&#x138;" horiz-adv-x="481" 
d="M350 0l-147 189l-41 -42v-147h-100v444h100v-182l174 182h128l-189 -192l196 -252h-121z" />
    <glyph glyph-name="Lacute" unicode="&#x139;" horiz-adv-x="505" 
d="M173 671h-98l77 117h116zM68 0v614h104v-521h295v-93h-399z" />
    <glyph glyph-name="lacute" unicode="&#x13a;" horiz-adv-x="224" 
d="M160 701h-98l77 117h116zM162 650v-650h-100v650h100z" />
    <glyph glyph-name="uni013B" unicode="&#x13b;" horiz-adv-x="505" 
d="M68 0v614h104v-521h295v-93h-399zM226 -217l42 60q-22 3 -36.5 18t-14.5 37q0 25 18 41.5t45 16.5q26 0 43.5 -17t17.5 -45q0 -29 -28 -71l-27 -40h-60z" />
    <glyph glyph-name="uni013C" unicode="&#x13c;" horiz-adv-x="224" 
d="M162 650v-650h-100v650h100zM59 -217l42 60q-22 3 -36.5 18t-14.5 37q0 25 18 41.5t45 16.5q26 0 43.5 -17t17.5 -45q0 -29 -28 -71l-27 -40h-60z" />
    <glyph glyph-name="Lcaron" unicode="&#x13d;" horiz-adv-x="505" 
d="M339 447h-78l34 167h78zM68 0v614h104v-521h295v-93h-399z" />
    <glyph glyph-name="lcaron" unicode="&#x13e;" horiz-adv-x="224" 
d="M290 483h-78l34 167h78zM162 650v-650h-100v650h100z" />
    <glyph glyph-name="Ldot" unicode="&#x13f;" horiz-adv-x="505" 
d="M68 0v614h104v-521h295v-93h-399zM429 307q0 -25 -18.5 -43t-43.5 -18t-43.5 18t-18.5 43t18.5 43t43.5 18t43.5 -18t18.5 -43z" />
    <glyph glyph-name="ldot" unicode="&#x140;" horiz-adv-x="364" 
d="M162 650v-650h-100v650h100zM354 325q0 -25 -18.5 -43t-43.5 -18t-43.5 18t-18.5 43t18.5 43t43.5 18t43.5 -18t18.5 -43z" />
    <glyph glyph-name="Lslash" unicode="&#x141;" horiz-adv-x="531" 
d="M30 207v95l64 27v285h104v-247l151 63v-95l-151 -62v-180h295v-93h-399v233z" />
    <glyph glyph-name="lslash" unicode="&#x142;" horiz-adv-x="260" 
d="M180 650v-229l55 33v-86l-55 -33v-335h-100v290l-50 -29v86l50 29v274h100z" />
    <glyph glyph-name="Nacute" unicode="&#x143;" horiz-adv-x="630" 
d="M357 671h-98l77 117h116zM562 614v-614h-80l-314 447v-447h-100v614h98l296 -426v426h100z" />
    <glyph glyph-name="nacute" unicode="&#x144;" horiz-adv-x="495" 
d="M295 513h-89l77 137h103zM62 0v444h100v-42q45 52 120 52q74 0 115.5 -45t41.5 -120v-289h-100v272q0 43 -21 67t-63 24q-33 0 -59 -19.5t-34 -51.5v-292h-100z" />
    <glyph glyph-name="uni0145" unicode="&#x145;" horiz-adv-x="630" 
d="M562 614v-614h-80l-314 447v-447h-100v614h98l296 -426v426h100zM262 -217l42 60q-22 3 -36.5 18t-14.5 37q0 25 18 41.5t45 16.5q26 0 43.5 -17t17.5 -45q0 -29 -28 -71l-27 -40h-60z" />
    <glyph glyph-name="uni0146" unicode="&#x146;" horiz-adv-x="495" 
d="M62 0v444h100v-42q45 52 120 52q74 0 115.5 -45t41.5 -120v-289h-100v272q0 43 -21 67t-63 24q-33 0 -59 -19.5t-34 -51.5v-292h-100zM203 -217l42 60q-22 3 -36.5 18t-14.5 37q0 25 18 41.5t45 16.5q26 0 43.5 -17t17.5 -45q0 -29 -28 -71l-27 -40h-60z" />
    <glyph glyph-name="Ncaron" unicode="&#x147;" horiz-adv-x="630" 
d="M269 671l-94 124h89l51 -60l51 60h89l-94 -124h-92zM562 614v-614h-80l-314 447v-447h-100v614h98l296 -426v426h100z" />
    <glyph glyph-name="ncaron" unicode="&#x148;" horiz-adv-x="495" 
d="M396 646l-94 -140h-92l-94 140h84l56 -79l56 79h84zM62 0v444h100v-42q45 52 120 52q74 0 115.5 -45t41.5 -120v-289h-100v272q0 43 -21 67t-63 24q-33 0 -59 -19.5t-34 -51.5v-292h-100z" />
    <glyph glyph-name="Eng" unicode="&#x14a;" horiz-adv-x="630" 
d="M271 -169v102q48 -28 95 -28q50 0 72.5 28.5t23.5 95.5l-294 418v-447h-100v614h98l296 -426v426h100v-582q0 -114 -47.5 -168t-142.5 -54q-49 0 -101 21z" />
    <glyph glyph-name="eng" unicode="&#x14b;" horiz-adv-x="495" 
d="M339 -33v305q0 43 -21 67t-63 24q-33 0 -59 -19.5t-34 -51.5v-292h-100v444h100v-42q45 52 120 52q74 0 115.5 -45t41.5 -120v-329q0 -67 -37 -103.5t-108 -36.5q-28 0 -40 5v84q14 -4 30 -4q55 0 55 62z" />
    <glyph glyph-name="Omacron" unicode="&#x14c;" horiz-adv-x="637" 
d="M206 671v79h225v-79h-225zM602 307q0 -138 -80 -227.5t-204 -89.5t-203.5 89.5t-79.5 227.5t79.5 227.5t203.5 89.5t204 -89.5t80 -227.5zM497 307q0 98 -49.5 161t-129.5 63t-129 -62.5t-49 -161.5t49 -161.5t129 -62.5t129.5 63t49.5 161z" />
    <glyph glyph-name="omacron" unicode="&#x14d;" horiz-adv-x="484" 
d="M130 524v79h225v-79h-225zM453 222q0 -102 -58.5 -167t-152.5 -65t-152.5 65t-58.5 167t58.5 167t152.5 65t152.5 -65t58.5 -167zM353 222q0 65 -29 105.5t-82 40.5t-82 -40.5t-29 -105.5t29 -105.5t82 -40.5t82 40.5t29 105.5z" />
    <glyph glyph-name="Obreve" unicode="&#x14e;" horiz-adv-x="637" 
d="M318 667q-59 0 -93 32.5t-34 91.5h73q0 -51 54 -51q55 0 55 51h73q0 -59 -34.5 -91.5t-93.5 -32.5zM602 307q0 -138 -80 -227.5t-204 -89.5t-203.5 89.5t-79.5 227.5t79.5 227.5t203.5 89.5t204 -89.5t80 -227.5zM497 307q0 98 -49.5 161t-129.5 63t-129 -62.5
t-49 -161.5t49 -161.5t129 -62.5t129.5 63t49.5 161z" />
    <glyph glyph-name="obreve" unicode="&#x14f;" horiz-adv-x="484" 
d="M242 495q-57 0 -91 35.5t-34 99.5h73q0 -65 52 -65t52 65h73q0 -64 -34 -99.5t-91 -35.5zM453 222q0 -102 -58.5 -167t-152.5 -65t-152.5 65t-58.5 167t58.5 167t152.5 65t152.5 -65t58.5 -167zM353 222q0 65 -29 105.5t-82 40.5t-82 -40.5t-29 -105.5t29 -105.5
t82 -40.5t82 40.5t29 105.5z" />
    <glyph glyph-name="Ohungarumlaut" unicode="&#x150;" horiz-adv-x="637" 
d="M433 671h-83l60 117h85zM300 671h-83l60 117h85zM602 307q0 -138 -80 -227.5t-204 -89.5t-203.5 89.5t-79.5 227.5t79.5 227.5t203.5 89.5t204 -89.5t80 -227.5zM497 307q0 98 -49.5 161t-129.5 63t-129 -62.5t-49 -161.5t49 -161.5t129 -62.5t129.5 63t49.5 161z" />
    <glyph glyph-name="ohungarumlaut" unicode="&#x151;" horiz-adv-x="484" 
d="M341 513h-80l60 137h82zM213 513h-80l60 137h82zM453 222q0 -102 -58.5 -167t-152.5 -65t-152.5 65t-58.5 167t58.5 167t152.5 65t152.5 -65t58.5 -167zM353 222q0 65 -29 105.5t-82 40.5t-82 -40.5t-29 -105.5t29 -105.5t82 -40.5t82 40.5t29 105.5z" />
    <glyph glyph-name="OE" unicode="&#x152;" horiz-adv-x="821" 
d="M776 614v-92h-279v-162h251v-91h-251v-176h279v-93h-443q-136 0 -217 83.5t-81 223.5t81 223.5t217 83.5h443zM337 93h58v429h-58q-95 0 -146.5 -57.5t-51.5 -157.5t51.5 -157t146.5 -57z" />
    <glyph glyph-name="oe" unicode="&#x153;" horiz-adv-x="782" 
d="M561 -10q-101 0 -161 71q-58 -71 -158 -71q-94 0 -152.5 65t-58.5 167t58.5 167t152.5 65q99 0 158 -72q61 72 159 72q92 0 142.5 -59.5t50.5 -159.5v-36h-303q2 -58 32.5 -91.5t79.5 -33.5q79 0 95 64h92q-12 -68 -60.5 -108t-126.5 -40zM560 370q-42 0 -70.5 -25.5
t-37.5 -72.5h201q-1 43 -25 70.5t-68 27.5zM353 222q0 65 -29 105.5t-82 40.5t-82 -40.5t-29 -105.5t29 -105.5t82 -40.5t82 40.5t29 105.5z" />
    <glyph glyph-name="Racute" unicode="&#x154;" horiz-adv-x="555" 
d="M319 671h-98l77 117h116zM172 524v-188h131q51 0 79.5 25.5t28.5 68.5t-28.5 68.5t-79.5 25.5h-131zM246 249h-74v-249h-104v614h237q97 0 153 -47.5t56 -136.5q0 -76 -41.5 -120.5t-115.5 -56.5l178 -253h-118z" />
    <glyph glyph-name="racute" unicode="&#x155;" horiz-adv-x="340" 
d="M225 513h-89l77 137h103zM310 446v-103q-21 15 -59 15q-32 0 -57 -18.5t-32 -52.5v-287h-100v444h100v-46q13 25 40 40.5t59 15.5q35 0 49 -8z" />
    <glyph glyph-name="uni0156" unicode="&#x156;" horiz-adv-x="555" 
d="M172 524v-188h131q51 0 79.5 25.5t28.5 68.5t-28.5 68.5t-79.5 25.5h-131zM246 249h-74v-249h-104v614h237q97 0 153 -47.5t56 -136.5q0 -76 -41.5 -120.5t-115.5 -56.5l178 -253h-118zM224 -217l42 60q-22 3 -36.5 18t-14.5 37q0 25 18 41.5t45 16.5q26 0 43.5 -17
t17.5 -45q0 -29 -28 -71l-27 -40h-60z" />
    <glyph glyph-name="uni0157" unicode="&#x157;" horiz-adv-x="340" 
d="M310 446v-103q-21 15 -59 15q-32 0 -57 -18.5t-32 -52.5v-287h-100v444h100v-46q13 25 40 40.5t59 15.5q35 0 49 -8zM57 -217l42 60q-22 3 -36.5 18t-14.5 37q0 25 18 41.5t45 16.5q26 0 43.5 -17t17.5 -45q0 -29 -28 -71l-27 -40h-60z" />
    <glyph glyph-name="Rcaron" unicode="&#x158;" horiz-adv-x="555" 
d="M231 671l-94 124h89l51 -60l51 60h89l-94 -124h-92zM172 524v-188h131q51 0 79.5 25.5t28.5 68.5t-28.5 68.5t-79.5 25.5h-131zM246 249h-74v-249h-104v614h237q97 0 153 -47.5t56 -136.5q0 -76 -41.5 -120.5t-115.5 -56.5l178 -253h-118z" />
    <glyph glyph-name="rcaron" unicode="&#x159;" horiz-adv-x="340" 
d="M326 646l-94 -140h-92l-94 140h84l56 -79l56 79h84zM310 446v-103q-21 15 -59 15q-32 0 -57 -18.5t-32 -52.5v-287h-100v444h100v-46q13 25 40 40.5t59 15.5q35 0 49 -8z" />
    <glyph glyph-name="Sacute" unicode="&#x15a;" horiz-adv-x="519" 
d="M295 671h-98l77 117h116zM20 170h106q29 -92 139 -92q54 0 86.5 24.5t32.5 66.5q0 33 -20.5 52.5t-68.5 30.5l-104 25q-153 36 -153 165q0 79 58.5 130.5t150.5 51.5q97 0 156.5 -45.5t76.5 -124.5h-104q-29 82 -128 82q-50 0 -80.5 -23.5t-30.5 -61.5q0 -61 81 -80
l107 -25q75 -17 117 -60t42 -110q0 -85 -61 -135.5t-158 -50.5q-98 0 -163.5 47.5t-81.5 132.5z" />
    <glyph glyph-name="sacute" unicode="&#x15b;" horiz-adv-x="429" 
d="M255 513h-89l77 137h103zM31 128h102q17 -56 88 -56q35 0 55.5 13.5t20.5 39.5q0 18 -12 28.5t-40 17.5l-92 22q-110 26 -110 122q0 60 47.5 99.5t120.5 39.5q76 0 121 -34.5t57 -96.5h-98q-15 49 -81 49q-29 0 -50 -13t-21 -38q0 -29 46 -41l94 -22q114 -27 114 -126
q0 -65 -48.5 -103.5t-124.5 -38.5q-78 0 -128.5 37t-60.5 101z" />
    <glyph glyph-name="Scircumflex" unicode="&#x15c;" horiz-adv-x="519" 
d="M305 795l94 -124h-89l-51 60l-51 -60h-89l94 124h92zM20 170h106q29 -92 139 -92q54 0 86.5 24.5t32.5 66.5q0 33 -20.5 52.5t-68.5 30.5l-104 25q-153 36 -153 165q0 79 58.5 130.5t150.5 51.5q97 0 156.5 -45.5t76.5 -124.5h-104q-29 82 -128 82q-50 0 -80.5 -23.5
t-30.5 -61.5q0 -61 81 -80l107 -25q75 -17 117 -60t42 -110q0 -85 -61 -135.5t-158 -50.5q-98 0 -163.5 47.5t-81.5 132.5z" />
    <glyph glyph-name="scircumflex" unicode="&#x15d;" horiz-adv-x="429" 
d="M262 646l94 -140h-84l-56 79l-56 -79h-84l94 140h92zM31 128h102q17 -56 88 -56q35 0 55.5 13.5t20.5 39.5q0 18 -12 28.5t-40 17.5l-92 22q-110 26 -110 122q0 60 47.5 99.5t120.5 39.5q76 0 121 -34.5t57 -96.5h-98q-15 49 -81 49q-29 0 -50 -13t-21 -38q0 -29 46 -41
l94 -22q114 -27 114 -126q0 -65 -48.5 -103.5t-124.5 -38.5q-78 0 -128.5 37t-60.5 101z" />
    <glyph glyph-name="uni015E" unicode="&#x15e;" horiz-adv-x="519" 
d="M20 170h106q29 -92 139 -92q54 0 86.5 24.5t32.5 66.5q0 33 -20.5 52.5t-68.5 30.5l-104 25q-153 36 -153 165q0 79 58.5 130.5t150.5 51.5q97 0 156.5 -45.5t76.5 -124.5h-104q-29 82 -128 82q-50 0 -80.5 -23.5t-30.5 -61.5q0 -61 81 -80l107 -25q75 -17 117 -60
t42 -110q0 -85 -61 -135.5t-158 -50.5q-98 0 -163.5 47.5t-81.5 132.5zM231 -190h-93l71 137h99z" />
    <glyph glyph-name="uni015F" unicode="&#x15f;" horiz-adv-x="429" 
d="M31 128h102q17 -56 88 -56q35 0 55.5 13.5t20.5 39.5q0 18 -12 28.5t-40 17.5l-92 22q-110 26 -110 122q0 60 47.5 99.5t120.5 39.5q76 0 121 -34.5t57 -96.5h-98q-15 49 -81 49q-29 0 -50 -13t-21 -38q0 -29 46 -41l94 -22q114 -27 114 -126q0 -65 -48.5 -103.5
t-124.5 -38.5q-78 0 -128.5 37t-60.5 101zM194 -190h-93l71 137h99z" />
    <glyph glyph-name="Scaron" unicode="&#x160;" horiz-adv-x="519" 
d="M213 671l-94 124h89l51 -60l51 60h89l-94 -124h-92zM20 170h106q29 -92 139 -92q54 0 86.5 24.5t32.5 66.5q0 33 -20.5 52.5t-68.5 30.5l-104 25q-153 36 -153 165q0 79 58.5 130.5t150.5 51.5q97 0 156.5 -45.5t76.5 -124.5h-104q-29 82 -128 82q-50 0 -80.5 -23.5
t-30.5 -61.5q0 -61 81 -80l107 -25q75 -17 117 -60t42 -110q0 -85 -61 -135.5t-158 -50.5q-98 0 -163.5 47.5t-81.5 132.5z" />
    <glyph glyph-name="scaron" unicode="&#x161;" horiz-adv-x="429" 
d="M356 646l-94 -140h-92l-94 140h84l56 -79l56 79h84zM31 128h102q17 -56 88 -56q35 0 55.5 13.5t20.5 39.5q0 18 -12 28.5t-40 17.5l-92 22q-110 26 -110 122q0 60 47.5 99.5t120.5 39.5q76 0 121 -34.5t57 -96.5h-98q-15 49 -81 49q-29 0 -50 -13t-21 -38q0 -29 46 -41
l94 -22q114 -27 114 -126q0 -65 -48.5 -103.5t-124.5 -38.5q-78 0 -128.5 37t-60.5 101z" />
    <glyph glyph-name="uni0162" unicode="&#x162;" horiz-adv-x="572" 
d="M30 522v92h512v-92h-204v-522h-104v522h-204zM233 -217l42 60q-22 3 -36.5 18t-14.5 37q0 25 18 41.5t45 16.5q26 0 43.5 -17t17.5 -45q0 -29 -28 -71l-27 -40h-60z" />
    <glyph glyph-name="uni0163" unicode="&#x163;" horiz-adv-x="335" 
d="M85 120v241h-70v83h70v119h100v-119h100v-83h-100v-230q0 -52 53 -52q32 0 57 18v-91q-27 -16 -75 -16q-62 0 -98.5 33t-36.5 97zM142 -217l42 60q-22 3 -36.5 18t-14.5 37q0 25 18 41.5t45 16.5q26 0 43.5 -17t17.5 -45q0 -29 -28 -71l-27 -40h-60z" />
    <glyph glyph-name="Tcaron" unicode="&#x164;" horiz-adv-x="572" 
d="M240 671l-94 124h89l51 -60l51 60h89l-94 -124h-92zM30 522v92h512v-92h-204v-522h-104v522h-204z" />
    <glyph glyph-name="tcaron" unicode="&#x165;" horiz-adv-x="335" 
d="M312 493h-78l34 167h78zM85 120v241h-70v83h70v119h100v-119h100v-83h-100v-230q0 -52 53 -52q32 0 57 18v-91q-27 -16 -75 -16q-62 0 -98.5 33t-36.5 97z" />
    <glyph glyph-name="Tbar" unicode="&#x166;" horiz-adv-x="572" 
d="M30 522v92h512v-92h-204v-161h110v-88h-110v-273h-104v273h-110v88h110v161h-204z" />
    <glyph glyph-name="tbar" unicode="&#x167;" horiz-adv-x="341" 
d="M30 199v79h61v83h-70v83h70v119h100v-119h100v-83h-100v-83h87v-79h-87v-68q0 -52 53 -52q32 0 57 18v-91q-27 -16 -75 -16q-62 0 -98.5 33t-36.5 97v79h-61z" />
    <glyph glyph-name="Utilde" unicode="&#x168;" horiz-adv-x="608" 
d="M387 797h60q0 -60 -21.5 -95.5t-61.5 -35.5q-26 0 -60 24t-51 24q-31 0 -32 -45h-60q0 60 21.5 95.5t61.5 35.5q26 0 60 -24t51 -24q31 0 32 45zM304 -10q-113 0 -179.5 65.5t-66.5 189.5v369h104v-358q0 -173 142 -173t142 173v358h104v-370q0 -123 -66.5 -188.5
t-179.5 -65.5z" />
    <glyph glyph-name="utilde" unicode="&#x169;" horiz-adv-x="493" 
d="M325 641h60q0 -60 -21.5 -95.5t-61.5 -35.5q-23 0 -55.5 26t-45.5 26q-30 0 -32 -49h-60q0 60 21.5 95.5t61.5 35.5q24 0 56.5 -26t44.5 -26q30 0 32 49zM431 444v-444h-100v42q-45 -52 -119 -52t-115 45t-41 120v289h100v-272q0 -91 83 -91q33 0 58.5 19.5t33.5 51.5
v292h100z" />
    <glyph glyph-name="Umacron" unicode="&#x16a;" horiz-adv-x="608" 
d="M192 671v79h225v-79h-225zM304 -10q-113 0 -179.5 65.5t-66.5 189.5v369h104v-358q0 -173 142 -173t142 173v358h104v-370q0 -123 -66.5 -188.5t-179.5 -65.5z" />
    <glyph glyph-name="umacron" unicode="&#x16b;" horiz-adv-x="493" 
d="M135 524v79h225v-79h-225zM431 444v-444h-100v42q-45 -52 -119 -52t-115 45t-41 120v289h100v-272q0 -91 83 -91q33 0 58.5 19.5t33.5 51.5v292h100z" />
    <glyph glyph-name="Ubreve" unicode="&#x16c;" horiz-adv-x="608" 
d="M304 667q-59 0 -93 32.5t-34 91.5h73q0 -51 54 -51q55 0 55 51h73q0 -59 -34.5 -91.5t-93.5 -32.5zM304 -10q-113 0 -179.5 65.5t-66.5 189.5v369h104v-358q0 -173 142 -173t142 173v358h104v-370q0 -123 -66.5 -188.5t-179.5 -65.5z" />
    <glyph glyph-name="ubreve" unicode="&#x16d;" horiz-adv-x="493" 
d="M247 495q-57 0 -91 35.5t-34 99.5h73q0 -65 52 -65t52 65h73q0 -64 -34 -99.5t-91 -35.5zM431 444v-444h-100v42q-45 -52 -119 -52t-115 45t-41 120v289h100v-272q0 -91 83 -91q33 0 58.5 19.5t33.5 51.5v292h100z" />
    <glyph glyph-name="Uring" unicode="&#x16e;" horiz-adv-x="608" 
d="M397 740q0 -39 -27 -65t-66 -26t-66 26t-27 65t27 65t66 26t66 -26t27 -65zM346 740q0 18 -12.5 30t-29.5 12t-29.5 -12t-12.5 -30t12.5 -30t29.5 -12t29.5 12t12.5 30zM304 -10q-113 0 -179.5 65.5t-66.5 189.5v369h104v-358q0 -173 142 -173t142 173v358h104v-370
q0 -123 -66.5 -188.5t-179.5 -65.5z" />
    <glyph glyph-name="uring" unicode="&#x16f;" horiz-adv-x="493" 
d="M340 580q0 -39 -27 -65t-66 -26t-66 26t-27 65t27 65t66 26t66 -26t27 -65zM289 580q0 18 -12.5 30t-29.5 12t-29.5 -12t-12.5 -30t12.5 -30t29.5 -12t29.5 12t12.5 30zM431 444v-444h-100v42q-45 -52 -119 -52t-115 45t-41 120v289h100v-272q0 -91 83 -91
q33 0 58.5 19.5t33.5 51.5v292h100z" />
    <glyph glyph-name="Uhungarumlaut" unicode="&#x170;" horiz-adv-x="608" 
d="M419 671h-83l60 117h85zM286 671h-83l60 117h85zM304 -10q-113 0 -179.5 65.5t-66.5 189.5v369h104v-358q0 -173 142 -173t142 173v358h104v-370q0 -123 -66.5 -188.5t-179.5 -65.5z" />
    <glyph glyph-name="uhungarumlaut" unicode="&#x171;" horiz-adv-x="493" 
d="M346 513h-80l60 137h82zM218 513h-80l60 137h82zM431 444v-444h-100v42q-45 -52 -119 -52t-115 45t-41 120v289h100v-272q0 -91 83 -91q33 0 58.5 19.5t33.5 51.5v292h100z" />
    <glyph glyph-name="Uogonek" unicode="&#x172;" horiz-adv-x="608" 
d="M304 -10q-113 0 -179.5 65.5t-66.5 189.5v369h104v-358q0 -173 142 -173t142 173v358h104v-370q0 -80 -26.5 -132t-82.5 -91q-93 -65 -93 -118q0 -23 21 -23q14 0 37 16v-64q-29 -22 -59 -22q-37 0 -56 20t-19 52q0 55 53 108h-21z" />
    <glyph glyph-name="uogonek" unicode="&#x173;" horiz-adv-x="493" 
d="M431 444v-444q-5 -7 -12 -18t-10 -16l-7.5 -12.5t-6.5 -11t-5 -9t-4 -8.5t-2 -7t-1.5 -7.5t-0.5 -7.5q0 -23 21 -23q14 0 37 16v-64q-29 -22 -59 -22q-37 0 -56 20t-19 52q0 8 1.5 16t3 14t5.5 15l6 13.5t8.5 15t9 14t10.5 15.5l10 15h-29v42q-45 -52 -119 -52t-115 45
t-41 120v289h100v-272q0 -91 83 -91q33 0 58.5 19.5t33.5 51.5v292h100z" />
    <glyph glyph-name="Wcircumflex" unicode="&#x174;" horiz-adv-x="775" 
d="M433 795l94 -124h-89l-51 60l-51 -60h-89l94 124h92zM347 614h84l116 -452l111 452h100l-158 -614h-96l-116 439l-118 -439h-95l-158 614h102l111 -452z" />
    <glyph glyph-name="wcircumflex" unicode="&#x175;" horiz-adv-x="652" 
d="M372 646l94 -140h-84l-56 79l-56 -79h-84l94 140h92zM373 444l78 -315l86 315h97l-129 -444h-100l-79 309l-79 -309h-100l-129 444h100l86 -315l78 315h91z" />
    <glyph glyph-name="Ycircumflex" unicode="&#x176;" horiz-adv-x="578" 
d="M335 795l94 -124h-89l-51 60l-51 -60h-89l94 124h92zM291 339l162 275h110l-223 -369v-245h-103v245l-222 369h113z" />
    <glyph glyph-name="ycircumflex" unicode="&#x177;" horiz-adv-x="476" 
d="M284 646l94 -140h-84l-56 79l-56 -79h-84l94 140h92zM224 -170h-97l63 158l-172 456h107l116 -327l114 327h103z" />
    <glyph glyph-name="Ydieresis" unicode="&#x178;" horiz-adv-x="578" 
d="M308 728q0 25 17 42t41 17t41.5 -17t17.5 -42q0 -24 -17.5 -41t-41.5 -17t-41 17t-17 41zM154 728q0 25 17 42t42 17q24 0 41 -17t17 -42q0 -24 -17 -41t-41 -17q-25 0 -42 17t-17 41zM291 339l162 275h110l-223 -369v-245h-103v245l-222 369h113z" />
    <glyph glyph-name="Zacute" unicode="&#x179;" horiz-adv-x="549" 
d="M337 671h-98l77 117h116zM504 93v-93h-459v73l324 449h-319v92h449v-72l-323 -449h328z" />
    <glyph glyph-name="zacute" unicode="&#x17a;" horiz-adv-x="450" 
d="M273 513h-89l77 137h103zM403 83v-83h-360v63l228 298h-218v83h346v-63l-227 -298h231z" />
    <glyph glyph-name="Zdotaccent" unicode="&#x17b;" horiz-adv-x="549" 
d="M357 728q0 -25 -18.5 -43t-43.5 -18t-43.5 18t-18.5 43t18.5 43t43.5 18t43.5 -18t18.5 -43zM504 93v-93h-459v73l324 449h-319v92h449v-72l-323 -449h328z" />
    <glyph glyph-name="zdotaccent" unicode="&#x17c;" horiz-adv-x="450" 
d="M296 578q0 -25 -18.5 -43t-43.5 -18t-43.5 18t-18.5 43t18.5 43t43.5 18t43.5 -18t18.5 -43zM403 83v-83h-360v63l228 298h-218v83h346v-63l-227 -298h231z" />
    <glyph glyph-name="Zcaron" unicode="&#x17d;" horiz-adv-x="549" 
d="M249 671l-94 124h89l51 -60l51 60h89l-94 -124h-92zM504 93v-93h-459v73l324 449h-319v92h449v-72l-323 -449h328z" />
    <glyph glyph-name="zcaron" unicode="&#x17e;" horiz-adv-x="450" 
d="M374 646l-94 -140h-92l-94 140h84l56 -79l56 79h84zM403 83v-83h-360v63l228 298h-218v83h346v-63l-227 -298h231z" />
    <glyph glyph-name="uni0192" unicode="&#x192;" horiz-adv-x="424" 
d="M69 267v84h87l22 126q13 71 57.5 109t114.5 38q35 0 64 -12v-88q-26 14 -62 14q-30 0 -50.5 -17.5t-26.5 -50.5l-21 -119h90v-84h-105l-53 -300q-13 -74 -49 -110.5t-106 -36.5q-39 0 -64 12v88q26 -14 62 -14q29 0 41 16t19 52l52 293h-72z" />
    <glyph glyph-name="Aringacute" unicode="&#x1fa;" horiz-adv-x="612" 
d="M361 806h-98l53 88h116zM398 710q0 -32 -27 -54.5t-66 -22.5t-66 22.5t-27 54.5t27 54.5t66 22.5t66 -22.5t27 -54.5zM347 710q0 15 -12 23.5t-30 8.5t-30 -8.5t-12 -23.5t12 -23.5t30 -8.5t30 8.5t12 23.5zM305 487l-84 -227h168zM256 614h100l236 -614h-106l-63 170
h-235l-63 -170h-105z" />
    <glyph glyph-name="aringacute" unicode="&#x1fb;" horiz-adv-x="512" 
d="M310 646h-98l53 88h116zM347 550q0 -32 -27 -54.5t-66 -22.5t-66 22.5t-27 54.5t27 54.5t66 22.5t66 -22.5t27 -54.5zM296 550q0 15 -12 23.5t-30 8.5t-30 -8.5t-12 -23.5t12 -23.5t30 -8.5t30 8.5t12 23.5zM350 138v168q-13 26 -39 42.5t-57 16.5q-57 0 -90 -40
t-33 -103t33 -103t90 -40q31 0 57 16.5t39 42.5zM350 0v38q-16 -20 -47 -34t-66 -14q-95 0 -150.5 66.5t-55.5 165.5t55.5 165.5t150.5 66.5q35 0 66 -14t47 -34v38h100v-444h-100z" />
    <glyph glyph-name="AEacute" unicode="&#x1fc;" horiz-adv-x="865" 
d="M620 671h-98l77 117h116zM439 533l-160 -273h160v273zM375 614h445v-92h-279v-162h251v-91h-251v-176h279v-93h-381v170h-212l-99 -170h-108z" />
    <glyph glyph-name="aeacute" unicode="&#x1fd;" horiz-adv-x="796" 
d="M442 513h-89l77 137h103zM592 -9q-99 0 -145 67v-58h-95v58q-20 -28 -55.5 -47.5t-75.5 -19.5q-93 0 -143 66.5t-50 166.5t50 166.5t143 66.5q40 0 75.5 -19.5t55.5 -47.5v58h95v-65q19 35 53.5 53t73.5 18q93 0 143.5 -59.5t50.5 -159.5v-36h-303q2 -58 32.5 -91.5
t80.5 -33.5q78 0 94 64h92q-11 -66 -58 -106.5t-114 -40.5zM352 148v153q-36 69 -106 69q-54 0 -85 -40.5t-31 -105.5q0 -64 31 -104.5t85 -40.5q71 0 106 69zM576 370q-42 0 -70.5 -25.5t-37.5 -72.5h201q-1 43 -25 70.5t-68 27.5z" />
    <glyph glyph-name="Oslashacute" unicode="&#x1fe;" horiz-adv-x="647" 
d="M365 671h-98l77 117h116zM145 307q0 -82 29 -136l253 327q-42 33 -104 33q-80 0 -129 -62.5t-49 -161.5zM502 307q0 75 -28 133l-253 -326q42 -31 102 -31q80 0 129.5 63t49.5 161zM62 27l49 63q-71 87 -71 217q0 138 79.5 227.5t203.5 89.5q91 0 162 -52l43 56l60 -41
l-51 -65q70 -88 70 -215q0 -138 -80 -227.5t-204 -89.5q-91 0 -160 49l-41 -53z" />
    <glyph glyph-name="oslashacute" unicode="&#x1ff;" horiz-adv-x="494" 
d="M285 513h-89l77 137h103zM134 222q0 -45 13 -77l159 206q-25 17 -59 17q-53 0 -83 -40.5t-30 -105.5zM360 222q0 44 -14 78l-160 -206q26 -18 61 -18q53 0 83 40.5t30 105.5zM37 2l49 63q-50 63 -50 157q0 102 58.5 167t152.5 65q64 0 114 -33l41 54l51 -36l-46 -60
q51 -64 51 -157q0 -102 -58.5 -167t-152.5 -65q-65 0 -115 33l-44 -57z" />
    <glyph glyph-name="uni0218" unicode="&#x218;" horiz-adv-x="519" 
d="M20 170h106q29 -92 139 -92q54 0 86.5 24.5t32.5 66.5q0 33 -20.5 52.5t-68.5 30.5l-104 25q-153 36 -153 165q0 79 58.5 130.5t150.5 51.5q97 0 156.5 -45.5t76.5 -124.5h-104q-29 82 -128 82q-50 0 -80.5 -23.5t-30.5 -61.5q0 -61 81 -80l107 -25q75 -17 117 -60
t42 -110q0 -85 -61 -135.5t-158 -50.5q-98 0 -163.5 47.5t-81.5 132.5zM200 -217l42 60q-22 3 -36.5 18t-14.5 37q0 25 18 41.5t45 16.5q26 0 43.5 -17t17.5 -45q0 -29 -28 -71l-27 -40h-60z" />
    <glyph glyph-name="uni0219" unicode="&#x219;" horiz-adv-x="429" 
d="M31 128h102q17 -56 88 -56q35 0 55.5 13.5t20.5 39.5q0 18 -12 28.5t-40 17.5l-92 22q-110 26 -110 122q0 60 47.5 99.5t120.5 39.5q76 0 121 -34.5t57 -96.5h-98q-15 49 -81 49q-29 0 -50 -13t-21 -38q0 -29 46 -41l94 -22q114 -27 114 -126q0 -65 -48.5 -103.5
t-124.5 -38.5q-78 0 -128.5 37t-60.5 101zM163 -217l42 60q-22 3 -36.5 18t-14.5 37q0 25 18 41.5t45 16.5q26 0 43.5 -17t17.5 -45q0 -29 -28 -71l-27 -40h-60z" />
    <glyph glyph-name="uni0237" unicode="&#x237;" horiz-adv-x="222" 
d="M162 444v-484q0 -67 -37 -103.5t-108 -36.5q-28 0 -40 5v84q14 -4 30 -4q55 0 55 62v477h100z" />
    <glyph glyph-name="circumflex" unicode="&#x2c6;" 
d="M296 646l94 -140h-84l-56 79l-56 -79h-84l94 140h92z" />
    <glyph glyph-name="caron" unicode="&#x2c7;" 
d="M390 646l-94 -140h-92l-94 140h84l56 -79l56 79h84z" />
    <glyph glyph-name="breve" unicode="&#x2d8;" 
d="M250 495q-57 0 -91 35.5t-34 99.5h73q0 -65 52 -65t52 65h73q0 -64 -34 -99.5t-91 -35.5z" />
    <glyph glyph-name="dotaccent" unicode="&#x2d9;" 
d="M312 578q0 -25 -18.5 -43t-43.5 -18t-43.5 18t-18.5 43t18.5 43t43.5 18t43.5 -18t18.5 -43z" />
    <glyph glyph-name="ring" unicode="&#x2da;" 
d="M343 580q0 -39 -27 -65t-66 -26t-66 26t-27 65t27 65t66 26t66 -26t27 -65zM292 580q0 18 -12.5 30t-29.5 12t-29.5 -12t-12.5 -30t12.5 -30t29.5 -12t29.5 12t12.5 30z" />
    <glyph glyph-name="ogonek" unicode="&#x2db;" 
d="M235 5h71q-4 -7 -10.5 -17t-9.5 -14.5t-8 -12.5t-7 -11.5t-5 -9t-4.5 -9t-3.5 -7.5t-2.5 -7.5l-1 -7t-0.5 -6.5q0 -23 21 -23q14 0 37 16v-64q-29 -22 -59 -22q-37 0 -56 20t-19 52q0 12 2.5 23.5t10 27t11 21t17.5 27t16 24.5z" />
    <glyph glyph-name="tilde" unicode="&#x2dc;" 
d="M328 641h60q0 -60 -21.5 -95.5t-61.5 -35.5q-23 0 -55.5 26t-45.5 26q-30 0 -32 -49h-60q0 60 21.5 95.5t61.5 35.5q24 0 56.5 -26t44.5 -26q30 0 32 49z" />
    <glyph glyph-name="hungarumlaut" unicode="&#x2dd;" 
d="M323 513h-80l60 137h82zM195 513h-80l60 137h82z" />
    <glyph glyph-name="Wgrave" unicode="&#x1e80;" horiz-adv-x="775" 
d="M436 671h-98l-95 117h116zM347 614h84l116 -452l111 452h100l-158 -614h-96l-116 439l-118 -439h-95l-158 614h102l111 -452z" />
    <glyph glyph-name="wgrave" unicode="&#x1e81;" horiz-adv-x="652" 
d="M376 513h-89l-91 137h103zM373 444l78 -315l86 315h97l-129 -444h-100l-79 309l-79 -309h-100l-129 444h100l86 -315l78 315h91z" />
    <glyph glyph-name="Wacute" unicode="&#x1e82;" horiz-adv-x="775" 
d="M436 671h-98l77 117h116zM347 614h84l116 -452l111 452h100l-158 -614h-96l-116 439l-118 -439h-95l-158 614h102l111 -452z" />
    <glyph glyph-name="wacute" unicode="&#x1e83;" horiz-adv-x="652" 
d="M365 513h-89l77 137h103zM373 444l78 -315l86 315h97l-129 -444h-100l-79 309l-79 -309h-100l-129 444h100l86 -315l78 315h91z" />
    <glyph glyph-name="Wdieresis" unicode="&#x1e84;" horiz-adv-x="775" 
d="M406 728q0 25 17 42t41 17t41.5 -17t17.5 -42q0 -24 -17.5 -41t-41.5 -17t-41 17t-17 41zM252 728q0 25 17 42t42 17q24 0 41 -17t17 -42q0 -24 -17 -41t-41 -17q-25 0 -42 17t-17 41zM347 614h84l116 -452l111 452h100l-158 -614h-96l-116 439l-118 -439h-95l-158 614
h102l111 -452z" />
    <glyph glyph-name="wdieresis" unicode="&#x1e85;" horiz-adv-x="652" 
d="M345 572q0 25 17 42t41 17t41.5 -17t17.5 -42q0 -24 -17.5 -41t-41.5 -17t-41 17t-17 41zM191 572q0 25 17 42t42 17q24 0 41 -17t17 -42q0 -24 -17 -41t-41 -17q-25 0 -42 17t-17 41zM373 444l78 -315l86 315h97l-129 -444h-100l-79 309l-79 -309h-100l-129 444h100
l86 -315l78 315h91z" />
    <glyph glyph-name="Ygrave" unicode="&#x1ef2;" horiz-adv-x="578" 
d="M342 671h-98l-95 117h116zM291 339l162 275h110l-223 -369v-245h-103v245l-222 369h113z" />
    <glyph glyph-name="ygrave" unicode="&#x1ef3;" horiz-adv-x="476" 
d="M288 513h-89l-91 137h103zM224 -170h-97l63 158l-172 456h107l116 -327l114 327h103z" />
    <glyph glyph-name="endash" unicode="&#x2013;" horiz-adv-x="475" 
d="M40 223v79h395v-79h-395z" />
    <glyph glyph-name="emdash" unicode="&#x2014;" horiz-adv-x="846" 
d="M40 223v79h766v-79h-766z" />
    <glyph glyph-name="quoteleft" unicode="&#x2018;" horiz-adv-x="193" 
d="M174 614l-69 -108q25 -4 40.5 -21t15.5 -43q0 -29 -19.5 -48t-48.5 -19q-30 0 -49 19.5t-19 55.5t29 80l55 84h65z" />
    <glyph glyph-name="quoteright" unicode="&#x2019;" horiz-adv-x="193" 
d="M19 385l69 108q-25 4 -40.5 21t-15.5 43q0 29 19.5 48t48.5 19q30 0 49 -19.5t19 -55.5q0 -37 -29 -80l-55 -84h-65z" />
    <glyph glyph-name="quotesinglbase" unicode="&#x201a;" horiz-adv-x="193" 
d="M19 -108l69 108q-25 4 -40.5 21t-15.5 43q0 29 19.5 48t48.5 19q30 0 49 -19.5t19 -55.5t-29 -80l-55 -84h-65z" />
    <glyph glyph-name="quotedblleft" unicode="&#x201c;" horiz-adv-x="374" 
d="M355 614l-69 -108q25 -4 40.5 -21t15.5 -43q0 -29 -19.5 -48t-48.5 -19q-30 0 -49 19.5t-19 55.5t29 80l55 84h65zM174 614l-69 -108q25 -4 40.5 -21t15.5 -43q0 -29 -19.5 -48t-48.5 -19q-30 0 -49 19.5t-19 55.5t29 80l55 84h65z" />
    <glyph glyph-name="quotedblright" unicode="&#x201d;" horiz-adv-x="374" 
d="M200 385l69 108q-25 4 -40.5 21t-15.5 43q0 29 19.5 48t48.5 19q30 0 49 -19.5t19 -55.5q0 -37 -29 -80l-55 -84h-65zM19 385l69 108q-25 4 -40.5 21t-15.5 43q0 29 19.5 48t48.5 19q30 0 49 -19.5t19 -55.5q0 -37 -29 -80l-55 -84h-65z" />
    <glyph glyph-name="quotedblbase" unicode="&#x201e;" horiz-adv-x="374" 
d="M200 -108l69 108q-25 4 -40.5 21t-15.5 43q0 29 19.5 48t48.5 19q30 0 49 -19.5t19 -55.5t-29 -80l-55 -84h-65zM19 -108l69 108q-25 4 -40.5 21t-15.5 43q0 29 19.5 48t48.5 19q30 0 49 -19.5t19 -55.5t-29 -80l-55 -84h-65z" />
    <glyph glyph-name="dagger" unicode="&#x2020;" horiz-adv-x="332" 
d="M30 486v72h99v92h74v-92h99v-72h-99v-210h-74v210h-99z" />
    <glyph glyph-name="daggerdbl" unicode="&#x2021;" horiz-adv-x="345" 
d="M35 502v68h100v80h74v-80h101v-68h-101v-79h101v-67h-101v-80h-74v80h-100v67h100v79h-100z" />
    <glyph glyph-name="bullet" unicode="&#x2022;" horiz-adv-x="352" 
d="M320 262q0 -62 -41.5 -102.5t-102.5 -40.5t-102.5 40.5t-41.5 102.5q0 63 41.5 103.5t102.5 40.5t102.5 -40.5t41.5 -103.5z" />
    <glyph glyph-name="ellipsis" unicode="&#x2026;" horiz-adv-x="640" 
d="M472 62q0 29 19.5 49t48.5 20t48.5 -20t19.5 -49t-19.5 -49t-48.5 -20t-48.5 20t-19.5 49zM252 62q0 29 19.5 49t48.5 20t48.5 -20t19.5 -49t-19.5 -49t-48.5 -20t-48.5 20t-19.5 49zM32 62q0 29 19.5 49t48.5 20t48.5 -20t19.5 -49t-19.5 -49t-48.5 -20t-48.5 20
t-19.5 49z" />
    <glyph glyph-name="perthousand" unicode="&#x2030;" horiz-adv-x="972" 
d="M30 485q0 58 40 98.5t98 40.5t98.5 -40.5t40.5 -98.5t-40.5 -98t-98.5 -40t-98 40t-40 98zM107 0l369 614h79l-369 -614h-79zM105 485q0 -26 18.5 -44.5t44.5 -18.5t45 18.5t19 44.5t-19 45t-45 19t-44.5 -19t-18.5 -45zM942 129q0 -58 -40 -98.5t-98 -40.5t-98.5 40.5
t-40.5 98.5t40.5 98t98.5 40t98 -40t40 -98zM632 129q0 -58 -40 -98.5t-98 -40.5t-98.5 40.5t-40.5 98.5t40.5 98t98.5 40t98 -40t40 -98zM867 129q0 26 -18.5 44.5t-44.5 18.5t-45 -18.5t-19 -44.5t19 -45t45 -19t44.5 19t18.5 45zM557 129q0 26 -18.5 44.5t-44.5 18.5
t-45 -18.5t-19 -44.5t19 -45t45 -19t44.5 19t18.5 45z" />
    <glyph glyph-name="guilsinglleft" unicode="&#x2039;" horiz-adv-x="236" 
d="M211 64h-94l-92 158l92 158h94l-92 -158z" />
    <glyph glyph-name="guilsinglright" unicode="&#x203a;" horiz-adv-x="236" 
d="M119 64h-94l92 158l-92 158h94l92 -158z" />
    <glyph glyph-name="fraction" unicode="&#x2044;" horiz-adv-x="216" 
d="M336 614l-369 -614h-87l369 614h87z" />
    <glyph glyph-name="Euro" unicode="&#x20ac;" horiz-adv-x="547" 
d="M28 336v77h61q23 97 86 154t147 57q80 0 132.5 -44t70.5 -126h-95q-23 79 -108 79q-48 0 -82 -32t-50 -88h189l-15 -77h-186q-1 -10 -1 -29q0 -23 1 -34h178l-16 -77h-148q16 -54 49.5 -84.5t80.5 -30.5q85 0 108 79h95q-18 -82 -70.5 -126t-132.5 -44q-83 0 -145 55.5
t-87 150.5h-62v77h50q-1 11 -1 34q0 19 1 29h-50z" />
    <glyph glyph-name="uni2117" unicode="&#x2117;" horiz-adv-x="704" 
d="M669 307q0 -136 -92.5 -226.5t-224.5 -90.5t-224.5 90.5t-92.5 226.5t92.5 226.5t224.5 90.5t224.5 -90.5t92.5 -226.5zM622 307q0 116 -79 193.5t-191 77.5t-191 -77.5t-79 -193.5t79 -193.5t191 -77.5t191 77.5t79 193.5zM389 239h-72v-115h-90v369h162
q61 0 97.5 -33.5t36.5 -93.5t-36.5 -93.5t-97.5 -33.5zM434 366q0 48 -51 48h-66v-96h66q51 0 51 48z" />
    <glyph glyph-name="trademark" unicode="&#x2122;" horiz-adv-x="597" 
d="M20 557v57h223v-57h-78v-197h-67v197h-78zM440 360h-44l-54 150v-150h-63v254h82l57 -159l58 159h81v-254h-63v150z" />
    <glyph glyph-name="uni2153" unicode="&#x2153;" horiz-adv-x="706" 
d="M205 614v-335h-81v241l-89 -44v82l115 56h55zM596 614l-439 -614h-87l439 614h87zM508 139v61h23q43 0 43 36q0 16 -10.5 26t-27.5 10t-28.5 -12t-13.5 -29h-80q6 47 37 78t82 31q54 0 85 -27.5t31 -73.5q0 -49 -38 -70q42 -19 42 -69q0 -47 -32 -76t-87 -29t-88 30
t-37 81h83q2 -19 13.5 -31t30.5 -12t30.5 10.5t11.5 28.5q0 37 -44 37h-26z" />
    <glyph glyph-name="uni2154" unicode="&#x2154;" horiz-adv-x="772" 
d="M204 519q0 15 -9.5 24t-24.5 9q-16 0 -26.5 -11.5t-11.5 -27.5h-84q5 49 38 80t83 31q54 0 85 -28t31 -75q0 -20 -10.5 -40.5t-20.5 -32t-32 -34.5l-63 -61h128v-69h-237v55l111 113q43 43 43 67zM662 614l-439 -614h-87l439 614h87zM574 139v61h23q43 0 43 36
q0 16 -10.5 26t-27.5 10t-28.5 -12t-13.5 -29h-80q6 47 37 78t82 31q54 0 85 -27.5t31 -73.5q0 -49 -38 -70q42 -19 42 -69q0 -47 -32 -76t-87 -29t-88 30t-37 81h83q2 -19 13.5 -31t30.5 -12t30.5 10.5t11.5 28.5q0 37 -44 37h-26z" />
    <glyph glyph-name="uni215B" unicode="&#x215b;" horiz-adv-x="719" 
d="M205 614v-335h-81v241l-89 -44v82l115 56h55zM596 614l-439 -614h-87l439 614h87zM542 -4q-54 0 -89.5 26.5t-35.5 70.5q0 29 15.5 49.5t39.5 28.5q-44 21 -44 73q0 45 33 71t81 26t81 -26t33 -71q0 -51 -45 -73q55 -18 55 -78q0 -45 -35.5 -71t-88.5 -26zM542 206
q17 0 28 10t11 26q0 17 -11 27t-28 10t-28.5 -10t-11.5 -27q0 -16 11.5 -26t28.5 -10zM542 60q20 0 32.5 11t12.5 29t-12.5 28.5t-32.5 10.5t-32.5 -10.5t-12.5 -28.5t12.5 -29t32.5 -11z" />
    <glyph glyph-name="uni215C" unicode="&#x215c;" horiz-adv-x="756" 
d="M633 614l-439 -614h-87l439 614h87zM144 418v61h23q43 0 43 36q0 16 -10.5 26t-27.5 10t-28.5 -12t-13.5 -29h-80q6 47 37 78t82 31q54 0 85 -27.5t31 -73.5q0 -49 -38 -70q42 -20 42 -69q0 -47 -32 -76t-87 -29t-88 30t-37 81h83q2 -19 13.5 -31t30.5 -12t30.5 10.5
t11.5 28.5q0 37 -44 37h-26zM579 -4q-54 0 -89.5 26.5t-35.5 70.5q0 29 15.5 49.5t39.5 28.5q-44 21 -44 73q0 45 33 71t81 26t81 -26t33 -71q0 -51 -45 -73q55 -18 55 -78q0 -45 -35.5 -71t-88.5 -26zM579 206q17 0 28 10t11 26q0 17 -11 27t-28 10t-28.5 -10t-11.5 -27
q0 -16 11.5 -26t28.5 -10zM579 60q20 0 32.5 11t12.5 29t-12.5 28.5t-32.5 10.5t-32.5 -10.5t-12.5 -28.5t12.5 -29t32.5 -11z" />
    <glyph glyph-name="uni215D" unicode="&#x215d;" horiz-adv-x="762" 
d="M639 614l-439 -614h-87l439 614h87zM177 434q-24 0 -41 -19h-69v199h205v-70h-138v-56q20 13 51 13q51 0 81 -31t30 -81q0 -52 -32.5 -83.5t-86.5 -31.5q-56 0 -89.5 30t-37.5 81h83q2 -18 14 -30t31 -12q18 0 29.5 12.5t11.5 32.5t-11.5 33t-30.5 13zM585 -4
q-54 0 -89.5 26.5t-35.5 70.5q0 29 15.5 49.5t39.5 28.5q-44 21 -44 73q0 45 33 71t81 26t81 -26t33 -71q0 -51 -45 -73q55 -18 55 -78q0 -45 -35.5 -71t-88.5 -26zM585 206q17 0 28 10t11 26q0 17 -11 27t-28 10t-28.5 -10t-11.5 -27q0 -16 11.5 -26t28.5 -10zM585 60
q20 0 32.5 11t12.5 29t-12.5 28.5t-32.5 10.5t-32.5 -10.5t-12.5 -28.5t12.5 -29t32.5 -11z" />
    <glyph glyph-name="uni215E" unicode="&#x215e;" horiz-adv-x="703" 
d="M279 557l-104 -278h-83l100 263h-146v72h233v-57zM580 614l-439 -614h-87l439 614h87zM526 -4q-54 0 -89.5 26.5t-35.5 70.5q0 29 15.5 49.5t39.5 28.5q-44 21 -44 73q0 45 33 71t81 26t81 -26t33 -71q0 -51 -45 -73q55 -18 55 -78q0 -45 -35.5 -71t-88.5 -26zM526 206
q17 0 28 10t11 26q0 17 -11 27t-28 10t-28.5 -10t-11.5 -27q0 -16 11.5 -26t28.5 -10zM526 60q20 0 32.5 11t12.5 29t-12.5 28.5t-32.5 10.5t-32.5 -10.5t-12.5 -28.5t12.5 -29t32.5 -11z" />
    <glyph glyph-name="minus" unicode="&#x2212;" horiz-adv-x="564" 
d="M74 259v80h416v-80h-416z" />
    <glyph glyph-name="approxequal" unicode="&#x2248;" horiz-adv-x="578" 
d="M82 312v76q57 37 112 37q35 0 94 -18t94 -18q56 0 115 38v-76q-59 -38 -115 -38q-35 0 -94 18.5t-94 18.5q-56 0 -112 -38zM82 174v75q56 38 112 38q35 0 94 -18.5t94 -18.5q58 0 115 38v-76q-58 -37 -115 -37q-35 0 -94 18t-94 18q-55 0 -112 -37z" />
    <glyph glyph-name="notequal" unicode="&#x2260;" horiz-adv-x="578" 
d="M82 337v73h247l67 96h72l-67 -96h96v-73h-146l-53 -76h199v-73h-249l-66 -95h-72l66 95h-94v73h144l53 76h-197z" />
    <glyph glyph-name="lessequal" unicode="&#x2264;" horiz-adv-x="453" 
d="M68 307v101l317 126v-88l-235 -88l235 -89v-87zM68 73v79h317v-79h-317z" />
    <glyph glyph-name="greaterequal" unicode="&#x2265;" horiz-adv-x="453" 
d="M385 408v-101l-317 -125v87l234 89l-234 88v88zM385 152v-79h-317v79h317z" />
    <glyph glyph-name="fi" unicode="&#xfb01;" horiz-adv-x="541" 
d="M491 578q0 -25 -18.5 -43t-43.5 -18t-43.5 18t-18.5 43t18.5 43t43.5 18t43.5 -18t18.5 -43zM307 648v-88q-21 14 -49 14q-30 0 -47.5 -17.5t-17.5 -50.5v-62h97v-83h-97v-361h-98v361h-77v83h77v69q0 69 41 108t105 39q39 0 66 -12zM479 444v-444h-100v444h100z" />
    <glyph glyph-name="fl" unicode="&#xfb02;" horiz-adv-x="541" 
d="M479 650v-650h-100v650h100zM307 648v-88q-21 14 -49 14q-30 0 -47.5 -17.5t-17.5 -50.5v-62h97v-83h-97v-361h-98v361h-77v83h77v69q0 69 41 108t105 39q39 0 66 -12z" />
    <glyph glyph-name="i.dot" horiz-adv-x="224" 
d="M174 578q0 -25 -18.5 -43t-43.5 -18t-43.5 18t-18.5 43t18.5 43t43.5 18t43.5 -18t18.5 -43zM162 444v-444h-100v444h100z" />
    <glyph glyph-name="space_uni0326" 
d="M197 -217l42 60q-22 3 -36.5 18t-14.5 37q0 25 18 41.5t45 16.5q26 0 43.5 -17t17.5 -45q0 -29 -28 -71l-27 -40h-60z" />
    <glyph glyph-name="space_uni0326.alt" 
d="M305 696l-43 -62q23 -3 37.5 -18.5t14.5 -38.5q0 -26 -19 -43t-46 -17t-45 17.5t-18 46.5q0 31 29 74l28 41h62z" />
    <glyph glyph-name="space_dotbelowcomb" 
d="M312 -105q0 -25 -18.5 -43t-43.5 -18t-43.5 18t-18.5 43t18.5 43t43.5 18t43.5 -18t18.5 -43z" />
    <glyph glyph-name="acute.cap" 
d="M251 671h-98l77 117h116z" />
    <glyph glyph-name="breve.cap" 
d="M249 667q-59 0 -93 32.5t-34 91.5h73q0 -51 54 -51q55 0 55 51h73q0 -59 -34.5 -91.5t-93.5 -32.5z" />
    <glyph glyph-name="circumflex.cap" 
d="M296 795l94 -124h-89l-51 60l-51 -60h-89l94 124h92z" />
    <glyph glyph-name="dieresis.cap" 
d="M268 728q0 25 17 42t41 17t41.5 -17t17.5 -42q0 -24 -17.5 -41t-41.5 -17t-41 17t-17 41zM114 728q0 25 17 42t42 17q24 0 41 -17t17 -42q0 -24 -17 -41t-41 -17q-25 0 -42 17t-17 41z" />
    <glyph glyph-name="grave.cap" 
d="M346 671h-98l-95 117h116z" />
    <glyph glyph-name="macron.cap" 
d="M137 671v79h225v-79h-225z" />
    <glyph glyph-name="ring.cap" 
d="M343 740q0 -39 -27 -65t-66 -26t-66 26t-27 65t27 65t66 26t66 -26t27 -65zM292 740q0 18 -12.5 30t-29.5 12t-29.5 -12t-12.5 -30t12.5 -30t29.5 -12t29.5 12t12.5 30z" />
    <glyph glyph-name="tilde.cap" 
d="M333 797h60q0 -60 -21.5 -95.5t-61.5 -35.5q-26 0 -60 24t-51 24q-31 0 -32 -45h-60q0 60 21.5 95.5t61.5 35.5q26 0 60 -24t51 -24q31 0 32 45z" />
    <glyph glyph-name="caron.cap" 
d="M204 671l-94 124h89l51 -60l51 60h89l-94 -124h-92z" />
    <glyph glyph-name="dotaccent.cap" 
d="M312 728q0 -25 -18.5 -43t-43.5 -18t-43.5 18t-18.5 43t18.5 43t43.5 18t43.5 -18t18.5 -43z" />
    <glyph glyph-name="caron.Slovak" 
d="M264 483h-78l34 167h78z" />
    <glyph glyph-name="hungarumlaut.cap" 
d="M327 671h-83l60 117h85zM194 671h-83l60 117h85z" />
    <glyph glyph-name="cedilla.alt" 
d="M258 -190h-93l71 137h99z" />
    <glyph glyph-name="exclamdown.cap" horiz-adv-x="200" 
d="M32 552q0 29 19.5 49t48.5 20t48.5 -20t19.5 -49t-19.5 -49t-48.5 -20t-48.5 20t-19.5 49zM40 0l25 421h70l25 -421h-120z" />
    <glyph glyph-name="questiondown.cap" horiz-adv-x="441" 
d="M285 551q0 -29 -19.5 -49t-48.5 -20t-48.5 20t-19.5 49t19.5 49t48.5 20t48.5 -20t19.5 -49zM20 167q0 27 7.5 50t28 49.5t28.5 35.5t38 39q42 43 42 79h98q-2 -40 -14.5 -66t-46.5 -63q-6 -7 -25.5 -27t-28 -30t-17 -28.5t-8.5 -37.5q0 -39 25 -63t68 -24q45 0 70 28
t28 74h108q-9 -86 -65 -140t-141 -54q-92 0 -143.5 48t-51.5 130z" />
    <glyph glyph-name="guilsinglleft.cap" horiz-adv-x="236" 
d="M211 144h-94l-92 158l92 158h94l-92 -158z" />
    <glyph glyph-name="guilsinglright.cap" horiz-adv-x="236" 
d="M119 144h-94l92 158l-92 158h94l92 -158z" />
    <glyph glyph-name="guillemotleft.cap" horiz-adv-x="397" 
d="M372 144h-90l-92 158l92 158h90l-92 -158zM207 144h-90l-92 158l92 158h90l-92 -158z" />
    <glyph glyph-name="guillemotright.cap" horiz-adv-x="397" 
d="M115 144h-90l92 158l-92 158h90l92 -158zM280 144h-90l92 158l-92 158h90l92 -158z" />
    <glyph glyph-name="slash.cap" horiz-adv-x="357" 
d="M5 -64l248 734h99l-248 -734h-99z" />
    <glyph glyph-name="backslash.cap" horiz-adv-x="357" 
d="M104 670l248 -734h-99l-248 734h99z" />
    <glyph glyph-name="bar.cap" horiz-adv-x="232" 
d="M68 -64v734h96v-734h-96z" />
    <glyph glyph-name="periodcentered.cap" horiz-adv-x="200" 
d="M32 303q0 29 19.5 49t48.5 20t48.5 -20t19.5 -49t-19.5 -49t-48.5 -20t-48.5 20t-19.5 49z" />
    <glyph glyph-name="bullet.cap" horiz-adv-x="352" 
d="M320 302q0 -62 -41.5 -102.5t-102.5 -40.5t-102.5 40.5t-41.5 102.5q0 63 41.5 103.5t102.5 40.5t102.5 -40.5t41.5 -103.5z" />
    <glyph glyph-name="hyphen.cap" horiz-adv-x="321" 
d="M40 257v91h241v-91h-241z" />
    <glyph glyph-name="endash.cap" horiz-adv-x="475" 
d="M40 263v79h395v-79h-395z" />
    <glyph glyph-name="emdash.cap" horiz-adv-x="846" 
d="M40 263v79h766v-79h-766z" />
    <glyph glyph-name="parenleft.cap" horiz-adv-x="318" 
d="M30 303q0 137 72.5 236t195.5 131v-108q-75 -18 -122 -88t-47 -171t47 -171t122 -88v-108q-123 32 -195.5 131t-72.5 236z" />
    <glyph glyph-name="parenright.cap" horiz-adv-x="318" 
d="M288 303q0 -137 -72.5 -236t-195.5 -131v108q75 18 122 88t47 171t-47 171t-122 88v108q123 -32 195.5 -131t72.5 -236z" />
    <glyph glyph-name="bracketleft.cap" horiz-adv-x="315" 
d="M162 580v-554h133v-90h-227v734h227v-90h-133z" />
    <glyph glyph-name="bracketright.cap" horiz-adv-x="315" 
d="M153 26v554h-133v90h227v-734h-227v90h133z" />
    <glyph glyph-name="braceleft.cap" horiz-adv-x="344" 
d="M197 220v-165q0 -29 29 -29h98v-90h-96q-57 0 -93 36t-36 94v162q0 29 -29 29h-50v92h50q29 0 29 29v162q0 58 36 94t93 36h96v-90h-98q-29 0 -29 -29v-165q0 -54 -47 -83q47 -29 47 -83z" />
    <glyph glyph-name="braceright.cap" horiz-adv-x="344" 
d="M147 55v165q0 54 47 83q-47 29 -47 83v165q0 29 -29 29h-98v90h96q57 0 93 -36t36 -94v-162q0 -29 29 -29h50v-92h-50q-29 0 -29 -29v-162q0 -58 -36 -94t-93 -36h-96v90h98q29 0 29 29z" />
    <glyph glyph-name="at.cap" horiz-adv-x="774" 
d="M570 474l-40 -231q-5 -27 2.5 -38.5t30.5 -11.5q47 0 76.5 47t29.5 126q0 104 -72.5 164.5t-185.5 60.5q-134 0 -218.5 -86t-84.5 -223q0 -61 19 -109t49 -78.5t70.5 -50t81.5 -27.5t84 -8q116 0 224 48v-72q-94 -47 -224 -47q-76 0 -143 20.5t-122 60.5t-87 108t-32 155
q0 161 107 271t276 110q148 0 241.5 -84.5t93.5 -212.5q0 -116 -58.5 -178.5t-140.5 -62.5q-76 0 -108 54q-13 -24 -40.5 -39t-55.5 -15q-60 0 -97.5 42.5t-37.5 106.5q0 85 52.5 147.5t131.5 62.5q60 0 85 -37l6 27h87zM441 252l21 111q-6 18 -23.5 29.5t-40.5 11.5
q-43 0 -70.5 -37.5t-27.5 -87.5q0 -32 17 -52.5t48 -20.5q45 0 76 46z" />
    <glyph glyph-name="Euro.lt" horiz-adv-x="520" 
d="M26 336v77h58q23 97 83 154t140 57q76 0 126.5 -44t67.5 -126h-97q-9 37 -34.5 58t-64.5 21q-88 0 -121 -120h177l-14 -77h-174q-1 -10 -1 -29q0 -23 1 -34h166l-15 -77h-138q15 -54 45.5 -84.5t73.5 -30.5q39 0 64.5 21t34.5 58h97q-17 -82 -67.5 -126t-126.5 -44
q-79 0 -138.5 55.5t-82.5 150.5h-60v77h48q-1 11 -1 34v29h-47z" />
    <glyph glyph-name="dollar.lt" horiz-adv-x="520" 
d="M227 -92v99q-74 11 -122 54.5t-61 115.5h100q28 -87 130 -87q51 0 80.5 22.5t29.5 62.5q0 31 -19.5 50t-63.5 29l-98 24q-144 35 -144 160q0 69 46 116.5t122 54.5v90h90v-95q127 -27 156 -157h-97q-11 35 -42 57t-80 22q-46 0 -73.5 -22.5t-27.5 -58.5q0 -58 76 -77
l100 -24q70 -16 109.5 -58t39.5 -106q0 -71 -43.5 -116.5t-117.5 -56.5v-99h-90z" />
    <glyph glyph-name="cent.lt" horiz-adv-x="520" 
d="M64 232q0 90 46 152t121 76v87h90v-88q58 -13 93 -52.5t42 -98.5h-98q-4 32 -28 50.5t-59 18.5q-49 0 -78 -40.5t-29 -104.5t29 -104.5t78 -40.5q35 0 59 18.5t28 50.5h98q-7 -59 -42 -98.5t-93 -52.5v-94h-90v93q-75 14 -121 75.5t-46 152.5z" />
    <glyph glyph-name="sterling.lt" horiz-adv-x="520" 
d="M214 426v-83h141v-81h-141v-88q0 -63 -21 -91h286v-83h-438v83h57q20 35 20 91v88h-77v81h77v83q0 84 51.5 141t134.5 57q75 0 121 -42.5t54 -113.5h-95q-10 70 -80 70q-44 0 -67 -31t-23 -81z" />
    <glyph glyph-name="yen.lt" horiz-adv-x="520" 
d="M51 265v77h114l-149 272h110l136 -263l135 263h107l-151 -272h115v-77h-157v-63h157v-77h-157v-125h-103v125h-157v77h157v63h-157z" />
    <glyph glyph-name="florin.lt" horiz-adv-x="520" 
d="M138 267v84h87l22 126q13 71 57.5 109t114.5 38q35 0 64 -12v-88q-26 14 -62 14q-30 0 -50.5 -17.5t-26.5 -50.5l-21 -119h90v-84h-105l-53 -300q-13 -74 -49 -110.5t-106 -36.5q-38 0 -64 12v88q26 -14 62 -14q29 0 41 16t19 52l52 293h-72z" />
    <glyph glyph-name="zero.lt" horiz-adv-x="520" 
d="M260 -10q-104 0 -168 88t-64 229t64 229t168 88t168 -88t64 -229t-64 -229t-168 -88zM260 530q-66 0 -98.5 -60.5t-32.5 -162.5t32.5 -162.5t98.5 -60.5q65 0 97.5 60.5t32.5 162.5t-32.5 162.5t-97.5 60.5z" />
    <glyph glyph-name="one.lt" horiz-adv-x="520" 
d="M81 0v91h163v398l-163 -83v105l203 103h61v-523h147v-91h-411z" />
    <glyph glyph-name="two.lt" horiz-adv-x="520" 
d="M348 445q0 39 -25.5 63t-68.5 24q-44 0 -69.5 -28.5t-28.5 -73.5h-107q9 87 64.5 140.5t140.5 53.5q92 0 143.5 -48t51.5 -130q0 -35 -20 -74t-41 -64t-64 -70l-132 -147h267v-91h-409v68l182 202q9 10 29.5 33t29 33t22.5 27.5t19.5 29t10.5 25.5t5 27z" />
    <glyph glyph-name="three.lt" horiz-adv-x="520" 
d="M221 270v87h40q46 0 74 23.5t28 65.5q0 38 -27 63.5t-72 25.5q-47 0 -74 -27t-30 -70h-102q10 82 66 134t142 52q91 0 143 -47.5t52 -124.5q0 -48 -22 -85t-59 -53q46 -19 69.5 -57.5t23.5 -83.5q0 -80 -55.5 -131.5t-150.5 -51.5q-98 0 -156.5 52t-66.5 142h103
q6 -48 35.5 -76.5t82.5 -28.5q47 0 77.5 26.5t30.5 68.5q0 44 -31 70t-80 26h-41z" />
    <glyph glyph-name="four.lt" horiz-adv-x="520" 
d="M359 614l-223 -400h164v144h96v-144h101v-86h-101v-128h-96v128h-277v72l231 414h105z" />
    <glyph glyph-name="five.lt" horiz-adv-x="520" 
d="M265 316q-71 0 -110 -48h-78v346h357v-92h-273v-150q42 33 112 33q89 0 144.5 -57.5t55.5 -149.5q0 -93 -57.5 -150.5t-151.5 -57.5q-95 0 -154.5 52.5t-67.5 141.5h102q6 -47 38 -75.5t83 -28.5q50 0 80.5 33t30.5 85t-30.5 85t-80.5 33z" />
    <glyph glyph-name="seven.lt" horiz-adv-x="520" 
d="M476 543l-232 -543h-105l227 524h-329v90h439v-71z" />
    <glyph glyph-name="eight.lt" horiz-adv-x="520" 
d="M262 -10q-92 0 -153 48t-61 129q0 59 33 99t81 52q-41 16 -68 52.5t-27 85.5q0 78 56.5 123t138.5 45q83 0 139.5 -45t56.5 -123q0 -49 -27 -85.5t-68 -52.5q48 -12 81 -52t33 -99q0 -81 -61 -129t-154 -48zM262 363q40 0 69 24t29 64q0 42 -29 66t-69 24t-68.5 -24
t-28.5 -66q0 -40 28.5 -64t68.5 -24zM262 74q50 0 83 27.5t33 73.5q0 47 -33 74t-83 27t-82.5 -27t-32.5 -74q0 -46 33 -73.5t82 -27.5z" />
    <glyph glyph-name="period.tab" horiz-adv-x="260" 
d="M62 62q0 29 19.5 49t48.5 20t48.5 -20t19.5 -49t-19.5 -49t-48.5 -20t-48.5 20t-19.5 49z" />
    <glyph glyph-name="comma.tab" horiz-adv-x="260" 
d="M46 -113l72 111q-25 4 -40.5 21t-15.5 43q0 29 19.5 48t48.5 19q30 0 49 -19.5t19 -55.5t-29 -80l-58 -87h-65z" />
    <glyph glyph-name="colon.tab" horiz-adv-x="260" 
d="M62 362q0 29 19.5 49t48.5 20t48.5 -20t19.5 -49t-19.5 -49t-48.5 -20t-48.5 20t-19.5 49zM62 62q0 29 19.5 49t48.5 20t48.5 -20t19.5 -49t-19.5 -49t-48.5 -20t-48.5 20t-19.5 49z" />
    <glyph glyph-name="semicolon.tab" horiz-adv-x="260" 
d="M62 362q0 29 19.5 49t48.5 20t48.5 -20t19.5 -49t-19.5 -49t-48.5 -20t-48.5 20t-19.5 49zM46 -113l72 111q-25 4 -40.5 21t-15.5 43q0 29 19.5 48t48.5 19q30 0 49 -19.5t19 -55.5t-29 -80l-58 -87h-65z" />
    <glyph glyph-name="space.tab" horiz-adv-x="260" 
 />
    <glyph glyph-name="percent.lt" horiz-adv-x="520" 
d="M20 502q0 51 35.5 86.5t85.5 35.5q51 0 86.5 -35.5t35.5 -86.5q0 -50 -35.5 -85.5t-86.5 -35.5q-50 0 -85.5 35.5t-35.5 85.5zM36 0l369 614h79l-369 -614h-79zM86 502q0 -23 16 -39t39 -16t39.5 16t16.5 39t-16.5 39.5t-39.5 16.5t-39 -16.5t-16 -39.5zM500 112
q0 -51 -35.5 -86.5t-85.5 -35.5q-51 0 -86.5 35.5t-35.5 86.5q0 50 35.5 85.5t86.5 35.5q50 0 85.5 -35.5t35.5 -85.5zM434 112q0 23 -16 39t-39 16t-39.5 -16t-16.5 -39t16.5 -39.5t39.5 -16.5t39 16.5t16 39.5z" />
    <glyph glyph-name="perthousand.lt" horiz-adv-x="800" 
d="M26 502q0 51 35.5 86.5t85.5 35.5q51 0 86.5 -35.5t35.5 -86.5q0 -50 -35.5 -85.5t-86.5 -35.5q-50 0 -85.5 35.5t-35.5 85.5zM42 0l369 614h79l-369 -614h-79zM92 502q0 -23 16 -39t39 -16t39.5 16t16.5 39t-16.5 39.5t-39.5 16.5t-39 -16.5t-16 -39.5zM773 112
q0 -51 -35.5 -86.5t-85.5 -35.5q-51 0 -86.5 35.5t-35.5 86.5q0 50 35.5 85.5t86.5 35.5q50 0 85.5 -35.5t35.5 -85.5zM506 112q0 -51 -35.5 -86.5t-85.5 -35.5q-51 0 -86.5 35.5t-35.5 86.5q0 50 35.5 85.5t86.5 35.5q50 0 85.5 -35.5t35.5 -85.5zM707 112q0 23 -16 39
t-39 16t-39.5 -16t-16.5 -39t16.5 -39.5t39.5 -16.5t39 16.5t16 39.5zM440 112q0 23 -16 39t-39 16t-39.5 -16t-16.5 -39t16.5 -39.5t39.5 -16.5t39 16.5t16 39.5z" />
    <glyph glyph-name="plus.lt" horiz-adv-x="520" 
d="M220 507h80v-168h168v-80h-168v-167h-80v167h-168v80h168v168z" />
    <glyph glyph-name="minus.lt" horiz-adv-x="520" 
d="M52 259v80h416v-80h-416z" />
    <glyph glyph-name="multiply.lt" horiz-adv-x="520" 
d="M206 297l-123 121l55 55l121 -122l122 122l55 -55l-122 -121l122 -121l-55 -56l-122 122l-121 -122l-55 56z" />
    <glyph glyph-name="divide.lt" horiz-adv-x="520" 
d="M197 467q0 26 18.5 45t44.5 19t45 -19t19 -45t-19 -44.5t-45 -18.5t-44.5 18.5t-18.5 44.5zM52 259v80h416v-80h-416zM197 131q0 26 18.5 44.5t44.5 18.5t45 -18.5t19 -44.5t-19 -45t-45 -19t-44.5 19t-18.5 45z" />
    <glyph glyph-name="equal.lt" horiz-adv-x="520" 
d="M52 336v76h415v-76h-415zM52 188v74h415v-74h-415z" />
    <glyph glyph-name="less.lt" horiz-adv-x="520" 
d="M102 244v107l316 152v-92l-243 -114l243 -113v-93z" />
    <glyph glyph-name="greater.lt" horiz-adv-x="520" 
d="M418 351v-107l-317 -153v93l243 113l-243 114v92z" />
    <glyph glyph-name="plusminus.lt" horiz-adv-x="520" 
d="M220 539h79v-132h164v-79h-164v-132h-79v132h-164v79h164v132zM56 73v79h407v-79h-407z" />
    <glyph glyph-name="lessequal.lt" horiz-adv-x="520" 
d="M101 307v101l317 126v-88l-235 -88l235 -89v-87zM101 73v79h317v-79h-317z" />
    <glyph glyph-name="greaterequal.lt" horiz-adv-x="520" 
d="M418 408v-101l-317 -125v87l234 89l-234 88v88zM418 152v-79h-317v79h317z" />
    <glyph glyph-name="notequal.lt" horiz-adv-x="520" 
d="M52 337v73h247l67 96h72l-67 -96h96v-73h-146l-53 -76h199v-73h-249l-66 -95h-72l66 95h-94v73h144l53 76h-197z" />
    <glyph glyph-name="approxequal.lt" horiz-adv-x="520" 
d="M52 312v76q57 37 112 37q35 0 94 -18t94 -18q56 0 115 38v-76q-59 -38 -115 -38q-35 0 -94 18.5t-94 18.5q-56 0 -112 -38zM52 174v75q56 38 112 38q35 0 94 -18.5t94 -18.5q58 0 115 38v-76q-58 -37 -115 -37q-35 0 -94 18t-94 18q-55 0 -112 -37z" />
    <glyph glyph-name="dollar.alt" horiz-adv-x="291" 
d="M124 214v56q-85 13 -102 92h69q9 -22 21.5 -30t38.5 -8q53 0 53 41q0 37 -40 46l-56 13q-79 18 -79 94q0 41 26 67.5t69 31.5v52h50v-53q76 -15 92 -91h-64q-7 20 -20 29t-39 9q-49 0 -49 -40q0 -33 37 -42l55 -13q83 -20 83 -99q0 -41 -26 -67.5t-69 -31.5v-56h-50z" />
    <glyph glyph-name="nine.lt" horiz-adv-x="520" 
d="M260 624q92 0 152 -60.5t60 -151.5q0 -84 -63 -192l-127 -220h-107l121 210q-16 -8 -44 -8q-90 0 -147 60t-57 150q0 91 60 151.5t152 60.5zM142 412q0 -52 33 -87t85 -35q51 0 84.5 35t33.5 87t-33.5 87t-84.5 35q-52 0 -85 -35t-33 -87z" />
    <glyph glyph-name="six.lt" horiz-adv-x="520" 
d="M260 -10q-92 0 -152 60.5t-60 151.5q0 84 63 192l127 220h107l-121 -210q16 8 44 8q90 0 147 -60t57 -150q0 -91 -60 -151.5t-152 -60.5zM378 202q0 52 -33 87t-85 35q-51 0 -84.5 -35t-33.5 -87t33.5 -87t84.5 -35q52 0 85 35t33 87z" />
    </font>
</defs>
</svg>
