<?xml version="1.0" standalone="no"?>
<!DOCTYPE svg PUBLIC "-//W3C//DTD SVG 1.1//EN" "http://www.w3.org/Graphics/SVG/1.1/DTD/svg11.dtd" >
<svg>
<metadata>
Created by FontForge 20090622 at Wed Nov  8 23:52:13 2017
 By deploy user
&#194;&#169; 2011 Klim Type Foundry. All rights reserved.
</metadata>
<defs>
<font id="JFCalibre-Bold" horiz-adv-x="500" >
  <font-face 
    font-family="JFCalibre"
    font-weight="700"
    font-stretch="normal"
    units-per-em="1000"
    panose-1="2 11 8 3 3 2 2 6 2 3"
    ascent="650"
    descent="-350"
    x-height="450"
    cap-height="614"
    bbox="-120 -236 977 923"
    underline-thickness="30"
    underline-position="-70"
    unicode-range="U+0020-U+FB02"
  />
<missing-glyph horiz-adv-x="608" 
 />
    <glyph glyph-name="f_f" unicode="ff" horiz-adv-x="639" 
d="M629 647v-128q-17 9 -37 9q-56 0 -56 -54v-24h87v-122h-87v-328h-155v328h-146v-328h-155v328h-67v122h67v27q0 81 46.5 128.5t128.5 47.5q40 0 73 -12v-128q-17 9 -37 9q-56 0 -56 -50v-22h146v33q0 81 46.5 128.5t128.5 47.5q40 0 73 -12z" />
    <glyph glyph-name=".notdef" horiz-adv-x="608" 
 />
    <glyph glyph-name=".null" horiz-adv-x="0" 
 />
    <glyph glyph-name="nonmarkingreturn" horiz-adv-x="333" 
 />
    <glyph glyph-name="space" unicode=" " horiz-adv-x="200" 
 />
    <glyph glyph-name="exclam" unicode="!" horiz-adv-x="239" 
d="M59 206l-35 408h191l-35 -408h-121zM26 82q0 37 27.5 62.5t66.5 25.5t66 -25.5t27 -62.5q0 -38 -27 -63.5t-66 -25.5t-66.5 25.5t-27.5 63.5z" />
    <glyph glyph-name="quotedbl" unicode="&#x22;" horiz-adv-x="356" 
d="M200 355v259h121v-259h-121zM36 355v259h121v-259h-121z" />
    <glyph glyph-name="numbersign" unicode="#" horiz-adv-x="635" 
d="M278 359l-25 -104h104l25 104h-104zM570 255l-22 -99h-102l-37 -156h-113l37 156h-104l-37 -156h-112l37 156h-97l23 99h97l25 104h-100l22 99h102l37 156h113l-38 -156h104l38 156h112l-37 -156h97l-23 -99h-98l-25 -104h101z" />
    <glyph glyph-name="dollar" unicode="$" horiz-adv-x="517" 
d="M199 -86v95q-74 14 -120.5 59.5t-58.5 115.5h156q20 -57 91 -57q32 0 51.5 14.5t19.5 38.5q0 22 -14 33.5t-46 19.5l-99 23q-148 36 -148 167q0 71 46 120t122 62v91h128v-94q134 -31 158 -167h-148q-23 52 -85 52q-31 0 -49.5 -13.5t-18.5 -36.5q0 -36 48 -48l109 -27
q151 -37 151 -172q0 -72 -45 -119.5t-120 -62.5v-94h-128z" />
    <glyph glyph-name="percent" unicode="%" horiz-adv-x="680" 
d="M317 476q0 -61 -43 -103t-105 -42q-61 0 -103 42t-42 103q0 62 42 105t103 43t104.5 -43t43.5 -105zM98 0l394 614h90l-394 -614h-90zM117 476q0 -22 15.5 -37t36.5 -15q23 0 39 15t16 37t-16 38.5t-39 16.5q-21 0 -36.5 -16.5t-15.5 -38.5zM657 138q0 -62 -42.5 -105
t-103.5 -43t-104.5 43t-43.5 105q0 61 43 103t105 42q61 0 103.5 -42t42.5 -103zM563 138q0 22 -15 37t-37 15q-23 0 -39 -15t-16 -37t16 -38.5t39 -16.5q22 0 37 16t15 39z" />
    <glyph glyph-name="ampersand" unicode="&#x26;" horiz-adv-x="609" 
d="M247 111q33 0 67 16l-111 123q-32 -22 -32 -65q0 -33 20 -53.5t56 -20.5zM497 451h-151q-2 21 -15 35.5t-36 14.5q-24 0 -39 -14.5t-15 -37.5q0 -14 7.5 -29t14.5 -23.5t23 -26.5l117 -136q14 38 16 91h138q-1 -110 -63 -197l111 -128h-176l-32 35q-71 -45 -152 -45
q-99 0 -158.5 52.5t-59.5 142.5q0 49 26 91.5t70 67.5q-33 49 -33 105q0 79 57 127t148 48q89 0 143 -48.5t59 -124.5z" />
    <glyph glyph-name="quotesingle" unicode="'" horiz-adv-x="200" 
d="M36 355v259h128v-259h-128z" />
    <glyph glyph-name="parenleft" unicode="(" horiz-adv-x="334" 
d="M30 283q0 141 76 239.5t208 127.5v-147q-141 -48 -141 -220t141 -220v-147q-132 29 -208 127.5t-76 239.5z" />
    <glyph glyph-name="parenright" unicode=")" horiz-adv-x="334" 
d="M304 283q0 -141 -76 -239.5t-208 -127.5v147q141 48 141 220t-141 220v147q132 -29 208 -127.5t76 -239.5z" />
    <glyph glyph-name="asterisk" unicode="*" horiz-adv-x="344" 
d="M98 500l-74 43l37 64l74 -43v86h75v-86l73 43l38 -64l-75 -43l75 -43l-38 -64l-73 43v-86h-75v86l-74 -43l-37 64z" />
    <glyph glyph-name="plus" unicode="+" horiz-adv-x="556" 
d="M220 526h116v-169h169v-116h-169v-168h-116v168h-169v116h169v169z" />
    <glyph glyph-name="comma" unicode="," horiz-adv-x="223" 
d="M12 -105l75 115q-29 6 -48.5 27.5t-19.5 54.5q0 38 26.5 62.5t66.5 24.5q39 0 65.5 -26t26.5 -71q0 -46 -38 -104l-55 -83h-99z" />
    <glyph glyph-name="hyphen" unicode="-" horiz-adv-x="312" 
d="M36 196v132h241v-132h-241z" />
    <glyph glyph-name="period" unicode="." horiz-adv-x="223" 
d="M19 87q0 39 26.5 66t65.5 27t66 -26.5t27 -66.5t-27 -67t-66 -27q-38 0 -65 27t-27 67z" />
    <glyph glyph-name="slash" unicode="/" horiz-adv-x="394" 
d="M5 -84l248 734h136l-248 -734h-136z" />
    <glyph glyph-name="zero" unicode="0" horiz-adv-x="559" 
d="M279 -10q-113 0 -183.5 88t-70.5 229t70.5 229t183.5 88t184 -88.5t71 -228.5t-71 -228.5t-184 -88.5zM279 483q-50 0 -74.5 -49.5t-24.5 -126.5t24.5 -126.5t74.5 -49.5t74.5 49.5t24.5 126.5t-24.5 126.5t-74.5 49.5z" />
    <glyph glyph-name="one" unicode="1" horiz-adv-x="367" 
d="M312 614v-614h-156v440l-143 -69v152l191 91h108z" />
    <glyph glyph-name="two" unicode="2" horiz-adv-x="491" 
d="M299 423q0 25 -15.5 41t-42.5 16t-42.5 -17.5t-17.5 -43.5h-166q9 89 70 147t156 58q101 0 160.5 -52.5t59.5 -138.5q0 -37 -18.5 -74t-39 -60t-60.5 -61l-101 -100h221v-138h-445v103l211 210q37 38 53.5 61.5t16.5 48.5z" />
    <glyph glyph-name="three" unicode="3" horiz-adv-x="487" 
d="M193 253v115h33q35 0 56.5 15.5t21.5 46.5q0 26 -16.5 43t-45.5 17q-31 0 -49.5 -19.5t-21.5 -48.5h-154q10 87 71 144.5t159 57.5q96 0 152.5 -52t56.5 -136q0 -39 -19 -74.5t-48 -51.5q36 -17 55.5 -51.5t19.5 -77.5q0 -83 -59.5 -137t-158.5 -54q-105 0 -168.5 56.5
t-69.5 150.5h160q3 -33 22.5 -52.5t52.5 -19.5q30 0 49 17.5t19 46.5q0 31 -22 47.5t-58 16.5h-38z" />
    <glyph glyph-name="four" unicode="4" horiz-adv-x="524" 
d="M357 614l-169 -370h97v104h138v-104h84v-130h-84v-114h-138v114h-267v118l186 382h153z" />
    <glyph glyph-name="five" unicode="5" horiz-adv-x="497" 
d="M252 279q-39 0 -71 -32h-129v367h378v-137h-249v-92q38 22 93 22q92 0 146.5 -56.5t54.5 -148.5q0 -95 -60.5 -153.5t-160.5 -58.5q-103 0 -165 56t-69 151h156q4 -33 24.5 -52.5t54.5 -19.5q32 0 51.5 21.5t19.5 55.5t-20 55.5t-54 21.5z" />
    <glyph glyph-name="six" unicode="6" horiz-adv-x="510" 
d="M256 -10q-101 0 -167.5 65t-66.5 163q0 73 59 173l129 223h171l-105 -185q8 2 15 2q89 -7 144 -67t55 -146q0 -98 -66.5 -163t-167.5 -65zM345 218q0 38 -25 64t-64 26q-37 0 -62.5 -26t-25.5 -64t25 -63.5t63 -25.5q39 0 64 25.5t25 63.5z" />
    <glyph glyph-name="seven" unicode="7" horiz-adv-x="466" 
d="M445 509l-224 -509h-163l214 477h-261v137h434v-105z" />
    <glyph glyph-name="eight" unicode="8" horiz-adv-x="508" 
d="M254 -10q-99 0 -165 49t-66 131q0 52 27.5 89.5t71.5 52.5q-38 18 -59 53t-21 80q0 83 61.5 131t150.5 48t150.5 -48t61.5 -131q0 -45 -21 -80t-58 -53q43 -15 71 -52.5t28 -89.5q0 -82 -66.5 -131t-165.5 -49zM254 378q30 0 49.5 17.5t19.5 44.5q0 29 -19.5 46.5
t-49.5 17.5q-29 0 -49 -17.5t-20 -46.5q0 -27 20 -44.5t49 -17.5zM254 114q34 0 56 19t22 49q0 31 -22 49.5t-56 18.5t-55.5 -18.5t-21.5 -49.5q0 -30 22 -49t55 -19z" />
    <glyph glyph-name="nine" unicode="9" horiz-adv-x="510" 
d="M254 624q101 0 167.5 -65t66.5 -163q0 -73 -59 -173l-129 -223h-171l105 185q-8 -2 -15 -2q-89 7 -144 67t-55 146q0 98 66.5 163t167.5 65zM165 396q0 -38 25 -64t64 -26q37 0 62.5 26t25.5 64t-25 63.5t-63 25.5q-39 0 -64 -25.5t-25 -63.5z" />
    <glyph glyph-name="colon" unicode=":" horiz-adv-x="223" 
d="M19 352q0 40 26.5 66.5t65.5 26.5t66 -26.5t27 -66.5t-27 -67t-66 -27q-38 0 -65 27t-27 67zM19 87q0 39 26.5 66t65.5 27t66 -26.5t27 -66.5t-27 -67t-66 -27q-38 0 -65 27t-27 67z" />
    <glyph glyph-name="semicolon" unicode=";" horiz-adv-x="223" 
d="M19 352q0 40 26.5 66.5t65.5 26.5t66 -26.5t27 -66.5t-27 -67t-66 -27q-38 0 -65 27t-27 67zM12 -105l75 115q-29 6 -48.5 27.5t-19.5 54.5q0 38 26.5 62.5t66.5 24.5q39 0 65.5 -26t26.5 -71q0 -46 -38 -104l-55 -83h-99z" />
    <glyph glyph-name="less" unicode="&#x3c;" horiz-adv-x="433" 
d="M42 225v144l345 153v-129l-236 -96l236 -95v-130z" />
    <glyph glyph-name="equal" unicode="=" horiz-adv-x="574" 
d="M61 340v105h452v-105h-452zM61 158v103h452v-103h-452z" />
    <glyph glyph-name="greater" unicode="&#x3e;" horiz-adv-x="433" 
d="M392 369v-144l-345 -153v130l236 95l-236 96v129z" />
    <glyph glyph-name="question" unicode="?" horiz-adv-x="475" 
d="M455 440q0 -26 -11.5 -54t-19.5 -40t-36 -45.5t-31 -36.5q-27 -32 -29 -58h-155q1 27 11 49t38 57q7 9 25 29.5t24.5 29t13.5 24t7 29.5q0 25 -15.5 40.5t-40.5 15.5q-27 0 -42.5 -17.5t-17.5 -43.5h-162q9 90 69 147.5t159 57.5q97 0 155 -49.5t58 -134.5zM154 82
q0 38 27 63t66 25q40 0 67.5 -25t27.5 -63t-27.5 -63.5t-67.5 -25.5q-39 0 -66 25.5t-27 63.5z" />
    <glyph glyph-name="at" unicode="@" horiz-adv-x="759" 
d="M580 391l-42 -243q-7 -41 26 -41q44 0 70.5 44t26.5 123q0 103 -72.5 162.5t-185.5 59.5q-134 0 -217 -85t-83 -221q0 -61 18.5 -108.5t48.5 -77.5t70 -49.5t80.5 -27t83.5 -7.5q116 0 224 48v-75q-94 -47 -224 -47q-76 0 -143 20.5t-122 60.5t-87 108t-32 155
q0 161 107 271t276 110q148 0 242 -84.5t94 -212.5q0 -118 -59.5 -181.5t-149.5 -63.5q-78 0 -116 50q-32 -48 -99 -48q-64 0 -100.5 43.5t-36.5 110.5q0 88 52 151t134 63q27 0 51 -10.5t34 -25.5l6 28h125zM415 173l15 86q-9 31 -48 31q-31 0 -52.5 -27.5t-21.5 -66.5
q0 -26 13 -41t38 -15q36 0 56 33z" />
    <glyph glyph-name="A" unicode="A" horiz-adv-x="646" 
d="M321 424l-63 -173h126zM241 614h164l234 -614h-163l-44 119h-223l-43 -119h-159z" />
    <glyph glyph-name="B" unicode="B" horiz-adv-x="557" 
d="M432 317q44 -14 72 -54t28 -91q0 -83 -53.5 -127.5t-150.5 -44.5h-282v614h263q97 0 151 -43t54 -124q0 -48 -23.5 -82.5t-58.5 -47.5zM199 371h92q72 0 72 56q0 55 -72 55h-92v-111zM199 251v-119h108q33 0 51.5 16t18.5 43q0 28 -18.5 44t-51.5 16h-108z" />
    <glyph glyph-name="C" unicode="C" horiz-adv-x="603" 
d="M22 307q0 139 83 228t212 89q111 0 179.5 -59t85.5 -157h-160q-27 75 -105 75q-62 0 -97.5 -49t-35.5 -127q0 -77 35.5 -126.5t97.5 -49.5q79 0 105 76h160q-17 -98 -85.5 -157.5t-179.5 -59.5q-129 0 -212 89t-83 228z" />
    <glyph glyph-name="D" unicode="D" horiz-adv-x="609" 
d="M46 0v614h232q144 0 227 -83t83 -224t-83 -224t-227 -83h-232zM204 139h66q76 0 117.5 45t41.5 123q0 79 -41.5 124t-117.5 45h-66v-337z" />
    <glyph glyph-name="E" unicode="E" horiz-adv-x="519" 
d="M46 614h439v-138h-281v-96h257v-135h-257v-106h281v-139h-439v614z" />
    <glyph glyph-name="F" unicode="F" horiz-adv-x="508" 
d="M205 0h-159v614h432v-139h-273v-122h251v-136h-251v-217z" />
    <glyph glyph-name="G" unicode="G" horiz-adv-x="623" 
d="M442 208h-95v120h254v-61q0 -126 -76 -201.5t-199 -75.5q-134 0 -219 88.5t-85 228.5t85 228.5t217 88.5q114 0 184 -59t88 -157h-164q-27 75 -108 75q-65 0 -102.5 -49t-37.5 -127q0 -79 38.5 -127.5t103.5 -48.5q91 0 116 77z" />
    <glyph glyph-name="H" unicode="H" horiz-adv-x="650" 
d="M444 614h161v-614h-161v243h-237v-243h-161v614h161v-233h237v233z" />
    <glyph glyph-name="I" unicode="I" horiz-adv-x="253" 
d="M207 614v-614h-161v614h161z" />
    <glyph glyph-name="J" unicode="J" horiz-adv-x="541" 
d="M15 217h163q5 -83 80 -83q83 0 83 103v377h161v-378q0 -123 -66.5 -184.5t-176.5 -61.5t-174.5 62t-69.5 165z" />
    <glyph glyph-name="K" unicode="K" horiz-adv-x="608" 
d="M207 614v-252l198 252h188l-215 -270l224 -344h-189l-155 236l-51 -65v-171h-161v614h161z" />
    <glyph glyph-name="L" unicode="L" horiz-adv-x="510" 
d="M46 0v614h161v-475h275v-139h-436z" />
    <glyph glyph-name="M" unicode="M" horiz-adv-x="752" 
d="M428 0h-104l-128 365v-365h-150v614h196l135 -382l134 382h195v-614h-151v365z" />
    <glyph glyph-name="N" unicode="N" horiz-adv-x="634" 
d="M588 614v-614h-130l-257 359v-359h-155v614h150l237 -338v338h155z" />
    <glyph glyph-name="O" unicode="O" horiz-adv-x="643" 
d="M622 307q0 -138 -84 -227.5t-217 -89.5q-132 0 -215.5 89.5t-83.5 227.5q0 139 83.5 228t215.5 89q133 0 217 -89t84 -228zM460 307q0 79 -38.5 127.5t-100.5 48.5t-99.5 -48t-37.5 -128t37.5 -128t99.5 -48t100.5 48.5t38.5 127.5z" />
    <glyph glyph-name="P" unicode="P" horiz-adv-x="561" 
d="M315 191h-110v-191h-159v614h269q102 0 162.5 -55.5t60.5 -156.5q0 -100 -60.5 -155.5t-162.5 -55.5zM382 402q0 77 -84 77h-93v-154h93q42 0 63 20.5t21 56.5z" />
    <glyph glyph-name="Q" unicode="Q" horiz-adv-x="643" 
d="M489 -45l-49 60q-56 -25 -119 -25q-132 0 -215.5 89.5t-83.5 227.5q0 139 83.5 228t215.5 89q133 0 217 -89t84 -228q0 -128 -81 -219l45 -55zM460 307q0 79 -38.5 127.5t-100.5 48.5t-99.5 -48t-37.5 -128t37.5 -131.5t99.5 -51.5q15 0 29 3l-49 61l97 76l46 -57
q16 43 16 100z" />
    <glyph glyph-name="R" unicode="R" horiz-adv-x="574" 
d="M205 479v-148h100q83 0 83 74t-83 74h-100zM261 203h-56v-203h-159v614h276q101 0 162 -55t61 -154q0 -68 -32.5 -116t-89.5 -69l144 -220h-178z" />
    <glyph glyph-name="S" unicode="S" horiz-adv-x="544" 
d="M12 182h167q19 -63 99 -63q38 0 60.5 15.5t22.5 43.5q0 21 -14 32.5t-44 18.5l-118 25q-158 35 -158 171q0 89 66.5 144t169.5 55q108 0 173.5 -52.5t78.5 -135.5h-157q-23 60 -94 60q-35 0 -56 -14.5t-21 -39.5q0 -38 51 -49l120 -28q163 -39 163 -177q0 -92 -68 -145
t-172 -53q-110 0 -181.5 50.5t-87.5 141.5z" />
    <glyph glyph-name="T" unicode="T" horiz-adv-x="580" 
d="M20 476v138h540v-138h-190v-476h-161v476h-189z" />
    <glyph glyph-name="U" unicode="U" horiz-adv-x="613" 
d="M307 -10q-124 0 -196 68t-72 193v363h160v-349q0 -64 28.5 -98t79.5 -34q50 0 78.5 34t28.5 98v349h160v-364q0 -124 -72 -192t-195 -68z" />
    <glyph glyph-name="V" unicode="V" horiz-adv-x="629" 
d="M393 0h-157l-229 614h172l139 -397l139 397h165z" />
    <glyph glyph-name="W" unicode="W" horiz-adv-x="820" 
d="M351 614h122l94 -361l85 361h162l-162 -614h-147l-95 360l-96 -360h-147l-161 614h164l86 -361z" />
    <glyph glyph-name="X" unicode="X" horiz-adv-x="604" 
d="M591 614l-197 -300l207 -314h-179l-122 189l-122 -189h-175l207 314l-197 300h179l111 -175l114 175h174z" />
    <glyph glyph-name="Y" unicode="Y" horiz-adv-x="612" 
d="M309 374l129 240h169l-222 -396v-218h-161v218l-218 396h174z" />
    <glyph glyph-name="Z" unicode="Z" horiz-adv-x="561" 
d="M527 139v-139h-493v119l285 357h-282v138h487v-118l-282 -357h285z" />
    <glyph glyph-name="bracketleft" unicode="[" horiz-adv-x="331" 
d="M192 520v-474h119v-130h-265v734h265v-130h-119z" />
    <glyph glyph-name="backslash" unicode="\" horiz-adv-x="394" 
d="M141 650l248 -734h-136l-248 734h136z" />
    <glyph glyph-name="bracketright" unicode="]" horiz-adv-x="331" 
d="M139 46v474h-119v130h265v-734h-265v130h119z" />
    <glyph glyph-name="asciicircum" unicode="^" horiz-adv-x="432" 
d="M152 614h128l142 -238h-134l-72 125l-71 -125h-135z" />
    <glyph glyph-name="underscore" unicode="_" horiz-adv-x="381" 
d="M20 -161v119h341v-119h-341z" />
    <glyph glyph-name="grave" unicode="`" 
d="M365 500h-144l-87 150h149z" />
    <glyph glyph-name="a" unicode="a" horiz-adv-x="529" 
d="M330 166v119q-9 18 -28 30t-41 12q-40 0 -63 -28.5t-23 -73.5q0 -44 23 -72.5t63 -28.5q49 0 69 42zM330 0v36q-17 -19 -47.5 -32.5t-63.5 -13.5q-94 0 -147.5 66.5t-53.5 168.5t53.5 168.5t147.5 66.5q33 0 63.5 -13.5t47.5 -32.5v36h157v-450h-157z" />
    <glyph glyph-name="b" unicode="b" horiz-adv-x="529" 
d="M199 36v-36h-157v650h157v-236q17 19 47.5 32.5t63.5 13.5q94 0 147.5 -66.5t53.5 -168.5t-53.5 -168.5t-147.5 -66.5q-33 0 -63.5 13.5t-47.5 32.5zM199 285v-119q20 -42 69 -42q40 0 63 28.5t23 72.5q0 45 -23 73.5t-63 28.5q-22 0 -41 -12t-28 -30z" />
    <glyph glyph-name="c" unicode="c" horiz-adv-x="471" 
d="M18 225q0 104 63 169.5t164 65.5q89 0 144 -48t65 -129h-152q-3 21 -18.5 34t-38.5 13q-33 0 -52.5 -28.5t-19.5 -76.5t19.5 -76t52.5 -28q24 0 39 12.5t18 33.5h152q-10 -80 -65 -128.5t-144 -48.5q-101 0 -164 65.5t-63 169.5z" />
    <glyph glyph-name="d" unicode="d" horiz-adv-x="529" 
d="M330 166v119q-9 18 -28 30t-41 12q-40 0 -63 -28.5t-23 -73.5q0 -44 23 -72.5t63 -28.5q49 0 69 42zM330 0v36q-17 -19 -47.5 -32.5t-63.5 -13.5q-94 0 -147.5 66.5t-53.5 168.5t53.5 168.5t147.5 66.5q33 0 63.5 -13.5t47.5 -32.5v236h157v-650h-157z" />
    <glyph glyph-name="e" unicode="e" horiz-adv-x="478" 
d="M313 157h145q-12 -78 -68 -122.5t-143 -44.5q-103 0 -166 65t-63 170q0 104 64 169.5t162 65.5q102 0 159 -62t57 -164v-39h-291q8 -83 78 -83q53 0 66 45zM244 338q-57 0 -72 -65h136q-2 29 -19 47t-45 18z" />
    <glyph glyph-name="f" unicode="f" horiz-adv-x="338" 
d="M328 647v-128q-17 9 -37 9q-56 0 -56 -54v-24h87v-122h-87v-328h-155v328h-67v122h67v33q0 81 46.5 128.5t128.5 47.5q40 0 73 -12z" />
    <glyph glyph-name="g" unicode="g" horiz-adv-x="521" 
d="M324 182v116q-23 38 -68 38q-38 0 -60.5 -26.5t-22.5 -69.5t22 -69.5t61 -26.5q46 0 68 38zM324 31v32q-38 -44 -107 -44q-92 0 -145.5 62.5t-53.5 158.5q0 95 53.5 157.5t145.5 62.5q70 0 107 -44v34h155v-385q0 -115 -63.5 -174.5t-170.5 -59.5q-91 0 -150.5 43
t-71.5 120h151q14 -48 71 -48q79 0 79 85z" />
    <glyph glyph-name="h" unicode="h" horiz-adv-x="519" 
d="M42 0v650h157v-239q44 49 121 49q74 0 116.5 -44.5t42.5 -120.5v-295h-156v257q0 29 -15 46.5t-44 17.5q-24 0 -41.5 -13t-23.5 -36v-272h-157z" />
    <glyph glyph-name="i" unicode="i" horiz-adv-x="242" 
d="M210 572q0 -37 -26 -60.5t-63 -23.5t-63 23.5t-26 60.5q0 38 26 61.5t63 23.5t63 -23.5t26 -61.5zM199 450v-450h-157v450h157z" />
    <glyph glyph-name="j" unicode="j" horiz-adv-x="241" 
d="M210 572q0 -37 -26 -60.5t-63 -23.5t-63 23.5t-26 60.5q0 38 26 61.5t63 23.5t63 -23.5t26 -61.5zM199 450v-440q0 -86 -44 -132.5t-127 -46.5q-37 0 -57 7v118q12 -2 23 -2q25 0 36.5 11.5t11.5 38.5v446h157z" />
    <glyph glyph-name="k" unicode="k" horiz-adv-x="523" 
d="M339 0l-110 167l-30 -35v-132h-157v650h157v-344l126 144h189l-171 -187l176 -263h-180z" />
    <glyph glyph-name="l" unicode="l" horiz-adv-x="242" 
d="M199 650v-650h-157v650h157z" />
    <glyph glyph-name="m" unicode="m" horiz-adv-x="769" 
d="M439 406q52 54 139 54q70 0 111 -44.5t41 -120.5v-295h-157v257q0 65 -51 65q-21 0 -36.5 -12.5t-21.5 -35.5v-274h-156v257q0 65 -51 65q-21 0 -37 -12.5t-21 -35.5v-274h-157v450h157v-37q39 47 116 47q78 0 124 -54z" />
    <glyph glyph-name="n" unicode="n" horiz-adv-x="519" 
d="M42 0v450h157v-39q44 49 121 49q74 0 116.5 -44.5t42.5 -120.5v-295h-156v257q0 29 -15 46.5t-44 17.5q-24 0 -41.5 -13t-23.5 -36v-272h-157z" />
    <glyph glyph-name="o" unicode="o" horiz-adv-x="497" 
d="M478 225q0 -104 -63.5 -169.5t-166.5 -65.5q-102 0 -166 65.5t-64 169.5t64 169.5t166 65.5q103 0 166.5 -65.5t63.5 -169.5zM324 225q0 48 -20 77t-56 29q-35 0 -55 -29t-20 -77q0 -47 20 -76t55 -29q36 0 56 28.5t20 76.5z" />
    <glyph glyph-name="p" unicode="p" horiz-adv-x="529" 
d="M199 285v-119q20 -42 69 -42q40 0 63 28.5t23 72.5q0 45 -23 73.5t-63 28.5q-48 0 -69 -42zM199 36v-195h-157v609h157v-36q17 19 47.5 32.5t63.5 13.5q94 0 147.5 -67t53.5 -168q0 -100 -53.5 -167.5t-147.5 -67.5q-33 0 -63.5 13.5t-47.5 32.5z" />
    <glyph glyph-name="q" unicode="q" horiz-adv-x="529" 
d="M330 -159v195q-17 -19 -47.5 -32.5t-63.5 -13.5q-94 0 -147.5 67.5t-53.5 167.5q0 101 53.5 168t147.5 67q33 0 63.5 -13.5t47.5 -32.5v36h157v-609h-157zM330 166v119q-21 42 -69 42q-40 0 -63 -28.5t-23 -73.5q0 -44 23 -72.5t63 -28.5q49 0 69 42z" />
    <glyph glyph-name="r" unicode="r" horiz-adv-x="365" 
d="M344 452v-151q-27 14 -65 14q-67 0 -80 -51v-264h-157v450h157v-40q37 50 102 50q29 0 43 -8z" />
    <glyph glyph-name="s" unicode="s" horiz-adv-x="448" 
d="M16 139h153q11 -39 57 -39t46 31q0 20 -35 28l-88 18q-124 26 -124 131q0 70 55 111t137 41q90 0 141.5 -38.5t62.5 -107.5h-145q-9 36 -55 36q-42 0 -42 -30q0 -19 31 -25l89 -21q126 -29 126 -135q0 -70 -55.5 -109.5t-141.5 -39.5q-88 0 -145 39t-67 110z" />
    <glyph glyph-name="t" unicode="t" horiz-adv-x="358" 
d="M75 155v173h-66v122h66v124h155v-124h94v-122h-94v-150q0 -50 48 -50q27 0 50 10v-133q-32 -14 -87 -14q-166 0 -166 164z" />
    <glyph glyph-name="u" unicode="u" horiz-adv-x="517" 
d="M475 450v-450h-157v39q-42 -49 -120 -49q-74 0 -116 44.5t-42 120.5v295h156v-258q0 -65 58 -65q22 0 40 13.5t24 36.5v273h157z" />
    <glyph glyph-name="v" unicode="v" horiz-adv-x="497" 
d="M319 0h-141l-171 450h160l86 -258l84 258h154z" />
    <glyph glyph-name="w" unicode="w" horiz-adv-x="698" 
d="M402 450l67 -244l72 244h150l-145 -450h-133l-64 228l-64 -228h-133l-145 450h156l71 -244l68 244h100z" />
    <glyph glyph-name="x" unicode="x" horiz-adv-x="494" 
d="M483 450l-151 -220l158 -230h-170l-77 117l-77 -117h-162l157 229l-150 221h169l70 -108l71 108h162z" />
    <glyph glyph-name="y" unicode="y" horiz-adv-x="502" 
d="M264 -159h-155l66 170l-168 439h163l86 -256l84 256h156z" />
    <glyph glyph-name="z" unicode="z" horiz-adv-x="456" 
d="M424 123v-123h-393v103l198 225h-192v122h384v-102l-190 -225h193z" />
    <glyph glyph-name="braceleft" unicode="{" horiz-adv-x="366" 
d="M235 200v-125q0 -29 29 -29h82v-130h-124q-57 0 -93 36t-36 94v143q0 29 -29 29h-44v130h44q29 0 29 29v143q0 58 36 94t93 36h124v-130h-82q-29 0 -29 -29v-125q0 -54 -47 -83q47 -29 47 -83z" />
    <glyph glyph-name="bar" unicode="|" horiz-adv-x="223" 
d="M46 -84v734h131v-734h-131z" />
    <glyph glyph-name="braceright" unicode="}" horiz-adv-x="366" 
d="M131 75v125q0 54 47 83q-47 29 -47 83v125q0 29 -29 29h-82v130h124q57 0 93 -36t36 -94v-143q0 -29 29 -29h44v-130h-44q-29 0 -29 -29v-143q0 -58 -36 -94t-93 -36h-124v130h82q29 0 29 29z" />
    <glyph glyph-name="asciitilde" unicode="~" horiz-adv-x="426" 
d="M298 355h98q0 -77 -29 -120t-81 -43q-34 0 -70.5 28t-51.5 28q-35 0 -35 -51h-98q0 77 28.5 120t81.5 43q34 0 70.5 -28t51.5 -28q35 0 35 51z" />
    <glyph glyph-name="uni00A0" unicode="&#xa0;" horiz-adv-x="200" 
 />
    <glyph glyph-name="exclamdown" unicode="&#xa1;" horiz-adv-x="243" 
d="M26 436q0 38 27.5 63.5t66.5 25.5t66 -25.5t27 -63.5q0 -37 -27 -62.5t-66 -25.5t-66.5 25.5t-27.5 62.5zM24 -96l35 408h121l35 -408h-191z" />
    <glyph glyph-name="cent" unicode="&#xa2;" horiz-adv-x="471" 
d="M18 235q0 87 44.5 147.5t119.5 79.5v96h127v-96q62 -16 99.5 -61.5t44.5 -110.5h-151q-2 22 -17.5 36t-40.5 14q-32 0 -51.5 -28.5t-19.5 -76.5t19.5 -76t51.5 -28q25 0 40.5 13.5t17.5 35.5h151q-7 -65 -44.5 -111t-99.5 -62v-92h-127v92q-75 20 -119.5 81t-44.5 147z
" />
    <glyph glyph-name="sterling" unicode="&#xa3;" horiz-adv-x="503" 
d="M237 422v-59h113v-119h-113v-23q0 -63 -21 -91h263v-130h-455v130h44q20 35 20 91v23h-64v119h64v54q0 91 53.5 149t145.5 58q86 0 137.5 -49t56.5 -131h-140q-3 50 -49 50q-55 0 -55 -72z" />
    <glyph glyph-name="yen" unicode="&#xa5;" horiz-adv-x="573" 
d="M63 244v92h96l-145 278h174l102 -214l102 214h167l-147 -278h97v-92h-145v-48h145v-92h-145v-104h-157v104h-144v92h144v48h-144z" />
    <glyph glyph-name="section" unicode="&#xa7;" horiz-adv-x="478" 
d="M196 252l97 -61q26 7 26 34q0 23 -37 47l-97 61q-25 -8 -25 -34q0 -24 36 -47zM388 122q31 -36 31 -78q0 -66 -51 -105t-131 -39q-89 0 -139 40.5t-59 110.5h136q7 -44 54 -44q18 0 30.5 9.5t12.5 26.5q0 21 -33 41l-114 63q-105 57 -105 142q0 75 69 113q-30 33 -30 78
q0 66 51 105t131 39q90 0 139.5 -40t58.5 -111h-136q-2 20 -16 32t-38 12q-18 0 -30.5 -9.5t-12.5 -26.5q0 -9 5.5 -17t11 -12.5t17.5 -11.5l113 -63q105 -57 105 -142q0 -76 -70 -113z" />
    <glyph glyph-name="dieresis" unicode="&#xa8;" 
d="M261 567q0 32 22 54.5t54 22.5t55 -22.5t23 -54.5q0 -31 -23 -53.5t-55 -22.5q-31 0 -53.5 22.5t-22.5 53.5zM84 567q0 32 22.5 54.5t54.5 22.5t54.5 -22.5t22.5 -54.5q0 -31 -22.5 -53.5t-54.5 -22.5t-54.5 22.5t-22.5 53.5z" />
    <glyph glyph-name="copyright" unicode="&#xa9;" horiz-adv-x="704" 
d="M669 307q0 -136 -92.5 -226.5t-224.5 -90.5t-224.5 90.5t-92.5 226.5t92.5 226.5t224.5 90.5t224.5 -90.5t92.5 -226.5zM622 307q0 116 -79 193.5t-191 77.5t-191 -77.5t-79 -193.5t79 -193.5t191 -77.5t191 77.5t79 193.5zM165 308q0 88 53 144t137 56q73 0 117 -38.5
t54 -100.5h-114q-12 39 -57 39q-37 0 -57 -27.5t-20 -72.5q0 -44 20.5 -71.5t56.5 -27.5q45 0 57 40h114q-10 -62 -54.5 -101t-116.5 -39q-84 0 -137 55.5t-53 143.5z" />
    <glyph glyph-name="ordfeminine" unicode="&#xaa;" horiz-adv-x="320" 
d="M193 399v15q-13 18 -40 18q-15 0 -25.5 -7t-10.5 -19q0 -26 36 -26q29 0 40 19zM303 311h-110v15q-21 -21 -74 -21q-47 0 -79 26t-32 73q0 44 33.5 70.5t84.5 26.5q44 0 67 -17v19q0 14 -8.5 23.5t-25.5 9.5q-27 0 -33 -22h-104q7 49 44 79.5t97 30.5q67 0 103.5 -33
t36.5 -94v-186z" />
    <glyph glyph-name="guillemotleft" unicode="&#xab;" horiz-adv-x="451" 
d="M426 58h-128l-92 164l92 164h128l-92 -164zM245 58h-128l-92 164l92 164h128l-92 -164z" />
    <glyph glyph-name="registered" unicode="&#xae;" horiz-adv-x="407" 
d="M384 441q0 -78 -53 -130.5t-128 -52.5t-128 52.5t-53 130.5t53 130.5t128 52.5t128 -52.5t53 -130.5zM351 441q0 66 -43 109t-105 43t-105 -43t-43 -109t43 -109t105 -43t105 43t43 109zM233 469q0 20 -23 20h-25v-38h25q23 0 23 18zM197 404h-12v-58h-59v192h93
q33 0 52.5 -18t19.5 -51q0 -42 -36 -58l42 -65h-65z" />
    <glyph glyph-name="macron" unicode="&#xaf;" 
d="M123 504v108h253v-108h-253z" />
    <glyph glyph-name="degree" unicode="&#xb0;" horiz-adv-x="362" 
d="M320 483q0 -59 -41 -100t-98 -41t-98 41t-41 100q0 58 41 99.5t98 41.5t98 -41.5t41 -99.5zM124 483q0 -25 17 -42t40 -17t39.5 17t16.5 42q0 24 -16.5 41t-39.5 17t-40 -17t-17 -41z" />
    <glyph glyph-name="plusminus" unicode="&#xb1;" horiz-adv-x="567" 
d="M231 561h105v-128h166v-104h-166v-128h-105v128h-165v104h165v128zM66 48v105h436v-105h-436z" />
    <glyph glyph-name="twosuperior" unicode="&#xb2;" horiz-adv-x="311" 
d="M184 501q0 26 -25 26q-12 0 -20 -8.5t-8 -19.5h-110q5 52 41.5 86t93.5 34q60 0 96.5 -31t36.5 -81q0 -22 -10 -42.5t-21.5 -32l-33.5 -32.5l-51 -47h114v-89h-264v68l129 119l18 19.5t9.5 14t4.5 16.5z" />
    <glyph glyph-name="threesuperior" unicode="&#xb3;" horiz-adv-x="301" 
d="M121 404v72h23q37 0 37 30q0 12 -7.5 20.5t-21.5 8.5q-15 0 -24 -10.5t-11 -24.5h-101q6 51 41 85t92 34q61 0 95.5 -30.5t34.5 -81.5q0 -20 -10 -39.5t-25 -28.5q38 -19 38 -66q0 -52 -35.5 -83.5t-96.5 -31.5t-97 33t-40 89h107q2 -35 34 -35q14 0 22 8.5t8 21.5
q0 29 -36 29h-27z" />
    <glyph glyph-name="acute" unicode="&#xb4;" 
d="M278 500h-144l82 150h149z" />
    <glyph glyph-name="paragraph" unicode="&#xb6;" horiz-adv-x="551" 
d="M242 -90v337q-92 0 -160 47t-68 137t68 136.5t160 46.5h104v-704h-104zM400 -90v704h105v-704h-105z" />
    <glyph glyph-name="periodcentered" unicode="&#xb7;" horiz-adv-x="233" 
d="M24 262q0 40 27 66.5t65 26.5q39 0 66 -26.5t27 -66.5t-27 -67t-66 -27q-38 0 -65 27t-27 67z" />
    <glyph glyph-name="cedilla" unicode="&#xb8;" 
d="M274 -181h-133l69 141h134z" />
    <glyph glyph-name="onesuperior" unicode="&#xb9;" horiz-adv-x="242" 
d="M205 614v-350h-104v233l-87 -42v105l115 54h76z" />
    <glyph glyph-name="ordmasculine" unicode="&#xba;" horiz-adv-x="335" 
d="M328 464q0 -71 -44.5 -115.5t-115.5 -44.5t-115.5 44.5t-44.5 115.5t44.5 115.5t115.5 44.5t115.5 -44.5t44.5 -115.5zM212 464q0 28 -11.5 46t-32.5 18t-32.5 -18t-11.5 -46t11.5 -45.5t32.5 -17.5t32.5 17.5t11.5 45.5z" />
    <glyph glyph-name="guillemotright" unicode="&#xbb;" horiz-adv-x="451" 
d="M153 58h-128l92 164l-92 164h128l92 -164zM334 58h-128l92 164l-92 164h128l92 -164z" />
    <glyph glyph-name="onequarter" unicode="&#xbc;" horiz-adv-x="719" 
d="M215 614v-350h-104v233l-86 -42v105l115 54h75zM602 614l-420 -614h-92l420 614h92zM602 350l-95 -206h46v51h90v-51h47v-87h-47v-57h-90v57h-158v81l105 212h102z" />
    <glyph glyph-name="onehalf" unicode="&#xbd;" horiz-adv-x="725" 
d="M215 614v-350h-104v233l-86 -42v105l115 54h75zM602 614l-420 -614h-92l420 614h92zM583 238q0 11 -7 18t-19 7t-20 -8.5t-8 -19.5h-110q5 52 41.5 86t93.5 34q60 0 96.5 -31t36.5 -81q0 -22 -10 -42t-21 -32.5t-33 -32.5l-51 -47h114v-89h-264v68l128 120q29 29 32 43
q1 3 1 7z" />
    <glyph glyph-name="threequarters" unicode="&#xbe;" horiz-adv-x="749" 
d="M632 614l-420 -614h-93l420 614h93zM135 404v72h24q36 0 36 30q0 29 -29 29q-15 0 -23.5 -10.5t-10.5 -24.5h-101q6 51 40.5 85t91.5 34q61 0 95.5 -30.5t34.5 -81.5q0 -20 -10 -39.5t-25 -28.5q39 -19 39 -66q0 -52 -35.5 -83.5t-97.5 -31.5q-60 0 -96.5 33.5
t-39.5 88.5h106q4 -35 34 -35q14 0 22.5 8.5t8.5 21.5q0 29 -36 29h-28zM631 350l-95 -206h46v51h91v-51h47v-87h-47v-57h-91v57h-158v81l106 212h101z" />
    <glyph glyph-name="questiondown" unicode="&#xbf;" horiz-adv-x="475" 
d="M321 436q0 -38 -27 -63t-66 -25q-40 0 -67.5 25t-27.5 63t27.5 63.5t67.5 25.5q39 0 66 -25.5t27 -63.5zM20 78q0 26 11.5 54t19.5 40t36 45.5t31 36.5q27 32 29 58h155q-1 -27 -11 -49t-38 -57q-7 -9 -25 -29.5t-24.5 -29t-13.5 -24t-7 -29.5q0 -25 15.5 -40.5
t40.5 -15.5q27 0 42.5 17.5t17.5 43.5h162q-9 -90 -69 -147.5t-159 -57.5q-97 0 -155 49.5t-58 134.5z" />
    <glyph glyph-name="Agrave" unicode="&#xc0;" horiz-adv-x="646" 
d="M406 666h-154l-89 130h161zM321 424l-63 -173h126zM241 614h164l234 -614h-163l-44 119h-223l-43 -119h-159z" />
    <glyph glyph-name="Aacute" unicode="&#xc1;" horiz-adv-x="646" 
d="M396 666h-154l82 130h161zM321 424l-63 -173h126zM241 614h164l234 -614h-163l-44 119h-223l-43 -119h-159z" />
    <glyph glyph-name="Acircumflex" unicode="&#xc2;" horiz-adv-x="646" 
d="M383 798l108 -132h-126l-42 45l-42 -45h-126l108 132h120zM321 424l-63 -173h126zM241 614h164l234 -614h-163l-44 119h-223l-43 -119h-159z" />
    <glyph glyph-name="Atilde" unicode="&#xc3;" horiz-adv-x="646" 
d="M395 809h85q0 -150 -88 -150q-26 0 -63 17.5t-52 17.5q-24 0 -26 -31h-85q0 150 88 150q26 0 63 -17.5t52 -17.5q24 0 26 31zM321 424l-63 -173h126zM241 614h164l234 -614h-163l-44 119h-223l-43 -119h-159z" />
    <glyph glyph-name="Adieresis" unicode="&#xc4;" horiz-adv-x="646" 
d="M335 734q0 33 23 56t55 23t55.5 -23t23.5 -56t-23.5 -56t-55.5 -23t-55 23t-23 56zM154 734q0 33 22.5 56t55.5 23q32 0 55.5 -23t23.5 -56t-23.5 -56t-55.5 -23q-33 0 -55.5 23t-22.5 56zM321 424l-63 -173h126zM241 614h164l234 -614h-163l-44 119h-223l-43 -119h-159z
" />
    <glyph glyph-name="Aring" unicode="&#xc5;" horiz-adv-x="646" 
d="M431 747q0 -44 -31 -74.5t-77 -30.5t-77 30.5t-31 74.5t31 74.5t77 30.5t77 -30.5t31 -74.5zM359 747q0 15 -10 25.5t-26 10.5q-15 0 -25.5 -10.5t-10.5 -25.5t10.5 -25.5t25.5 -10.5q16 0 26 10.5t10 25.5zM321 424l-63 -173h126zM241 614h164l234 -614h-163l-44 119
h-223l-43 -119h-159z" />
    <glyph glyph-name="AE" unicode="&#xc6;" horiz-adv-x="898" 
d="M445 484l-129 -233h129v233zM352 614h512v-138h-261v-96h236v-135h-236v-106h261v-139h-419v119h-202l-66 -119h-170z" />
    <glyph glyph-name="Ccedilla" unicode="&#xc7;" horiz-adv-x="603" 
d="M22 307q0 139 83 228t212 89q111 0 179.5 -59t85.5 -157h-160q-27 75 -105 75q-62 0 -97.5 -49t-35.5 -127q0 -77 35.5 -126.5t97.5 -49.5q79 0 105 76h160q-17 -98 -85.5 -157.5t-179.5 -59.5q-129 0 -212 89t-83 228zM318 -181h-133l69 141h134z" />
    <glyph glyph-name="Egrave" unicode="&#xc8;" horiz-adv-x="519" 
d="M354 666h-154l-89 130h161zM46 614h439v-138h-281v-96h257v-135h-257v-106h281v-139h-439v614z" />
    <glyph glyph-name="Eacute" unicode="&#xc9;" horiz-adv-x="519" 
d="M344 666h-154l82 130h161zM46 614h439v-138h-281v-96h257v-135h-257v-106h281v-139h-439v614z" />
    <glyph glyph-name="Ecircumflex" unicode="&#xca;" horiz-adv-x="519" 
d="M331 798l108 -132h-126l-42 45l-42 -45h-126l108 132h120zM46 614h439v-138h-281v-96h257v-135h-257v-106h281v-139h-439v614z" />
    <glyph glyph-name="Edieresis" unicode="&#xcb;" horiz-adv-x="519" 
d="M283 734q0 33 23 56t55 23t55.5 -23t23.5 -56t-23.5 -56t-55.5 -23t-55 23t-23 56zM102 734q0 33 22.5 56t55.5 23q32 0 55.5 -23t23.5 -56t-23.5 -56t-55.5 -23q-33 0 -55.5 23t-22.5 56zM46 614h439v-138h-281v-96h257v-135h-257v-106h281v-139h-439v614z" />
    <glyph glyph-name="Igrave" unicode="&#xcc;" horiz-adv-x="253" 
d="M209 666h-154l-89 130h161zM207 614v-614h-161v614h161z" />
    <glyph glyph-name="Iacute" unicode="&#xcd;" horiz-adv-x="253" 
d="M199 666h-154l82 130h161zM207 614v-614h-161v614h161z" />
    <glyph glyph-name="Icircumflex" unicode="&#xce;" horiz-adv-x="253" 
d="M186 798l108 -132h-126l-42 45l-42 -45h-126l108 132h120zM207 614v-614h-161v614h161z" />
    <glyph glyph-name="Idieresis" unicode="&#xcf;" horiz-adv-x="253" 
d="M139 734q0 33 23 56t55 23t55.5 -23t23.5 -56t-23.5 -56t-55.5 -23t-55 23t-23 56zM-42 734q0 33 22.5 56t55.5 23q32 0 55.5 -23t23.5 -56t-23.5 -56t-55.5 -23q-33 0 -55.5 23t-22.5 56zM207 614v-614h-161v614h161z" />
    <glyph glyph-name="Eth" unicode="&#xd0;" horiz-adv-x="626" 
d="M17 252v124h46v238h232q144 0 227 -83t83 -224t-83 -224t-227 -83h-232v252h-46zM221 139h66q76 0 117.5 45t41.5 123q0 79 -41.5 124t-117.5 45h-66v-100h87v-124h-87v-113z" />
    <glyph glyph-name="Ntilde" unicode="&#xd1;" horiz-adv-x="634" 
d="M389 809h85q0 -150 -88 -150q-26 0 -63 17.5t-52 17.5q-24 0 -26 -31h-85q0 150 88 150q26 0 63 -17.5t52 -17.5q24 0 26 31zM588 614v-614h-130l-257 359v-359h-155v614h150l237 -338v338h155z" />
    <glyph glyph-name="Ograve" unicode="&#xd2;" horiz-adv-x="643" 
d="M404 666h-154l-89 130h161zM622 307q0 -138 -84 -227.5t-217 -89.5q-132 0 -215.5 89.5t-83.5 227.5q0 139 83.5 228t215.5 89q133 0 217 -89t84 -228zM460 307q0 79 -38.5 127.5t-100.5 48.5t-99.5 -48t-37.5 -128t37.5 -128t99.5 -48t100.5 48.5t38.5 127.5z" />
    <glyph glyph-name="Oacute" unicode="&#xd3;" horiz-adv-x="643" 
d="M394 666h-154l82 130h161zM622 307q0 -138 -84 -227.5t-217 -89.5q-132 0 -215.5 89.5t-83.5 227.5q0 139 83.5 228t215.5 89q133 0 217 -89t84 -228zM460 307q0 79 -38.5 127.5t-100.5 48.5t-99.5 -48t-37.5 -128t37.5 -128t99.5 -48t100.5 48.5t38.5 127.5z" />
    <glyph glyph-name="Ocircumflex" unicode="&#xd4;" horiz-adv-x="643" 
d="M381 798l108 -132h-126l-42 45l-42 -45h-126l108 132h120zM622 307q0 -138 -84 -227.5t-217 -89.5q-132 0 -215.5 89.5t-83.5 227.5q0 139 83.5 228t215.5 89q133 0 217 -89t84 -228zM460 307q0 79 -38.5 127.5t-100.5 48.5t-99.5 -48t-37.5 -128t37.5 -128t99.5 -48
t100.5 48.5t38.5 127.5z" />
    <glyph glyph-name="Otilde" unicode="&#xd5;" horiz-adv-x="643" 
d="M393 809h85q0 -150 -88 -150q-26 0 -63 17.5t-52 17.5q-24 0 -26 -31h-85q0 150 88 150q26 0 63 -17.5t52 -17.5q24 0 26 31zM622 307q0 -138 -84 -227.5t-217 -89.5q-132 0 -215.5 89.5t-83.5 227.5q0 139 83.5 228t215.5 89q133 0 217 -89t84 -228zM460 307
q0 79 -38.5 127.5t-100.5 48.5t-99.5 -48t-37.5 -128t37.5 -128t99.5 -48t100.5 48.5t38.5 127.5z" />
    <glyph glyph-name="Odieresis" unicode="&#xd6;" horiz-adv-x="643" 
d="M334 734q0 33 23 56t55 23t55.5 -23t23.5 -56t-23.5 -56t-55.5 -23t-55 23t-23 56zM153 734q0 33 22.5 56t55.5 23q32 0 55.5 -23t23.5 -56t-23.5 -56t-55.5 -23q-33 0 -55.5 23t-22.5 56zM622 307q0 -138 -84 -227.5t-217 -89.5q-132 0 -215.5 89.5t-83.5 227.5
q0 139 83.5 228t215.5 89q133 0 217 -89t84 -228zM460 307q0 79 -38.5 127.5t-100.5 48.5t-99.5 -48t-37.5 -128t37.5 -128t99.5 -48t100.5 48.5t38.5 127.5z" />
    <glyph glyph-name="multiply" unicode="&#xd7;" horiz-adv-x="494" 
d="M166 298l-121 120l82 81l120 -120l120 120l82 -81l-121 -120l121 -120l-82 -81l-120 120l-120 -120l-82 81z" />
    <glyph glyph-name="Oslash" unicode="&#xd8;" horiz-adv-x="652" 
d="M188 307q0 -44 13 -85l208 232q-34 29 -83 29q-62 0 -100 -48.5t-38 -127.5zM464 307q0 45 -13 84l-208 -232q34 -28 83 -28q62 0 100 48.5t38 127.5zM34 36l58 64q-66 86 -66 207q0 139 83.5 228t216.5 89q104 0 183 -60l54 61l56 -47l-59 -65q66 -85 66 -206
q0 -138 -84 -227.5t-216 -89.5q-107 0 -183 59l-53 -60z" />
    <glyph glyph-name="Ugrave" unicode="&#xd9;" horiz-adv-x="613" 
d="M390 666h-154l-89 130h161zM307 -10q-124 0 -196 68t-72 193v363h160v-349q0 -64 28.5 -98t79.5 -34q50 0 78.5 34t28.5 98v349h160v-364q0 -124 -72 -192t-195 -68z" />
    <glyph glyph-name="Uacute" unicode="&#xda;" horiz-adv-x="613" 
d="M380 666h-154l82 130h161zM307 -10q-124 0 -196 68t-72 193v363h160v-349q0 -64 28.5 -98t79.5 -34q50 0 78.5 34t28.5 98v349h160v-364q0 -124 -72 -192t-195 -68z" />
    <glyph glyph-name="Ucircumflex" unicode="&#xdb;" horiz-adv-x="613" 
d="M367 798l108 -132h-126l-42 45l-42 -45h-126l108 132h120zM307 -10q-124 0 -196 68t-72 193v363h160v-349q0 -64 28.5 -98t79.5 -34q50 0 78.5 34t28.5 98v349h160v-364q0 -124 -72 -192t-195 -68z" />
    <glyph glyph-name="Udieresis" unicode="&#xdc;" horiz-adv-x="613" 
d="M319 734q0 33 23 56t55 23t55.5 -23t23.5 -56t-23.5 -56t-55.5 -23t-55 23t-23 56zM138 734q0 33 22.5 56t55.5 23q32 0 55.5 -23t23.5 -56t-23.5 -56t-55.5 -23q-33 0 -55.5 23t-22.5 56zM307 -10q-124 0 -196 68t-72 193v363h160v-349q0 -64 28.5 -98t79.5 -34
q50 0 78.5 34t28.5 98v349h160v-364q0 -124 -72 -192t-195 -68z" />
    <glyph glyph-name="Yacute" unicode="&#xdd;" horiz-adv-x="612" 
d="M379 666h-154l82 130h161zM309 374l129 240h169l-222 -396v-218h-161v218l-218 396h174z" />
    <glyph glyph-name="Thorn" unicode="&#xde;" horiz-adv-x="561" 
d="M315 102h-110v-102h-159v614h159v-89h110q102 0 162.5 -55.5t60.5 -156.5q0 -100 -60.5 -155.5t-162.5 -55.5zM382 313q0 77 -84 77h-93v-154h93q42 0 63 20.5t21 56.5z" />
    <glyph glyph-name="germandbls" unicode="&#xdf;" horiz-adv-x="543" 
d="M414 355q48 -17 79 -61t31 -106q0 -90 -55 -141.5t-143 -51.5q-47 0 -79 11v124q19 -7 49 -7q37 0 58 20.5t21 58.5t-25.5 58t-69.5 20h-29v122h17q30 0 47 16t17 47q0 28 -17 44.5t-48 16.5q-33 0 -51 -23t-18 -61v-442h-156v432q0 105 60.5 166t164.5 61
q101 0 156.5 -48.5t55.5 -126.5q0 -45 -18.5 -79.5t-46.5 -49.5z" />
    <glyph glyph-name="agrave" unicode="&#xe0;" horiz-adv-x="529" 
d="M356 500h-144l-87 150h149zM330 166v119q-9 18 -28 30t-41 12q-40 0 -63 -28.5t-23 -73.5q0 -44 23 -72.5t63 -28.5q49 0 69 42zM330 0v36q-17 -19 -47.5 -32.5t-63.5 -13.5q-94 0 -147.5 66.5t-53.5 168.5t53.5 168.5t147.5 66.5q33 0 63.5 -13.5t47.5 -32.5v36h157
v-450h-157z" />
    <glyph glyph-name="aacute" unicode="&#xe1;" horiz-adv-x="529" 
d="M337 500h-144l82 150h149zM330 166v119q-9 18 -28 30t-41 12q-40 0 -63 -28.5t-23 -73.5q0 -44 23 -72.5t63 -28.5q49 0 69 42zM330 0v36q-17 -19 -47.5 -32.5t-63.5 -13.5q-94 0 -147.5 66.5t-53.5 168.5t53.5 168.5t147.5 66.5q33 0 63.5 -13.5t47.5 -32.5v36h157v-450
h-157z" />
    <glyph glyph-name="acircumflex" unicode="&#xe2;" horiz-adv-x="529" 
d="M337 649l96 -151h-116l-40 55l-40 -55h-116l96 151h120zM330 166v119q-9 18 -28 30t-41 12q-40 0 -63 -28.5t-23 -73.5q0 -44 23 -72.5t63 -28.5q49 0 69 42zM330 0v36q-17 -19 -47.5 -32.5t-63.5 -13.5q-94 0 -147.5 66.5t-53.5 168.5t53.5 168.5t147.5 66.5
q33 0 63.5 -13.5t47.5 -32.5v36h157v-450h-157z" />
    <glyph glyph-name="atilde" unicode="&#xe3;" horiz-adv-x="529" 
d="M343 649h86q0 -150 -88 -150q-25 0 -55 18t-44 18q-25 0 -25 -33h-86q0 150 88 150q25 0 55 -18t44 -18q25 0 25 33zM330 166v119q-9 18 -28 30t-41 12q-40 0 -63 -28.5t-23 -73.5q0 -44 23 -72.5t63 -28.5q49 0 69 42zM330 0v36q-17 -19 -47.5 -32.5t-63.5 -13.5
q-94 0 -147.5 66.5t-53.5 168.5t53.5 168.5t147.5 66.5q33 0 63.5 -13.5t47.5 -32.5v36h157v-450h-157z" />
    <glyph glyph-name="adieresis" unicode="&#xe4;" horiz-adv-x="529" 
d="M291 567q0 32 22 54.5t54 22.5t55 -22.5t23 -54.5q0 -31 -23 -53.5t-55 -22.5q-31 0 -53.5 22.5t-22.5 53.5zM114 567q0 32 22.5 54.5t54.5 22.5t54.5 -22.5t22.5 -54.5q0 -31 -22.5 -53.5t-54.5 -22.5t-54.5 22.5t-22.5 53.5zM330 166v119q-9 18 -28 30t-41 12
q-40 0 -63 -28.5t-23 -73.5q0 -44 23 -72.5t63 -28.5q49 0 69 42zM330 0v36q-17 -19 -47.5 -32.5t-63.5 -13.5q-94 0 -147.5 66.5t-53.5 168.5t53.5 168.5t147.5 66.5q33 0 63.5 -13.5t47.5 -32.5v36h157v-450h-157z" />
    <glyph glyph-name="aring" unicode="&#xe5;" horiz-adv-x="529" 
d="M376 589q0 -44 -31 -74t-77 -30t-77 30t-31 74t31 75t77 31t77 -31t31 -75zM304 589q0 16 -10 26.5t-26 10.5q-15 0 -25.5 -10.5t-10.5 -26.5q0 -14 10.5 -24.5t25.5 -10.5q16 0 26 10t10 25zM330 166v119q-9 18 -28 30t-41 12q-40 0 -63 -28.5t-23 -73.5q0 -44 23 -72.5
t63 -28.5q49 0 69 42zM330 0v36q-17 -19 -47.5 -32.5t-63.5 -13.5q-94 0 -147.5 66.5t-53.5 168.5t53.5 168.5t147.5 66.5q33 0 63.5 -13.5t47.5 -32.5v36h157v-450h-157z" />
    <glyph glyph-name="ae" unicode="&#xe6;" horiz-adv-x="804" 
d="M608 -10q-88 0 -132 50v-40h-146v43q-18 -22 -50 -37.5t-67 -15.5q-94 0 -145 67t-51 169t51 168.5t145 66.5q35 0 67.5 -15.5t49.5 -37.5v44h146v-46q33 54 119 54q83 0 136 -63t53 -163v-39h-291q8 -83 78 -83q53 0 66 45h145q-12 -76 -60.5 -121.5t-113.5 -45.5z
M568 338q-56 0 -72 -65h136q-2 29 -19 47t-45 18zM330 170v113q-21 45 -72 45q-38 0 -60.5 -28.5t-22.5 -73.5t22.5 -73.5t60.5 -28.5q51 0 72 46z" />
    <glyph glyph-name="ccedilla" unicode="&#xe7;" horiz-adv-x="471" 
d="M18 225q0 104 63 169.5t164 65.5q89 0 144 -48t65 -129h-152q-3 21 -18.5 34t-38.5 13q-33 0 -52.5 -28.5t-19.5 -76.5t19.5 -76t52.5 -28q24 0 39 12.5t18 33.5h152q-10 -80 -65 -128.5t-144 -48.5q-101 0 -164 65.5t-63 169.5zM243 -181h-133l69 141h134z" />
    <glyph glyph-name="egrave" unicode="&#xe8;" horiz-adv-x="478" 
d="M325 500h-144l-87 150h149zM313 157h145q-12 -78 -68 -122.5t-143 -44.5q-103 0 -166 65t-63 170q0 104 64 169.5t162 65.5q102 0 159 -62t57 -164v-39h-291q8 -83 78 -83q53 0 66 45zM244 338q-57 0 -72 -65h136q-2 29 -19 47t-45 18z" />
    <glyph glyph-name="eacute" unicode="&#xe9;" horiz-adv-x="478" 
d="M316 500h-144l82 150h149zM313 157h145q-12 -78 -68 -122.5t-143 -44.5q-103 0 -166 65t-63 170q0 104 64 169.5t162 65.5q102 0 159 -62t57 -164v-39h-291q8 -83 78 -83q53 0 66 45zM244 338q-57 0 -72 -65h136q-2 29 -19 47t-45 18z" />
    <glyph glyph-name="ecircumflex" unicode="&#xea;" horiz-adv-x="478" 
d="M309 649l96 -151h-116l-40 55l-40 -55h-116l96 151h120zM313 157h145q-12 -78 -68 -122.5t-143 -44.5q-103 0 -166 65t-63 170q0 104 64 169.5t162 65.5q102 0 159 -62t57 -164v-39h-291q8 -83 78 -83q53 0 66 45zM244 338q-57 0 -72 -65h136q-2 29 -19 47t-45 18z" />
    <glyph glyph-name="edieresis" unicode="&#xeb;" horiz-adv-x="478" 
d="M261 567q0 32 22 54.5t54 22.5t55 -22.5t23 -54.5q0 -31 -23 -53.5t-55 -22.5q-31 0 -53.5 22.5t-22.5 53.5zM84 567q0 32 22.5 54.5t54.5 22.5t54.5 -22.5t22.5 -54.5q0 -31 -22.5 -53.5t-54.5 -22.5t-54.5 22.5t-22.5 53.5zM313 157h145q-12 -78 -68 -122.5t-143 -44.5
q-103 0 -166 65t-63 170q0 104 64 169.5t162 65.5q102 0 159 -62t57 -164v-39h-291q8 -83 78 -83q53 0 66 45zM244 338q-57 0 -72 -65h136q-2 29 -19 47t-45 18z" />
    <glyph glyph-name="igrave" unicode="&#xec;" horiz-adv-x="242" 
d="M196 500h-144l-87 150h149zM199 450v-450h-157v450h157z" />
    <glyph glyph-name="iacute" unicode="&#xed;" horiz-adv-x="242" 
d="M188 500h-144l82 150h149zM199 450v-450h-157v450h157z" />
    <glyph glyph-name="icircumflex" unicode="&#xee;" horiz-adv-x="242" 
d="M181 649l79 -151h-112l-27 60l-28 -60h-111l79 151h120zM199 450v-450h-157v450h157z" />
    <glyph glyph-name="idieresis" unicode="&#xef;" horiz-adv-x="242" 
d="M130 567q0 32 22.5 54.5t54.5 22.5t54.5 -22.5t22.5 -54.5q0 -31 -22.5 -53.5t-54.5 -22.5t-54.5 22.5t-22.5 53.5zM-41 567q0 32 22 54.5t54 22.5t54.5 -22.5t22.5 -54.5t-22.5 -54t-54.5 -22q-31 0 -53.5 22.5t-22.5 53.5zM199 450v-450h-157v450h157z" />
    <glyph glyph-name="eth" unicode="&#xf0;" horiz-adv-x="497" 
d="M133 476l-25 66l61 19q-46 38 -110 85v4h192q27 -20 56 -46l79 25l25 -66l-49 -16q116 -136 116 -305q0 -116 -63 -184t-167 -68q-102 0 -166 65t-64 169q0 103 62.5 166.5t158.5 63.5q27 0 46 -14h3q-21 31 -57 66zM324 223q0 47 -20 75.5t-56 28.5q-35 0 -55 -28.5
t-20 -75.5t20 -75t55 -28q36 0 56 28t20 75z" />
    <glyph glyph-name="ntilde" unicode="&#xf1;" horiz-adv-x="519" 
d="M329 647h86q0 -150 -88 -150q-25 0 -55 18t-44 18q-25 0 -25 -33h-86q0 150 88 150q25 0 55 -18t44 -18q25 0 25 33zM42 0v450h157v-39q44 49 121 49q74 0 116.5 -44.5t42.5 -120.5v-295h-156v257q0 29 -15 46.5t-44 17.5q-24 0 -41.5 -13t-23.5 -36v-272h-157z" />
    <glyph glyph-name="ograve" unicode="&#xf2;" horiz-adv-x="497" 
d="M324 500h-144l-87 150h149zM478 225q0 -104 -63.5 -169.5t-166.5 -65.5q-102 0 -166 65.5t-64 169.5t64 169.5t166 65.5q103 0 166.5 -65.5t63.5 -169.5zM324 225q0 48 -20 77t-56 29q-35 0 -55 -29t-20 -77q0 -47 20 -76t55 -29q36 0 56 28.5t20 76.5z" />
    <glyph glyph-name="oacute" unicode="&#xf3;" horiz-adv-x="497" 
d="M316 500h-144l82 150h149zM478 225q0 -104 -63.5 -169.5t-166.5 -65.5q-102 0 -166 65.5t-64 169.5t64 169.5t166 65.5q103 0 166.5 -65.5t63.5 -169.5zM324 225q0 48 -20 77t-56 29q-35 0 -55 -29t-20 -77q0 -47 20 -76t55 -29q36 0 56 28.5t20 76.5z" />
    <glyph glyph-name="ocircumflex" unicode="&#xf4;" horiz-adv-x="497" 
d="M308 649l96 -151h-116l-40 55l-40 -55h-116l96 151h120zM478 225q0 -104 -63.5 -169.5t-166.5 -65.5q-102 0 -166 65.5t-64 169.5t64 169.5t166 65.5q103 0 166.5 -65.5t63.5 -169.5zM324 225q0 48 -20 77t-56 29q-35 0 -55 -29t-20 -77q0 -47 20 -76t55 -29
q36 0 56 28.5t20 76.5z" />
    <glyph glyph-name="otilde" unicode="&#xf5;" horiz-adv-x="497" 
d="M311 647h86q0 -150 -88 -150q-25 0 -55 18t-44 18q-25 0 -25 -33h-86q0 150 88 150q25 0 55 -18t44 -18q25 0 25 33zM478 225q0 -104 -63.5 -169.5t-166.5 -65.5q-102 0 -166 65.5t-64 169.5t64 169.5t166 65.5q103 0 166.5 -65.5t63.5 -169.5zM324 225q0 48 -20 77
t-56 29q-35 0 -55 -29t-20 -77q0 -47 20 -76t55 -29q36 0 56 28.5t20 76.5z" />
    <glyph glyph-name="odieresis" unicode="&#xf6;" horiz-adv-x="497" 
d="M260 567q0 32 22 54.5t54 22.5t55 -22.5t23 -54.5q0 -31 -23 -53.5t-55 -22.5t-54 22.5t-22 53.5zM83 567q0 32 22.5 54.5t54.5 22.5t54.5 -22.5t22.5 -54.5q0 -31 -22.5 -53.5t-54.5 -22.5t-54.5 22.5t-22.5 53.5zM478 225q0 -104 -63.5 -169.5t-166.5 -65.5
q-102 0 -166 65.5t-64 169.5t64 169.5t166 65.5q103 0 166.5 -65.5t63.5 -169.5zM324 225q0 48 -20 77t-56 29q-35 0 -55 -29t-20 -77q0 -47 20 -76t55 -29q36 0 56 28.5t20 76.5z" />
    <glyph glyph-name="divide" unicode="&#xf7;" horiz-adv-x="556" 
d="M198 479q0 33 23.5 56t56.5 23q34 0 57.5 -23t23.5 -56t-23.5 -56t-57.5 -23q-33 0 -56.5 23t-23.5 56zM51 241v116h454v-116h-454zM198 119q0 33 23.5 56t56.5 23q34 0 57.5 -23t23.5 -56t-23.5 -56t-57.5 -23q-33 0 -56.5 23t-23.5 56z" />
    <glyph glyph-name="oslash" unicode="&#xf8;" horiz-adv-x="507" 
d="M175 225q0 -23 4 -39l118 132q-19 16 -44 16q-35 0 -56.5 -31t-21.5 -78zM332 225q0 19 -5 39l-118 -132q19 -16 44 -16q36 0 57.5 30.5t21.5 78.5zM30 18l45 50q-52 65 -52 157q0 104 64 169.5t166 65.5q77 0 135 -39l42 47l45 -37l-44 -50q52 -63 52 -156
q0 -104 -63.5 -169.5t-166.5 -65.5q-77 0 -135 39l-43 -48z" />
    <glyph glyph-name="ugrave" unicode="&#xf9;" horiz-adv-x="517" 
d="M334 500h-144l-87 150h149zM475 450v-450h-157v39q-42 -49 -120 -49q-74 0 -116 44.5t-42 120.5v295h156v-258q0 -65 58 -65q22 0 40 13.5t24 36.5v273h157z" />
    <glyph glyph-name="uacute" unicode="&#xfa;" horiz-adv-x="517" 
d="M326 500h-144l82 150h149zM475 450v-450h-157v39q-42 -49 -120 -49q-74 0 -116 44.5t-42 120.5v295h156v-258q0 -65 58 -65q22 0 40 13.5t24 36.5v273h157z" />
    <glyph glyph-name="ucircumflex" unicode="&#xfb;" horiz-adv-x="517" 
d="M318 649l96 -151h-116l-40 55l-40 -55h-116l96 151h120zM475 450v-450h-157v39q-42 -49 -120 -49q-74 0 -116 44.5t-42 120.5v295h156v-258q0 -65 58 -65q22 0 40 13.5t24 36.5v273h157z" />
    <glyph glyph-name="udieresis" unicode="&#xfc;" horiz-adv-x="517" 
d="M270 567q0 32 22 54.5t54 22.5t55 -22.5t23 -54.5q0 -31 -23 -53.5t-55 -22.5t-54 22.5t-22 53.5zM93 567q0 32 22.5 54.5t54.5 22.5t54.5 -22.5t22.5 -54.5q0 -31 -22.5 -53.5t-54.5 -22.5t-54.5 22.5t-22.5 53.5zM475 450v-450h-157v39q-42 -49 -120 -49
q-74 0 -116 44.5t-42 120.5v295h156v-258q0 -65 58 -65q22 0 40 13.5t24 36.5v273h157z" />
    <glyph glyph-name="yacute" unicode="&#xfd;" horiz-adv-x="502" 
d="M324 500h-144l82 150h149zM264 -159h-155l66 170l-168 439h163l86 -256l84 256h156z" />
    <glyph glyph-name="thorn" unicode="&#xfe;" horiz-adv-x="529" 
d="M199 285v-119q20 -42 69 -42q40 0 63 28.5t23 72.5q0 45 -23 73.5t-63 28.5q-48 0 -69 -42zM199 36v-195h-157v809h157v-236q17 19 47.5 32.5t63.5 13.5q94 0 147.5 -67t53.5 -168q0 -100 -53.5 -167.5t-147.5 -67.5q-33 0 -63.5 13.5t-47.5 32.5z" />
    <glyph glyph-name="ydieresis" unicode="&#xff;" horiz-adv-x="502" 
d="M268 567q0 32 22 54.5t54 22.5t55 -22.5t23 -54.5q0 -31 -23 -53.5t-55 -22.5t-54 22.5t-22 53.5zM91 567q0 32 22.5 54.5t54.5 22.5t54.5 -22.5t22.5 -54.5q0 -31 -22.5 -53.5t-54.5 -22.5t-54.5 22.5t-22.5 53.5zM264 -159h-155l66 170l-168 439h163l86 -256l84 256
h156z" />
    <glyph glyph-name="Amacron" unicode="&#x100;" horiz-adv-x="646" 
d="M191 666v108h265v-108h-265zM321 424l-63 -173h126zM241 614h164l234 -614h-163l-44 119h-223l-43 -119h-159z" />
    <glyph glyph-name="amacron" unicode="&#x101;" horiz-adv-x="529" 
d="M143 504v108h253v-108h-253zM330 166v119q-9 18 -28 30t-41 12q-40 0 -63 -28.5t-23 -73.5q0 -44 23 -72.5t63 -28.5q49 0 69 42zM330 0v36q-17 -19 -47.5 -32.5t-63.5 -13.5q-94 0 -147.5 66.5t-53.5 168.5t53.5 168.5t147.5 66.5q33 0 63.5 -13.5t47.5 -32.5v36h157
v-450h-157z" />
    <glyph glyph-name="Abreve" unicode="&#x102;" horiz-adv-x="646" 
d="M323 658q-65 0 -104.5 38t-39.5 108h108q0 -42 36 -42t36 42h108q0 -70 -39.5 -108t-104.5 -38zM321 424l-63 -173h126zM241 614h164l234 -614h-163l-44 119h-223l-43 -119h-159z" />
    <glyph glyph-name="abreve" unicode="&#x103;" horiz-adv-x="529" 
d="M268 488q-64 0 -103.5 39t-39.5 111h108q0 -47 35 -47q36 0 36 47h107q0 -72 -39.5 -111t-103.5 -39zM330 166v119q-9 18 -28 30t-41 12q-40 0 -63 -28.5t-23 -73.5q0 -44 23 -72.5t63 -28.5q49 0 69 42zM330 0v36q-17 -19 -47.5 -32.5t-63.5 -13.5q-94 0 -147.5 66.5
t-53.5 168.5t53.5 168.5t147.5 66.5q33 0 63.5 -13.5t47.5 -32.5v36h157v-450h-157z" />
    <glyph glyph-name="Aogonek" unicode="&#x104;" horiz-adv-x="646" 
d="M241 614h164l234 -614l-15.5 -18.5t-12.5 -15l-9.5 -11t-7.5 -9.5t-4 -7t-2.5 -7t-0.5 -7q0 -19 20 -19q11 0 35 15v-87q-31 -19 -65 -19q-41 0 -66.5 20.5t-25.5 58.5q0 42 55 106h-64l-44 119h-223l-43 -119h-159zM321 424l-63 -173h126z" />
    <glyph glyph-name="aogonek" unicode="&#x105;" horiz-adv-x="529" 
d="M490 -166q-31 -19 -65 -19q-41 0 -66.5 20.5t-25.5 58.5q0 26 13.5 49.5t42.5 56.5h-59v36q-17 -19 -47.5 -32.5t-63.5 -13.5q-94 0 -147.5 66.5t-53.5 168.5t53.5 168.5t147.5 66.5q33 0 63.5 -13.5t47.5 -32.5v36h157v-450q-46 -54 -50 -66q-1 -4 -1 -9q0 -19 19 -19
q11 0 35 15v-87zM330 166v119q-9 18 -28 30t-41 12q-40 0 -63 -28.5t-23 -73.5q0 -44 23 -72.5t63 -28.5q49 0 69 42z" />
    <glyph glyph-name="Cacute" unicode="&#x106;" horiz-adv-x="603" 
d="M398 666h-154l82 130h161zM22 307q0 139 83 228t212 89q111 0 179.5 -59t85.5 -157h-160q-27 75 -105 75q-62 0 -97.5 -49t-35.5 -127q0 -77 35.5 -126.5t97.5 -49.5q79 0 105 76h160q-17 -98 -85.5 -157.5t-179.5 -59.5q-129 0 -212 89t-83 228z" />
    <glyph glyph-name="cacute" unicode="&#x107;" horiz-adv-x="471" 
d="M314 500h-144l82 150h149zM18 225q0 104 63 169.5t164 65.5q89 0 144 -48t65 -129h-152q-3 21 -18.5 34t-38.5 13q-33 0 -52.5 -28.5t-19.5 -76.5t19.5 -76t52.5 -28q24 0 39 12.5t18 33.5h152q-10 -80 -65 -128.5t-144 -48.5q-101 0 -164 65.5t-63 169.5z" />
    <glyph glyph-name="Ccircumflex" unicode="&#x108;" horiz-adv-x="603" 
d="M383 798l108 -132h-126l-42 45l-42 -45h-126l108 132h120zM22 307q0 139 83 228t212 89q111 0 179.5 -59t85.5 -157h-160q-27 75 -105 75q-62 0 -97.5 -49t-35.5 -127q0 -77 35.5 -126.5t97.5 -49.5q79 0 105 76h160q-17 -98 -85.5 -157.5t-179.5 -59.5q-129 0 -212 89
t-83 228z" />
    <glyph glyph-name="ccircumflex" unicode="&#x109;" horiz-adv-x="471" 
d="M307 649l96 -151h-116l-40 55l-40 -55h-116l96 151h120zM18 225q0 104 63 169.5t164 65.5q89 0 144 -48t65 -129h-152q-3 21 -18.5 34t-38.5 13q-33 0 -52.5 -28.5t-19.5 -76.5t19.5 -76t52.5 -28q24 0 39 12.5t18 33.5h152q-10 -80 -65 -128.5t-144 -48.5
q-101 0 -164 65.5t-63 169.5z" />
    <glyph glyph-name="Cdotaccent" unicode="&#x10a;" horiz-adv-x="603" 
d="M410 743q0 -38 -26 -61.5t-63 -23.5t-63 23.5t-26 61.5q0 37 26 60.5t63 23.5t63 -23.5t26 -60.5zM22 307q0 139 83 228t212 89q111 0 179.5 -59t85.5 -157h-160q-27 75 -105 75q-62 0 -97.5 -49t-35.5 -127q0 -77 35.5 -126.5t97.5 -49.5q79 0 105 76h160
q-17 -98 -85.5 -157.5t-179.5 -59.5q-129 0 -212 89t-83 228z" />
    <glyph glyph-name="cdotaccent" unicode="&#x10b;" horiz-adv-x="471" 
d="M336 579q0 -37 -26 -60.5t-63 -23.5t-63 23.5t-26 60.5q0 38 26 61.5t63 23.5t63 -23.5t26 -61.5zM18 225q0 104 63 169.5t164 65.5q89 0 144 -48t65 -129h-152q-3 21 -18.5 34t-38.5 13q-33 0 -52.5 -28.5t-19.5 -76.5t19.5 -76t52.5 -28q24 0 39 12.5t18 33.5h152
q-10 -80 -65 -128.5t-144 -48.5q-101 0 -164 65.5t-63 169.5z" />
    <glyph glyph-name="Ccaron" unicode="&#x10c;" horiz-adv-x="603" 
d="M262 663l-108 133h126l42 -46l42 46h126l-108 -133h-120zM22 307q0 139 83 228t212 89q111 0 179.5 -59t85.5 -157h-160q-27 75 -105 75q-62 0 -97.5 -49t-35.5 -127q0 -77 35.5 -126.5t97.5 -49.5q79 0 105 76h160q-17 -98 -85.5 -157.5t-179.5 -59.5q-129 0 -212 89
t-83 228z" />
    <glyph glyph-name="ccaron" unicode="&#x10d;" horiz-adv-x="471" 
d="M403 649l-96 -151h-120l-96 151h116l40 -56l40 56h116zM18 225q0 104 63 169.5t164 65.5q89 0 144 -48t65 -129h-152q-3 21 -18.5 34t-38.5 13q-33 0 -52.5 -28.5t-19.5 -76.5t19.5 -76t52.5 -28q24 0 39 12.5t18 33.5h152q-10 -80 -65 -128.5t-144 -48.5
q-101 0 -164 65.5t-63 169.5z" />
    <glyph glyph-name="Dcaron" unicode="&#x10e;" horiz-adv-x="609" 
d="M212 663l-108 133h126l42 -46l42 46h126l-108 -133h-120zM46 0v614h232q144 0 227 -83t83 -224t-83 -224t-227 -83h-232zM204 139h66q76 0 117.5 45t41.5 123q0 79 -41.5 124t-117.5 45h-66v-337z" />
    <glyph glyph-name="dcaron" unicode="&#x10f;" horiz-adv-x="529" 
d="M638 483h-121l43 167h122zM330 166v119q-9 18 -28 30t-41 12q-40 0 -63 -28.5t-23 -73.5q0 -44 23 -72.5t63 -28.5q49 0 69 42zM330 0v36q-17 -19 -47.5 -32.5t-63.5 -13.5q-94 0 -147.5 66.5t-53.5 168.5t53.5 168.5t147.5 66.5q33 0 63.5 -13.5t47.5 -32.5v236h157
v-650h-157z" />
    <glyph glyph-name="Dcroat" unicode="&#x110;" horiz-adv-x="626" 
d="M17 251v124h46v239h232q144 0 227 -83t83 -224t-83 -224t-227 -83h-232v251h-46zM221 139h66q76 0 117.5 45t41.5 123q0 79 -41.5 124t-117.5 45h-66v-101h87v-124h-87v-112z" />
    <glyph glyph-name="dcroat" unicode="&#x111;" horiz-adv-x="529" 
d="M330 166v119q-9 18 -28 30t-41 12q-40 0 -63 -28.5t-23 -73.5q0 -44 23 -72.5t63 -28.5q49 0 69 42zM248 490v102h82v58h157v-58h47v-102h-47v-490h-157v36q-17 -19 -47.5 -32.5t-63.5 -13.5q-94 0 -147.5 66.5t-53.5 168.5t53.5 168.5t147.5 66.5q33 0 63.5 -13.5
t47.5 -32.5v76h-82z" />
    <glyph glyph-name="Emacron" unicode="&#x112;" horiz-adv-x="519" 
d="M139 666v108h265v-108h-265zM46 614h439v-138h-281v-96h257v-135h-257v-106h281v-139h-439v614z" />
    <glyph glyph-name="emacron" unicode="&#x113;" horiz-adv-x="478" 
d="M123 504v108h253v-108h-253zM313 157h145q-12 -78 -68 -122.5t-143 -44.5q-103 0 -166 65t-63 170q0 104 64 169.5t162 65.5q102 0 159 -62t57 -164v-39h-291q8 -83 78 -83q53 0 66 45zM244 338q-57 0 -72 -65h136q-2 29 -19 47t-45 18z" />
    <glyph glyph-name="Ebreve" unicode="&#x114;" horiz-adv-x="519" 
d="M271 658q-65 0 -104.5 38t-39.5 108h108q0 -42 36 -42t36 42h108q0 -70 -39.5 -108t-104.5 -38zM46 614h439v-138h-281v-96h257v-135h-257v-106h281v-139h-439v614z" />
    <glyph glyph-name="ebreve" unicode="&#x115;" horiz-adv-x="478" 
d="M249 488q-64 0 -103.5 39t-39.5 111h108q0 -47 35 -47q36 0 36 47h107q0 -72 -39.5 -111t-103.5 -39zM313 157h145q-12 -78 -68 -122.5t-143 -44.5q-103 0 -166 65t-63 170q0 104 64 169.5t162 65.5q102 0 159 -62t57 -164v-39h-291q8 -83 78 -83q53 0 66 45zM244 338
q-57 0 -72 -65h136q-2 29 -19 47t-45 18z" />
    <glyph glyph-name="Edotaccent" unicode="&#x116;" horiz-adv-x="519" 
d="M360 743q0 -38 -26 -61.5t-63 -23.5t-63 23.5t-26 61.5q0 37 26 60.5t63 23.5t63 -23.5t26 -60.5zM46 614h439v-138h-281v-96h257v-135h-257v-106h281v-139h-439v614z" />
    <glyph glyph-name="edotaccent" unicode="&#x117;" horiz-adv-x="478" 
d="M338 579q0 -37 -26 -60.5t-63 -23.5t-63 23.5t-26 60.5q0 38 26 61.5t63 23.5t63 -23.5t26 -61.5zM313 157h145q-12 -78 -68 -122.5t-143 -44.5q-103 0 -166 65t-63 170q0 104 64 169.5t162 65.5q102 0 159 -62t57 -164v-39h-291q8 -83 78 -83q53 0 66 45zM244 338
q-57 0 -72 -65h136q-2 29 -19 47t-45 18z" />
    <glyph glyph-name="Eogonek" unicode="&#x118;" horiz-adv-x="519" 
d="M46 614h439v-138h-281v-96h257v-135h-257v-106h281v-139h-35q-45 -55 -49 -66q-1 -4 -1 -9q0 -19 19 -19q11 0 35 15v-87q-31 -19 -65 -19q-41 0 -66.5 20.5t-25.5 58.5q0 43 56 106h-307v614z" />
    <glyph glyph-name="eogonek" unicode="&#x119;" horiz-adv-x="478" 
d="M263 -9q-4 -1 -16 -1q-103 0 -166 65t-63 170q0 104 64 169.5t162 65.5q102 0 159 -62t57 -164v-39h-291q8 -83 78 -83q53 0 66 45h145q-8 -71 -66 -124q-74 -67 -74 -107q0 -20 20 -20q11 0 35 15v-87q-31 -19 -65 -19q-41 0 -67 21t-26 59q0 43 48 96zM244 338
q-57 0 -72 -65h136q-2 29 -19 47t-45 18z" />
    <glyph glyph-name="Ecaron" unicode="&#x11a;" horiz-adv-x="519" 
d="M213 663l-108 133h126l42 -46l42 46h126l-108 -133h-120zM46 614h439v-138h-281v-96h257v-135h-257v-106h281v-139h-439v614z" />
    <glyph glyph-name="ecaron" unicode="&#x11b;" horiz-adv-x="478" 
d="M405 649l-96 -151h-120l-96 151h116l40 -56l40 56h116zM313 157h145q-12 -78 -68 -122.5t-143 -44.5q-103 0 -166 65t-63 170q0 104 64 169.5t162 65.5q102 0 159 -62t57 -164v-39h-291q8 -83 78 -83q53 0 66 45zM244 338q-57 0 -72 -65h136q-2 29 -19 47t-45 18z" />
    <glyph glyph-name="Gcircumflex" unicode="&#x11c;" horiz-adv-x="623" 
d="M386 798l108 -132h-126l-42 45l-42 -45h-126l108 132h120zM442 208h-95v120h254v-61q0 -126 -76 -201.5t-199 -75.5q-134 0 -219 88.5t-85 228.5t85 228.5t217 88.5q114 0 184 -59t88 -157h-164q-27 75 -108 75q-65 0 -102.5 -49t-37.5 -127q0 -79 38.5 -127.5
t103.5 -48.5q91 0 116 77z" />
    <glyph glyph-name="gcircumflex" unicode="&#x11d;" horiz-adv-x="521" 
d="M339 649l96 -151h-116l-40 55l-40 -55h-116l96 151h120zM324 182v116q-23 38 -68 38q-38 0 -60.5 -26.5t-22.5 -69.5t22 -69.5t61 -26.5q46 0 68 38zM324 31v32q-38 -44 -107 -44q-92 0 -145.5 62.5t-53.5 158.5q0 95 53.5 157.5t145.5 62.5q70 0 107 -44v34h155v-385
q0 -115 -63.5 -174.5t-170.5 -59.5q-91 0 -150.5 43t-71.5 120h151q14 -48 71 -48q79 0 79 85z" />
    <glyph glyph-name="Gbreve" unicode="&#x11e;" horiz-adv-x="623" 
d="M327 658q-65 0 -104.5 38t-39.5 108h108q0 -42 36 -42t36 42h108q0 -70 -39.5 -108t-104.5 -38zM442 208h-95v120h254v-61q0 -126 -76 -201.5t-199 -75.5q-134 0 -219 88.5t-85 228.5t85 228.5t217 88.5q114 0 184 -59t88 -157h-164q-27 75 -108 75q-65 0 -102.5 -49
t-37.5 -127q0 -79 38.5 -127.5t103.5 -48.5q91 0 116 77z" />
    <glyph glyph-name="gbreve" unicode="&#x11f;" horiz-adv-x="521" 
d="M279 488q-64 0 -103.5 39t-39.5 111h108q0 -47 35 -47q36 0 36 47h107q0 -72 -39.5 -111t-103.5 -39zM324 182v116q-23 38 -68 38q-38 0 -60.5 -26.5t-22.5 -69.5t22 -69.5t61 -26.5q46 0 68 38zM324 31v32q-38 -44 -107 -44q-92 0 -145.5 62.5t-53.5 158.5
q0 95 53.5 157.5t145.5 62.5q70 0 107 -44v34h155v-385q0 -115 -63.5 -174.5t-170.5 -59.5q-91 0 -150.5 43t-71.5 120h151q14 -48 71 -48q79 0 79 85z" />
    <glyph glyph-name="Gdotaccent" unicode="&#x120;" horiz-adv-x="623" 
d="M416 743q0 -38 -26 -61.5t-63 -23.5t-63 23.5t-26 61.5q0 37 26 60.5t63 23.5t63 -23.5t26 -60.5zM442 208h-95v120h254v-61q0 -126 -76 -201.5t-199 -75.5q-134 0 -219 88.5t-85 228.5t85 228.5t217 88.5q114 0 184 -59t88 -157h-164q-27 75 -108 75q-65 0 -102.5 -49
t-37.5 -127q0 -79 38.5 -127.5t103.5 -48.5q91 0 116 77z" />
    <glyph glyph-name="gdotaccent" unicode="&#x121;" horiz-adv-x="521" 
d="M368 579q0 -37 -26 -60.5t-63 -23.5t-63 23.5t-26 60.5q0 38 26 61.5t63 23.5t63 -23.5t26 -61.5zM324 182v116q-23 38 -68 38q-38 0 -60.5 -26.5t-22.5 -69.5t22 -69.5t61 -26.5q46 0 68 38zM324 31v32q-38 -44 -107 -44q-92 0 -145.5 62.5t-53.5 158.5q0 95 53.5 157.5
t145.5 62.5q70 0 107 -44v34h155v-385q0 -115 -63.5 -174.5t-170.5 -59.5q-91 0 -150.5 43t-71.5 120h151q14 -48 71 -48q79 0 79 85z" />
    <glyph glyph-name="uni0122" unicode="&#x122;" horiz-adv-x="623" 
d="M442 208h-95v120h254v-61q0 -126 -76 -201.5t-199 -75.5q-134 0 -219 88.5t-85 228.5t85 228.5t217 88.5q114 0 184 -59t88 -157h-164q-27 75 -108 75q-65 0 -102.5 -49t-37.5 -127q0 -79 38.5 -127.5t103.5 -48.5q91 0 116 77zM242 -236l49 64q-21 6 -34.5 24t-13.5 43
q0 31 23 51.5t58 20.5q34 0 57.5 -21.5t23.5 -56.5q0 -39 -39 -87l-29 -38h-95z" />
    <glyph glyph-name="uni0123" unicode="&#x123;" horiz-adv-x="521" 
d="M360 696l-52 -67q49 -15 49 -68q0 -31 -23.5 -52t-58.5 -21q-34 0 -57.5 21.5t-23.5 57.5q0 39 39 89l31 40h96zM324 182v116q-23 38 -68 38q-38 0 -60.5 -26.5t-22.5 -69.5t22 -69.5t61 -26.5q46 0 68 38zM324 31v32q-38 -44 -107 -44q-92 0 -145.5 62.5t-53.5 158.5
q0 95 53.5 157.5t145.5 62.5q70 0 107 -44v34h155v-385q0 -115 -63.5 -174.5t-170.5 -59.5q-91 0 -150.5 43t-71.5 120h151q14 -48 71 -48q79 0 79 85z" />
    <glyph glyph-name="Hcircumflex" unicode="&#x124;" horiz-adv-x="650" 
d="M385 798l108 -132h-126l-42 45l-42 -45h-126l108 132h120zM444 614h161v-614h-161v243h-237v-243h-161v614h161v-233h237v233z" />
    <glyph glyph-name="hcircumflex" unicode="&#x125;" horiz-adv-x="519" 
d="M317 812l108 -132h-126l-42 45l-42 -45h-126l108 132h120zM42 0v650h157v-239q44 49 121 49q74 0 116.5 -44.5t42.5 -120.5v-295h-156v257q0 29 -15 46.5t-44 17.5q-24 0 -41.5 -13t-23.5 -36v-272h-157z" />
    <glyph glyph-name="Hbar" unicode="&#x126;" horiz-adv-x="683" 
d="M223 321h237v90h-237v-90zM17 411v123h45v80h161v-80h237v80h161v-80h45v-123h-45v-411h-161v198h-237v-198h-161v411h-45z" />
    <glyph glyph-name="hbar" unicode="&#x127;" horiz-adv-x="519" 
d="M-5 490v102h47v58h157v-58h82v-102h-82v-79q44 49 121 49q74 0 116.5 -44.5t42.5 -120.5v-295h-156v257q0 29 -15 46.5t-44 17.5q-24 0 -41.5 -13t-23.5 -36v-272h-157v490h-47z" />
    <glyph glyph-name="Itilde" unicode="&#x128;" horiz-adv-x="253" 
d="M198 809h85q0 -150 -88 -150q-26 0 -63 17.5t-52 17.5q-24 0 -26 -31h-85q0 150 88 150q26 0 63 -17.5t52 -17.5q24 0 26 31zM207 614v-614h-161v614h161z" />
    <glyph glyph-name="itilde" unicode="&#x129;" horiz-adv-x="242" 
d="M170 647h80q0 -150 -77 -150q-22 0 -45.5 17.5t-34.5 17.5q-20 0 -22 -32h-80q0 150 77 150q22 0 45 -17.5t35 -17.5q20 0 22 32zM199 450v-450h-157v450h157z" />
    <glyph glyph-name="Imacron" unicode="&#x12a;" horiz-adv-x="253" 
d="M-6 666v108h265v-108h-265zM207 614v-614h-161v614h161z" />
    <glyph glyph-name="imacron" unicode="&#x12b;" horiz-adv-x="242" 
d="M9 504v108h222v-108h-222zM199 450v-450h-157v450h157z" />
    <glyph glyph-name="Ibreve" unicode="&#x12c;" horiz-adv-x="253" 
d="M127 658q-65 0 -104.5 38t-39.5 108h108q0 -42 36 -42t36 42h108q0 -70 -39.5 -108t-104.5 -38zM207 614v-614h-161v614h161z" />
    <glyph glyph-name="ibreve" unicode="&#x12d;" horiz-adv-x="242" 
d="M120 488q-57 0 -92 39t-35 111h98q0 -47 30 -47q29 0 29 47h99q0 -72 -35.5 -111t-93.5 -39zM199 450v-450h-157v450h157z" />
    <glyph glyph-name="Iogonek" unicode="&#x12e;" horiz-adv-x="253" 
d="M207 614v-614l-15.5 -18.5t-12.5 -15l-9.5 -11t-7.5 -9.5t-4 -7t-2.5 -7t-0.5 -7q0 -19 20 -19q11 0 35 15v-87q-31 -19 -65 -19q-41 0 -66.5 20.5t-25.5 58.5q0 42 55 106h-62v614h161z" />
    <glyph glyph-name="iogonek" unicode="&#x12f;" horiz-adv-x="242" 
d="M210 572q0 -37 -26 -60.5t-63 -23.5t-63 23.5t-26 60.5q0 38 26 61.5t63 23.5t63 -23.5t26 -61.5zM199 450v-450l-12.5 -14.5t-11 -13l-8 -10t-6.5 -8.5t-5 -7t-4 -6t-2 -5t-1.5 -5.5t-0.5 -5.5q0 -19 19 -19q12 0 36 15v-87q-31 -19 -66 -19q-41 0 -66.5 20.5
t-25.5 58.5q0 18 8.5 37.5t18 32.5t28.5 36h-58v450h157z" />
    <glyph glyph-name="Idotaccent" unicode="&#x130;" horiz-adv-x="253" 
d="M215 743q0 -38 -26 -61.5t-63 -23.5t-63 23.5t-26 61.5q0 37 26 60.5t63 23.5t63 -23.5t26 -60.5zM207 614v-614h-161v614h161z" />
    <glyph glyph-name="dotlessi" unicode="&#x131;" horiz-adv-x="242" 
d="M199 450v-450h-157v450h157z" />
    <glyph glyph-name="IJ" unicode="&#x132;" horiz-adv-x="759" 
d="M207 614v-614h-161v614h161zM234 217h163q5 -83 80 -83q83 0 83 103v377h161v-378q0 -123 -66.5 -184.5t-176.5 -61.5t-174.5 62t-69.5 165z" />
    <glyph glyph-name="ij" unicode="&#x133;" horiz-adv-x="483" 
d="M452 572q0 -37 -26 -60.5t-63 -23.5t-63 23.5t-26 60.5q0 38 26 61.5t63 23.5t63 -23.5t26 -61.5zM210 572q0 -37 -26 -60.5t-63 -23.5t-63 23.5t-26 60.5q0 38 26 61.5t63 23.5t63 -23.5t26 -61.5zM199 450v-450h-157v450h157zM441 450v-440q0 -86 -44 -132.5
t-127 -46.5q-37 0 -57 7v118q12 -2 23 -2q25 0 36.5 11.5t11.5 38.5v446h157z" />
    <glyph glyph-name="Jcircumflex" unicode="&#x134;" horiz-adv-x="541" 
d="M482 798l108 -132h-126l-42 45l-42 -45h-126l108 132h120zM15 217h163q5 -83 80 -83q83 0 83 103v377h161v-378q0 -123 -66.5 -184.5t-176.5 -61.5t-174.5 62t-69.5 165z" />
    <glyph glyph-name="jcircumflex" unicode="&#x135;" horiz-adv-x="241" 
d="M181 649l79 -151h-112l-27 60l-28 -60h-111l79 151h120zM199 450v-440q0 -86 -44 -132.5t-127 -46.5q-37 0 -57 7v118q12 -2 23 -2q25 0 36.5 11.5t11.5 38.5v446h157z" />
    <glyph glyph-name="uni0136" unicode="&#x136;" horiz-adv-x="608" 
d="M207 614v-252l198 252h188l-215 -270l224 -344h-189l-155 236l-51 -65v-171h-161v614h161zM213 -236l49 64q-21 6 -34.5 24t-13.5 43q0 31 23 51.5t58 20.5q34 0 57.5 -21.5t23.5 -56.5q0 -39 -39 -87l-29 -38h-95z" />
    <glyph glyph-name="uni0137" unicode="&#x137;" horiz-adv-x="523" 
d="M339 0l-110 167l-30 -35v-132h-157v650h157v-344l126 144h189l-171 -187l176 -263h-180zM171 -236l49 64q-21 6 -34.5 24t-13.5 43q0 31 23 51.5t58 20.5q34 0 57.5 -21.5t23.5 -56.5q0 -39 -39 -87l-29 -38h-95z" />
    <glyph glyph-name="kgreenlandic" unicode="&#x138;" horiz-adv-x="523" 
d="M339 0l-110 167l-30 -35v-132h-157v450h157v-144l126 144h189l-171 -187l176 -263h-180z" />
    <glyph glyph-name="Lacute" unicode="&#x139;" horiz-adv-x="510" 
d="M210 666h-154l82 130h161zM46 0v614h161v-475h275v-139h-436z" />
    <glyph glyph-name="lacute" unicode="&#x13a;" horiz-adv-x="242" 
d="M196 685h-154l82 130h161zM199 650v-650h-157v650h157z" />
    <glyph glyph-name="uni013B" unicode="&#x13b;" horiz-adv-x="510" 
d="M46 0v614h161v-475h275v-139h-436zM185 -236l49 64q-21 6 -34.5 24t-13.5 43q0 31 23 51.5t58 20.5q34 0 57.5 -21.5t23.5 -56.5q0 -39 -39 -87l-29 -38h-95z" />
    <glyph glyph-name="uni013C" unicode="&#x13c;" horiz-adv-x="242" 
d="M199 650v-650h-157v650h157zM38 -236l49 64q-21 6 -34.5 24t-13.5 43q0 31 23 51.5t58 20.5q34 0 57.5 -21.5t23.5 -56.5q0 -39 -39 -87l-29 -38h-95z" />
    <glyph glyph-name="Lcaron" unicode="&#x13d;" horiz-adv-x="510" 
d="M387 447h-121l43 167h122zM46 0v614h161v-475h275v-139h-436z" />
    <glyph glyph-name="lcaron" unicode="&#x13e;" horiz-adv-x="242" 
d="M351 483h-121l43 167h122zM199 650v-650h-157v650h157z" />
    <glyph glyph-name="Ldot" unicode="&#x13f;" horiz-adv-x="510" 
d="M46 0v614h161v-475h275v-139h-436zM463 346q0 -37 -26 -60.5t-63 -23.5t-63 23.5t-26 60.5q0 38 26 61.5t63 23.5t63 -23.5t26 -61.5z" />
    <glyph glyph-name="ldot" unicode="&#x140;" horiz-adv-x="426" 
d="M199 650v-650h-157v650h157zM422 332q0 -37 -26 -60.5t-63 -23.5t-63 23.5t-26 60.5q0 38 26 61.5t63 23.5t63 -23.5t26 -61.5z" />
    <glyph glyph-name="Lslash" unicode="&#x141;" horiz-adv-x="524" 
d="M11 194v124l49 20v276h161v-217l121 49v-125l-121 -48v-134h275v-139h-436v213z" />
    <glyph glyph-name="lslash" unicode="&#x142;" horiz-adv-x="292" 
d="M224 650v-222l52 31v-115l-52 -31v-313h-157v235l-50 -29v115l50 29v300h157z" />
    <glyph glyph-name="Nacute" unicode="&#x143;" horiz-adv-x="634" 
d="M390 666h-154l82 130h161zM588 614v-614h-130l-257 359v-359h-155v614h150l237 -338v338h155z" />
    <glyph glyph-name="nacute" unicode="&#x144;" horiz-adv-x="519" 
d="M335 500h-144l82 150h149zM42 0v450h157v-39q44 49 121 49q74 0 116.5 -44.5t42.5 -120.5v-295h-156v257q0 29 -15 46.5t-44 17.5q-24 0 -41.5 -13t-23.5 -36v-272h-157z" />
    <glyph glyph-name="uni0145" unicode="&#x145;" horiz-adv-x="634" 
d="M588 614v-614h-130l-257 359v-359h-155v614h150l237 -338v338h155zM234 -236l49 64q-21 6 -34.5 24t-13.5 43q0 31 23 51.5t58 20.5q34 0 57.5 -21.5t23.5 -56.5q0 -39 -39 -87l-29 -38h-95z" />
    <glyph glyph-name="uni0146" unicode="&#x146;" horiz-adv-x="519" 
d="M42 0v450h157v-39q44 49 121 49q74 0 116.5 -44.5t42.5 -120.5v-295h-156v257q0 29 -15 46.5t-44 17.5q-24 0 -41.5 -13t-23.5 -36v-272h-157zM181 -236l49 64q-21 6 -34.5 24t-13.5 43q0 31 23 51.5t58 20.5q34 0 57.5 -21.5t23.5 -56.5q0 -39 -39 -87l-29 -38h-95z" />
    <glyph glyph-name="Ncaron" unicode="&#x147;" horiz-adv-x="634" 
d="M257 663l-108 133h126l42 -46l42 46h126l-108 -133h-120zM588 614v-614h-130l-257 359v-359h-155v614h150l237 -338v338h155z" />
    <glyph glyph-name="ncaron" unicode="&#x148;" horiz-adv-x="519" 
d="M424 649l-96 -151h-120l-96 151h116l40 -56l40 56h116zM42 0v450h157v-39q44 49 121 49q74 0 116.5 -44.5t42.5 -120.5v-295h-156v257q0 29 -15 46.5t-44 17.5q-24 0 -41.5 -13t-23.5 -36v-272h-157z" />
    <glyph glyph-name="Eng" unicode="&#x14a;" horiz-adv-x="634" 
d="M280 -158v140q34 -16 68 -16q38 0 56 18.5t22 59.5l-225 315v-359h-155v614h150l237 -338v338h155v-561q0 -115 -56.5 -170.5t-159.5 -55.5q-41 0 -92 15z" />
    <glyph glyph-name="eng" unicode="&#x14b;" horiz-adv-x="519" 
d="M323 4v253q0 29 -15 46.5t-44 17.5q-24 0 -41.5 -13t-23.5 -36v-272h-157v450h157v-39q44 49 121 49q74 0 116.5 -44.5t42.5 -120.5v-285q0 -86 -44 -132.5t-127 -46.5q-37 0 -57 7v118q12 -2 23 -2q49 0 49 50z" />
    <glyph glyph-name="Omacron" unicode="&#x14c;" horiz-adv-x="643" 
d="M189 666v108h265v-108h-265zM622 307q0 -138 -84 -227.5t-217 -89.5q-132 0 -215.5 89.5t-83.5 227.5q0 139 83.5 228t215.5 89q133 0 217 -89t84 -228zM460 307q0 79 -38.5 127.5t-100.5 48.5t-99.5 -48t-37.5 -128t37.5 -128t99.5 -48t100.5 48.5t38.5 127.5z" />
    <glyph glyph-name="omacron" unicode="&#x14d;" horiz-adv-x="497" 
d="M122 504v108h253v-108h-253zM478 225q0 -104 -63.5 -169.5t-166.5 -65.5q-102 0 -166 65.5t-64 169.5t64 169.5t166 65.5q103 0 166.5 -65.5t63.5 -169.5zM324 225q0 48 -20 77t-56 29q-35 0 -55 -29t-20 -77q0 -47 20 -76t55 -29q36 0 56 28.5t20 76.5z" />
    <glyph glyph-name="Obreve" unicode="&#x14e;" horiz-adv-x="643" 
d="M322 658q-65 0 -104.5 38t-39.5 108h108q0 -42 36 -42t36 42h108q0 -70 -39.5 -108t-104.5 -38zM622 307q0 -138 -84 -227.5t-217 -89.5q-132 0 -215.5 89.5t-83.5 227.5q0 139 83.5 228t215.5 89q133 0 217 -89t84 -228zM460 307q0 79 -38.5 127.5t-100.5 48.5
t-99.5 -48t-37.5 -128t37.5 -128t99.5 -48t100.5 48.5t38.5 127.5z" />
    <glyph glyph-name="obreve" unicode="&#x14f;" horiz-adv-x="497" 
d="M248 488q-64 0 -103.5 39t-39.5 111h108q0 -47 35 -47q36 0 36 47h107q0 -72 -39.5 -111t-103.5 -39zM478 225q0 -104 -63.5 -169.5t-166.5 -65.5q-102 0 -166 65.5t-64 169.5t64 169.5t166 65.5q103 0 166.5 -65.5t63.5 -169.5zM324 225q0 48 -20 77t-56 29
q-35 0 -55 -29t-20 -77q0 -47 20 -76t55 -29q36 0 56 28.5t20 76.5z" />
    <glyph glyph-name="Ohungarumlaut" unicode="&#x150;" horiz-adv-x="643" 
d="M470 666h-129l76 130h130zM304 666h-129l75 130h130zM622 307q0 -138 -84 -227.5t-217 -89.5q-132 0 -215.5 89.5t-83.5 227.5q0 139 83.5 228t215.5 89q133 0 217 -89t84 -228zM460 307q0 79 -38.5 127.5t-100.5 48.5t-99.5 -48t-37.5 -128t37.5 -128t99.5 -48
t100.5 48.5t38.5 127.5z" />
    <glyph glyph-name="ohungarumlaut" unicode="&#x151;" horiz-adv-x="497" 
d="M385 500h-121l76 150h122zM227 500h-122l76 150h123zM478 225q0 -104 -63.5 -169.5t-166.5 -65.5q-102 0 -166 65.5t-64 169.5t64 169.5t166 65.5q103 0 166.5 -65.5t63.5 -169.5zM324 225q0 48 -20 77t-56 29q-35 0 -55 -29t-20 -77q0 -47 20 -76t55 -29q36 0 56 28.5
t20 76.5z" />
    <glyph glyph-name="OE" unicode="&#x152;" horiz-adv-x="846" 
d="M813 614v-138h-262v-96h237v-135h-237v-106h262v-139h-482q-143 0 -226 83t-83 224t83 224t226 83h482zM339 139h54v337h-54q-76 0 -117 -45t-41 -124q0 -78 41 -123t117 -45z" />
    <glyph glyph-name="oe" unicode="&#x153;" horiz-adv-x="774" 
d="M543 -10q-88 0 -148 55q-61 -55 -147 -55q-102 0 -166 65.5t-64 169.5t64 169.5t166 65.5q88 0 148 -55q58 55 144 55q102 0 159 -62t57 -164v-39h-291q8 -83 78 -83q53 0 66 45h145q-12 -78 -68 -122.5t-143 -44.5zM540 338q-57 0 -72 -65h136q-2 29 -19 47t-45 18z
M324 225q0 48 -20 77t-56 29q-35 0 -55 -29t-20 -77q0 -47 20 -76t55 -29q36 0 56 28.5t20 76.5z" />
    <glyph glyph-name="Racute" unicode="&#x154;" horiz-adv-x="574" 
d="M356 666h-154l82 130h161zM205 479v-148h100q83 0 83 74t-83 74h-100zM261 203h-56v-203h-159v614h276q101 0 162 -55t61 -154q0 -68 -32.5 -116t-89.5 -69l144 -220h-178z" />
    <glyph glyph-name="racute" unicode="&#x155;" horiz-adv-x="365" 
d="M264 500h-144l82 150h149zM344 452v-151q-27 14 -65 14q-67 0 -80 -51v-264h-157v450h157v-40q37 50 102 50q29 0 43 -8z" />
    <glyph glyph-name="uni0156" unicode="&#x156;" horiz-adv-x="574" 
d="M205 479v-148h100q83 0 83 74t-83 74h-100zM261 203h-56v-203h-159v614h276q101 0 162 -55t61 -154q0 -68 -32.5 -116t-89.5 -69l144 -220h-178zM200 -236l49 64q-21 6 -34.5 24t-13.5 43q0 31 23 51.5t58 20.5q34 0 57.5 -21.5t23.5 -56.5q0 -39 -39 -87l-29 -38h-95z
" />
    <glyph glyph-name="uni0157" unicode="&#x157;" horiz-adv-x="365" 
d="M344 452v-151q-27 14 -65 14q-67 0 -80 -51v-264h-157v450h157v-40q37 50 102 50q29 0 43 -8zM36 -236l49 64q-21 6 -34.5 24t-13.5 43q0 31 23 51.5t58 20.5q34 0 57.5 -21.5t23.5 -56.5q0 -39 -39 -87l-29 -38h-95z" />
    <glyph glyph-name="Rcaron" unicode="&#x158;" horiz-adv-x="574" 
d="M223 663l-108 133h126l42 -46l42 46h126l-108 -133h-120zM205 479v-148h100q83 0 83 74t-83 74h-100zM261 203h-56v-203h-159v614h276q101 0 162 -55t61 -154q0 -68 -32.5 -116t-89.5 -69l144 -220h-178z" />
    <glyph glyph-name="rcaron" unicode="&#x159;" horiz-adv-x="365" 
d="M353 649l-96 -151h-120l-96 151h116l40 -56l40 56h116zM344 452v-151q-27 14 -65 14q-67 0 -80 -51v-264h-157v450h157v-40q37 50 102 50q29 0 43 -8z" />
    <glyph glyph-name="Sacute" unicode="&#x15a;" horiz-adv-x="544" 
d="M343 666h-154l82 130h161zM12 182h167q19 -63 99 -63q38 0 60.5 15.5t22.5 43.5q0 21 -14 32.5t-44 18.5l-118 25q-158 35 -158 171q0 89 66.5 144t169.5 55q108 0 173.5 -52.5t78.5 -135.5h-157q-23 60 -94 60q-35 0 -56 -14.5t-21 -39.5q0 -38 51 -49l120 -28
q163 -39 163 -177q0 -92 -68 -145t-172 -53q-110 0 -181.5 50.5t-87.5 141.5z" />
    <glyph glyph-name="sacute" unicode="&#x15b;" horiz-adv-x="448" 
d="M291 500h-144l82 150h149zM16 139h153q11 -39 57 -39t46 31q0 20 -35 28l-88 18q-124 26 -124 131q0 70 55 111t137 41q90 0 141.5 -38.5t62.5 -107.5h-145q-9 36 -55 36q-42 0 -42 -30q0 -19 31 -25l89 -21q126 -29 126 -135q0 -70 -55.5 -109.5t-141.5 -39.5
q-88 0 -145 39t-67 110z" />
    <glyph glyph-name="Scircumflex" unicode="&#x15c;" horiz-adv-x="544" 
d="M334 798l108 -132h-126l-42 45l-42 -45h-126l108 132h120zM12 182h167q19 -63 99 -63q38 0 60.5 15.5t22.5 43.5q0 21 -14 32.5t-44 18.5l-118 25q-158 35 -158 171q0 89 66.5 144t169.5 55q108 0 173.5 -52.5t78.5 -135.5h-157q-23 60 -94 60q-35 0 -56 -14.5t-21 -39.5
q0 -38 51 -49l120 -28q163 -39 163 -177q0 -92 -68 -145t-172 -53q-110 0 -181.5 50.5t-87.5 141.5z" />
    <glyph glyph-name="scircumflex" unicode="&#x15d;" horiz-adv-x="448" 
d="M284 649l96 -151h-116l-40 55l-40 -55h-116l96 151h120zM16 139h153q11 -39 57 -39t46 31q0 20 -35 28l-88 18q-124 26 -124 131q0 70 55 111t137 41q90 0 141.5 -38.5t62.5 -107.5h-145q-9 36 -55 36q-42 0 -42 -30q0 -19 31 -25l89 -21q126 -29 126 -135
q0 -70 -55.5 -109.5t-141.5 -39.5q-88 0 -145 39t-67 110z" />
    <glyph glyph-name="uni015E" unicode="&#x15e;" horiz-adv-x="544" 
d="M12 182h167q19 -63 99 -63q38 0 60.5 15.5t22.5 43.5q0 21 -14 32.5t-44 18.5l-118 25q-158 35 -158 171q0 89 66.5 144t169.5 55q108 0 173.5 -52.5t78.5 -135.5h-157q-23 60 -94 60q-35 0 -56 -14.5t-21 -39.5q0 -38 51 -49l120 -28q163 -39 163 -177q0 -92 -68 -145
t-172 -53q-110 0 -181.5 50.5t-87.5 141.5zM270 -181h-133l69 141h134z" />
    <glyph glyph-name="uni015F" unicode="&#x15f;" horiz-adv-x="448" 
d="M16 139h153q11 -39 57 -39t46 31q0 20 -35 28l-88 18q-124 26 -124 131q0 70 55 111t137 41q90 0 141.5 -38.5t62.5 -107.5h-145q-9 36 -55 36q-42 0 -42 -30q0 -19 31 -25l89 -21q126 -29 126 -135q0 -70 -55.5 -109.5t-141.5 -39.5q-88 0 -145 39t-67 110zM220 -181
h-133l69 141h134z" />
    <glyph glyph-name="Scaron" unicode="&#x160;" horiz-adv-x="544" 
d="M212 663l-108 133h126l42 -46l42 46h126l-108 -133h-120zM12 182h167q19 -63 99 -63q38 0 60.5 15.5t22.5 43.5q0 21 -14 32.5t-44 18.5l-118 25q-158 35 -158 171q0 89 66.5 144t169.5 55q108 0 173.5 -52.5t78.5 -135.5h-157q-23 60 -94 60q-35 0 -56 -14.5t-21 -39.5
q0 -38 51 -49l120 -28q163 -39 163 -177q0 -92 -68 -145t-172 -53q-110 0 -181.5 50.5t-87.5 141.5z" />
    <glyph glyph-name="scaron" unicode="&#x161;" horiz-adv-x="448" 
d="M380 649l-96 -151h-120l-96 151h116l40 -56l40 56h116zM16 139h153q11 -39 57 -39t46 31q0 20 -35 28l-88 18q-124 26 -124 131q0 70 55 111t137 41q90 0 141.5 -38.5t62.5 -107.5h-145q-9 36 -55 36q-42 0 -42 -30q0 -19 31 -25l89 -21q126 -29 126 -135
q0 -70 -55.5 -109.5t-141.5 -39.5q-88 0 -145 39t-67 110z" />
    <glyph glyph-name="uni0162" unicode="&#x162;" horiz-adv-x="580" 
d="M20 476v138h540v-138h-190v-476h-161v476h-189zM207 -236l49 64q-21 6 -34.5 24t-13.5 43q0 31 23 51.5t58 20.5q34 0 57.5 -21.5t23.5 -56.5q0 -39 -39 -87l-29 -38h-95z" />
    <glyph glyph-name="uni0163" unicode="&#x163;" horiz-adv-x="358" 
d="M74 155v173h-65v122h65v124h156v-124h94v-122h-94v-147q0 -50 48 -50q27 0 50 10v-136q-32 -14 -87 -14q-167 0 -167 164zM123 -236l49 64q-21 6 -34.5 24t-13.5 43q0 31 23 51.5t58 20.5q34 0 57.5 -21.5t23.5 -56.5q0 -39 -39 -87l-29 -38h-95z" />
    <glyph glyph-name="Tcaron" unicode="&#x164;" horiz-adv-x="580" 
d="M230 663l-108 133h126l42 -46l42 46h126l-108 -133h-120zM20 476v138h540v-138h-190v-476h-161v476h-189z" />
    <glyph glyph-name="tcaron" unicode="&#x165;" horiz-adv-x="358" 
d="M383 487h-121l43 167h122zM74 155v173h-65v122h65v124h156v-124h94v-122h-94v-147q0 -50 48 -50q27 0 50 10v-136q-32 -14 -87 -14q-167 0 -167 164z" />
    <glyph glyph-name="Tbar" unicode="&#x166;" horiz-adv-x="580" 
d="M20 476v138h540v-138h-190v-113h91v-130h-91v-233h-161v233h-91v130h91v113h-189z" />
    <glyph glyph-name="tbar" unicode="&#x167;" horiz-adv-x="360" 
d="M27 198v96h49v52h-64v104h64v124h156v-124h94v-104h-94v-52h66v-96h-66v-17q0 -50 48 -50q27 0 50 10v-136q-32 -14 -86 -14q-168 0 -168 164v43h-49z" />
    <glyph glyph-name="Utilde" unicode="&#x168;" horiz-adv-x="613" 
d="M379 809h85q0 -150 -88 -150q-26 0 -63 17.5t-52 17.5q-24 0 -26 -31h-85q0 150 88 150q26 0 63 -17.5t52 -17.5q24 0 26 31zM307 -10q-124 0 -196 68t-72 193v363h160v-349q0 -64 28.5 -98t79.5 -34q50 0 78.5 34t28.5 98v349h160v-364q0 -124 -72 -192t-195 -68z" />
    <glyph glyph-name="utilde" unicode="&#x169;" horiz-adv-x="517" 
d="M321 647h86q0 -150 -88 -150q-25 0 -55 18t-44 18q-25 0 -25 -33h-86q0 150 88 150q25 0 55 -18t44 -18q25 0 25 33zM475 450v-450h-157v39q-42 -49 -120 -49q-74 0 -116 44.5t-42 120.5v295h156v-258q0 -65 58 -65q22 0 40 13.5t24 36.5v273h157z" />
    <glyph glyph-name="Umacron" unicode="&#x16a;" horiz-adv-x="613" 
d="M175 666v108h265v-108h-265zM307 -10q-124 0 -196 68t-72 193v363h160v-349q0 -64 28.5 -98t79.5 -34q50 0 78.5 34t28.5 98v349h160v-364q0 -124 -72 -192t-195 -68z" />
    <glyph glyph-name="umacron" unicode="&#x16b;" horiz-adv-x="517" 
d="M132 504v108h253v-108h-253zM475 450v-450h-157v39q-42 -49 -120 -49q-74 0 -116 44.5t-42 120.5v295h156v-258q0 -65 58 -65q22 0 40 13.5t24 36.5v273h157z" />
    <glyph glyph-name="Ubreve" unicode="&#x16c;" horiz-adv-x="613" 
d="M307 658q-65 0 -104.5 38t-39.5 108h108q0 -42 36 -42t36 42h108q0 -70 -39.5 -108t-104.5 -38zM307 -10q-124 0 -196 68t-72 193v363h160v-349q0 -64 28.5 -98t79.5 -34q50 0 78.5 34t28.5 98v349h160v-364q0 -124 -72 -192t-195 -68z" />
    <glyph glyph-name="ubreve" unicode="&#x16d;" horiz-adv-x="517" 
d="M258 488q-64 0 -103.5 39t-39.5 111h108q0 -47 35 -47q36 0 36 47h107q0 -72 -39.5 -111t-103.5 -39zM475 450v-450h-157v39q-42 -49 -120 -49q-74 0 -116 44.5t-42 120.5v295h156v-258q0 -65 58 -65q22 0 40 13.5t24 36.5v273h157z" />
    <glyph glyph-name="Uring" unicode="&#x16e;" horiz-adv-x="613" 
d="M415 747q0 -44 -31 -74.5t-77 -30.5t-77 30.5t-31 74.5t31 74.5t77 30.5t77 -30.5t31 -74.5zM343 747q0 15 -10 25.5t-26 10.5q-15 0 -25.5 -10.5t-10.5 -25.5t10.5 -25.5t25.5 -10.5q16 0 26 10.5t10 25.5zM307 -10q-124 0 -196 68t-72 193v363h160v-349q0 -64 28.5 -98
t79.5 -34q50 0 78.5 34t28.5 98v349h160v-364q0 -124 -72 -192t-195 -68z" />
    <glyph glyph-name="uring" unicode="&#x16f;" horiz-adv-x="517" 
d="M366 589q0 -44 -31 -74t-77 -30t-77 30t-31 74t31 75t77 31t77 -31t31 -75zM294 589q0 16 -10 26.5t-26 10.5q-15 0 -25.5 -10.5t-10.5 -26.5q0 -14 10.5 -24.5t25.5 -10.5q16 0 26 10t10 25zM475 450v-450h-157v39q-42 -49 -120 -49q-74 0 -116 44.5t-42 120.5v295h156
v-258q0 -65 58 -65q22 0 40 13.5t24 36.5v273h157z" />
    <glyph glyph-name="Uhungarumlaut" unicode="&#x170;" horiz-adv-x="613" 
d="M455 666h-129l76 130h130zM289 666h-129l75 130h130zM307 -10q-124 0 -196 68t-72 193v363h160v-349q0 -64 28.5 -98t79.5 -34q50 0 78.5 34t28.5 98v349h160v-364q0 -124 -72 -192t-195 -68z" />
    <glyph glyph-name="uhungarumlaut" unicode="&#x171;" horiz-adv-x="517" 
d="M395 500h-121l76 150h122zM237 500h-122l76 150h123zM475 450v-450h-157v39q-42 -49 -120 -49q-74 0 -116 44.5t-42 120.5v295h156v-258q0 -65 58 -65q22 0 40 13.5t24 36.5v273h157z" />
    <glyph glyph-name="Uogonek" unicode="&#x172;" horiz-adv-x="613" 
d="M307 -10q-124 0 -196 68t-72 193v363h160v-349q0 -64 28.5 -98t79.5 -34q50 0 78.5 34t28.5 98v349h160v-364q0 -148 -115 -225q-89 -58 -89 -100q0 -19 20 -19q11 0 35 15v-87q-31 -19 -65 -19q-41 0 -66.5 20.5t-25.5 58.5q0 46 48 96h-9z" />
    <glyph glyph-name="uogonek" unicode="&#x173;" horiz-adv-x="517" 
d="M475 450v-450l-11.5 -13.5l-10 -11.5l-8 -9.5l-7 -8.5l-5.5 -6.5t-4 -6t-2.5 -5t-2 -5t-1 -4.5t-0.5 -5q0 -19 20 -19q11 0 35 15v-87q-31 -19 -65 -19q-41 0 -66.5 20.5t-25.5 58.5q0 42 55 106h-58v39q-42 -49 -120 -49q-74 0 -116 44.5t-42 120.5v295h156v-258
q0 -65 58 -65q22 0 40 13.5t24 36.5v273h157z" />
    <glyph glyph-name="Wcircumflex" unicode="&#x174;" horiz-adv-x="820" 
d="M470 798l108 -132h-126l-42 45l-42 -45h-126l108 132h120zM351 614h122l94 -361l85 361h162l-162 -614h-147l-95 360l-96 -360h-147l-161 614h164l86 -361z" />
    <glyph glyph-name="wcircumflex" unicode="&#x175;" horiz-adv-x="698" 
d="M409 649l96 -151h-116l-40 55l-40 -55h-116l96 151h120zM402 450l67 -244l72 244h150l-145 -450h-133l-64 228l-64 -228h-133l-145 450h156l71 -244l68 244h100z" />
    <glyph glyph-name="Ycircumflex" unicode="&#x176;" horiz-adv-x="612" 
d="M366 798l108 -132h-126l-42 45l-42 -45h-126l108 132h120zM309 374l129 240h169l-222 -396v-218h-161v218l-218 396h174z" />
    <glyph glyph-name="ycircumflex" unicode="&#x177;" horiz-adv-x="502" 
d="M316 649l96 -151h-116l-40 55l-40 -55h-116l96 151h120zM264 -159h-155l66 170l-168 439h163l86 -256l84 256h156z" />
    <glyph glyph-name="Ydieresis" unicode="&#x178;" horiz-adv-x="612" 
d="M318 734q0 33 23 56t55 23t55.5 -23t23.5 -56t-23.5 -56t-55.5 -23t-55 23t-23 56zM137 734q0 33 22.5 56t55.5 23q32 0 55.5 -23t23.5 -56t-23.5 -56t-55.5 -23q-33 0 -55.5 23t-22.5 56zM309 374l129 240h169l-222 -396v-218h-161v218l-218 396h174z" />
    <glyph glyph-name="Zacute" unicode="&#x179;" horiz-adv-x="561" 
d="M366 666h-154l82 130h161zM527 139v-139h-493v119l285 357h-282v138h487v-118l-282 -357h285z" />
    <glyph glyph-name="zacute" unicode="&#x17a;" horiz-adv-x="456" 
d="M306 500h-144l82 150h149zM424 123v-123h-393v103l198 225h-192v122h384v-102l-190 -225h193z" />
    <glyph glyph-name="Zdotaccent" unicode="&#x17b;" horiz-adv-x="561" 
d="M382 743q0 -38 -26 -61.5t-63 -23.5t-63 23.5t-26 61.5q0 37 26 60.5t63 23.5t63 -23.5t26 -60.5zM527 139v-139h-493v119l285 357h-282v138h487v-118l-282 -357h285z" />
    <glyph glyph-name="zdotaccent" unicode="&#x17c;" horiz-adv-x="456" 
d="M328 579q0 -37 -26 -60.5t-63 -23.5t-63 23.5t-26 60.5q0 38 26 61.5t63 23.5t63 -23.5t26 -61.5zM424 123v-123h-393v103l198 225h-192v122h384v-102l-190 -225h193z" />
    <glyph glyph-name="Zcaron" unicode="&#x17d;" horiz-adv-x="561" 
d="M233 663l-108 133h126l42 -46l42 46h126l-108 -133h-120zM527 139v-139h-493v119l285 357h-282v138h487v-118l-282 -357h285z" />
    <glyph glyph-name="zcaron" unicode="&#x17e;" horiz-adv-x="456" 
d="M395 649l-96 -151h-120l-96 151h116l40 -56l40 56h116zM424 123v-123h-393v103l198 225h-192v122h384v-102l-190 -225h193z" />
    <glyph glyph-name="uni0192" unicode="&#x192;" horiz-adv-x="420" 
d="M47 234v122h80l16 93q30 175 188 175q40 0 73 -12v-128q-18 9 -43 9q-49 0 -60 -53l-15 -84h79v-122h-100l-39 -222q-15 -87 -55.5 -131t-122.5 -44q-43 0 -76 12v114q18 -9 42 -9t35.5 13t16.5 40l39 227h-58z" />
    <glyph glyph-name="Aringacute" unicode="&#x1fa;" horiz-adv-x="646" 
d="M401 821h-153l63 102h160zM427 717q0 -36 -30.5 -61t-75.5 -25t-75.5 25t-30.5 61t30.5 61t75.5 25t75.5 -25t30.5 -61zM357 717q0 13 -10 21t-26 8t-26.5 -8t-10.5 -21q0 -12 10.5 -20.5t26.5 -8.5t26 8.5t10 20.5zM321 424l-63 -173h126zM241 614h164l234 -614h-163
l-44 119h-223l-43 -119h-159z" />
    <glyph glyph-name="aringacute" unicode="&#x1fb;" horiz-adv-x="529" 
d="M355 667h-153l63 102h160zM381 563q0 -36 -30.5 -61t-75.5 -25t-76 25.5t-31 60.5q0 36 31 61.5t76 25.5t75.5 -25.5t30.5 -61.5zM311 563q0 13 -10 21.5t-26 8.5t-26.5 -8.5t-10.5 -21.5q0 -12 10.5 -20.5t26.5 -8.5t26 8.5t10 20.5zM330 166v119q-9 18 -28 30t-41 12
q-40 0 -63 -28.5t-23 -73.5q0 -44 23 -72.5t63 -28.5q49 0 69 42zM330 0v36q-17 -19 -47.5 -32.5t-63.5 -13.5q-94 0 -147.5 66.5t-53.5 168.5t53.5 168.5t147.5 66.5q33 0 63.5 -13.5t47.5 -32.5v36h157v-450h-157z" />
    <glyph glyph-name="AEacute" unicode="&#x1fc;" horiz-adv-x="898" 
d="M671 666h-154l82 130h161zM445 484l-129 -233h129v233zM352 614h512v-138h-261v-96h236v-135h-236v-106h261v-139h-419v119h-202l-66 -119h-170z" />
    <glyph glyph-name="aeacute" unicode="&#x1fd;" horiz-adv-x="804" 
d="M475 500h-144l82 150h149zM608 -10q-88 0 -132 50v-40h-146v43q-18 -22 -50 -37.5t-67 -15.5q-94 0 -145 67t-51 169t51 168.5t145 66.5q35 0 67.5 -15.5t49.5 -37.5v44h146v-46q33 54 119 54q83 0 136 -63t53 -163v-39h-291q8 -83 78 -83q53 0 66 45h145
q-12 -76 -60.5 -121.5t-113.5 -45.5zM568 338q-56 0 -72 -65h136q-2 29 -19 47t-45 18zM330 170v113q-21 45 -72 45q-38 0 -60.5 -28.5t-22.5 -73.5t22.5 -73.5t60.5 -28.5q51 0 72 46z" />
    <glyph glyph-name="Oslashacute" unicode="&#x1fe;" horiz-adv-x="652" 
d="M399 666h-154l82 130h161zM188 307q0 -44 13 -85l208 232q-34 29 -83 29q-62 0 -100 -48.5t-38 -127.5zM464 307q0 45 -13 84l-208 -232q34 -28 83 -28q62 0 100 48.5t38 127.5zM34 36l58 64q-66 86 -66 207q0 139 83.5 228t216.5 89q104 0 183 -60l54 61l56 -47l-59 -65
q66 -85 66 -206q0 -138 -84 -227.5t-216 -89.5q-107 0 -183 59l-53 -60z" />
    <glyph glyph-name="oslashacute" unicode="&#x1ff;" horiz-adv-x="507" 
d="M320 500h-144l82 150h149zM175 225q0 -23 4 -39l118 132q-19 16 -44 16q-35 0 -56.5 -31t-21.5 -78zM332 225q0 19 -5 39l-118 -132q19 -16 44 -16q36 0 57.5 30.5t21.5 78.5zM30 18l45 50q-52 65 -52 157q0 104 64 169.5t166 65.5q77 0 135 -39l42 47l45 -37l-44 -50
q52 -63 52 -156q0 -104 -63.5 -169.5t-166.5 -65.5q-77 0 -135 39l-43 -48z" />
    <glyph glyph-name="uni0218" unicode="&#x218;" horiz-adv-x="544" 
d="M12 182h167q19 -63 99 -63q38 0 60.5 15.5t22.5 43.5q0 21 -14 32.5t-44 18.5l-118 25q-158 35 -158 171q0 89 66.5 144t169.5 55q108 0 173.5 -52.5t78.5 -135.5h-157q-23 60 -94 60q-35 0 -56 -14.5t-21 -39.5q0 -38 51 -49l120 -28q163 -39 163 -177q0 -92 -68 -145
t-172 -53q-110 0 -181.5 50.5t-87.5 141.5zM187 -236l49 64q-21 6 -34.5 24t-13.5 43q0 31 23 51.5t58 20.5q34 0 57.5 -21.5t23.5 -56.5q0 -39 -39 -87l-29 -38h-95z" />
    <glyph glyph-name="uni0219" unicode="&#x219;" horiz-adv-x="448" 
d="M16 139h153q11 -39 57 -39t46 31q0 20 -35 28l-88 18q-124 26 -124 131q0 70 55 111t137 41q90 0 141.5 -38.5t62.5 -107.5h-145q-9 36 -55 36q-42 0 -42 -30q0 -19 31 -25l89 -21q126 -29 126 -135q0 -70 -55.5 -109.5t-141.5 -39.5q-88 0 -145 39t-67 110zM140 -236
l49 64q-21 6 -34.5 24t-13.5 43q0 31 23 51.5t58 20.5q34 0 57.5 -21.5t23.5 -56.5q0 -39 -39 -87l-29 -38h-95z" />
    <glyph glyph-name="uni0237" unicode="&#x237;" horiz-adv-x="241" 
d="M199 450v-440q0 -86 -44 -132.5t-127 -46.5q-37 0 -57 7v118q12 -2 23 -2q25 0 36.5 11.5t11.5 38.5v446h157z" />
    <glyph glyph-name="circumflex" unicode="&#x2c6;" 
d="M310 649l96 -151h-116l-40 55l-40 -55h-116l96 151h120z" />
    <glyph glyph-name="caron" unicode="&#x2c7;" 
d="M406 649l-96 -151h-120l-96 151h116l40 -56l40 56h116z" />
    <glyph glyph-name="breve" unicode="&#x2d8;" 
d="M250 488q-64 0 -103.5 39t-39.5 111h108q0 -47 35 -47q36 0 36 47h107q0 -72 -39.5 -111t-103.5 -39z" />
    <glyph glyph-name="dotaccent" unicode="&#x2d9;" 
d="M339 579q0 -37 -26 -60.5t-63 -23.5t-63 23.5t-26 60.5q0 38 26 61.5t63 23.5t63 -23.5t26 -61.5z" />
    <glyph glyph-name="ring" unicode="&#x2da;" 
d="M358 589q0 -44 -31 -74t-77 -30t-77 30t-31 74t31 75t77 31t77 -31t31 -75zM286 589q0 16 -10 26.5t-26 10.5q-15 0 -25.5 -10.5t-10.5 -26.5q0 -14 10.5 -24.5t25.5 -10.5q16 0 26 10t10 25z" />
    <glyph glyph-name="ogonek" unicode="&#x2db;" 
d="M229 8h97q-51 -61 -55 -72q-2 -5 -2 -11q0 -19 19 -19q11 0 35 15v-87q-31 -19 -65 -19q-41 0 -66.5 20.5t-25.5 58.5q0 20 10 41t20.5 34z" />
    <glyph glyph-name="tilde" unicode="&#x2dc;" 
d="M313 647h86q0 -150 -88 -150q-25 0 -55 18t-44 18q-25 0 -25 -33h-86q0 150 88 150q25 0 55 -18t44 -18q25 0 25 33z" />
    <glyph glyph-name="hungarumlaut" unicode="&#x2dd;" 
d="M351 500h-121l76 150h122zM193 500h-122l76 150h123z" />
    <glyph glyph-name="Wgrave" unicode="&#x1e80;" horiz-adv-x="820" 
d="M491 666h-154l-89 130h161zM351 614h122l94 -361l85 361h162l-162 -614h-147l-95 360l-96 -360h-147l-161 614h164l86 -361z" />
    <glyph glyph-name="wgrave" unicode="&#x1e81;" horiz-adv-x="698" 
d="M424 500h-144l-87 150h149zM402 450l67 -244l72 244h150l-145 -450h-133l-64 228l-64 -228h-133l-145 450h156l71 -244l68 244h100z" />
    <glyph glyph-name="Wacute" unicode="&#x1e82;" horiz-adv-x="820" 
d="M485 666h-154l82 130h161zM351 614h122l94 -361l85 361h162l-162 -614h-147l-95 360l-96 -360h-147l-161 614h164l86 -361z" />
    <glyph glyph-name="wacute" unicode="&#x1e83;" horiz-adv-x="698" 
d="M416 500h-144l82 150h149zM402 450l67 -244l72 244h150l-145 -450h-133l-64 228l-64 -228h-133l-145 450h156l71 -244l68 244h100z" />
    <glyph glyph-name="Wdieresis" unicode="&#x1e84;" horiz-adv-x="820" 
d="M422 734q0 33 23 56t55 23t55.5 -23t23.5 -56t-23.5 -56t-55.5 -23t-55 23t-23 56zM241 734q0 33 22.5 56t55.5 23q32 0 55.5 -23t23.5 -56t-23.5 -56t-55.5 -23q-33 0 -55.5 23t-22.5 56zM351 614h122l94 -361l85 361h162l-162 -614h-147l-95 360l-96 -360h-147
l-161 614h164l86 -361z" />
    <glyph glyph-name="wdieresis" unicode="&#x1e85;" horiz-adv-x="698" 
d="M361 567q0 32 22 54.5t54 22.5t55 -22.5t23 -54.5q0 -31 -23 -53.5t-55 -22.5q-31 0 -53.5 22.5t-22.5 53.5zM184 567q0 32 22.5 54.5t54.5 22.5t54.5 -22.5t22.5 -54.5q0 -31 -22.5 -53.5t-54.5 -22.5t-54.5 22.5t-22.5 53.5zM402 450l67 -244l72 244h150l-145 -450
h-133l-64 228l-64 -228h-133l-145 450h156l71 -244l68 244h100z" />
    <glyph glyph-name="Ygrave" unicode="&#x1ef2;" horiz-adv-x="612" 
d="M389 666h-154l-89 130h161zM309 374l129 240h169l-222 -396v-218h-161v218l-218 396h174z" />
    <glyph glyph-name="ygrave" unicode="&#x1ef3;" horiz-adv-x="502" 
d="M332 500h-144l-87 150h149zM264 -159h-155l66 170l-168 439h163l86 -256l84 256h156z" />
    <glyph glyph-name="endash" unicode="&#x2013;" horiz-adv-x="466" 
d="M36 208v107h395v-107h-395z" />
    <glyph glyph-name="emdash" unicode="&#x2014;" horiz-adv-x="837" 
d="M36 208v107h766v-107h-766z" />
    <glyph glyph-name="quoteleft" unicode="&#x2018;" horiz-adv-x="222" 
d="M207 614l-73 -114q29 -6 48 -27t19 -54q0 -38 -26.5 -63t-65.5 -25t-65.5 26t-26.5 72q0 45 38 103l53 82h99z" />
    <glyph glyph-name="quoteright" unicode="&#x2019;" horiz-adv-x="222" 
d="M15 341l73 114q-29 6 -48 27t-19 54q0 38 26.5 63t65.5 25t65.5 -26t26.5 -72q0 -45 -38 -103l-53 -82h-99z" />
    <glyph glyph-name="quotesinglbase" unicode="&#x201a;" horiz-adv-x="222" 
d="M15 -113l73 114q-29 6 -48 27t-19 54q0 38 26.5 63t65.5 25t65.5 -26t26.5 -72q0 -45 -38 -103l-53 -82h-99z" />
    <glyph glyph-name="quotedblleft" unicode="&#x201c;" horiz-adv-x="435" 
d="M420 614l-73 -114q29 -6 48 -27t19 -54q0 -38 -26.5 -63t-65.5 -25t-65.5 26t-26.5 72q0 45 38 103l53 82h99zM207 614l-73 -114q29 -6 48 -27t19 -54q0 -38 -26.5 -63t-65.5 -25t-65.5 26t-26.5 72q0 45 38 103l53 82h99z" />
    <glyph glyph-name="quotedblright" unicode="&#x201d;" horiz-adv-x="435" 
d="M228 341l73 114q-29 6 -48 27t-19 54q0 38 26.5 63t65.5 25t65.5 -26t26.5 -72q0 -45 -38 -103l-53 -82h-99zM15 341l73 114q-29 6 -48 27t-19 54q0 38 26.5 63t65.5 25t65.5 -26t26.5 -72q0 -45 -38 -103l-53 -82h-99z" />
    <glyph glyph-name="quotedblbase" unicode="&#x201e;" horiz-adv-x="435" 
d="M228 -113l73 114q-29 6 -48 27t-19 54q0 38 26.5 63t65.5 25t65.5 -26t26.5 -72q0 -45 -38 -103l-53 -82h-99zM15 -113l73 114q-29 6 -48 27t-19 54q0 38 26.5 63t65.5 25t65.5 -26t26.5 -72q0 -45 -38 -103l-53 -82h-99z" />
    <glyph glyph-name="dagger" unicode="&#x2020;" horiz-adv-x="345" 
d="M24 461v97h99v92h99v-92h99v-97h-99v-185h-99v185h-99z" />
    <glyph glyph-name="daggerdbl" unicode="&#x2021;" horiz-adv-x="349" 
d="M26 496v87h101v67h95v-67h102v-87h-102v-67h102v-86h-102v-67h-95v67h-101v86h101v67h-101z" />
    <glyph glyph-name="bullet" unicode="&#x2022;" horiz-adv-x="381" 
d="M357 261q0 -71 -48.5 -117.5t-117.5 -46.5q-70 0 -118.5 46.5t-48.5 117.5q0 73 48.5 120t118.5 47t118 -47t48 -120z" />
    <glyph glyph-name="ellipsis" unicode="&#x2026;" horiz-adv-x="710" 
d="M506 87q0 39 27 66t65 27q39 0 66 -26.5t27 -66.5t-27 -67t-66 -27q-38 0 -65 27t-27 67zM263 87q0 40 26.5 66.5t65.5 26.5t65.5 -26.5t26.5 -66.5t-26.5 -67t-65.5 -27t-65.5 27t-26.5 67zM19 87q0 39 26.5 66t65.5 27t66 -26.5t27 -66.5t-27 -67t-66 -27q-38 0 -65 27
t-27 67z" />
    <glyph glyph-name="perthousand" unicode="&#x2030;" horiz-adv-x="1001" 
d="M24 476q0 62 42 105t103 43t104.5 -43t43.5 -105q0 -61 -43 -103t-105 -42q-61 0 -103 42t-42 103zM98 0l394 614h90l-394 -614h-90zM117 476q0 -22 15.5 -37t36.5 -15q23 0 39 15t16 37t-16 38.5t-39 16.5q-21 0 -36.5 -16.5t-15.5 -38.5zM977 138q0 -62 -42 -105
t-103 -43q-62 0 -105 43t-43 105q0 61 43 103t105 42q61 0 103 -42t42 -103zM657 138q0 -62 -42.5 -105t-103.5 -43t-104.5 43t-43.5 105q0 61 43 103t105 42q61 0 103.5 -42t42.5 -103zM884 138q0 22 -15.5 37t-36.5 15q-23 0 -39 -15t-16 -37t16.5 -38.5t38.5 -16.5
q21 0 36.5 16.5t15.5 38.5zM563 138q0 22 -15 37t-37 15q-23 0 -39 -15t-16 -37t16 -38.5t39 -16.5q22 0 37 16t15 39z" />
    <glyph glyph-name="guilsinglleft" unicode="&#x2039;" horiz-adv-x="278" 
d="M253 58h-136l-92 164l92 164h136l-92 -164z" />
    <glyph glyph-name="guilsinglright" unicode="&#x203a;" horiz-adv-x="278" 
d="M161 58h-136l92 164l-92 164h136l92 -164z" />
    <glyph glyph-name="fraction" unicode="&#x2044;" horiz-adv-x="216" 
d="M336 614l-369 -614h-87l369 614h87z" />
    <glyph glyph-name="Euro" unicode="&#x20ac;" horiz-adv-x="568" 
d="M548 193q-16 -93 -73 -148t-150 -55q-92 0 -158 59.5t-89 159.5h-55v77h44v44h-44v77h55q23 100 89 158.5t158 58.5q93 0 150 -55t73 -148h-141q-18 64 -82 64q-67 0 -93 -78h134l-15 -77h-132v-44h124l-15 -77h-96q24 -80 93 -80q64 0 82 64h141z" />
    <glyph glyph-name="uni2117" unicode="&#x2117;" horiz-adv-x="704" 
d="M669 307q0 -136 -92.5 -226.5t-224.5 -90.5t-224.5 90.5t-92.5 226.5t92.5 226.5t224.5 90.5t224.5 -90.5t92.5 -226.5zM622 307q0 116 -79 193.5t-191 77.5t-191 -77.5t-79 -193.5t79 -193.5t191 -77.5t191 77.5t79 193.5zM391 230h-64v-106h-106v369h170
q62 0 99.5 -34.5t37.5 -96.5q0 -63 -37.5 -97.5t-99.5 -34.5zM424 362q0 41 -45 41h-52v-83h52q45 0 45 42z" />
    <glyph glyph-name="trademark" unicode="&#x2122;" horiz-adv-x="610" 
d="M20 541v73h235v-73h-77v-181h-82v181h-76zM456 360h-49l-47 141v-141h-72v254h96l48 -144l48 144h96v-254h-73v141z" />
    <glyph glyph-name="uni2153" unicode="&#x2153;" horiz-adv-x="731" 
d="M215 614v-350h-104v233l-86 -42v105l115 54h75zM602 614l-420 -614h-92l420 614h92zM536 139v74h23q36 0 36 29q0 26 -28 26q-13 0 -22 -9.5t-11 -22.5h-102q6 51 40.5 85t91.5 34q61 0 95.5 -30.5t34.5 -81.5q0 -19 -10.5 -39t-24.5 -29q38 -19 38 -66
q0 -52 -35.5 -83.5t-96.5 -31.5q-60 0 -96.5 33.5t-39.5 88.5h108q3 -31 31 -31q29 0 29 26q0 28 -34 28h-27z" />
    <glyph glyph-name="uni2154" unicode="&#x2154;" horiz-adv-x="800" 
d="M199 503q0 11 -7 18.5t-19 7.5q-11 0 -19 -8.5t-9 -19.5h-110q5 52 42 86t94 34q60 0 96 -31t36 -81q0 -22 -10 -42.5t-21 -32.5t-33 -33l-51 -46h114v-89h-264v68l129 119q32 32 32 50zM671 614l-420 -614h-93l420 614h93zM604 140v72h24q37 0 37 30q0 29 -30 29
q-14 0 -23 -10.5t-11 -24.5h-101q6 51 40.5 85t91.5 34q61 0 95.5 -30.5t34.5 -81.5q0 -19 -10.5 -39t-24.5 -29q39 -19 39 -66q0 -52 -36 -83.5t-97 -31.5q-60 0 -96.5 33.5t-39.5 88.5h106q3 -35 34 -35q14 0 22.5 8.5t8.5 21.5q0 29 -36 29h-28z" />
    <glyph glyph-name="uni215B" unicode="&#x215b;" horiz-adv-x="740" 
d="M215 614v-350h-104v233l-86 -42v105l115 54h75zM602 614l-420 -614h-92l420 614h92zM562 -5q-59 0 -98.5 27.5t-39.5 74.5q0 58 52 79q-40 22 -40 74q0 50 36.5 78t89.5 28q52 0 89 -28.5t37 -77.5q0 -52 -41 -74q52 -21 52 -79q0 -47 -39 -74.5t-98 -27.5zM562 218
q15 0 24.5 8.5t9.5 21.5t-9.5 21.5t-24.5 8.5t-24.5 -8.5t-9.5 -21.5t9.5 -21.5t24.5 -8.5zM562 75q16 0 26 8.5t10 22.5t-10 23t-26 9t-26.5 -9t-10.5 -23q0 -13 10.5 -22t26.5 -9z" />
    <glyph glyph-name="uni215C" unicode="&#x215c;" horiz-adv-x="770" 
d="M632 614l-420 -614h-93l420 614h93zM135 404v72h24q36 0 36 30q0 29 -29 29q-15 0 -23.5 -10.5t-10.5 -24.5h-101q6 51 40.5 85t91.5 34q61 0 95.5 -30.5t34.5 -81.5q0 -20 -10 -39.5t-25 -28.5q39 -19 39 -66q0 -52 -35.5 -83.5t-97.5 -31.5q-60 0 -96.5 33.5
t-39.5 88.5h106q4 -35 34 -35q14 0 22.5 8.5t8.5 21.5q0 29 -36 29h-28zM592 -5q-59 0 -99 27.5t-40 74.5q0 58 53 79q-41 23 -41 74q0 50 36.5 78t90.5 28q52 0 89 -28.5t37 -77.5q0 -52 -42 -74q53 -21 53 -79q0 -47 -39 -74.5t-98 -27.5zM592 218q14 0 23.5 8.5t9.5 21.5
t-9.5 21.5t-23.5 8.5q-15 0 -25 -8.5t-10 -21.5t10 -21.5t25 -8.5zM592 75q16 0 26 8.5t10 22.5t-10 23t-26 9q-17 0 -27.5 -9t-10.5 -23q0 -13 10.5 -22t27.5 -9z" />
    <glyph glyph-name="uni215D" unicode="&#x215d;" horiz-adv-x="778" 
d="M640 614l-420 -614h-93l420 614h93zM168 415q-16 0 -33 -13h-88v212h228v-85h-143v-45q16 11 50 11q55 0 87.5 -31.5t32.5 -83.5q0 -55 -36 -88.5t-95 -33.5q-63 0 -100 30.5t-41 85.5h105q2 -12 11.5 -20.5t23.5 -8.5t23.5 9.5t9.5 25.5q0 15 -9.5 25t-25.5 10zM600 -5
q-59 0 -99 27.5t-40 74.5q0 58 53 79q-41 23 -41 74q0 50 36.5 78t90.5 28q52 0 88.5 -28t36.5 -78q0 -52 -41 -74q53 -21 53 -79q0 -47 -39.5 -74.5t-97.5 -27.5zM600 218q14 0 23.5 8.5t9.5 21.5t-9.5 21.5t-23.5 8.5q-16 0 -25.5 -8t-9.5 -22q0 -13 9.5 -21.5t25.5 -8.5z
M600 75q15 0 25.5 9t10.5 22q0 14 -10.5 23t-25.5 9q-17 0 -27.5 -9t-10.5 -23q0 -13 10.5 -22t27.5 -9z" />
    <glyph glyph-name="uni215E" unicode="&#x215e;" horiz-adv-x="716" 
d="M282 544l-111 -280h-109l105 260h-138v90h253v-70zM577 614l-420 -614h-92l420 614h92zM537 -5q-59 0 -98.5 27.5t-39.5 74.5q0 58 53 79q-41 23 -41 74q0 50 36.5 78t89.5 28t89.5 -28t36.5 -78q0 -52 -41 -74q53 -21 53 -79q0 -47 -39.5 -74.5t-98.5 -27.5zM537 218
q15 0 24.5 8.5t9.5 21.5t-9.5 21.5t-24.5 8.5t-24.5 -8.5t-9.5 -21.5t9.5 -21.5t24.5 -8.5zM537 75q16 0 26.5 9t10.5 22q0 14 -10.5 23t-26.5 9t-26.5 -9t-10.5 -23q0 -13 10.5 -22t26.5 -9z" />
    <glyph glyph-name="minus" unicode="&#x2212;" horiz-adv-x="556" 
d="M51 241v116h454v-116h-454z" />
    <glyph glyph-name="approxequal" unicode="&#x2248;" horiz-adv-x="574" 
d="M61 311v109q61 40 121 40q38 0 103 -19.5t103 -19.5q64 0 125 41v-109q-64 -41 -125 -41q-38 0 -103 20t-103 20q-60 0 -121 -41zM61 139v107q60 42 121 42q38 0 103 -20.5t103 -20.5q62 0 125 42v-109q-62 -40 -125 -40q-38 0 -103 19.5t-103 19.5q-60 0 -121 -40z" />
    <glyph glyph-name="notequal" unicode="&#x2260;" horiz-adv-x="574" 
d="M61 340v104h269l60 93h96l-60 -93h87v-104h-153l-51 -79h204v-103h-270l-59 -93h-96l59 93h-86v103h152l51 79h-203z" />
    <glyph glyph-name="lessequal" unicode="&#x2264;" horiz-adv-x="442" 
d="M48 298v139l346 122v-123l-233 -68l233 -69v-122zM48 42v112h346v-112h-346z" />
    <glyph glyph-name="greaterequal" unicode="&#x2265;" horiz-adv-x="442" 
d="M394 437v-139l-346 -121v122l233 69l-233 68v123zM394 154v-112h-346v112h346z" />
    <glyph glyph-name="fi" unicode="&#xfb01;" horiz-adv-x="580" 
d="M548 572q0 -37 -26 -60.5t-63 -23.5t-63 23.5t-26 60.5q0 38 26 61.5t63 23.5t63 -23.5t26 -61.5zM328 647v-128q-17 9 -37 9q-56 0 -56 -54v-24h87v-122h-87v-328h-155v328h-67v122h67v33q0 81 46.5 128.5t128.5 47.5q40 0 73 -12zM537 450v-450h-157v450h157z" />
    <glyph glyph-name="fl" unicode="&#xfb02;" horiz-adv-x="580" 
d="M537 650v-650h-157v650h157zM328 647v-128q-17 9 -37 9q-56 0 -56 -54v-24h87v-122h-87v-328h-155v328h-67v122h67v33q0 81 46.5 128.5t128.5 47.5q40 0 73 -12z" />
    <glyph glyph-name="i.dot" horiz-adv-x="242" 
d="M210 579q0 -37 -26 -60.5t-63 -23.5t-63 23.5t-26 60.5q0 38 26 61.5t63 23.5t63 -23.5t26 -61.5zM199 450v-450h-157v450h157z" />
    <glyph glyph-name="space_uni0326" 
d="M170 -236l49 64q-21 6 -34.5 24t-13.5 43q0 31 23 51.5t58 20.5q34 0 57.5 -21.5t23.5 -56.5q0 -39 -39 -87l-29 -38h-95z" />
    <glyph glyph-name="space_uni0326.alt" 
d="M331 696l-52 -67q49 -15 49 -68q0 -31 -23.5 -52t-58.5 -21q-34 0 -57.5 21.5t-23.5 57.5q0 39 39 89l31 40h96z" />
    <glyph glyph-name="space_dotbelowcomb" 
d="M337 -114q0 -37 -25.5 -60t-61.5 -23t-61.5 23t-25.5 60q0 36 25.5 58.5t61.5 22.5t61.5 -22.5t25.5 -58.5z" />
    <glyph glyph-name="acute.cap" 
d="M282 666h-154l82 130h161z" />
    <glyph glyph-name="breve.cap" 
d="M250 658q-65 0 -104.5 38t-39.5 108h108q0 -42 36 -42t36 42h108q0 -70 -39.5 -108t-104.5 -38z" />
    <glyph glyph-name="circumflex.cap" 
d="M310 798l108 -132h-126l-42 45l-42 -45h-126l108 132h120z" />
    <glyph glyph-name="dieresis.cap" 
d="M262 734q0 33 23 56t55 23t55.5 -23t23.5 -56t-23.5 -56t-55.5 -23t-55 23t-23 56zM81 734q0 33 22.5 56t55.5 23q32 0 55.5 -23t23.5 -56t-23.5 -56t-55.5 -23q-33 0 -55.5 23t-22.5 56z" />
    <glyph glyph-name="grave.cap" 
d="M371 666h-154l-89 130h161z" />
    <glyph glyph-name="macron.cap" 
d="M117 666v108h265v-108h-265z" />
    <glyph glyph-name="ring.cap" 
d="M358 747q0 -44 -31 -74.5t-77 -30.5t-77 30.5t-31 74.5t31 74.5t77 30.5t77 -30.5t31 -74.5zM286 747q0 15 -10 25.5t-26 10.5q-15 0 -25.5 -10.5t-10.5 -25.5t10.5 -25.5t25.5 -10.5q16 0 26 10.5t10 25.5z" />
    <glyph glyph-name="tilde.cap" 
d="M322 809h85q0 -150 -88 -150q-26 0 -63 17.5t-52 17.5q-24 0 -26 -31h-85q0 150 88 150q26 0 63 -17.5t52 -17.5q24 0 26 31z" />
    <glyph glyph-name="caron.cap" 
d="M190 663l-108 133h126l42 -46l42 46h126l-108 -133h-120z" />
    <glyph glyph-name="dotaccent.cap" 
d="M339 743q0 -38 -26 -61.5t-63 -23.5t-63 23.5t-26 61.5q0 37 26 60.5t63 23.5t63 -23.5t26 -60.5z" />
    <glyph glyph-name="caron.Slovak" 
d="M282 483h-121l43 167h122z" />
    <glyph glyph-name="hungarumlaut.cap" 
d="M359 666h-129l76 130h130zM193 666h-129l75 130h130z" />
    <glyph glyph-name="cedilla.alt" 
d="M274 -181h-133l69 141h134z" />
    <glyph glyph-name="exclamdown.cap" horiz-adv-x="239" 
d="M26 532q0 38 27.5 63.5t66.5 25.5t66 -25.5t27 -63.5q0 -37 -27 -62.5t-66 -25.5t-66.5 25.5t-27.5 62.5zM24 0l35 408h121l35 -408h-191z" />
    <glyph glyph-name="questiondown.cap" horiz-adv-x="475" 
d="M321 532q0 -38 -27 -63t-66 -25q-40 0 -67.5 25t-27.5 63t27.5 63.5t67.5 25.5q39 0 66 -25.5t27 -63.5zM20 174q0 26 11.5 54t19.5 40t36 45.5t31 36.5q27 32 29 58h155q-1 -27 -11 -49t-38 -57q-7 -9 -25 -29.5t-24.5 -29t-13.5 -24t-7 -29.5q0 -25 15.5 -40.5
t40.5 -15.5q27 0 42.5 17.5t17.5 43.5h162q-9 -90 -69 -147.5t-159 -57.5q-97 0 -155 49.5t-58 134.5z" />
    <glyph glyph-name="guilsinglleft.cap" horiz-adv-x="278" 
d="M253 138h-136l-92 164l92 164h136l-92 -164z" />
    <glyph glyph-name="guilsinglright.cap" horiz-adv-x="278" 
d="M161 138h-136l92 164l-92 164h136l92 -164z" />
    <glyph glyph-name="guillemotleft.cap" horiz-adv-x="451" 
d="M426 138h-128l-92 164l92 164h128l-92 -164zM245 138h-128l-92 164l92 164h128l-92 -164z" />
    <glyph glyph-name="guillemotright.cap" horiz-adv-x="451" 
d="M153 138h-128l92 164l-92 164h128l92 -164zM334 138h-128l92 164l-92 164h128l92 -164z" />
    <glyph glyph-name="slash.cap" horiz-adv-x="394" 
d="M5 -64l248 734h136l-248 -734h-136z" />
    <glyph glyph-name="backslash.cap" horiz-adv-x="394" 
d="M141 670l248 -734h-136l-248 734h136z" />
    <glyph glyph-name="bar.cap" horiz-adv-x="223" 
d="M46 -64v734h131v-734h-131z" />
    <glyph glyph-name="periodcentered.cap" horiz-adv-x="233" 
d="M24 295q0 39 27 66t65 27q39 0 66 -26.5t27 -66.5t-27 -67t-66 -27q-38 0 -65 27t-27 67z" />
    <glyph glyph-name="bullet.cap" horiz-adv-x="381" 
d="M357 295q0 -72 -48 -118t-118 -46t-118.5 46t-48.5 118q0 73 48.5 120t118.5 47t118 -47t48 -120z" />
    <glyph glyph-name="hyphen.cap" horiz-adv-x="312" 
d="M36 230v131h241v-131h-241z" />
    <glyph glyph-name="endash.cap" horiz-adv-x="466" 
d="M36 242v106h395v-106h-395z" />
    <glyph glyph-name="emdash.cap" horiz-adv-x="837" 
d="M36 242v106h766v-106h-766z" />
    <glyph glyph-name="parenleft.cap" horiz-adv-x="334" 
d="M30 303q0 141 76 239.5t208 127.5v-147q-141 -48 -141 -220t141 -220v-147q-132 29 -208 127.5t-76 239.5z" />
    <glyph glyph-name="parenright.cap" horiz-adv-x="334" 
d="M304 303q0 -141 -76 -239.5t-208 -127.5v147q141 48 141 220t-141 220v147q132 -29 208 -127.5t76 -239.5z" />
    <glyph glyph-name="bracketleft.cap" horiz-adv-x="331" 
d="M192 540v-474h119v-130h-265v734h265v-130h-119z" />
    <glyph glyph-name="bracketright.cap" horiz-adv-x="331" 
d="M139 66v474h-119v130h265v-734h-265v130h119z" />
    <glyph glyph-name="braceleft.cap" horiz-adv-x="366" 
d="M235 220v-125q0 -29 29 -29h82v-130h-124q-57 0 -93 36t-36 94v143q0 29 -29 29h-44v130h44q29 0 29 29v143q0 58 36 94t93 36h124v-130h-82q-29 0 -29 -29v-125q0 -54 -47 -83q47 -29 47 -83z" />
    <glyph glyph-name="braceright.cap" horiz-adv-x="366" 
d="M131 95v125q0 54 47 83q-47 29 -47 83v125q0 29 -29 29h-82v130h124q57 0 93 -36t36 -94v-143q0 -29 29 -29h44v-130h-44q-29 0 -29 -29v-143q0 -58 -36 -94t-93 -36h-124v130h82q29 0 29 29z" />
    <glyph glyph-name="at.cap" horiz-adv-x="759" 
d="M580 483l-42 -243q-7 -41 26 -41q44 0 70.5 44t26.5 123q0 103 -72.5 162.5t-185.5 59.5q-134 0 -217 -85t-83 -221q0 -61 18.5 -108.5t48.5 -77.5t70 -49.5t80.5 -27t83.5 -7.5q116 0 224 48v-75q-94 -47 -224 -47q-76 0 -143 20.5t-122 60.5t-87 108t-32 155
q0 161 107 271t276 110q148 0 242 -84.5t94 -212.5q0 -118 -59.5 -181.5t-149.5 -63.5q-78 0 -116 50q-32 -48 -99 -48q-64 0 -100.5 43.5t-36.5 110.5q0 88 52 151t134 63q27 0 51 -10.5t34 -25.5l6 28h125zM415 265l15 86q-9 31 -48 31q-31 0 -52.5 -27.5t-21.5 -66.5
q0 -26 13 -41t38 -15q36 0 56 33z" />
    <glyph glyph-name="Euro.lt" horiz-adv-x="520" 
d="M506 193q-15 -93 -68.5 -148t-139.5 -55q-85 0 -146.5 59.5t-82.5 159.5h-45v77h35v44h-35v77h45q22 100 83 158.5t146 58.5q86 0 139.5 -55t68.5 -148h-135q-14 64 -71 64q-56 0 -79 -78h117l-14 -77h-114v-44h106l-14 -77h-81q21 -81 79 -81q57 0 71 64z" />
    <glyph glyph-name="dollar.lt" horiz-adv-x="520" 
d="M203 -86v95q-74 14 -120.5 59.5t-58.5 115.5h156q19 -57 91 -57q32 0 51.5 14.5t19.5 38.5q0 23 -14 34.5t-46 18.5l-99 23q-148 36 -148 167q0 71 46 119.5t122 62.5v91h128v-94q134 -31 158 -167h-148q-21 52 -84 52q-31 0 -50 -13.5t-19 -36.5q0 -36 48 -48l109 -27
q151 -37 151 -172q0 -72 -45 -119.5t-120 -62.5v-94h-128z" />
    <glyph glyph-name="cent.lt" horiz-adv-x="520" 
d="M43 235q0 87 44 147.5t119 79.5v96h128v-96q62 -16 99 -61.5t44 -110.5h-151q-2 22 -17.5 36t-40.5 14q-32 0 -51.5 -28.5t-19.5 -76.5t19.5 -76t51.5 -28q25 0 40.5 13.5t17.5 35.5h151q-7 -65 -44 -110.5t-99 -61.5v-93h-128v92q-75 20 -119 80.5t-44 147.5z" />
    <glyph glyph-name="sterling.lt" horiz-adv-x="520" 
d="M244 422v-59h113v-119h-113v-23q0 -63 -21 -91h264v-130h-456v130h44q20 35 20 91v23h-64v119h64v54q0 91 54 149t146 58q86 0 137.5 -49.5t55.5 -130.5h-140q-3 50 -49 50q-55 0 -55 -72z" />
    <glyph glyph-name="yen.lt" horiz-adv-x="520" 
d="M42 244v92h95l-127 278h168l85 -203l85 203h162l-130 -278h96v-92h-139v-48h139v-92h-139v-104h-157v104h-138v92h138v48h-138z" />
    <glyph glyph-name="florin.lt" horiz-adv-x="520" 
d="M118 234v122h80l17 93q30 175 188 175q41 0 72 -12v-128q-18 9 -42 9q-51 0 -60 -53l-15 -84h78v-122h-99l-39 -222q-15 -87 -56 -131t-122 -44q-45 0 -76 12v114q18 -9 42 -9q23 0 34.5 13t16.5 40l40 227h-59z" />
    <glyph glyph-name="zero.lt" horiz-adv-x="520" 
d="M260 -10q-112 0 -176 87t-64 230t64 230t176 87t176 -87t64 -230t-64 -230t-176 -87zM260 483q-84 0 -84 -176t84 -176t84 176t-84 176z" />
    <glyph glyph-name="one.lt" horiz-adv-x="520" 
d="M60 0v138h149v302l-144 -71v153l192 92h108v-476h125v-138h-430z" />
    <glyph glyph-name="two.lt" horiz-adv-x="520" 
d="M315 423q0 25 -16 41t-42 16q-27 0 -43 -17.5t-18 -43.5h-165q9 89 70 147t156 58q101 0 160.5 -52.5t59.5 -138.5q0 -53 -30 -96.5t-88 -98.5l-101 -100h221v-138h-445v103l211 210l38 41.5t21.5 32t10.5 36.5z" />
    <glyph glyph-name="three.lt" horiz-adv-x="520" 
d="M213 253v115h35q35 0 56.5 15.5t21.5 46.5q0 26 -17.5 43t-47.5 17t-49 -19.5t-22 -48.5h-153q10 87 71.5 144.5t159.5 57.5q96 0 153 -52t57 -136q0 -39 -19 -74.5t-48 -51.5q36 -17 55.5 -52t19.5 -77q0 -84 -60 -137.5t-160 -53.5q-106 0 -168.5 56t-69.5 151h161
q2 -33 21 -52.5t54 -19.5q30 0 49.5 18t19.5 46q0 31 -22 47.5t-58 16.5h-40z" />
    <glyph glyph-name="four.lt" horiz-adv-x="520" 
d="M352 614l-169 -370h97v104h141v-104h80v-130h-80v-114h-138v114h-267v118l186 382h150z" />
    <glyph glyph-name="five.lt" horiz-adv-x="520" 
d="M266 278q-44 0 -73 -31h-134v367h384v-137h-253v-92q42 22 91 22q96 0 152 -56.5t56 -148.5q0 -96 -61 -154t-163 -58q-104 0 -167 56t-69 151h159q3 -31 24.5 -51t55.5 -20q32 0 52 21t20 55q0 33 -20 54.5t-54 21.5z" />
    <glyph glyph-name="seven.lt" horiz-adv-x="520" 
d="M487 509l-213 -509h-162l203 477h-284v137h456v-105z" />
    <glyph glyph-name="eight.lt" horiz-adv-x="520" 
d="M261 -10q-100 0 -166.5 49t-66.5 131q0 52 28 89.5t72 52.5q-38 18 -59 53t-21 80q0 83 62 131t151 48t151 -48t62 -131q0 -45 -21.5 -80t-58.5 -53q43 -15 71 -52.5t28 -89.5q0 -83 -66 -131.5t-166 -48.5zM261 378q30 0 50 17.5t20 44.5q0 29 -20 46.5t-50 17.5
t-50 -17.5t-20 -46.5q0 -27 20 -44.5t50 -17.5zM261 114q34 0 56.5 19t22.5 49q0 31 -22.5 49.5t-56.5 18.5t-56.5 -18.5t-22.5 -49.5q0 -30 22.5 -49t56.5 -19z" />
    <glyph glyph-name="period.tab" horiz-adv-x="260" 
d="M37 87q0 39 26.5 66t65.5 27t66 -26.5t27 -66.5t-27 -67t-66 -27q-38 0 -65 27t-27 67z" />
    <glyph glyph-name="comma.tab" horiz-adv-x="260" 
d="M30 -105l75 115q-29 6 -48.5 27.5t-19.5 54.5q0 38 26.5 62.5t66.5 24.5q39 0 65.5 -26t26.5 -71q0 -46 -38 -104l-55 -83h-99z" />
    <glyph glyph-name="colon.tab" horiz-adv-x="260" 
d="M37 352q0 40 26.5 66.5t65.5 26.5t66 -26.5t27 -66.5t-27 -67t-66 -27q-38 0 -65 27t-27 67zM37 87q0 39 26.5 66t65.5 27t66 -26.5t27 -66.5t-27 -67t-66 -27q-38 0 -65 27t-27 67z" />
    <glyph glyph-name="semicolon.tab" horiz-adv-x="260" 
d="M37 352q0 40 26.5 66.5t65.5 26.5t66 -26.5t27 -66.5t-27 -67t-66 -27q-38 0 -65 27t-27 67zM30 -105l75 115q-29 6 -48.5 27.5t-19.5 54.5q0 38 26.5 62.5t66.5 24.5q39 0 65.5 -26t26.5 -71q0 -46 -38 -104l-55 -83h-99z" />
    <glyph glyph-name="space.tab" horiz-adv-x="260" 
 />
    <glyph glyph-name="percent.lt" horiz-adv-x="520" 
d="M19 500q0 52 36 88t87 36t87.5 -36t36.5 -88q0 -51 -36.5 -86.5t-87.5 -35.5t-87 35.5t-36 86.5zM25 0l382 614h88l-382 -614h-88zM97 500q0 -19 13 -31.5t32 -12.5t32.5 12.5t13.5 31.5t-13.5 32.5t-32.5 13.5t-32 -13.5t-13 -32.5zM501 114q0 -52 -36 -88t-87 -36
t-87.5 36t-36.5 88q0 51 36.5 86.5t87.5 35.5t87 -35.5t36 -86.5zM423 114q0 19 -13 31.5t-32 12.5t-32.5 -12.5t-13.5 -31.5t13.5 -32.5t32.5 -13.5t32 13.5t13 32.5z" />
    <glyph glyph-name="perthousand.lt" horiz-adv-x="800" 
d="M33 500q0 52 36 88t86 36q52 0 88 -36t36 -88q0 -51 -36 -86.5t-88 -35.5q-50 0 -86 35.5t-36 86.5zM26 0l407 614h88l-407 -614h-88zM111 500q0 -19 13 -31.5t31 -12.5q20 0 33 12.5t13 31.5t-13.5 32.5t-32.5 13.5q-18 0 -31 -13.5t-13 -32.5zM779 114q0 -52 -35.5 -88
t-86.5 -36q-52 0 -88 36t-36 88q0 51 36 86.5t88 35.5q51 0 86.5 -35.5t35.5 -86.5zM514 114q0 -52 -35.5 -88t-86.5 -36q-52 0 -88 36t-36 88q0 51 36 86.5t88 35.5q51 0 86.5 -35.5t35.5 -86.5zM701 114q0 19 -13 31.5t-31 12.5q-19 0 -32.5 -12.5t-13.5 -31.5t13.5 -32.5
t32.5 -13.5q18 0 31 13.5t13 32.5zM436 114q0 19 -12.5 31.5t-31.5 12.5t-32.5 -12.5t-13.5 -31.5t13.5 -32.5t32.5 -13.5t31.5 13.5t12.5 32.5z" />
    <glyph glyph-name="plus.lt" horiz-adv-x="520" 
d="M202 526h116v-169h168v-116h-168v-168h-116v168h-169v116h169v169z" />
    <glyph glyph-name="minus.lt" horiz-adv-x="520" 
d="M33 241v116h453v-116h-453z" />
    <glyph glyph-name="multiply.lt" horiz-adv-x="520" 
d="M179 298l-121 120l81 81l121 -120l120 120l81 -81l-120 -120l120 -120l-81 -81l-120 120l-121 -120l-81 81z" />
    <glyph glyph-name="divide.lt" horiz-adv-x="520" 
d="M179 479q0 33 24 56t57 23t57 -23t24 -56t-24 -56t-57 -23t-57 23t-24 56zM33 241v116h453v-116h-453zM179 119q0 33 24 56t57 23t57 -23t24 -56t-24 -56t-57 -23t-57 23t-24 56z" />
    <glyph glyph-name="equal.lt" horiz-adv-x="520" 
d="M33 340v105h453v-105h-453zM33 158v103h453v-103h-453z" />
    <glyph glyph-name="less.lt" horiz-adv-x="520" 
d="M87 225v144l346 153v-129l-237 -96l237 -95v-130z" />
    <glyph glyph-name="greater.lt" horiz-adv-x="520" 
d="M433 369v-144l-346 -153v130l236 95l-236 96v129z" />
    <glyph glyph-name="plusminus.lt" horiz-adv-x="520" 
d="M207 561h105v-128h166v-104h-166v-128h-105v128h-165v104h165v128zM42 48v105h436v-105h-436z" />
    <glyph glyph-name="lessequal.lt" horiz-adv-x="520" 
d="M87 298v139l346 122v-123l-234 -68l234 -69v-122zM87 42v112h346v-112h-346z" />
    <glyph glyph-name="greaterequal.lt" horiz-adv-x="520" 
d="M433 437v-139l-346 -121v122l233 69l-233 68v123zM433 154v-112h-346v112h346z" />
    <glyph glyph-name="notequal.lt" horiz-adv-x="520" 
d="M33 340v104h269l60 93h96l-60 -93h88v-104h-154l-51 -79h205v-103h-271l-59 -93h-96l59 93h-86v103h152l51 79h-203z" />
    <glyph glyph-name="approxequal.lt" horiz-adv-x="520" 
d="M33 311v109q63 40 122 40q38 0 102.5 -19.5t103.5 -19.5q62 0 125 41v-109q-65 -41 -125 -41q-39 0 -103.5 20t-102.5 20q-60 0 -122 -41zM33 139v107q62 42 122 42q38 0 102.5 -20.5t103.5 -20.5q61 0 125 42v-109q-63 -40 -125 -40q-39 0 -103.5 19.5t-102.5 19.5
q-59 0 -122 -40z" />
    <glyph glyph-name="dollar.alt" horiz-adv-x="307" 
d="M122 201v57q-42 8 -69.5 34.5t-34.5 66.5h88q15 -32 53 -32q43 0 43 32q0 27 -35 36l-58 13q-86 19 -86 99q0 43 27 71.5t72 36.5v55h70v-56q77 -17 94 -99h-85q-11 32 -50 32q-40 0 -40 -32q0 -24 29 -31l61 -15q88 -23 88 -104q0 -43 -26.5 -71t-70.5 -36v-57h-70z" />
    <glyph glyph-name="six.lt" horiz-adv-x="520" 
d="M260 -10q-100 0 -166.5 65t-66.5 163q0 75 58 173l129 223h171l-105 -185q8 2 15 2q89 -7 144 -67t55 -146q0 -98 -66.5 -163t-167.5 -65zM349 218q0 38 -25 64t-64 26q-37 0 -62.5 -26t-25.5 -64t25.5 -63.5t62.5 -25.5q39 0 64 25.5t25 63.5z" />
    <glyph glyph-name="nine.lt" horiz-adv-x="520" 
d="M260 624q101 0 167.5 -65t66.5 -163q0 -73 -59 -173l-129 -223h-171l105 185q-8 -2 -15 -2q-89 7 -144 67t-55 146q0 98 66.5 163t167.5 65zM171 396q0 -38 25 -64t64 -26q37 0 62.5 26t25.5 64t-25 63.5t-63 25.5q-39 0 -64 -25.5t-25 -63.5z" />
    </font>
</defs>
</svg>
