<?xml version="1.0" standalone="no"?>
<!DOCTYPE svg PUBLIC "-//W3C//DTD SVG 1.1//EN" "http://www.w3.org/Graphics/SVG/1.1/DTD/svg11.dtd" >
<svg xmlns="http://www.w3.org/2000/svg" xmlns:xlink="http://www.w3.org/1999/xlink" version="1.1">
<metadata>
Created by FontForge 20161116 at Thu Apr  2 17:02:49 2015
 By Jimmy Wärting
(c) 2011 Klim Type Foundry. All rights reserved.
</metadata>
<defs>
<font id="JFCalibre-Regular" horiz-adv-x="500" >
  <font-face 
    font-family="JFCalibre"
    font-weight="400"
    font-stretch="normal"
    units-per-em="1000"
    panose-1="2 11 5 3 3 2 2 6 2 3"
    ascent="650"
    descent="-350"
    x-height="444"
    cap-height="614"
    bbox="-120 -201 908 894"
    underline-thickness="30"
    underline-position="-100"
    unicode-range="U+0020-FB02"
  />
<missing-glyph horiz-adv-x="608" 
 />
    <glyph glyph-name="f_f" unicode="ff" horiz-adv-x="550" 
d="M550 649v-68q-20 12 -48 12q-33 0 -52.5 -21t-19.5 -60v-68h100v-64h-100v-380h-75v380h-186v-380h-74v380h-75v64h75v68q0 65 38 103t98 38q34 0 58 -10v-68q-19 12 -47 12q-34 0 -53.5 -21t-19.5 -60v-62h186v74q0 65 38 103t98 38q35 0 59 -10z" />
    <glyph glyph-name=".notdef" horiz-adv-x="608" 
 />
    <glyph glyph-name=".null" horiz-adv-x="0" 
 />
    <glyph glyph-name="nonmarkingreturn" horiz-adv-x="333" 
 />
    <glyph glyph-name="space" unicode=" " horiz-adv-x="221" 
 />
    <glyph glyph-name="exclam" unicode="!" horiz-adv-x="203" 
d="M74 193l-17 421h89l-18 -421h-54zM48 49q0 23 15.5 39t37.5 16q23 0 38.5 -16t15.5 -39t-15.5 -38.5t-38.5 -15.5q-22 0 -37.5 15.5t-15.5 38.5z" />
    <glyph glyph-name="quotedbl" unicode="&#x22;" horiz-adv-x="265" 
d="M159 395v219h66v-219h-66zM40 395v219h66v-219h-66z" />
    <glyph glyph-name="numbersign" unicode="#" horiz-adv-x="576" 
d="M234 379l-34 -144h141l34 144h-141zM511 235l-12 -59h-104l-42 -176h-68l42 176h-141l-42 -176h-67l42 176h-96l13 59h97l34 144h-102l12 59h104l42 176h68l-43 -176h141l43 176h67l-42 -176h95l-12 -59h-97l-34 -144h102z" />
    <glyph glyph-name="dollar" unicode="$" horiz-adv-x="477" 
d="M210 -89v99q-72 8 -120.5 48.5t-62.5 107.5h76q32 -92 143 -92q57 0 92 26.5t35 72.5q0 68 -91 91l-102 27q-139 35 -139 152q0 68 47 112.5t122 49.5v90h69v-93q129 -22 160 -149h-74q-29 88 -136 88q-52 0 -84 -25t-32 -69q0 -36 22.5 -56t69.5 -33l97 -25
q142 -37 142 -157q0 -70 -45.5 -114t-119.5 -52v-99h-69z" />
    <glyph glyph-name="percent" unicode="%" horiz-adv-x="642" 
d="M299 490q0 -56 -38.5 -94.5t-94.5 -38.5t-94.5 38.5t-38.5 94.5t38.5 94.5t94.5 38.5t94.5 -38.5t38.5 -94.5zM99 0l383 614h62l-383 -614h-62zM92 490q0 -31 21.5 -52.5t52.5 -21.5t53 21.5t22 52.5t-22 53t-53 22t-52.5 -22t-21.5 -53zM609 124q0 -56 -38.5 -94.5
t-94.5 -38.5t-94.5 38.5t-38.5 94.5t38.5 94.5t94.5 38.5t94.5 -38.5t38.5 -94.5zM550 124q0 31 -21.5 52.5t-52.5 21.5t-53 -21.5t-22 -52.5t22 -53t53 -22t52.5 22t21.5 53z" />
    <glyph glyph-name="ampersand" unicode="&#x26;" horiz-adv-x="585" 
d="M238 54q82 0 134 55l-179 191q-36 -14 -59 -47t-23 -74q0 -55 35.5 -90t91.5 -35zM434 474h-75q-2 39 -25.5 63.5t-63.5 24.5q-41 0 -68 -25t-27 -67q0 -21 11 -43t21 -34t34 -38l172 -183q26 60 29 136h70q-3 -104 -53 -186l115 -122h-99l-61 64q-73 -73 -176 -73
q-87 0 -143 53t-56 135q0 54 31 99t81 69q-49 60 -49 121q0 71 47.5 113t120.5 42q75 0 118 -42t46 -107z" />
    <glyph glyph-name="quotesingle" unicode="'" horiz-adv-x="148" 
d="M40 395v219h68v-219h-68z" />
    <glyph glyph-name="parenleft" unicode="(" horiz-adv-x="321" 
d="M30 283q0 137 72.5 236t195.5 131v-80q-84 -21 -138.5 -98t-54.5 -189t54.5 -189t138.5 -98v-80q-123 32 -195.5 131t-72.5 236z" />
    <glyph glyph-name="parenright" unicode=")" horiz-adv-x="321" 
d="M291 283q0 -137 -72.5 -236t-195.5 -131v80q84 21 138.5 98t54.5 189t-54.5 189t-138.5 98v80q123 -32 195.5 -131t72.5 -236z" />
    <glyph glyph-name="asterisk" unicode="*" horiz-adv-x="332" 
d="M121 506l-90 53l22 38l91 -52v104h44v-104l91 52l22 -38l-91 -53l91 -52l-22 -38l-91 52v-105h-44v105l-91 -52l-22 38z" />
    <glyph glyph-name="plus" unicode="+" horiz-adv-x="540" 
d="M239 494h62v-166h166v-62h-166v-166h-62v166h-166v62h166v166z" />
    <glyph glyph-name="comma" unicode="," horiz-adv-x="171" 
d="M13 -107l63 106q-44 7 -44 50q0 23 15.5 38t38.5 15t38 -15.5t15 -42.5q0 -28 -22 -63l-53 -88h-51z" />
    <glyph glyph-name="hyphen" unicode="-" horiz-adv-x="321" 
d="M40 226v70h241v-70h-241z" />
    <glyph glyph-name="period" unicode="." horiz-adv-x="171" 
d="M32 49q0 23 15.5 39t38.5 16q22 0 37.5 -16t15.5 -39t-15.5 -38.5t-37.5 -15.5q-23 0 -38.5 15.5t-15.5 38.5z" />
    <glyph glyph-name="slash" unicode="/" horiz-adv-x="333" 
d="M5 -84l248 734h75l-248 -734h-75z" />
    <glyph glyph-name="zero" unicode="0" horiz-adv-x="538" 
d="M269 -9q-102 0 -165.5 87.5t-63.5 228.5t63.5 228.5t165.5 87.5t165.5 -87.5t63.5 -228.5t-63.5 -228.5t-165.5 -87.5zM269 552q-73 0 -112.5 -67t-39.5 -178t39.5 -178t112.5 -67q72 0 112 67.5t40 177.5t-40 177.5t-112 67.5z" />
    <glyph glyph-name="one" unicode="1" horiz-adv-x="329" 
d="M254 615v-615h-77v520l-152 -78v80l182 93h47z" />
    <glyph glyph-name="two" unicode="2" horiz-adv-x="457" 
d="M341 449q0 47 -30 75.5t-81 28.5q-54 0 -84.5 -33.5t-35.5 -89.5h-81q9 87 63 140t138 53q87 0 137 -47t50 -126q0 -14 -3.5 -29t-7 -26t-13 -27.5t-14.5 -24.5t-20 -26l-20 -24t-23.5 -26.5t-22.5 -25.5l-156 -171h293v-70h-401v52l198 218q45 50 61 68t34.5 51t18.5 60
z" />
    <glyph glyph-name="three" unicode="3" horiz-adv-x="460" 
d="M184 281v67h41q50 0 82.5 27.5t32.5 75.5q0 45 -30.5 74.5t-81.5 29.5t-83 -30t-39 -79h-77q11 79 65 128t134 49q86 0 136.5 -46.5t50.5 -121.5q0 -50 -26.5 -88.5t-69.5 -51.5q50 -14 79 -52.5t29 -90.5q0 -78 -53.5 -129.5t-143.5 -51.5t-147.5 50t-65.5 134h77
q8 -54 43 -85t92 -31q55 0 89 30.5t34 81.5q0 50 -35.5 80t-89.5 30h-43z" />
    <glyph glyph-name="four" unicode="4" horiz-adv-x="509" 
d="M338 614l-229 -409h196v148h73v-148h108v-66h-108v-139h-73v139h-283v56l236 419h80z" />
    <glyph glyph-name="five" unicode="5" horiz-adv-x="469" 
d="M237 330q-65 0 -109 -53h-62v337h336v-70h-270v-185q43 39 112 39q85 0 139 -57.5t54 -146.5q0 -87 -56 -145t-143 -58q-88 0 -144 49t-67 135h77q21 -116 134 -116q55 0 90 38.5t35 96.5t-35 97t-91 39z" />
    <glyph glyph-name="six" unicode="6" horiz-adv-x="482" 
d="M241 -9q-90 0 -149 59.5t-59 149.5q0 76 54 170l140 244h81l-129 -224q29 18 67 18q88 0 145.5 -59.5t57.5 -148.5t-59.5 -149t-148.5 -60zM377 200q0 60 -39 100.5t-97 40.5t-97 -40.5t-39 -100.5t39 -100.5t97 -40.5t97 40.5t39 100.5z" />
    <glyph glyph-name="seven" unicode="7" horiz-adv-x="440" 
d="M417 558l-254 -558h-82l251 545h-317v69h402v-56z" />
    <glyph glyph-name="eight" unicode="8" horiz-adv-x="487" 
d="M243 -9q-90 0 -149.5 49t-59.5 127q0 58 33.5 100t86.5 56q-44 15 -71 52t-27 86q0 73 53.5 117.5t133.5 44.5q81 0 134.5 -44.5t53.5 -117.5q0 -49 -27.5 -85.5t-70.5 -52.5q52 -14 86 -56t34 -100q0 -78 -59.5 -127t-150.5 -49zM243 356q49 0 81 28t32 73t-32 73.5
t-81 28.5q-48 0 -80 -28.5t-32 -73.5q0 -44 32 -72.5t80 -28.5zM243 55q59 0 96.5 33t37.5 85t-37.5 84.5t-96.5 32.5q-58 0 -95.5 -32.5t-37.5 -84.5t37.5 -85t95.5 -33z" />
    <glyph glyph-name="nine" unicode="9" horiz-adv-x="482" 
d="M241 623q90 0 149 -59.5t59 -149.5q0 -76 -54 -170l-140 -244h-81l129 224q-29 -18 -67 -18q-88 0 -145.5 59.5t-57.5 148.5t59.5 149t148.5 60zM105 414q0 -60 39 -100.5t97 -40.5t97 40.5t39 100.5t-39 100.5t-97 40.5t-97 -40.5t-39 -100.5z" />
    <glyph glyph-name="colon" unicode=":" horiz-adv-x="171" 
d="M32 363q0 23 15.5 39t38.5 16q22 0 37.5 -16t15.5 -39t-15.5 -38.5t-37.5 -15.5q-23 0 -38.5 15.5t-15.5 38.5zM32 49q0 23 15.5 39t38.5 16q22 0 37.5 -16t15.5 -39t-15.5 -38.5t-37.5 -15.5q-23 0 -38.5 15.5t-15.5 38.5z" />
    <glyph glyph-name="semicolon" unicode=";" horiz-adv-x="171" 
d="M32 363q0 23 15.5 39t38.5 16q22 0 37.5 -16t15.5 -39t-15.5 -38.5t-37.5 -15.5q-23 0 -38.5 15.5t-15.5 38.5zM13 -107l63 106q-44 7 -44 50q0 23 15.5 38t38.5 15t38 -15.5t15 -42.5q0 -28 -22 -63l-53 -88h-51z" />
    <glyph glyph-name="less" unicode="&#x3c;" horiz-adv-x="423" 
d="M62 256v78l296 151v-71l-238 -119l238 -119v-71z" />
    <glyph glyph-name="equal" unicode="=" horiz-adv-x="551" 
d="M79 337v60h394v-60h-394zM79 199v58h394v-58h-394z" />
    <glyph glyph-name="greater" unicode="&#x3e;" horiz-adv-x="423" 
d="M362 334v-78l-297 -151v71l238 119l-238 119v71z" />
    <glyph glyph-name="question" unicode="?" horiz-adv-x="432" 
d="M408 451q0 -12 -1.5 -23.5t-6.5 -23.5t-7.5 -20t-12 -21t-12 -18t-15.5 -19.5t-14.5 -16.5t-16.5 -18l-16 -16q-41 -44 -43 -82h-74q2 36 14.5 61t43.5 59q5 6 26.5 28.5t30.5 34t18.5 32.5t9.5 42q0 47 -30 75t-81 28q-53 0 -84 -33.5t-36 -89.5h-81q9 87 63.5 140
t137.5 53q87 0 137 -46.5t50 -125.5zM170 49q0 23 15.5 39t37.5 16q23 0 38.5 -16t15.5 -39t-15.5 -38.5t-38.5 -15.5q-22 0 -37.5 15.5t-15.5 38.5z" />
    <glyph glyph-name="at" unicode="@" horiz-adv-x="774" 
d="M560 381l-43 -243q-9 -54 40 -54q55 0 90 50t35 137q0 108 -76 173.5t-195 65.5q-140 0 -228.5 -91t-88.5 -231q0 -76 28 -134t75.5 -89.5t101 -47t113.5 -15.5q116 0 217 46v-57q-94 -45 -217 -45q-60 0 -114.5 12.5t-103 39t-84.5 66t-57 97t-21 127.5q0 160 106 269
t273 109q146 0 238.5 -84t92.5 -211q0 -115 -57.5 -178t-137.5 -63q-36 0 -63 15.5t-37 42.5q-15 -25 -43.5 -41t-58.5 -16q-61 0 -96.5 42t-35.5 106q0 85 51.5 148t130.5 63q63 0 91 -46l7 37h67zM450 151l23 124q-9 23 -28.5 38t-45.5 15q-52 0 -84.5 -44.5t-32.5 -101.5
q0 -40 20.5 -64.5t56.5 -24.5q53 0 91 58z" />
    <glyph glyph-name="A" unicode="A" horiz-adv-x="596" 
d="M297 516l-100 -262h200zM261 614h74l240 -614h-80l-71 185h-253l-70 -185h-80z" />
    <glyph glyph-name="B" unicode="B" horiz-adv-x="538" 
d="M388 318q49 -13 80 -53t31 -92q0 -83 -54 -128t-150 -45h-222v614h202q96 0 149.5 -42t53.5 -121q0 -52 -25.5 -86.5t-64.5 -46.5zM150 347h125q127 0 127 100q0 98 -127 98h-125v-198zM150 281v-212h145q61 0 94 28.5t33 77.5q0 50 -33 78t-94 28h-145z" />
    <glyph glyph-name="C" unicode="C" horiz-adv-x="586" 
d="M37 307q0 141 78.5 228.5t196.5 87.5q95 0 157.5 -51t81.5 -138h-78q-42 118 -161 118q-88 0 -142 -67.5t-54 -177.5q0 -109 54 -177t142 -68q120 0 161 119h78q-19 -88 -81.5 -139t-157.5 -51q-118 0 -196.5 87.5t-78.5 228.5z" />
    <glyph glyph-name="D" unicode="D" horiz-adv-x="605" 
d="M73 0v614h197q135 0 216.5 -83.5t81.5 -223.5t-81.5 -223.5t-216.5 -83.5h-197zM152 71h117q104 0 162.5 63.5t58.5 172.5t-59 173t-162 64h-117v-473z" />
    <glyph glyph-name="E" unicode="E" horiz-adv-x="515" 
d="M73 614h391v-70h-313v-194h284v-70h-284v-209h313v-71h-391v614z" />
    <glyph glyph-name="F" unicode="F" horiz-adv-x="485" 
d="M152 0h-79v614h375v-70h-296v-207h278v-70h-278v-267z" />
    <glyph glyph-name="G" unicode="G" horiz-adv-x="610" 
d="M498 235h-147v68h222v-42q0 -122 -70.5 -196t-183.5 -74q-122 0 -202 87t-80 229q0 141 80 228.5t200 87.5q96 0 159.5 -51t82.5 -138h-79q-43 118 -163 118q-90 0 -145.5 -67.5t-55.5 -177.5t56 -178t147 -68q79 0 125.5 46.5t53.5 127.5z" />
    <glyph glyph-name="H" unicode="H" horiz-adv-x="651" 
d="M499 614h79v-614h-79v280h-347v-280h-79v614h79v-263h347v263z" />
    <glyph glyph-name="I" unicode="I" horiz-adv-x="225" 
d="M152 614v-614h-79v614h79z" />
    <glyph glyph-name="J" unicode="J" horiz-adv-x="479" 
d="M17 174h81q6 -52 37 -81.5t82 -29.5q122 0 122 141v410h79v-410q0 -104 -54.5 -158.5t-145.5 -54.5q-89 0 -142 50t-59 133z" />
    <glyph glyph-name="K" unicode="K" horiz-adv-x="564" 
d="M152 614v-307l286 307h100l-263 -280l272 -334h-98l-231 280l-66 -71v-209h-79v614h79z" />
    <glyph glyph-name="L" unicode="L" horiz-adv-x="504" 
d="M73 0v614h79v-543h313v-71h-392z" />
    <glyph glyph-name="M" unicode="M" horiz-adv-x="736" 
d="M396 0h-54l-194 468v-468h-75v614h89l208 -504l207 504h86v-614h-75v468z" />
    <glyph glyph-name="N" unicode="N" horiz-adv-x="623" 
d="M550 614v-614h-58l-343 488v-488h-76v614h75l327 -467v467h75z" />
    <glyph glyph-name="O" unicode="O" horiz-adv-x="629" 
d="M592 307q0 -139 -78 -227.5t-200 -88.5q-121 0 -199 88.5t-78 227.5t78 227.5t199 88.5q122 0 200 -88.5t78 -227.5zM513 307q0 108 -55 176.5t-144 68.5q-88 0 -143 -68.5t-55 -176.5t55 -176.5t143 -68.5q89 0 144 68.5t55 176.5z" />
    <glyph glyph-name="P" unicode="P" horiz-adv-x="537" 
d="M303 246h-151v-246h-79v614h230q95 0 148.5 -47.5t53.5 -136.5t-54 -136.5t-148 -47.5zM427 430q0 54 -32.5 84.5t-93.5 30.5h-149v-229h149q61 0 93.5 30.5t32.5 83.5z" />
    <glyph glyph-name="Q" unicode="Q" horiz-adv-x="628" 
d="M500 -36l-50 63q-63 -36 -136 -36q-121 0 -199 88.5t-78 227.5t78 227.5t199 88.5q122 0 200 -88.5t78 -227.5q0 -147 -89 -238l51 -64zM513 307q0 108 -55 176.5t-144 68.5q-88 0 -143 -68.5t-55 -176.5t55 -176.5t143 -68.5q53 0 92 21l-52 66l54 40l50 -64
q55 66 55 182z" />
    <glyph glyph-name="R" unicode="R" horiz-adv-x="552" 
d="M152 545v-218h147q60 0 92.5 29t32.5 80t-32.5 80t-92.5 29h-147zM261 260h-109v-260h-79v614h228q94 0 147.5 -46t53.5 -132q0 -75 -41 -119t-115 -54l181 -263h-90z" />
    <glyph glyph-name="S" unicode="S" horiz-adv-x="509" 
d="M23 160h80q35 -102 156 -102q61 0 98.5 28.5t37.5 78.5q0 37 -23 60.5t-75 36.5l-110 29q-147 38 -147 158q0 77 57 125.5t145 48.5q93 0 150 -43.5t75 -118.5h-79q-33 95 -146 95q-56 0 -91.5 -27.5t-35.5 -73.5q0 -38 24 -59.5t74 -34.5l105 -27q153 -39 153 -165
q0 -82 -59.5 -130t-152.5 -48t-156 44.5t-80 124.5z" />
    <glyph glyph-name="T" unicode="T" horiz-adv-x="567" 
d="M30 544v70h507v-70h-214v-544h-79v544h-214z" />
    <glyph glyph-name="U" unicode="U" horiz-adv-x="607" 
d="M303 -9q-108 0 -174 65t-66 188v370h78v-361q0 -96 43 -144t119 -48t119 48t43 144v361h79v-371q0 -122 -66 -187t-175 -65z" />
    <glyph glyph-name="V" unicode="V" horiz-adv-x="590" 
d="M332 0h-74l-237 614h83l192 -510l193 510h80z" />
    <glyph glyph-name="W" unicode="W" horiz-adv-x="767" 
d="M353 614h63l130 -488l126 488h76l-163 -614h-72l-129 479l-131 -479h-71l-163 614h78l126 -488z" />
    <glyph glyph-name="X" unicode="X" horiz-adv-x="557" 
d="M532 614l-209 -300l218 -314h-90l-174 250l-173 -250h-87l217 312l-209 302h90l164 -239l166 239h87z" />
    <glyph glyph-name="Y" unicode="Y" horiz-adv-x="557" 
d="M280 324l177 290h84l-224 -361v-253h-78v253l-222 361h86z" />
    <glyph glyph-name="Z" unicode="Z" horiz-adv-x="534" 
d="M492 71v-71h-451v57l349 487h-344v70h442v-56l-348 -487h352z" />
    <glyph glyph-name="bracketleft" unicode="[" horiz-adv-x="313" 
d="M145 582v-598h145v-68h-217v734h217v-68h-145z" />
    <glyph glyph-name="backslash" unicode="\" horiz-adv-x="333" 
d="M80 650l248 -734h-75l-248 734h75z" />
    <glyph glyph-name="bracketright" unicode="]" horiz-adv-x="313" 
d="M168 -16v598h-145v68h217v-734h-217v68h145z" />
    <glyph glyph-name="asciicircum" unicode="^" horiz-adv-x="357" 
d="M142 614h74l124 -194h-78l-83 128l-83 -128h-79z" />
    <glyph glyph-name="underscore" unicode="_" horiz-adv-x="367" 
d="M20 -110v68h327v-68h-327z" />
    <glyph glyph-name="grave" unicode="`" 
d="M329 516h-69l-89 134h78z" />
    <glyph glyph-name="a" unicode="a" horiz-adv-x="502" 
d="M360 132v180q-17 34 -47.5 53.5t-66.5 19.5q-62 0 -98.5 -45.5t-36.5 -117.5t36.5 -117.5t98.5 -45.5q36 0 66.5 19.5t47.5 53.5zM360 0v52q-18 -26 -52 -43.5t-73 -17.5q-94 0 -147 66t-53 165q0 98 53 164.5t147 66.5q39 0 73 -17.5t52 -43.5v52h76v-444h-76z" />
    <glyph glyph-name="b" unicode="b" horiz-adv-x="502" 
d="M142 52v-52h-76v650h76v-258q18 26 52 43.5t73 17.5q94 0 147 -66.5t53 -164.5q0 -99 -53 -165t-147 -66q-39 0 -73 17.5t-52 43.5zM142 312v-180q17 -34 47.5 -53.5t66.5 -19.5q62 0 98.5 45.5t36.5 117.5t-36.5 117.5t-98.5 45.5q-36 0 -66.5 -19.5t-47.5 -53.5z" />
    <glyph glyph-name="c" unicode="c" horiz-adv-x="446" 
d="M35 222q0 103 56 167t146 64q73 0 119.5 -39t58.5 -104h-77q-8 36 -34.5 56.5t-66.5 20.5q-57 0 -91.5 -46t-34.5 -119t34.5 -119t91.5 -46q40 0 66.5 20.5t34.5 56.5h77q-12 -65 -58.5 -104t-119.5 -39q-90 0 -146 64t-56 167z" />
    <glyph glyph-name="d" unicode="d" horiz-adv-x="502" 
d="M360 132v180q-17 34 -47.5 53.5t-66.5 19.5q-62 0 -98.5 -45.5t-36.5 -117.5t36.5 -117.5t98.5 -45.5q36 0 66.5 19.5t47.5 53.5zM360 0v52q-18 -26 -52 -43.5t-73 -17.5q-94 0 -147 66t-53 165q0 98 53 164.5t147 66.5q39 0 73 -17.5t52 -43.5v258h76v-650h-76z" />
    <glyph glyph-name="e" unicode="e" horiz-adv-x="457" 
d="M347 133h71q-12 -65 -59 -103.5t-120 -38.5q-91 0 -147.5 63.5t-56.5 166.5q0 101 56 166.5t146 65.5q89 0 138 -59.5t49 -158.5v-27h-314q1 -70 36.5 -111.5t92.5 -41.5q42 0 70.5 20.5t37.5 57.5zM238 389q-50 0 -84 -33t-42 -91h236q-1 53 -29 88.5t-81 35.5z" />
    <glyph glyph-name="f" unicode="f" horiz-adv-x="289" 
d="M289 649v-68q-19 12 -47 12q-34 0 -53.5 -21t-19.5 -60v-68h100v-64h-100v-380h-74v380h-75v64h75v74q0 65 38 103t98 38q34 0 58 -10z" />
    <glyph glyph-name="g" unicode="g" horiz-adv-x="501" 
d="M358 140v177q-38 69 -113 69q-62 0 -97.5 -44t-35.5 -114t35.5 -113.5t97.5 -43.5q75 0 113 69zM358 30v33q-18 -25 -51.5 -42.5t-72.5 -17.5q-93 0 -146 66t-53 159q0 94 53 159.5t146 65.5q39 0 72.5 -17t51.5 -42v50h76v-409q0 -106 -54.5 -160.5t-143.5 -54.5
q-80 0 -129.5 39t-60.5 108h74q19 -83 116 -83q122 0 122 146z" />
    <glyph glyph-name="h" unicode="h" horiz-adv-x="489" 
d="M67 0v650h75v-262q21 28 55.5 46.5t75.5 18.5q74 0 115 -44t41 -118v-291h-76v279q0 48 -24.5 76.5t-73.5 28.5q-39 0 -70 -23.5t-43 -59.5v-301h-75z" />
    <glyph glyph-name="i" unicode="i" horiz-adv-x="209" 
d="M153 578q0 -20 -14.5 -34t-34.5 -14t-34 14t-14 34t14 34t34 14t34.5 -14t14.5 -34zM142 444v-444h-75v444h75z" />
    <glyph glyph-name="j" unicode="j" horiz-adv-x="207" 
d="M153 578q0 -20 -14.5 -34t-34.5 -14t-34 14t-14 34t14 34t34 14t34.5 -14t14.5 -34zM142 444v-495q0 -62 -33.5 -95t-95.5 -33q-21 0 -32 4v64q18 -3 26 -3q60 0 60 68v490h75z" />
    <glyph glyph-name="k" unicode="k" horiz-adv-x="464" 
d="M359 0l-169 205l-48 -46v-159h-75v650h75v-403l203 197h99l-200 -192l207 -252h-92z" />
    <glyph glyph-name="l" unicode="l" horiz-adv-x="209" 
d="M142 650v-650h-75v650h75z" />
    <glyph glyph-name="m" unicode="m" horiz-adv-x="717" 
d="M382 382q50 71 135 71q67 0 103.5 -43t36.5 -116v-294h-76v282q0 48 -21 75.5t-63 27.5q-34 0 -61 -21.5t-37 -57.5v-306h-75v282q0 48 -21 75.5t-63 27.5q-34 0 -61 -21.5t-37 -57.5v-306h-75v444h75v-52q38 61 120 61q84 0 120 -71z" />
    <glyph glyph-name="n" unicode="n" horiz-adv-x="489" 
d="M67 0v444h75v-56q21 28 55.5 46.5t75.5 18.5q74 0 115 -44t41 -118v-291h-76v279q0 48 -24.5 76.5t-73.5 28.5q-39 0 -70 -23.5t-43 -59.5v-301h-75z" />
    <glyph glyph-name="o" unicode="o" horiz-adv-x="478" 
d="M443 222q0 -102 -56.5 -166.5t-147.5 -64.5t-147.5 64.5t-56.5 166.5t56.5 166.5t147.5 64.5t147.5 -64.5t56.5 -166.5zM367 222q0 74 -34.5 119.5t-93.5 45.5t-93.5 -45.5t-34.5 -119.5t34.5 -119.5t93.5 -45.5t93.5 45.5t34.5 119.5z" />
    <glyph glyph-name="p" unicode="p" horiz-adv-x="502" 
d="M142 312v-180q17 -34 47.5 -53.5t66.5 -19.5q62 0 98.5 45.5t36.5 117.5t-36.5 117.5t-98.5 45.5q-36 0 -66.5 -19.5t-47.5 -53.5zM142 52v-222h-75v614h75v-52q19 26 52.5 43.5t72.5 17.5q94 0 147 -66.5t53 -164.5t-53 -164.5t-147 -66.5q-39 0 -72.5 17.5t-52.5 43.5z
" />
    <glyph glyph-name="q" unicode="q" horiz-adv-x="502" 
d="M360 -170v222q-19 -26 -52.5 -43.5t-72.5 -17.5q-94 0 -147 66.5t-53 164.5t53 164.5t147 66.5q39 0 72.5 -17.5t52.5 -43.5v52h75v-614h-75zM360 132v180q-17 34 -47.5 53.5t-66.5 19.5q-62 0 -98.5 -45.5t-36.5 -117.5t36.5 -117.5t98.5 -45.5q36 0 66.5 19.5
t47.5 53.5z" />
    <glyph glyph-name="r" unicode="r" horiz-adv-x="321" 
d="M295 446v-77q-18 12 -50 12q-36 0 -64 -22t-39 -61v-298h-75v444h75v-58q15 29 44.5 48t65.5 19q29 0 43 -7z" />
    <glyph glyph-name="s" unicode="s" horiz-adv-x="414" 
d="M30 122h78q21 -68 105 -68q41 0 66 16.5t25 49.5q0 45 -66 62l-88 23q-107 27 -107 117q0 58 45 94.5t114 36.5q72 0 116 -33t56 -93h-75q-20 63 -98 63q-35 0 -60 -16.5t-25 -47.5q0 -22 14.5 -34.5t47.5 -21.5l86 -21q113 -30 113 -124q0 -62 -46 -98t-119 -36
t-122.5 35t-59.5 96z" />
    <glyph glyph-name="t" unicode="t" horiz-adv-x="317" 
d="M88 112v268h-72v64h72v117h75v-117h107v-64h-107v-260q0 -62 59 -62q31 0 58 18v-70q-28 -15 -70 -15q-56 0 -89 30.5t-33 90.5z" />
    <glyph glyph-name="u" unicode="u" horiz-adv-x="487" 
d="M421 444v-444h-76v56q-20 -28 -54 -46.5t-75 -18.5q-74 0 -114.5 44t-40.5 118v291h76v-279q0 -49 24 -77t73 -28q38 0 68.5 23t42.5 60v301h76z" />
    <glyph glyph-name="v" unicode="v" horiz-adv-x="455" 
d="M264 0h-74l-172 444h81l130 -349l129 349h79z" />
    <glyph glyph-name="w" unicode="w" horiz-adv-x="629" 
d="M349 444l91 -339l98 339h73l-131 -444h-73l-92 337l-93 -337h-73l-131 444h75l98 -339l91 339h67z" />
    <glyph glyph-name="x" unicode="x" horiz-adv-x="449" 
d="M422 444l-156 -214l165 -230h-85l-123 173l-124 -173h-81l164 227l-155 217h86l112 -159l115 159h82z" />
    <glyph glyph-name="y" unicode="y" horiz-adv-x="455" 
d="M198 -170h-74l67 167l-173 447h81l131 -350l129 350h78z" />
    <glyph glyph-name="z" unicode="z" horiz-adv-x="434" 
d="M390 64v-64h-349v49l249 331h-241v64h337v-49l-247 -331h251z" />
    <glyph glyph-name="braceleft" unicode="{" horiz-adv-x="339" 
d="M175 206v-185q0 -37 36 -37h105v-68h-104q-49 0 -80 31.5t-31 80.5v183q0 37 -35 37h-46v70h46q35 0 35 37v183q0 49 31 80.5t80 31.5h104v-68h-105q-36 0 -36 -37v-185q0 -51 -43 -77q43 -26 43 -77z" />
    <glyph glyph-name="bar" unicode="|" horiz-adv-x="219" 
d="M73 -84v734h73v-734h-73z" />
    <glyph glyph-name="braceright" unicode="}" horiz-adv-x="339" 
d="M164 21v185q0 51 43 77q-43 26 -43 77v185q0 37 -36 37h-105v68h104q49 0 80 -31.5t31 -80.5v-183q0 -37 35 -37h46v-70h-46q-35 0 -35 -37v-183q0 -49 -31 -80.5t-80 -31.5h-104v68h105q36 0 36 37z" />
    <glyph glyph-name="asciitilde" unicode="~" horiz-adv-x="418" 
d="M315 335h63q0 -61 -25.5 -95t-71.5 -34q-26 0 -51 16.5t-46 33t-38 16.5q-43 0 -43 -62h-63q0 60 25.5 94t71.5 34q33 0 74.5 -33t60.5 -33q43 0 43 63z" />
    <glyph glyph-name="uni00A0" unicode="&#xa0;" horiz-adv-x="221" 
 />
    <glyph glyph-name="exclamdown" unicode="&#xa1;" horiz-adv-x="209" 
d="M48 469q0 23 15.5 38.5t37.5 15.5q23 0 38.5 -15.5t15.5 -38.5t-15.5 -39t-38.5 -16q-22 0 -37.5 16t-15.5 39zM57 -96l17 421h54l18 -421h-89z" />
    <glyph glyph-name="cent" unicode="&#xa2;" horiz-adv-x="446" 
d="M35 232q0 94 47 156t125 73v87h69v-88q58 -10 93.5 -48.5t44.5 -96.5h-75q-7 38 -34 60t-68 22q-57 0 -91.5 -46t-34.5 -119t34.5 -119t91.5 -46q41 0 68 22t34 60h75q-8 -58 -44 -96.5t-94 -48.5v-91h-69v90q-78 11 -125 73t-47 156z" />
    <glyph glyph-name="sterling" unicode="&#xa3;" horiz-adv-x="488" 
d="M187 425v-91h154v-62h-154v-116q0 -60 -23 -91h296v-65h-429v65h61q22 39 22 91v116h-83v62h83v91q0 87 49.5 142.5t129.5 55.5q71 0 115 -39.5t54 -105.5h-73q-14 79 -96 79q-50 0 -78 -35.5t-28 -96.5z" />
    <glyph glyph-name="yen" unicode="&#xa5;" horiz-adv-x="535" 
d="M71 264v59h127l-173 291h84l160 -275l159 275h81l-173 -291h127v-59h-157v-70h157v-60h-157v-134h-78v134h-157v60h157v70h-157z" />
    <glyph glyph-name="section" unicode="&#xa7;" horiz-adv-x="455" 
d="M159 242l156 -105q46 14 46 63q0 17 -11 32.5t-22 24t-33 23.5l-156 106q-45 -15 -45 -64q0 -17 10.5 -32.5t22 -24.5t32.5 -23zM363 88q16 -27 16 -61q0 -59 -43 -93.5t-112 -34.5q-74 0 -118.5 36t-54.5 98h73q18 -72 100 -72q36 0 59 16.5t23 46.5q0 24 -12.5 39
t-42.5 34l-127 85q-50 32 -75.5 63t-25.5 75q0 36 18 66t50 47q-16 26 -16 62q0 59 43.5 93.5t112.5 34.5q73 0 118 -36t55 -98h-74q-18 72 -99 72q-36 0 -59.5 -16.5t-23.5 -46.5q0 -24 12 -38t44 -35l126 -84q49 -32 75 -63.5t26 -75.5q0 -36 -18.5 -67t-49.5 -47z" />
    <glyph glyph-name="dieresis" unicode="&#xa8;" 
d="M274 571q0 20 13 33.5t32 13.5q20 0 33.5 -13.5t13.5 -33.5q0 -19 -14 -32.5t-33 -13.5t-32 13.5t-13 32.5zM133 571q0 20 13.5 33.5t33.5 13.5q19 0 32.5 -13.5t13.5 -33.5q0 -19 -13.5 -32.5t-32.5 -13.5t-33 13.5t-14 32.5z" />
    <glyph glyph-name="copyright" unicode="&#xa9;" horiz-adv-x="706" 
d="M669 307q0 -136 -92 -226t-224 -90t-224 90t-92 226t92 226t224 90t224 -90t92 -226zM630 307q0 119 -80.5 198t-196.5 79t-196.5 -79t-80.5 -198t80.5 -198t196.5 -79t196.5 79t80.5 198zM176 309q0 89 51 144t130 55q65 0 105.5 -34.5t52.5 -92.5h-74q-20 59 -84 59
q-48 0 -77.5 -36t-29.5 -95t29.5 -95t77.5 -36q64 0 84 59h74q-12 -58 -53 -92.5t-105 -34.5q-79 0 -130 55t-51 144z" />
    <glyph glyph-name="ordfeminine" unicode="&#xaa;" horiz-adv-x="292" 
d="M199 397v27q-6 13 -23.5 22t-37.5 9q-25 0 -42.5 -11.5t-17.5 -32.5q0 -22 17.5 -33.5t42.5 -11.5q20 0 37.5 9t23.5 22zM264 321h-65v21q-24 -26 -76 -26q-47 0 -78.5 25t-31.5 69q0 41 32.5 67.5t80.5 26.5q43 0 73 -23v33q0 24 -14.5 39t-41.5 15q-42 0 -53 -35h-64
q8 41 40 66t79 25q56 0 87.5 -29.5t31.5 -81.5v-192z" />
    <glyph glyph-name="guillemotleft" unicode="&#xab;" horiz-adv-x="357" 
d="M332 74h-70l-92 148l92 148h70l-92 -148zM187 74h-70l-92 148l92 148h70l-92 -148z" />
    <glyph glyph-name="registered" unicode="&#xae;" horiz-adv-x="412" 
d="M387 440q0 -78 -53 -130.5t-128 -52.5t-128 52.5t-53 130.5t53 130.5t128 52.5t128 -52.5t53 -130.5zM356 440q0 67 -43.5 110.5t-106.5 43.5t-107 -43.5t-44 -110.5q0 -66 44 -109.5t107 -43.5t106.5 43.5t43.5 109.5zM247 475q0 12 -8 19.5t-22 7.5h-40v-53h40
q14 0 22 7.5t8 18.5zM202 414h-25v-68h-42v192h84q32 0 50 -16.5t18 -46.5q0 -46 -42 -57l49 -72h-47z" />
    <glyph glyph-name="macron" unicode="&#xaf;" 
d="M143 530v61h213v-61h-213z" />
    <glyph glyph-name="degree" unicode="&#xb0;" horiz-adv-x="336" 
d="M291 499q0 -52 -36 -88t-87 -36t-87 36t-36 88t36 88t87 36t87 -36t36 -88zM100 499q0 -28 20 -48t48 -20t48 20t20 48t-20 48.5t-48 20.5t-48 -20.5t-20 -48.5z" />
    <glyph glyph-name="plusminus" unicode="&#xb1;" horiz-adv-x="544" 
d="M241 518h62v-129h164v-62h-164v-129h-62v129h-163v62h163v129zM78 88v62h389v-62h-389z" />
    <glyph glyph-name="twosuperior" unicode="&#xb2;" horiz-adv-x="276" 
d="M184 519q0 20 -13 32t-33 12q-22 0 -35 -15t-15 -37h-66q5 48 36.5 78t79.5 30q50 0 79 -26.5t29 -71.5q0 -20 -11 -41t-20.5 -32t-32.5 -36l-74 -76h141v-54h-226v43l112 117q27 28 38 44t11 33z" />
    <glyph glyph-name="threesuperior" unicode="&#xb3;" horiz-adv-x="281" 
d="M114 427v48h24q23 0 37 12t14 34q0 20 -13.5 32.5t-35.5 12.5q-21 0 -35.5 -14t-16.5 -35h-63q6 45 36 73.5t77 28.5q51 0 80.5 -26.5t29.5 -69.5q0 -25 -12.5 -44.5t-32.5 -27.5q50 -18 50 -73q0 -44 -30.5 -72.5t-82.5 -28.5q-53 0 -84 28t-36 77h65q7 -51 56 -51
q24 0 38.5 13t14.5 36q0 22 -15 34.5t-39 12.5h-26z" />
    <glyph glyph-name="acute" unicode="&#xb4;" 
d="M240 516h-69l80 134h78z" />
    <glyph glyph-name="paragraph" unicode="&#xb6;" horiz-adv-x="489" 
d="M220 -90v391q-82 0 -143.5 40t-61.5 117t61.5 116.5t143.5 39.5h63v-704h-63zM353 -90v704h63v-704h-63z" />
    <glyph glyph-name="periodcentered" unicode="&#xb7;" horiz-adv-x="176" 
d="M34 262q0 23 15.5 39t38.5 16q22 0 37.5 -16t15.5 -39t-15.5 -38.5t-37.5 -15.5q-23 0 -38.5 15.5t-15.5 38.5z" />
    <glyph glyph-name="cedilla" unicode="&#xb8;" 
d="M250 -183h-71l66 132h74z" />
    <glyph glyph-name="onesuperior" unicode="&#xb9;" horiz-adv-x="221" 
d="M170 615v-333h-63v259l-88 -44v64l109 54h42z" />
    <glyph glyph-name="ordmasculine" unicode="&#xba;" horiz-adv-x="310" 
d="M296 469q0 -68 -39 -111.5t-102 -43.5t-102.5 43.5t-39.5 111.5t39.5 111.5t102.5 43.5t102 -43.5t39 -111.5zM228 469q0 43 -20 70t-53 27t-53 -27t-20 -70t20 -69.5t53 -26.5t53 26.5t20 69.5z" />
    <glyph glyph-name="guillemotright" unicode="&#xbb;" horiz-adv-x="357" 
d="M95 74h-70l92 148l-92 148h70l92 -148zM240 74h-70l92 148l-92 148h70l92 -148z" />
    <glyph glyph-name="onequarter" unicode="&#xbc;" horiz-adv-x="667" 
d="M191 615v-333h-62v259l-88 -44v64l108 54h42zM569 614l-429 -614h-67l429 614h67zM536 333l-107 -211h81v67h56v-67h52v-53h-52v-69h-56v69h-150v47l114 217h62z" />
    <glyph glyph-name="onehalf" unicode="&#xbd;" horiz-adv-x="682" 
d="M191 615v-333h-62v259l-88 -44v64l108 54h42zM569 614l-429 -614h-67l429 614h67zM560 237q0 20 -12.5 32t-32.5 12q-22 0 -35.5 -15t-15.5 -37h-65q5 48 36 78.5t79 30.5q50 0 79.5 -27t29.5 -72q0 -20 -11 -41t-20.5 -32t-32.5 -36l-74 -76h141v-54h-226v43l111 117
q26 27 37.5 43.5t11.5 33.5z" />
    <glyph glyph-name="threequarters" unicode="&#xbe;" horiz-adv-x="706" 
d="M608 614l-429 -614h-67l429 614h67zM140 426v49h24q22 0 36.5 12t14.5 33q0 20 -13.5 32.5t-35.5 12.5q-21 0 -35.5 -14t-16.5 -35h-63q6 45 36 74t77 29q51 0 80.5 -26.5t29.5 -69.5q0 -25 -12.5 -45t-32.5 -28q23 -7 36.5 -27t13.5 -45q0 -45 -30.5 -73.5t-82.5 -28.5
t-83.5 28.5t-36.5 77.5h65q7 -52 56 -52q24 0 38.5 13.5t14.5 35.5t-15 34.5t-39 12.5h-26zM575 333l-107 -211h81v67h56v-67h52v-53h-52v-69h-56v69h-150v47l114 217h62z" />
    <glyph glyph-name="questiondown" unicode="&#xbf;" horiz-adv-x="432" 
d="M262 469q0 -23 -15.5 -39t-37.5 -16q-23 0 -38.5 16t-15.5 39t15.5 38.5t38.5 15.5q22 0 37.5 -15.5t15.5 -38.5zM24 67q0 12 1.5 23.5t6.5 23.5t7.5 20t12 21t12 18t15.5 19.5t14.5 16.5t16.5 18l16 16q41 44 43 82h74q-2 -36 -14.5 -61t-43.5 -59q-5 -6 -26.5 -28.5
t-30.5 -34t-18.5 -32.5t-9.5 -42q0 -47 30 -75t81 -28q53 0 84 33.5t36 89.5h81q-9 -87 -63.5 -140t-137.5 -53q-87 0 -137 46.5t-50 125.5z" />
    <glyph glyph-name="Agrave" unicode="&#xc0;" horiz-adv-x="596" 
d="M337 668h-75l-92 117h87zM297 516l-100 -262h200zM261 614h74l240 -614h-80l-71 185h-253l-70 -185h-80z" />
    <glyph glyph-name="Aacute" unicode="&#xc1;" horiz-adv-x="596" 
d="M333 668h-76l80 117h87zM297 516l-100 -262h200zM261 614h74l240 -614h-80l-71 185h-253l-70 -185h-80z" />
    <glyph glyph-name="Acircumflex" unicode="&#xc2;" horiz-adv-x="596" 
d="M333 791l92 -122h-68l-59 71l-59 -71h-68l92 122h70zM297 516l-100 -262h200zM261 614h74l240 -614h-80l-71 185h-253l-70 -185h-80z" />
    <glyph glyph-name="Atilde" unicode="&#xc3;" horiz-adv-x="596" 
d="M384 784h48q0 -55 -19.5 -87t-56.5 -32q-26 0 -60 28t-50 28q-34 0 -34 -53h-49q0 55 19.5 87t56.5 32q27 0 60.5 -28t50.5 -28q32 0 34 53zM297 516l-100 -262h200zM261 614h74l240 -614h-80l-71 185h-253l-70 -185h-80z" />
    <glyph glyph-name="Adieresis" unicode="&#xc4;" horiz-adv-x="596" 
d="M323 722q0 19 13 32.5t32 13.5q20 0 33.5 -13.5t13.5 -32.5t-13.5 -32.5t-33.5 -13.5q-19 0 -32 13.5t-13 32.5zM182 722q0 19 13.5 32.5t33.5 13.5q19 0 32.5 -13.5t13.5 -32.5t-13.5 -32.5t-32.5 -13.5q-20 0 -33.5 13.5t-13.5 32.5zM297 516l-100 -262h200zM261 614
h74l240 -614h-80l-71 185h-253l-70 -185h-80z" />
    <glyph glyph-name="Aring" unicode="&#xc5;" horiz-adv-x="596" 
d="M385 734q0 -36 -25 -61t-62 -25t-62 25t-25 61q0 37 25 62t62 25t62 -25t25 -62zM343 734q0 19 -13 32.5t-32 13.5t-32 -13.5t-13 -32.5t13 -32t32 -13t32 13t13 32zM297 516l-100 -262h200zM261 614h74l240 -614h-80l-71 185h-253l-70 -185h-80z" />
    <glyph glyph-name="AE" unicode="&#xc6;" horiz-adv-x="862" 
d="M437 550l-180 -296h180v296zM390 614h421v-70h-297v-194h268v-70h-268v-209h297v-71h-374v185h-222l-112 -185h-82z" />
    <glyph glyph-name="Ccedilla" unicode="&#xc7;" horiz-adv-x="586" 
d="M37 307q0 141 78.5 228.5t196.5 87.5q95 0 157.5 -51t81.5 -138h-78q-42 118 -161 118q-88 0 -142 -67.5t-54 -177.5q0 -109 54 -177t142 -68q120 0 161 119h78q-19 -88 -81.5 -139t-157.5 -51q-118 0 -196.5 87.5t-78.5 228.5zM287 -183h-71l66 132h74z" />
    <glyph glyph-name="Egrave" unicode="&#xc8;" horiz-adv-x="515" 
d="M313 668h-75l-92 117h87zM73 614h391v-70h-313v-194h284v-70h-284v-209h313v-71h-391v614z" />
    <glyph glyph-name="Eacute" unicode="&#xc9;" horiz-adv-x="515" 
d="M305 668h-76l80 117h87zM73 614h391v-70h-313v-194h284v-70h-284v-209h313v-71h-391v614z" />
    <glyph glyph-name="Ecircumflex" unicode="&#xca;" horiz-adv-x="515" 
d="M308 791l92 -122h-68l-59 71l-59 -71h-68l92 122h70zM73 614h391v-70h-313v-194h284v-70h-284v-209h313v-71h-391v614z" />
    <glyph glyph-name="Edieresis" unicode="&#xcb;" horiz-adv-x="515" 
d="M298 722q0 19 13 32.5t32 13.5q20 0 33.5 -13.5t13.5 -32.5t-13.5 -32.5t-33.5 -13.5q-19 0 -32 13.5t-13 32.5zM157 722q0 19 13.5 32.5t33.5 13.5q19 0 32.5 -13.5t13.5 -32.5t-13.5 -32.5t-32.5 -13.5q-20 0 -33.5 13.5t-13.5 32.5zM73 614h391v-70h-313v-194h284v-70
h-284v-209h313v-71h-391v614z" />
    <glyph glyph-name="Igrave" unicode="&#xcc;" horiz-adv-x="225" 
d="M153 668h-75l-92 117h87zM152 614v-614h-79v614h79z" />
    <glyph glyph-name="Iacute" unicode="&#xcd;" horiz-adv-x="225" 
d="M144 668h-76l80 117h87zM152 614v-614h-79v614h79z" />
    <glyph glyph-name="Icircumflex" unicode="&#xce;" horiz-adv-x="225" 
d="M147 791l92 -122h-68l-59 71l-59 -71h-68l92 122h70zM152 614v-614h-79v614h79z" />
    <glyph glyph-name="Idieresis" unicode="&#xcf;" horiz-adv-x="225" 
d="M137 722q0 19 13 32.5t32 13.5q20 0 33.5 -13.5t13.5 -32.5t-13.5 -32.5t-33.5 -13.5q-19 0 -32 13.5t-13 32.5zM-4 722q0 19 13.5 32.5t33.5 13.5q19 0 32.5 -13.5t13.5 -32.5t-13.5 -32.5t-32.5 -13.5q-20 0 -33.5 13.5t-13.5 32.5zM152 614v-614h-79v614h79z" />
    <glyph glyph-name="Eth" unicode="&#xd0;" horiz-adv-x="620" 
d="M32 284v67h56v263h197q135 0 216.5 -83.5t81.5 -223.5t-81.5 -223.5t-216.5 -83.5h-197v284h-56zM167 71h117q104 0 162.5 63.5t58.5 172.5t-59 173t-162 64h-117v-193h123v-67h-123v-213z" />
    <glyph glyph-name="Ntilde" unicode="&#xd1;" horiz-adv-x="623" 
d="M398 784h48q0 -55 -19.5 -87t-56.5 -32q-26 0 -60 28t-50 28q-34 0 -34 -53h-49q0 55 19.5 87t56.5 32q27 0 60.5 -28t50.5 -28q32 0 34 53zM550 614v-614h-58l-343 488v-488h-76v614h75l327 -467v467h75z" />
    <glyph glyph-name="Ograve" unicode="&#xd2;" horiz-adv-x="629" 
d="M355 668h-75l-92 117h87zM592 307q0 -139 -78 -227.5t-200 -88.5q-121 0 -199 88.5t-78 227.5t78 227.5t199 88.5q122 0 200 -88.5t78 -227.5zM513 307q0 108 -55 176.5t-144 68.5q-88 0 -143 -68.5t-55 -176.5t55 -176.5t143 -68.5q89 0 144 68.5t55 176.5z" />
    <glyph glyph-name="Oacute" unicode="&#xd3;" horiz-adv-x="629" 
d="M346 668h-76l80 117h87zM592 307q0 -139 -78 -227.5t-200 -88.5q-121 0 -199 88.5t-78 227.5t78 227.5t199 88.5q122 0 200 -88.5t78 -227.5zM513 307q0 108 -55 176.5t-144 68.5q-88 0 -143 -68.5t-55 -176.5t55 -176.5t143 -68.5q89 0 144 68.5t55 176.5z" />
    <glyph glyph-name="Ocircumflex" unicode="&#xd4;" horiz-adv-x="629" 
d="M349 791l92 -122h-68l-59 71l-59 -71h-68l92 122h70zM592 307q0 -139 -78 -227.5t-200 -88.5q-121 0 -199 88.5t-78 227.5t78 227.5t199 88.5q122 0 200 -88.5t78 -227.5zM513 307q0 108 -55 176.5t-144 68.5q-88 0 -143 -68.5t-55 -176.5t55 -176.5t143 -68.5
q89 0 144 68.5t55 176.5z" />
    <glyph glyph-name="Otilde" unicode="&#xd5;" horiz-adv-x="629" 
d="M401 784h48q0 -55 -19.5 -87t-56.5 -32q-26 0 -60 28t-50 28q-34 0 -34 -53h-49q0 55 19.5 87t56.5 32q27 0 60.5 -28t50.5 -28q32 0 34 53zM592 307q0 -139 -78 -227.5t-200 -88.5q-121 0 -199 88.5t-78 227.5t78 227.5t199 88.5q122 0 200 -88.5t78 -227.5zM513 307
q0 108 -55 176.5t-144 68.5q-88 0 -143 -68.5t-55 -176.5t55 -176.5t143 -68.5q89 0 144 68.5t55 176.5z" />
    <glyph glyph-name="Odieresis" unicode="&#xd6;" horiz-adv-x="629" 
d="M339 722q0 19 13 32.5t32 13.5q20 0 33.5 -13.5t13.5 -32.5t-13.5 -32.5t-33.5 -13.5q-19 0 -32 13.5t-13 32.5zM198 722q0 19 13.5 32.5t33.5 13.5q19 0 32.5 -13.5t13.5 -32.5t-13.5 -32.5t-32.5 -13.5q-20 0 -33.5 13.5t-13.5 32.5zM592 307q0 -139 -78 -227.5
t-200 -88.5q-121 0 -199 88.5t-78 227.5t78 227.5t199 88.5q122 0 200 -88.5t78 -227.5zM513 307q0 108 -55 176.5t-144 68.5q-88 0 -143 -68.5t-55 -176.5t55 -176.5t143 -68.5q89 0 144 68.5t55 176.5z" />
    <glyph glyph-name="multiply" unicode="&#xd7;" horiz-adv-x="470" 
d="M193 295l-122 121l43 42l120 -122l122 122l43 -42l-122 -121l122 -122l-43 -43l-122 122l-120 -122l-43 43z" />
    <glyph glyph-name="Oslash" unicode="&#xd8;" horiz-adv-x="639" 
d="M121 307q0 -96 39 -158l284 357q-51 46 -125 46q-88 0 -143 -68.5t-55 -176.5zM518 307q0 93 -38 155l-282 -357q48 -43 121 -43q89 0 144 68.5t55 176.5zM56 18l56 71q-70 87 -70 218q0 139 78 227.5t199 88.5q97 0 170 -60l47 60l46 -33l-54 -67q69 -86 69 -216
q0 -139 -78 -227.5t-200 -88.5q-97 0 -166 57l-50 -63z" />
    <glyph glyph-name="Ugrave" unicode="&#xd9;" horiz-adv-x="607" 
d="M344 668h-75l-92 117h87zM303 -9q-108 0 -174 65t-66 188v370h78v-361q0 -96 43 -144t119 -48t119 48t43 144v361h79v-371q0 -122 -66 -187t-175 -65z" />
    <glyph glyph-name="Uacute" unicode="&#xda;" horiz-adv-x="607" 
d="M335 668h-76l80 117h87zM303 -9q-108 0 -174 65t-66 188v370h78v-361q0 -96 43 -144t119 -48t119 48t43 144v361h79v-371q0 -122 -66 -187t-175 -65z" />
    <glyph glyph-name="Ucircumflex" unicode="&#xdb;" horiz-adv-x="607" 
d="M338 791l92 -122h-68l-59 71l-59 -71h-68l92 122h70zM303 -9q-108 0 -174 65t-66 188v370h78v-361q0 -96 43 -144t119 -48t119 48t43 144v361h79v-371q0 -122 -66 -187t-175 -65z" />
    <glyph glyph-name="Udieresis" unicode="&#xdc;" horiz-adv-x="607" 
d="M328 722q0 19 13 32.5t32 13.5q20 0 33.5 -13.5t13.5 -32.5t-13.5 -32.5t-33.5 -13.5q-19 0 -32 13.5t-13 32.5zM187 722q0 19 13.5 32.5t33.5 13.5q19 0 32.5 -13.5t13.5 -32.5t-13.5 -32.5t-32.5 -13.5q-20 0 -33.5 13.5t-13.5 32.5zM303 -9q-108 0 -174 65t-66 188
v370h78v-361q0 -96 43 -144t119 -48t119 48t43 144v361h79v-371q0 -122 -66 -187t-175 -65z" />
    <glyph glyph-name="Yacute" unicode="&#xdd;" horiz-adv-x="557" 
d="M311 668h-76l80 117h87zM280 324l177 290h84l-224 -361v-253h-78v253l-222 361h86z" />
    <glyph glyph-name="Thorn" unicode="&#xde;" horiz-adv-x="537" 
d="M303 131h-151v-131h-79v614h79v-115h151q95 0 148.5 -47.5t53.5 -136.5t-54 -136.5t-148 -47.5zM427 315q0 54 -32.5 84.5t-93.5 30.5h-149v-230h149q61 0 93.5 31t32.5 84z" />
    <glyph glyph-name="germandbls" unicode="&#xdf;" horiz-adv-x="510" 
d="M342 367q56 -13 94 -61t38 -118q0 -91 -53 -142.5t-139 -51.5q-49 0 -86 17v69q29 -18 80 -18q59 0 92.5 35t33.5 98t-41.5 99t-112.5 36h-42v66h42q48 0 77 27.5t29 73.5q0 43 -27.5 70t-73.5 27q-55 0 -83.5 -36t-28.5 -95v-463h-74v463q0 88 49.5 142t135.5 54
q81 0 127.5 -44.5t46.5 -113.5q0 -50 -23.5 -85t-60.5 -49z" />
    <glyph glyph-name="agrave" unicode="&#xe0;" horiz-adv-x="502" 
d="M281 516h-69l-89 134h78zM360 132v180q-17 34 -47.5 53.5t-66.5 19.5q-62 0 -98.5 -45.5t-36.5 -117.5t36.5 -117.5t98.5 -45.5q36 0 66.5 19.5t47.5 53.5zM360 0v52q-18 -26 -52 -43.5t-73 -17.5q-94 0 -147 66t-53 165q0 98 53 164.5t147 66.5q39 0 73 -17.5t52 -43.5
v52h76v-444h-76z" />
    <glyph glyph-name="aacute" unicode="&#xe1;" horiz-adv-x="502" 
d="M290 516h-69l80 134h78zM360 132v180q-17 34 -47.5 53.5t-66.5 19.5q-62 0 -98.5 -45.5t-36.5 -117.5t36.5 -117.5t98.5 -45.5q36 0 66.5 19.5t47.5 53.5zM360 0v52q-18 -26 -52 -43.5t-73 -17.5q-94 0 -147 66t-53 165q0 98 53 164.5t147 66.5q39 0 73 -17.5t52 -43.5
v52h76v-444h-76z" />
    <glyph glyph-name="acircumflex" unicode="&#xe2;" horiz-adv-x="502" 
d="M284 645l92 -136h-65l-62 88l-62 -88h-65l92 136h70zM360 132v180q-17 34 -47.5 53.5t-66.5 19.5q-62 0 -98.5 -45.5t-36.5 -117.5t36.5 -117.5t98.5 -45.5q36 0 66.5 19.5t47.5 53.5zM360 0v52q-18 -26 -52 -43.5t-73 -17.5q-94 0 -147 66t-53 165q0 98 53 164.5
t147 66.5q39 0 73 -17.5t52 -43.5v52h76v-444h-76z" />
    <glyph glyph-name="atilde" unicode="&#xe3;" horiz-adv-x="502" 
d="M332 633h48q0 -54 -19.5 -86t-56.5 -32q-25 0 -57.5 29t-46.5 29q-34 0 -34 -55h-48q0 54 19.5 86t56.5 32q25 0 57.5 -29t46.5 -29q32 0 34 55zM360 132v180q-17 34 -47.5 53.5t-66.5 19.5q-62 0 -98.5 -45.5t-36.5 -117.5t36.5 -117.5t98.5 -45.5q36 0 66.5 19.5
t47.5 53.5zM360 0v52q-18 -26 -52 -43.5t-73 -17.5q-94 0 -147 66t-53 165q0 98 53 164.5t147 66.5q39 0 73 -17.5t52 -43.5v52h76v-444h-76z" />
    <glyph glyph-name="adieresis" unicode="&#xe4;" horiz-adv-x="502" 
d="M274 571q0 20 13 33.5t32 13.5q20 0 33.5 -13.5t13.5 -33.5q0 -19 -14 -32.5t-33 -13.5t-32 13.5t-13 32.5zM133 571q0 20 13.5 33.5t33.5 13.5q19 0 32.5 -13.5t13.5 -33.5q0 -19 -13.5 -32.5t-32.5 -13.5t-33 13.5t-14 32.5zM360 132v180q-17 34 -47.5 53.5t-66.5 19.5
q-62 0 -98.5 -45.5t-36.5 -117.5t36.5 -117.5t98.5 -45.5q36 0 66.5 19.5t47.5 53.5zM360 0v52q-18 -26 -52 -43.5t-73 -17.5q-94 0 -147 66t-53 165q0 98 53 164.5t147 66.5q39 0 73 -17.5t52 -43.5v52h76v-444h-76z" />
    <glyph glyph-name="aring" unicode="&#xe5;" horiz-adv-x="502" 
d="M334 580q0 -37 -25 -61.5t-62 -24.5t-62 24.5t-25 61.5t25 61.5t62 24.5t62 -24.5t25 -61.5zM292 580q0 19 -13 32t-32 13t-32 -13t-13 -32t13 -32t32 -13t32 13t13 32zM360 132v180q-17 34 -47.5 53.5t-66.5 19.5q-62 0 -98.5 -45.5t-36.5 -117.5t36.5 -117.5
t98.5 -45.5q36 0 66.5 19.5t47.5 53.5zM360 0v52q-18 -26 -52 -43.5t-73 -17.5q-94 0 -147 66t-53 165q0 98 53 164.5t147 66.5q39 0 73 -17.5t52 -43.5v52h76v-444h-76z" />
    <glyph glyph-name="ae" unicode="&#xe6;" horiz-adv-x="796" 
d="M587 -9q-103 0 -151 79v-70h-73v65q-20 -31 -57 -52.5t-80 -21.5q-93 0 -142 66.5t-49 165.5q0 100 49 166t142 66q43 0 80 -21t57 -52v65h73v-74q21 38 58 59t81 21q90 0 139 -59.5t49 -158.5v-27h-316q1 -70 37 -111t94 -41q42 0 70.5 20t37.5 58h71
q-12 -64 -58 -103.5t-112 -39.5zM363 138v171q-42 79 -120 79q-60 0 -95.5 -46t-35.5 -119t35.5 -118.5t95.5 -45.5q78 0 120 79zM576 388q-50 0 -84 -32.5t-42 -90.5h237q-2 53 -30 88t-81 35z" />
    <glyph glyph-name="ccedilla" unicode="&#xe7;" horiz-adv-x="446" 
d="M35 222q0 103 56 167t146 64q73 0 119.5 -39t58.5 -104h-77q-8 36 -34.5 56.5t-66.5 20.5q-57 0 -91.5 -46t-34.5 -119t34.5 -119t91.5 -46q40 0 66.5 20.5t34.5 56.5h77q-12 -65 -58.5 -104t-119.5 -39q-90 0 -146 64t-56 167zM212 -183h-71l66 132h74z" />
    <glyph glyph-name="egrave" unicode="&#xe8;" horiz-adv-x="457" 
d="M279 516h-69l-89 134h78zM347 133h71q-12 -65 -59 -103.5t-120 -38.5q-91 0 -147.5 63.5t-56.5 166.5q0 101 56 166.5t146 65.5q89 0 138 -59.5t49 -158.5v-27h-314q1 -70 36.5 -111.5t92.5 -41.5q42 0 70.5 20.5t37.5 57.5zM238 389q-50 0 -84 -33t-42 -91h236
q-1 53 -29 88.5t-81 35.5z" />
    <glyph glyph-name="eacute" unicode="&#xe9;" horiz-adv-x="457" 
d="M270 516h-69l80 134h78zM347 133h71q-12 -65 -59 -103.5t-120 -38.5q-91 0 -147.5 63.5t-56.5 166.5q0 101 56 166.5t146 65.5q89 0 138 -59.5t49 -158.5v-27h-314q1 -70 36.5 -111.5t92.5 -41.5q42 0 70.5 20.5t37.5 57.5zM238 389q-50 0 -84 -33t-42 -91h236
q-1 53 -29 88.5t-81 35.5z" />
    <glyph glyph-name="ecircumflex" unicode="&#xea;" horiz-adv-x="457" 
d="M275 645l92 -136h-65l-62 88l-62 -88h-65l92 136h70zM347 133h71q-12 -65 -59 -103.5t-120 -38.5q-91 0 -147.5 63.5t-56.5 166.5q0 101 56 166.5t146 65.5q89 0 138 -59.5t49 -158.5v-27h-314q1 -70 36.5 -111.5t92.5 -41.5q42 0 70.5 20.5t37.5 57.5zM238 389
q-50 0 -84 -33t-42 -91h236q-1 53 -29 88.5t-81 35.5z" />
    <glyph glyph-name="edieresis" unicode="&#xeb;" horiz-adv-x="457" 
d="M266 571q0 20 13 33.5t32 13.5q20 0 33.5 -13.5t13.5 -33.5q0 -19 -14 -32.5t-33 -13.5t-32 13.5t-13 32.5zM125 571q0 20 13.5 33.5t33.5 13.5q19 0 32.5 -13.5t13.5 -33.5q0 -19 -13.5 -32.5t-32.5 -13.5t-33 13.5t-14 32.5zM347 133h71q-12 -65 -59 -103.5t-120 -38.5
q-91 0 -147.5 63.5t-56.5 166.5q0 101 56 166.5t146 65.5q89 0 138 -59.5t49 -158.5v-27h-314q1 -70 36.5 -111.5t92.5 -41.5q42 0 70.5 20.5t37.5 57.5zM238 389q-50 0 -84 -33t-42 -91h236q-1 53 -29 88.5t-81 35.5z" />
    <glyph glyph-name="igrave" unicode="&#xec;" horiz-adv-x="209" 
d="M143 516h-69l-89 134h78zM142 444v-444h-75v444h75z" />
    <glyph glyph-name="iacute" unicode="&#xed;" horiz-adv-x="209" 
d="M134 516h-69l80 134h78zM142 444v-444h-75v444h75z" />
    <glyph glyph-name="icircumflex" unicode="&#xee;" horiz-adv-x="209" 
d="M139 645l74 -136h-64l-45 85l-45 -85h-63l74 136h69zM142 444v-444h-75v444h75z" />
    <glyph glyph-name="idieresis" unicode="&#xef;" horiz-adv-x="209" 
d="M121 571q0 20 13 33.5t32 13.5q20 0 33.5 -13.5t13.5 -33.5q0 -19 -14 -32.5t-33 -13.5t-32 13.5t-13 32.5zM-3 571q0 20 13 33.5t33 13.5q19 0 32.5 -13.5t13.5 -33.5q0 -19 -13.5 -32.5t-32.5 -13.5t-32.5 13.5t-13.5 32.5zM142 444v-444h-75v444h75z" />
    <glyph glyph-name="eth" unicode="&#xf0;" horiz-adv-x="478" 
d="M139 494l-18 47l80 26q-48 42 -100 79v4h98q45 -31 74 -59l85 29l17 -47l-63 -21q131 -147 131 -326q0 -105 -56.5 -170t-147.5 -65t-147.5 63.5t-56.5 165.5t55 166t141 64q63 0 103 -44h3q-22 50 -94 122zM367 220q0 74 -34.5 119t-93.5 45t-93.5 -45t-34.5 -119
t34.5 -118.5t93.5 -44.5t93.5 44.5t34.5 118.5z" />
    <glyph glyph-name="ntilde" unicode="&#xf1;" horiz-adv-x="489" 
d="M331 633h48q0 -54 -19.5 -86t-56.5 -32q-25 0 -57.5 29t-46.5 29q-34 0 -34 -55h-48q0 54 19.5 86t56.5 32q25 0 57.5 -29t46.5 -29q32 0 34 55zM67 0v444h75v-56q21 28 55.5 46.5t75.5 18.5q74 0 115 -44t41 -118v-291h-76v279q0 48 -24.5 76.5t-73.5 28.5
q-39 0 -70 -23.5t-43 -59.5v-301h-75z" />
    <glyph glyph-name="ograve" unicode="&#xf2;" horiz-adv-x="478" 
d="M277 516h-69l-89 134h78zM443 222q0 -102 -56.5 -166.5t-147.5 -64.5t-147.5 64.5t-56.5 166.5t56.5 166.5t147.5 64.5t147.5 -64.5t56.5 -166.5zM367 222q0 74 -34.5 119.5t-93.5 45.5t-93.5 -45.5t-34.5 -119.5t34.5 -119.5t93.5 -45.5t93.5 45.5t34.5 119.5z" />
    <glyph glyph-name="oacute" unicode="&#xf3;" horiz-adv-x="478" 
d="M268 516h-69l80 134h78zM443 222q0 -102 -56.5 -166.5t-147.5 -64.5t-147.5 64.5t-56.5 166.5t56.5 166.5t147.5 64.5t147.5 -64.5t56.5 -166.5zM367 222q0 74 -34.5 119.5t-93.5 45.5t-93.5 -45.5t-34.5 -119.5t34.5 -119.5t93.5 -45.5t93.5 45.5t34.5 119.5z" />
    <glyph glyph-name="ocircumflex" unicode="&#xf4;" horiz-adv-x="478" 
d="M274 645l92 -136h-65l-62 88l-62 -88h-65l92 136h70zM443 222q0 -102 -56.5 -166.5t-147.5 -64.5t-147.5 64.5t-56.5 166.5t56.5 166.5t147.5 64.5t147.5 -64.5t56.5 -166.5zM367 222q0 74 -34.5 119.5t-93.5 45.5t-93.5 -45.5t-34.5 -119.5t34.5 -119.5t93.5 -45.5
t93.5 45.5t34.5 119.5z" />
    <glyph glyph-name="otilde" unicode="&#xf5;" horiz-adv-x="478" 
d="M322 633h48q0 -54 -19.5 -86t-56.5 -32q-25 0 -57.5 29t-46.5 29q-34 0 -34 -55h-48q0 54 19.5 86t56.5 32q25 0 57.5 -29t46.5 -29q32 0 34 55zM443 222q0 -102 -56.5 -166.5t-147.5 -64.5t-147.5 64.5t-56.5 166.5t56.5 166.5t147.5 64.5t147.5 -64.5t56.5 -166.5z
M367 222q0 74 -34.5 119.5t-93.5 45.5t-93.5 -45.5t-34.5 -119.5t34.5 -119.5t93.5 -45.5t93.5 45.5t34.5 119.5z" />
    <glyph glyph-name="odieresis" unicode="&#xf6;" horiz-adv-x="478" 
d="M264 571q0 20 13 33.5t32 13.5q20 0 33.5 -13.5t13.5 -33.5q0 -19 -14 -32.5t-33 -13.5t-32 13.5t-13 32.5zM123 571q0 20 13.5 33.5t33.5 13.5q19 0 32.5 -13.5t13.5 -33.5q0 -19 -13.5 -32.5t-32.5 -13.5t-33 13.5t-14 32.5zM443 222q0 -102 -56.5 -166.5t-147.5 -64.5
t-147.5 64.5t-56.5 166.5t56.5 166.5t147.5 64.5t147.5 -64.5t56.5 -166.5zM367 222q0 74 -34.5 119.5t-93.5 45.5t-93.5 -45.5t-34.5 -119.5t34.5 -119.5t93.5 -45.5t93.5 45.5t34.5 119.5z" />
    <glyph glyph-name="divide" unicode="&#xf7;" horiz-adv-x="540" 
d="M220 458q0 21 14.5 36t35.5 15t36 -15t15 -36t-15 -36t-36 -15t-35.5 15t-14.5 36zM73 266v62h394v-62h-394zM220 136q0 21 14.5 36t35.5 15t36 -15t15 -36t-15 -36t-36 -15t-35.5 15t-14.5 36z" />
    <glyph glyph-name="oslash" unicode="&#xf8;" horiz-adv-x="488" 
d="M115 222q0 -58 20 -98l184 237q-31 26 -75 26q-59 0 -94 -45.5t-35 -119.5zM373 222q0 57 -22 99l-184 -238q31 -26 77 -26q59 0 94 45.5t35 119.5zM40 1l49 63q-49 61 -49 158q0 102 56.5 166.5t147.5 64.5q68 0 117 -37l42 53l41 -29l-46 -60q50 -65 50 -158
q0 -102 -56.5 -166.5t-147.5 -64.5q-70 0 -119 38l-44 -57z" />
    <glyph glyph-name="ugrave" unicode="&#xf9;" horiz-adv-x="487" 
d="M281 516h-69l-89 134h78zM421 444v-444h-76v56q-20 -28 -54 -46.5t-75 -18.5q-74 0 -114.5 44t-40.5 118v291h76v-279q0 -49 24 -77t73 -28q38 0 68.5 23t42.5 60v301h76z" />
    <glyph glyph-name="uacute" unicode="&#xfa;" horiz-adv-x="487" 
d="M272 516h-69l80 134h78zM421 444v-444h-76v56q-20 -28 -54 -46.5t-75 -18.5q-74 0 -114.5 44t-40.5 118v291h76v-279q0 -49 24 -77t73 -28q38 0 68.5 23t42.5 60v301h76z" />
    <glyph glyph-name="ucircumflex" unicode="&#xfb;" horiz-adv-x="487" 
d="M278 645l92 -136h-65l-62 88l-62 -88h-65l92 136h70zM421 444v-444h-76v56q-20 -28 -54 -46.5t-75 -18.5q-74 0 -114.5 44t-40.5 118v291h76v-279q0 -49 24 -77t73 -28q38 0 68.5 23t42.5 60v301h76z" />
    <glyph glyph-name="udieresis" unicode="&#xfc;" horiz-adv-x="487" 
d="M268 571q0 20 13 33.5t32 13.5q20 0 33.5 -13.5t13.5 -33.5q0 -19 -14 -32.5t-33 -13.5t-32 13.5t-13 32.5zM127 571q0 20 13.5 33.5t33.5 13.5q19 0 32.5 -13.5t13.5 -33.5q0 -19 -13.5 -32.5t-32.5 -13.5t-33 13.5t-14 32.5zM421 444v-444h-76v56q-20 -28 -54 -46.5
t-75 -18.5q-74 0 -114.5 44t-40.5 118v291h76v-279q0 -49 24 -77t73 -28q38 0 68.5 23t42.5 60v301h76z" />
    <glyph glyph-name="yacute" unicode="&#xfd;" horiz-adv-x="455" 
d="M257 516h-69l80 134h78zM198 -170h-74l67 167l-173 447h81l131 -350l129 350h78z" />
    <glyph glyph-name="thorn" unicode="&#xfe;" horiz-adv-x="502" 
d="M142 312v-180q17 -34 47.5 -53.5t66.5 -19.5q62 0 98.5 45.5t36.5 117.5t-36.5 117.5t-98.5 45.5q-36 0 -66.5 -19.5t-47.5 -53.5zM142 52v-222h-75v820h75v-258q19 26 52.5 43.5t72.5 17.5q94 0 147 -66.5t53 -164.5t-53 -164.5t-147 -66.5q-39 0 -72.5 17.5t-52.5 43.5
z" />
    <glyph glyph-name="ydieresis" unicode="&#xff;" horiz-adv-x="455" 
d="M252 571q0 20 13 33.5t32 13.5q20 0 33.5 -13.5t13.5 -33.5q0 -19 -14 -32.5t-33 -13.5t-32 13.5t-13 32.5zM111 571q0 20 13.5 33.5t33.5 13.5q19 0 32.5 -13.5t13.5 -33.5q0 -19 -13.5 -32.5t-32.5 -13.5t-33 13.5t-14 32.5zM198 -170h-74l67 167l-173 447h81l131 -350
l129 350h78z" />
    <glyph glyph-name="Amacron" unicode="&#x100;" horiz-adv-x="596" 
d="M192 671v61h213v-61h-213zM297 516l-100 -262h200zM261 614h74l240 -614h-80l-71 185h-253l-70 -185h-80z" />
    <glyph glyph-name="amacron" unicode="&#x101;" horiz-adv-x="502" 
d="M143 530v61h213v-61h-213zM360 132v180q-17 34 -47.5 53.5t-66.5 19.5q-62 0 -98.5 -45.5t-36.5 -117.5t36.5 -117.5t98.5 -45.5q36 0 66.5 19.5t47.5 53.5zM360 0v52q-18 -26 -52 -43.5t-73 -17.5q-94 0 -147 66t-53 165q0 98 53 164.5t147 66.5q39 0 73 -17.5t52 -43.5
v52h76v-444h-76z" />
    <glyph glyph-name="Abreve" unicode="&#x102;" horiz-adv-x="596" 
d="M298 666q-52 0 -83.5 31.5t-31.5 88.5h57q0 -31 16 -47.5t42 -16.5q27 0 43 16.5t16 47.5h57q0 -58 -31 -89t-85 -31zM297 516l-100 -262h200zM261 614h74l240 -614h-80l-71 185h-253l-70 -185h-80z" />
    <glyph glyph-name="abreve" unicode="&#x103;" horiz-adv-x="502" 
d="M257 500q-52 0 -83 33.5t-31 94.5h57q0 -34 15 -53.5t42 -19.5t42 19.5t15 53.5h57q0 -61 -31 -94.5t-83 -33.5zM360 132v180q-17 34 -47.5 53.5t-66.5 19.5q-62 0 -98.5 -45.5t-36.5 -117.5t36.5 -117.5t98.5 -45.5q36 0 66.5 19.5t47.5 53.5zM360 0v52
q-18 -26 -52 -43.5t-73 -17.5q-94 0 -147 66t-53 165q0 98 53 164.5t147 66.5q39 0 73 -17.5t52 -43.5v52h76v-444h-76z" />
    <glyph glyph-name="Aogonek" unicode="&#x104;" horiz-adv-x="596" 
d="M261 614h74l240 -614q-33 -54 -41.5 -71.5t-8.5 -34.5q0 -26 23 -26q14 0 37 15v-50q-26 -19 -52 -19q-32 0 -49.5 18t-17.5 48q0 18 8 38.5t16 34t29 47.5h-24l-71 185h-253l-70 -185h-80zM297 516l-100 -262h201z" />
    <glyph glyph-name="aogonek" unicode="&#x105;" horiz-adv-x="502" 
d="M445 -167q-24 -19 -52 -19q-32 0 -49 17.5t-17 48.5q0 18 8 39t16 34.5t29 46.5h-20v52q-18 -26 -52 -43.5t-73 -17.5q-94 0 -147 66t-53 165q0 98 53 164.5t147 66.5q39 0 73 -17.5t52 -43.5v52h76v-444q-32 -53 -41 -71t-9 -35q0 -26 22 -26q16 0 37 15v-50zM360 132
v180q-17 34 -47.5 53.5t-66.5 19.5q-62 0 -98.5 -45.5t-36.5 -117.5t36.5 -117.5t98.5 -45.5q36 0 66.5 19.5t47.5 53.5z" />
    <glyph glyph-name="Cacute" unicode="&#x106;" horiz-adv-x="586" 
d="M349 668h-76l80 117h87zM37 307q0 141 78.5 228.5t196.5 87.5q95 0 157.5 -51t81.5 -138h-78q-42 118 -161 118q-88 0 -142 -67.5t-54 -177.5q0 -109 54 -177t142 -68q120 0 161 119h78q-19 -88 -81.5 -139t-157.5 -51q-118 0 -196.5 87.5t-78.5 228.5z" />
    <glyph glyph-name="cacute" unicode="&#x107;" horiz-adv-x="446" 
d="M270 516h-69l80 134h78zM35 222q0 103 56 167t146 64q73 0 119.5 -39t58.5 -104h-77q-8 36 -34.5 56.5t-66.5 20.5q-57 0 -91.5 -46t-34.5 -119t34.5 -119t91.5 -46q40 0 66.5 20.5t34.5 56.5h77q-12 -65 -58.5 -104t-119.5 -39q-90 0 -146 64t-56 167z" />
    <glyph glyph-name="Ccircumflex" unicode="&#x108;" horiz-adv-x="586" 
d="M353 791l92 -122h-68l-59 71l-59 -71h-68l92 122h70zM37 307q0 141 78.5 228.5t196.5 87.5q95 0 157.5 -51t81.5 -138h-78q-42 118 -161 118q-88 0 -142 -67.5t-54 -177.5q0 -109 54 -177t142 -68q120 0 161 119h78q-19 -88 -81.5 -139t-157.5 -51q-118 0 -196.5 87.5
t-78.5 228.5z" />
    <glyph glyph-name="ccircumflex" unicode="&#x109;" horiz-adv-x="446" 
d="M276 645l92 -136h-65l-62 88l-62 -88h-65l92 136h70zM35 222q0 103 56 167t146 64q73 0 119.5 -39t58.5 -104h-77q-8 36 -34.5 56.5t-66.5 20.5q-57 0 -91.5 -46t-34.5 -119t34.5 -119t91.5 -46q40 0 66.5 20.5t34.5 56.5h77q-12 -65 -58.5 -104t-119.5 -39
q-90 0 -146 64t-56 167z" />
    <glyph glyph-name="Cdotaccent" unicode="&#x10a;" horiz-adv-x="586" 
d="M363 721q0 -19 -14.5 -33.5t-33.5 -14.5t-33.5 14.5t-14.5 33.5q0 20 14 34.5t34 14.5t34 -14.5t14 -34.5zM37 307q0 141 78.5 228.5t196.5 87.5q95 0 157.5 -51t81.5 -138h-78q-42 118 -161 118q-88 0 -142 -67.5t-54 -177.5q0 -109 54 -177t142 -68q120 0 161 119h78
q-19 -88 -81.5 -139t-157.5 -51q-118 0 -196.5 87.5t-78.5 228.5z" />
    <glyph glyph-name="cdotaccent" unicode="&#x10b;" horiz-adv-x="446" 
d="M289 578q0 -20 -14.5 -34t-33.5 -14t-33.5 14t-14.5 34t14 34t34 14t34 -14t14 -34zM35 222q0 103 56 167t146 64q73 0 119.5 -39t58.5 -104h-77q-8 36 -34.5 56.5t-66.5 20.5q-57 0 -91.5 -46t-34.5 -119t34.5 -119t91.5 -46q40 0 66.5 20.5t34.5 56.5h77
q-12 -65 -58.5 -104t-119.5 -39q-90 0 -146 64t-56 167z" />
    <glyph glyph-name="Ccaron" unicode="&#x10c;" horiz-adv-x="586" 
d="M280 666l-92 121h68l59 -71l59 71h68l-92 -121h-70zM37 307q0 141 78.5 228.5t196.5 87.5q95 0 157.5 -51t81.5 -138h-78q-42 118 -161 118q-88 0 -142 -67.5t-54 -177.5q0 -109 54 -177t142 -68q120 0 161 119h78q-19 -88 -81.5 -139t-157.5 -51q-118 0 -196.5 87.5
t-78.5 228.5z" />
    <glyph glyph-name="ccaron" unicode="&#x10d;" horiz-adv-x="446" 
d="M368 646l-92 -136h-70l-92 136h65l62 -87l62 87h65zM35 222q0 103 56 167t146 64q73 0 119.5 -39t58.5 -104h-77q-8 36 -34.5 56.5t-66.5 20.5q-57 0 -91.5 -46t-34.5 -119t34.5 -119t91.5 -46q40 0 66.5 20.5t34.5 56.5h77q-12 -65 -58.5 -104t-119.5 -39q-90 0 -146 64
t-56 167z" />
    <glyph glyph-name="Dcaron" unicode="&#x10e;" horiz-adv-x="605" 
d="M245 666l-92 121h68l59 -71l59 71h68l-92 -121h-70zM73 0v614h197q135 0 216.5 -83.5t81.5 -223.5t-81.5 -223.5t-216.5 -83.5h-197zM152 71h117q104 0 162.5 63.5t58.5 172.5t-59 173t-162 64h-117v-473z" />
    <glyph glyph-name="dcaron" unicode="&#x10f;" horiz-adv-x="502" 
d="M549 486h-60l33 164h60zM360 132v180q-17 34 -47.5 53.5t-66.5 19.5q-62 0 -98.5 -45.5t-36.5 -117.5t36.5 -117.5t98.5 -45.5q36 0 66.5 19.5t47.5 53.5zM360 0v52q-18 -26 -52 -43.5t-73 -17.5q-94 0 -147 66t-53 165q0 98 53 164.5t147 66.5q39 0 73 -17.5t52 -43.5
v258h76v-650h-76z" />
    <glyph glyph-name="Dcroat" unicode="&#x110;" horiz-adv-x="620" 
d="M32 284v67h56v263h197q135 0 216.5 -83.5t81.5 -223.5t-81.5 -223.5t-216.5 -83.5h-197v284h-56zM167 71h117q104 0 162.5 63.5t58.5 172.5t-59 173t-162 64h-117v-193h123v-67h-123v-213z" />
    <glyph glyph-name="dcroat" unicode="&#x111;" horiz-adv-x="502" 
d="M360 132v180q-17 34 -47.5 53.5t-66.5 19.5q-62 0 -98.5 -45.5t-36.5 -117.5t36.5 -117.5t98.5 -45.5q36 0 66.5 19.5t47.5 53.5zM252 511v54h108v85h76v-85h56v-54h-56v-511h-76v52q-18 -26 -52 -43.5t-73 -17.5q-94 0 -147 66t-53 165q0 98 53 164.5t147 66.5
q39 0 73 -17.5t52 -43.5v119h-108z" />
    <glyph glyph-name="Emacron" unicode="&#x112;" horiz-adv-x="515" 
d="M167 671v61h213v-61h-213zM73 614h391v-70h-313v-194h284v-70h-284v-209h313v-71h-391v614z" />
    <glyph glyph-name="emacron" unicode="&#x113;" horiz-adv-x="457" 
d="M135 530v61h213v-61h-213zM347 133h71q-12 -65 -59 -103.5t-120 -38.5q-91 0 -147.5 63.5t-56.5 166.5q0 101 56 166.5t146 65.5q89 0 138 -59.5t49 -158.5v-27h-314q1 -70 36.5 -111.5t92.5 -41.5q42 0 70.5 20.5t37.5 57.5zM238 389q-50 0 -84 -33t-42 -91h236
q-1 53 -29 88.5t-81 35.5z" />
    <glyph glyph-name="Ebreve" unicode="&#x114;" horiz-adv-x="515" 
d="M273 666q-52 0 -83.5 31.5t-31.5 88.5h57q0 -31 16 -47.5t42 -16.5q27 0 43 16.5t16 47.5h57q0 -58 -31.5 -89t-84.5 -31zM73 614h391v-70h-313v-194h284v-70h-284v-209h313v-71h-391v614z" />
    <glyph glyph-name="ebreve" unicode="&#x115;" horiz-adv-x="457" 
d="M241 500q-52 0 -83 33.5t-31 94.5h57q0 -34 15 -53.5t42 -19.5t42 19.5t15 53.5h57q0 -61 -31 -94.5t-83 -33.5zM347 133h71q-12 -65 -59 -103.5t-120 -38.5q-91 0 -147.5 63.5t-56.5 166.5q0 101 56 166.5t146 65.5q89 0 138 -59.5t49 -158.5v-27h-314
q1 -70 36.5 -111.5t92.5 -41.5q42 0 70.5 20.5t37.5 57.5zM238 389q-50 0 -84 -33t-42 -91h236q-1 53 -29 88.5t-81 35.5z" />
    <glyph glyph-name="Edotaccent" unicode="&#x116;" horiz-adv-x="515" 
d="M321 721q0 -19 -14.5 -33.5t-33.5 -14.5t-33.5 14.5t-14.5 33.5q0 20 14 34.5t34 14.5t34 -14.5t14 -34.5zM73 614h391v-70h-313v-194h284v-70h-284v-209h313v-71h-391v614z" />
    <glyph glyph-name="edotaccent" unicode="&#x117;" horiz-adv-x="457" 
d="M289 578q0 -20 -14.5 -34t-33.5 -14t-33.5 14t-14.5 34t14 34t34 14t34 -14t14 -34zM347 133h71q-12 -65 -59 -103.5t-120 -38.5q-91 0 -147.5 63.5t-56.5 166.5q0 101 56 166.5t146 65.5q89 0 138 -59.5t49 -158.5v-27h-314q1 -70 36.5 -111.5t92.5 -41.5
q42 0 70.5 20.5t37.5 57.5zM238 389q-50 0 -84 -33t-42 -91h236q-1 53 -29 88.5t-81 35.5z" />
    <glyph glyph-name="Eogonek" unicode="&#x118;" horiz-adv-x="515" 
d="M73 614h391v-70h-313v-194h284v-70h-284v-209h313v-71h-33q-30 -49 -39.5 -69t-9.5 -37q0 -26 22 -26q16 0 37 15v-50q-24 -19 -52 -19q-32 0 -49 17.5t-17 48.5q0 18 7.5 38.5t16 34.5t28.5 47h-302v614z" />
    <glyph glyph-name="eogonek" unicode="&#x119;" horiz-adv-x="457" 
d="M280 -3q-20 -6 -41 -6q-91 0 -147.5 63.5t-56.5 166.5q0 101 56 166.5t146 65.5q89 0 138 -59.5t49 -158.5v-27h-314q1 -70 36.5 -111.5t92.5 -41.5q41 0 70 20.5t38 57.5h71q-10 -56 -60 -108q-75 -77 -75 -128q0 -29 24 -29q16 0 37 15v-50q-24 -19 -52 -19
q-32 0 -50 18.5t-18 49.5q0 49 56 115zM238 389q-50 0 -84 -33t-42 -91h236q-1 53 -29 88.5t-81 35.5z" />
    <glyph glyph-name="Ecaron" unicode="&#x11a;" horiz-adv-x="515" 
d="M242 666l-92 121h68l59 -71l59 71h68l-92 -121h-70zM73 614h391v-70h-313v-194h284v-70h-284v-209h313v-71h-391v614z" />
    <glyph glyph-name="ecaron" unicode="&#x11b;" horiz-adv-x="457" 
d="M368 646l-92 -136h-70l-92 136h65l62 -87l62 87h65zM347 133h71q-12 -65 -59 -103.5t-120 -38.5q-91 0 -147.5 63.5t-56.5 166.5q0 101 56 166.5t146 65.5q89 0 138 -59.5t49 -158.5v-27h-314q1 -70 36.5 -111.5t92.5 -41.5q42 0 70.5 20.5t37.5 57.5zM238 389
q-50 0 -84 -33t-42 -91h236q-1 53 -29 88.5t-81 35.5z" />
    <glyph glyph-name="Gcircumflex" unicode="&#x11c;" horiz-adv-x="610" 
d="M353 791l92 -122h-68l-59 71l-59 -71h-68l92 122h70zM498 235h-147v68h222v-42q0 -122 -70.5 -196t-183.5 -74q-122 0 -202 87t-80 229q0 141 80 228.5t200 87.5q96 0 159.5 -51t82.5 -138h-79q-43 118 -163 118q-90 0 -145.5 -67.5t-55.5 -177.5t56 -178t147 -68
q79 0 125.5 46.5t53.5 127.5z" />
    <glyph glyph-name="gcircumflex" unicode="&#x11d;" horiz-adv-x="501" 
d="M294 645l92 -136h-65l-62 88l-62 -88h-65l92 136h70zM358 140v177q-38 69 -113 69q-62 0 -97.5 -44t-35.5 -114t35.5 -113.5t97.5 -43.5q75 0 113 69zM358 30v33q-18 -25 -51.5 -42.5t-72.5 -17.5q-93 0 -146 66t-53 159q0 94 53 159.5t146 65.5q39 0 72.5 -17t51.5 -42
v50h76v-409q0 -106 -54.5 -160.5t-143.5 -54.5q-80 0 -129.5 39t-60.5 108h74q19 -83 116 -83q122 0 122 146z" />
    <glyph glyph-name="Gbreve" unicode="&#x11e;" horiz-adv-x="610" 
d="M319 666q-52 0 -83.5 31.5t-31.5 88.5h57q0 -31 16 -47.5t42 -16.5q27 0 43 16.5t16 47.5h57q0 -58 -31.5 -89t-84.5 -31zM498 235h-147v68h222v-42q0 -122 -70.5 -196t-183.5 -74q-122 0 -202 87t-80 229q0 141 80 228.5t200 87.5q96 0 159.5 -51t82.5 -138h-79
q-43 118 -163 118q-90 0 -145.5 -67.5t-55.5 -177.5t56 -178t147 -68q79 0 125.5 46.5t53.5 127.5z" />
    <glyph glyph-name="gbreve" unicode="&#x11f;" horiz-adv-x="501" 
d="M259 500q-52 0 -83 33.5t-31 94.5h57q0 -34 15 -53.5t42 -19.5t42 19.5t15 53.5h57q0 -61 -31 -94.5t-83 -33.5zM358 140v177q-38 69 -113 69q-62 0 -97.5 -44t-35.5 -114t35.5 -113.5t97.5 -43.5q75 0 113 69zM358 30v33q-18 -25 -51.5 -42.5t-72.5 -17.5q-93 0 -146 66
t-53 159q0 94 53 159.5t146 65.5q39 0 72.5 -17t51.5 -42v50h76v-409q0 -106 -54.5 -160.5t-143.5 -54.5q-80 0 -129.5 39t-60.5 108h74q19 -83 116 -83q122 0 122 146z" />
    <glyph glyph-name="Gdotaccent" unicode="&#x120;" horiz-adv-x="610" 
d="M368 721q0 -19 -14 -33.5t-34 -14.5t-34 14.5t-14 33.5q0 20 14 34.5t34 14.5t34 -14.5t14 -34.5zM498 235h-147v68h222v-42q0 -122 -70.5 -196t-183.5 -74q-122 0 -202 87t-80 229q0 141 80 228.5t200 87.5q96 0 159.5 -51t82.5 -138h-79q-43 118 -163 118
q-90 0 -145.5 -67.5t-55.5 -177.5t56 -178t147 -68q79 0 125.5 46.5t53.5 127.5z" />
    <glyph glyph-name="gdotaccent" unicode="&#x121;" horiz-adv-x="501" 
d="M307 578q0 -20 -14.5 -34t-33.5 -14t-33.5 14t-14.5 34t14 34t34 14t34 -14t14 -34zM358 140v177q-38 69 -113 69q-62 0 -97.5 -44t-35.5 -114t35.5 -113.5t97.5 -43.5q75 0 113 69zM358 30v33q-18 -25 -51.5 -42.5t-72.5 -17.5q-93 0 -146 66t-53 159q0 94 53 159.5
t146 65.5q39 0 72.5 -17t51.5 -42v50h76v-409q0 -106 -54.5 -160.5t-143.5 -54.5q-80 0 -129.5 39t-60.5 108h74q19 -83 116 -83q122 0 122 146z" />
    <glyph glyph-name="uni0122" unicode="&#x122;" horiz-adv-x="610" 
d="M498 235h-147v68h222v-42q0 -122 -70.5 -196t-183.5 -74q-122 0 -202 87t-80 229q0 141 80 228.5t200 87.5q96 0 159.5 -51t82.5 -138h-79q-43 118 -163 118q-90 0 -145.5 -67.5t-55.5 -177.5t56 -178t147 -68q79 0 125.5 46.5t53.5 127.5zM271 -201l39 64q-18 2 -29 14
t-11 30q0 21 14.5 34.5t35.5 13.5t35 -14t14 -36q0 -23 -22 -57l-29 -49h-47z" />
    <glyph glyph-name="uni0123" unicode="&#x123;" horiz-adv-x="501" 
d="M307 680l-40 -65q18 -2 29.5 -14.5t11.5 -31.5q0 -21 -14.5 -34.5t-36.5 -13.5q-21 0 -35.5 14t-14.5 37q0 26 22 59l29 49h49zM358 140v177q-38 69 -113 69q-62 0 -97.5 -44t-35.5 -114t35.5 -113.5t97.5 -43.5q75 0 113 69zM358 30v33q-18 -25 -51.5 -42.5t-72.5 -17.5
q-93 0 -146 66t-53 159q0 94 53 159.5t146 65.5q39 0 72.5 -17t51.5 -42v50h76v-409q0 -106 -54.5 -160.5t-143.5 -54.5q-80 0 -129.5 39t-60.5 108h74q19 -83 116 -83q122 0 122 146z" />
    <glyph glyph-name="Hcircumflex" unicode="&#x124;" horiz-adv-x="651" 
d="M360 791l92 -122h-68l-59 71l-59 -71h-68l92 122h70zM499 614h79v-614h-79v280h-347v-280h-79v614h79v-263h347v263z" />
    <glyph glyph-name="hcircumflex" unicode="&#x125;" horiz-adv-x="489" 
d="M282 804l92 -122h-68l-59 71l-59 -71h-68l92 122h70zM67 0v650h75v-262q21 28 55.5 46.5t75.5 18.5q74 0 115 -44t41 -118v-291h-76v279q0 48 -24.5 76.5t-73.5 28.5q-39 0 -70 -23.5t-43 -59.5v-301h-75z" />
    <glyph glyph-name="Hbar" unicode="&#x126;" horiz-adv-x="679" 
d="M166 310h347v120h-347v-120zM32 430v66h55v118h79v-118h347v118h79v-118h55v-66h-55v-430h-79v244h-347v-244h-79v430h-55z" />
    <glyph glyph-name="hbar" unicode="&#x127;" horiz-adv-x="489" 
d="M10 511v54h57v85h75v-85h108v-54h-108v-123q21 28 55.5 46.5t75.5 18.5q74 0 115 -44t41 -118v-291h-76v279q0 48 -24.5 76.5t-73.5 28.5q-39 0 -70 -23.5t-43 -59.5v-301h-75v511h-57z" />
    <glyph glyph-name="Itilde" unicode="&#x128;" horiz-adv-x="225" 
d="M199 784h48q0 -55 -19.5 -87t-56.5 -32q-26 0 -60 28t-50 28q-34 0 -34 -53h-49q0 55 19.5 87t56.5 32q27 0 60.5 -28t50.5 -28q32 0 34 53zM152 614v-614h-79v614h79z" />
    <glyph glyph-name="itilde" unicode="&#x129;" horiz-adv-x="209" 
d="M168 633h46q0 -54 -17 -86t-47 -32q-21 0 -47.5 28t-36.5 28q-25 0 -27 -53h-46q0 54 17 86t47 32q21 0 48 -28t37 -28q24 0 26 53zM142 444v-444h-75v444h75z" />
    <glyph glyph-name="Imacron" unicode="&#x12a;" horiz-adv-x="225" 
d="M6 671v61h213v-61h-213zM152 614v-614h-79v614h79z" />
    <glyph glyph-name="imacron" unicode="&#x12b;" horiz-adv-x="209" 
d="M16 530v61h177v-61h-177zM142 444v-444h-75v444h75z" />
    <glyph glyph-name="Ibreve" unicode="&#x12c;" horiz-adv-x="225" 
d="M112 666q-52 0 -83.5 31.5t-31.5 88.5h57q0 -31 16 -47.5t42 -16.5q27 0 43 16.5t16 47.5h57q0 -58 -31 -89t-85 -31zM152 614v-614h-79v614h79z" />
    <glyph glyph-name="ibreve" unicode="&#x12d;" horiz-adv-x="209" 
d="M105 500q-46 0 -74 33.5t-28 94.5h55q0 -73 47 -73q46 0 46 73h55q0 -61 -27.5 -94.5t-73.5 -33.5zM142 444v-444h-75v444h75z" />
    <glyph glyph-name="Iogonek" unicode="&#x12e;" horiz-adv-x="225" 
d="M152 614v-614q-32 -52 -41 -70.5t-9 -35.5q0 -26 23 -26q16 0 37 15v-50q-24 -19 -52 -19q-32 0 -49 17.5t-17 48.5q0 18 7.5 38.5t16 34.5t28.5 47h-23v614h79z" />
    <glyph glyph-name="iogonek" unicode="&#x12f;" horiz-adv-x="209" 
d="M153 578q0 -20 -14.5 -34t-34.5 -14t-34 14t-14 34t14 34t34 14t34.5 -14t14.5 -34zM142 444v-444q-32 -53 -40.5 -71t-8.5 -35q0 -26 23 -26q14 0 37 15v-50q-26 -19 -52 -19q-32 0 -49.5 17.5t-17.5 48.5q0 18 7.5 38.5t16 34.5t28.5 47h-19v444h75z" />
    <glyph glyph-name="Idotaccent" unicode="&#x130;" horiz-adv-x="225" 
d="M160 721q0 -19 -14 -33.5t-34 -14.5t-34 14.5t-14 33.5q0 20 14 34.5t34 14.5t34 -14.5t14 -34.5zM152 614v-614h-79v614h79z" />
    <glyph glyph-name="dotlessi" unicode="&#x131;" horiz-adv-x="209" 
d="M142 444v-444h-75v444h75z" />
    <glyph glyph-name="IJ" unicode="&#x132;" horiz-adv-x="668" 
d="M152 614v-614h-79v614h79zM206 174h82q6 -52 36.5 -81.5t81.5 -29.5q122 0 122 141v410h79v-410q0 -104 -54 -158.5t-145 -54.5q-89 0 -142 50t-60 133z" />
    <glyph glyph-name="ij" unicode="&#x133;" horiz-adv-x="416" 
d="M362 578q0 -20 -14.5 -34t-34.5 -14q-19 0 -33.5 14t-14.5 34t14 34t34 14t34.5 -14t14.5 -34zM153 578q0 -20 -14.5 -34t-34.5 -14t-34 14t-14 34t14 34t34 14t34.5 -14t14.5 -34zM142 444v-444h-75v444h75zM351 444v-495q0 -62 -33.5 -95t-95.5 -33q-21 0 -32 4v64
q18 -3 26 -3q60 0 60 68v490h75z" />
    <glyph glyph-name="Jcircumflex" unicode="&#x134;" horiz-adv-x="479" 
d="M414 791l92 -122h-68l-59 71l-59 -71h-68l92 122h70zM17 174h81q6 -52 37 -81.5t82 -29.5q122 0 122 141v410h79v-410q0 -104 -54.5 -158.5t-145.5 -54.5q-89 0 -142 50t-59 133z" />
    <glyph glyph-name="jcircumflex" unicode="&#x135;" horiz-adv-x="207" 
d="M139 645l74 -136h-64l-45 85l-45 -85h-63l74 136h69zM142 444v-495q0 -62 -33.5 -95t-95.5 -33q-21 0 -32 4v64q18 -3 26 -3q60 0 60 68v490h75z" />
    <glyph glyph-name="uni0136" unicode="&#x136;" horiz-adv-x="564" 
d="M152 614v-307l286 307h100l-263 -280l272 -334h-98l-231 280l-66 -71v-209h-79v614h79zM216 -201l39 64q-18 2 -29 14t-11 30q0 21 14.5 34.5t35.5 13.5t35 -14t14 -36q0 -23 -22 -57l-29 -49h-47z" />
    <glyph glyph-name="uni0137" unicode="&#x137;" horiz-adv-x="464" 
d="M359 0l-169 205l-48 -46v-159h-75v650h75v-403l203 197h99l-200 -192l207 -252h-92zM179 -201l39 64q-18 2 -29 14t-11 30q0 21 14.5 34.5t35.5 13.5t35 -14t14 -36q0 -23 -22 -57l-29 -49h-47z" />
    <glyph glyph-name="kgreenlandic" unicode="&#x138;" horiz-adv-x="464" 
d="M359 0l-169 205l-48 -46v-159h-75v444h75v-197l203 197h99l-200 -192l207 -252h-92z" />
    <glyph glyph-name="Lacute" unicode="&#x139;" horiz-adv-x="504" 
d="M156 668h-76l80 117h87zM73 0v614h79v-543h313v-71h-392z" />
    <glyph glyph-name="lacute" unicode="&#x13a;" horiz-adv-x="209" 
d="M142 695h-76l80 117h87zM142 650v-650h-75v650h75z" />
    <glyph glyph-name="uni013B" unicode="&#x13b;" horiz-adv-x="504" 
d="M73 0v614h79v-543h313v-71h-392zM231 -201l39 64q-18 2 -29 14t-11 30q0 21 14.5 34.5t35.5 13.5t35 -14t14 -36q0 -23 -22 -57l-29 -49h-47z" />
    <glyph glyph-name="uni013C" unicode="&#x13c;" horiz-adv-x="209" 
d="M142 650v-650h-75v650h75zM56 -201l39 64q-18 2 -29 14t-11 30q0 21 14.5 34.5t35.5 13.5t35 -14t14 -36q0 -23 -22 -57l-29 -49h-47z" />
    <glyph glyph-name="Lcaron" unicode="&#x13d;" horiz-adv-x="504" 
d="M321 450h-60l33 164h60zM73 0v614h79v-543h313v-71h-392z" />
    <glyph glyph-name="lcaron" unicode="&#x13e;" horiz-adv-x="209" 
d="M256 486h-60l33 164h60zM142 650v-650h-75v650h75z" />
    <glyph glyph-name="Ldot" unicode="&#x13f;" horiz-adv-x="504" 
d="M73 0v614h79v-543h313v-71h-392zM412 307q0 -19 -14 -33.5t-34 -14.5t-34 14.5t-14 33.5q0 20 14 34t34 14t34 -14t14 -34z" />
    <glyph glyph-name="ldot" unicode="&#x140;" horiz-adv-x="332" 
d="M142 650v-650h-75v650h75zM317 325q0 -19 -14.5 -33.5t-33.5 -14.5t-33.5 14.5t-14.5 33.5q0 20 14 34t34 14t34 -14t14 -34z" />
    <glyph glyph-name="Lslash" unicode="&#x141;" horiz-adv-x="523" 
d="M30 226v73l62 25v290h79v-260l154 62v-72l-154 -63v-210h313v-71h-392v251z" />
    <glyph glyph-name="lslash" unicode="&#x142;" horiz-adv-x="246" 
d="M161 650v-236l60 39v-68l-60 -39v-346h-75v310l-56 -35v67l56 36v272h75z" />
    <glyph glyph-name="Nacute" unicode="&#x143;" horiz-adv-x="623" 
d="M343 668h-76l80 117h87zM550 614v-614h-58l-343 488v-488h-76v614h75l327 -467v467h75z" />
    <glyph glyph-name="nacute" unicode="&#x144;" horiz-adv-x="489" 
d="M280 516h-69l80 134h78zM67 0v444h75v-56q21 28 55.5 46.5t75.5 18.5q74 0 115 -44t41 -118v-291h-76v279q0 48 -24.5 76.5t-73.5 28.5q-39 0 -70 -23.5t-43 -59.5v-301h-75z" />
    <glyph glyph-name="uni0145" unicode="&#x145;" horiz-adv-x="623" 
d="M550 614v-614h-58l-343 488v-488h-76v614h75l327 -467v467h75zM266 -201l39 64q-18 2 -29 14t-11 30q0 21 14.5 34.5t35.5 13.5t35 -14t14 -36q0 -23 -22 -57l-29 -49h-47z" />
    <glyph glyph-name="uni0146" unicode="&#x146;" horiz-adv-x="489" 
d="M67 0v444h75v-56q21 28 55.5 46.5t75.5 18.5q74 0 115 -44t41 -118v-291h-76v279q0 48 -24.5 76.5t-73.5 28.5q-39 0 -70 -23.5t-43 -59.5v-301h-75zM205 -201l39 64q-18 2 -29 14t-11 30q0 21 14.5 34.5t35.5 13.5t35 -14t14 -36q0 -23 -22 -57l-29 -49h-47z" />
    <glyph glyph-name="Ncaron" unicode="&#x147;" horiz-adv-x="623" 
d="M277 666l-92 121h68l59 -71l59 71h68l-92 -121h-70zM550 614v-614h-58l-343 488v-488h-76v614h75l327 -467v467h75z" />
    <glyph glyph-name="ncaron" unicode="&#x148;" horiz-adv-x="489" 
d="M378 646l-92 -136h-70l-92 136h65l62 -87l62 87h65zM67 0v444h75v-56q21 28 55.5 46.5t75.5 18.5q74 0 115 -44t41 -118v-291h-76v279q0 48 -24.5 76.5t-73.5 28.5q-39 0 -70 -23.5t-43 -59.5v-301h-75z" />
    <glyph glyph-name="Eng" unicode="&#x14a;" horiz-adv-x="623" 
d="M266 -159v78q50 -33 102 -33q55 0 80.5 32t26.5 107l-326 463v-488h-76v614h75l327 -467v467h75v-587q0 -214 -178 -214q-54 0 -106 28z" />
    <glyph glyph-name="eng" unicode="&#x14b;" horiz-adv-x="489" 
d="M353 -46v325q0 48 -24.5 76.5t-73.5 28.5q-39 0 -70 -23.5t-43 -59.5v-301h-75v444h75v-56q21 28 55.5 46.5t75.5 18.5q74 0 115 -44t41 -118v-342q0 -62 -33.5 -95t-95.5 -33q-23 0 -32 4v64q18 -3 25 -3q60 0 60 68z" />
    <glyph glyph-name="Omacron" unicode="&#x14c;" horiz-adv-x="629" 
d="M208 671v61h213v-61h-213zM592 307q0 -139 -78 -227.5t-200 -88.5q-121 0 -199 88.5t-78 227.5t78 227.5t199 88.5q122 0 200 -88.5t78 -227.5zM513 307q0 108 -55 176.5t-144 68.5q-88 0 -143 -68.5t-55 -176.5t55 -176.5t143 -68.5q89 0 144 68.5t55 176.5z" />
    <glyph glyph-name="omacron" unicode="&#x14d;" horiz-adv-x="478" 
d="M133 530v61h213v-61h-213zM443 222q0 -102 -56.5 -166.5t-147.5 -64.5t-147.5 64.5t-56.5 166.5t56.5 166.5t147.5 64.5t147.5 -64.5t56.5 -166.5zM367 222q0 74 -34.5 119.5t-93.5 45.5t-93.5 -45.5t-34.5 -119.5t34.5 -119.5t93.5 -45.5t93.5 45.5t34.5 119.5z" />
    <glyph glyph-name="Obreve" unicode="&#x14e;" horiz-adv-x="629" 
d="M314 666q-52 0 -83.5 31.5t-31.5 88.5h57q0 -31 16 -47.5t42 -16.5q27 0 43 16.5t16 47.5h57q0 -58 -31 -89t-85 -31zM592 307q0 -139 -78 -227.5t-200 -88.5q-121 0 -199 88.5t-78 227.5t78 227.5t199 88.5q122 0 200 -88.5t78 -227.5zM513 307q0 108 -55 176.5
t-144 68.5q-88 0 -143 -68.5t-55 -176.5t55 -176.5t143 -68.5q89 0 144 68.5t55 176.5z" />
    <glyph glyph-name="obreve" unicode="&#x14f;" horiz-adv-x="478" 
d="M239 500q-52 0 -83 33.5t-31 94.5h57q0 -34 15 -53.5t42 -19.5t42 19.5t15 53.5h57q0 -61 -31 -94.5t-83 -33.5zM443 222q0 -102 -56.5 -166.5t-147.5 -64.5t-147.5 64.5t-56.5 166.5t56.5 166.5t147.5 64.5t147.5 -64.5t56.5 -166.5zM367 222q0 74 -34.5 119.5
t-93.5 45.5t-93.5 -45.5t-34.5 -119.5t34.5 -119.5t93.5 -45.5t93.5 45.5t34.5 119.5z" />
    <glyph glyph-name="Ohungarumlaut" unicode="&#x150;" horiz-adv-x="629" 
d="M413 668h-65l66 117h67zM290 668h-65l67 117h66zM592 307q0 -139 -78 -227.5t-200 -88.5q-121 0 -199 88.5t-78 227.5t78 227.5t199 88.5q122 0 200 -88.5t78 -227.5zM513 307q0 108 -55 176.5t-144 68.5q-88 0 -143 -68.5t-55 -176.5t55 -176.5t143 -68.5q89 0 144 68.5
t55 176.5z" />
    <glyph glyph-name="ohungarumlaut" unicode="&#x151;" horiz-adv-x="478" 
d="M326 516h-63l67 134h64zM207 516h-63l66 134h65zM443 222q0 -102 -56.5 -166.5t-147.5 -64.5t-147.5 64.5t-56.5 166.5t56.5 166.5t147.5 64.5t147.5 -64.5t56.5 -166.5zM367 222q0 74 -34.5 119.5t-93.5 45.5t-93.5 -45.5t-34.5 -119.5t34.5 -119.5t93.5 -45.5
t93.5 45.5t34.5 119.5z" />
    <glyph glyph-name="OE" unicode="&#x152;" horiz-adv-x="830" 
d="M780 614v-70h-298v-194h268v-70h-268v-209h298v-71h-445q-135 0 -216.5 83.5t-81.5 223.5t81.5 223.5t216.5 83.5h445zM337 71h68v473h-68q-104 0 -162.5 -64t-58.5 -173t58.5 -172.5t162.5 -63.5z" />
    <glyph glyph-name="oe" unicode="&#x153;" horiz-adv-x="787" 
d="M568 -9q-110 0 -166 91q-54 -91 -163 -91q-91 0 -147.5 64.5t-56.5 166.5t56.5 166.5t147.5 64.5q109 0 163 -93q57 93 165 93q89 0 138 -59.5t49 -158.5v-27h-315q1 -70 37 -111.5t92 -41.5q42 0 71 20.5t38 57.5h71q-12 -65 -59 -103.5t-121 -38.5zM567 389
q-50 0 -83.5 -33t-41.5 -91h236q-2 53 -30 88.5t-81 35.5zM367 222q0 74 -34.5 119.5t-93.5 45.5t-93.5 -45.5t-34.5 -119.5t34.5 -119.5t93.5 -45.5t93.5 45.5t34.5 119.5z" />
    <glyph glyph-name="Racute" unicode="&#x154;" horiz-adv-x="552" 
d="M303 668h-76l80 117h87zM152 545v-218h147q60 0 92.5 29t32.5 80t-32.5 80t-92.5 29h-147zM261 260h-109v-260h-79v614h228q94 0 147.5 -46t53.5 -132q0 -75 -41 -119t-115 -54l181 -263h-90z" />
    <glyph glyph-name="racute" unicode="&#x155;" horiz-adv-x="321" 
d="M210 516h-69l80 134h78zM295 446v-77q-18 12 -50 12q-36 0 -64 -22t-39 -61v-298h-75v444h75v-58q15 29 44.5 48t65.5 19q29 0 43 -7z" />
    <glyph glyph-name="uni0156" unicode="&#x156;" horiz-adv-x="552" 
d="M152 545v-218h147q60 0 92.5 29t32.5 80t-32.5 80t-92.5 29h-147zM261 260h-109v-260h-79v614h228q94 0 147.5 -46t53.5 -132q0 -75 -41 -119t-115 -54l181 -263h-90zM225 -201l39 64q-18 2 -29 14t-11 30q0 21 14.5 34.5t35.5 13.5t35 -14t14 -36q0 -23 -22 -57l-29 -49
h-47z" />
    <glyph glyph-name="uni0157" unicode="&#x157;" horiz-adv-x="321" 
d="M295 446v-77q-18 12 -50 12q-36 0 -64 -22t-39 -61v-298h-75v444h75v-58q15 29 44.5 48t65.5 19q29 0 43 -7zM54 -201l39 64q-18 2 -29 14t-11 30q0 21 14.5 34.5t35.5 13.5t35 -14t14 -36q0 -23 -22 -57l-29 -49h-47z" />
    <glyph glyph-name="Rcaron" unicode="&#x158;" horiz-adv-x="552" 
d="M236 666l-92 121h68l59 -71l59 71h68l-92 -121h-70zM152 545v-218h147q60 0 92.5 29t32.5 80t-32.5 80t-92.5 29h-147zM261 260h-109v-260h-79v614h228q94 0 147.5 -46t53.5 -132q0 -75 -41 -119t-115 -54l181 -263h-90z" />
    <glyph glyph-name="rcaron" unicode="&#x159;" horiz-adv-x="321" 
d="M308 646l-92 -136h-70l-92 136h65l62 -87l62 87h65zM295 446v-77q-18 12 -50 12q-36 0 -64 -22t-39 -61v-298h-75v444h75v-58q15 29 44.5 48t65.5 19q29 0 43 -7z" />
    <glyph glyph-name="Sacute" unicode="&#x15a;" horiz-adv-x="509" 
d="M279 668h-76l80 117h87zM23 160h80q35 -102 156 -102q61 0 98.5 28.5t37.5 78.5q0 37 -23 60.5t-75 36.5l-110 29q-147 38 -147 158q0 77 57 125.5t145 48.5q93 0 150 -43.5t75 -118.5h-79q-33 95 -146 95q-56 0 -91.5 -27.5t-35.5 -73.5q0 -38 24 -59.5t74 -34.5
l105 -27q153 -39 153 -165q0 -82 -59.5 -130t-152.5 -48t-156 44.5t-80 124.5z" />
    <glyph glyph-name="sacute" unicode="&#x15b;" horiz-adv-x="414" 
d="M236 516h-69l80 134h78zM30 122h78q21 -68 105 -68q41 0 66 16.5t25 49.5q0 45 -66 62l-88 23q-107 27 -107 117q0 58 45 94.5t114 36.5q72 0 116 -33t56 -93h-75q-20 63 -98 63q-35 0 -60 -16.5t-25 -47.5q0 -22 14.5 -34.5t47.5 -21.5l86 -21q113 -30 113 -124
q0 -62 -46 -98t-119 -36t-122.5 35t-59.5 96z" />
    <glyph glyph-name="Scircumflex" unicode="&#x15c;" horiz-adv-x="509" 
d="M286 791l92 -122h-68l-59 71l-59 -71h-68l92 122h70zM23 160h80q35 -102 156 -102q61 0 98.5 28.5t37.5 78.5q0 37 -23 60.5t-75 36.5l-110 29q-147 38 -147 158q0 77 57 125.5t145 48.5q93 0 150 -43.5t75 -118.5h-79q-33 95 -146 95q-56 0 -91.5 -27.5t-35.5 -73.5
q0 -38 24 -59.5t74 -34.5l105 -27q153 -39 153 -165q0 -82 -59.5 -130t-152.5 -48t-156 44.5t-80 124.5z" />
    <glyph glyph-name="scircumflex" unicode="&#x15d;" horiz-adv-x="414" 
d="M242 645l92 -136h-65l-62 88l-62 -88h-65l92 136h70zM30 122h78q21 -68 105 -68q41 0 66 16.5t25 49.5q0 45 -66 62l-88 23q-107 27 -107 117q0 58 45 94.5t114 36.5q72 0 116 -33t56 -93h-75q-20 63 -98 63q-35 0 -60 -16.5t-25 -47.5q0 -22 14.5 -34.5t47.5 -21.5
l86 -21q113 -30 113 -124q0 -62 -46 -98t-119 -36t-122.5 35t-59.5 96z" />
    <glyph glyph-name="uni015E" unicode="&#x15e;" horiz-adv-x="509" 
d="M23 160h80q35 -102 156 -102q61 0 98.5 28.5t37.5 78.5q0 37 -23 60.5t-75 36.5l-110 29q-147 38 -147 158q0 77 57 125.5t145 48.5q93 0 150 -43.5t75 -118.5h-79q-33 95 -146 95q-56 0 -91.5 -27.5t-35.5 -73.5q0 -38 24 -59.5t74 -34.5l105 -27q153 -39 153 -165
q0 -82 -59.5 -130t-152.5 -48t-156 44.5t-80 124.5zM219 -183h-71l66 132h74z" />
    <glyph glyph-name="uni015F" unicode="&#x15f;" horiz-adv-x="414" 
d="M30 122h78q21 -68 105 -68q41 0 66 16.5t25 49.5q0 45 -66 62l-88 23q-107 27 -107 117q0 58 45 94.5t114 36.5q72 0 116 -33t56 -93h-75q-20 63 -98 63q-35 0 -60 -16.5t-25 -47.5q0 -22 14.5 -34.5t47.5 -21.5l86 -21q113 -30 113 -124q0 -62 -46 -98t-119 -36
t-122.5 35t-59.5 96zM179 -183h-71l66 132h74z" />
    <glyph glyph-name="Scaron" unicode="&#x160;" horiz-adv-x="509" 
d="M216 666l-92 121h68l59 -71l59 71h68l-92 -121h-70zM23 160h80q35 -102 156 -102q61 0 98.5 28.5t37.5 78.5q0 37 -23 60.5t-75 36.5l-110 29q-147 38 -147 158q0 77 57 125.5t145 48.5q93 0 150 -43.5t75 -118.5h-79q-33 95 -146 95q-56 0 -91.5 -27.5t-35.5 -73.5
q0 -38 24 -59.5t74 -34.5l105 -27q153 -39 153 -165q0 -82 -59.5 -130t-152.5 -48t-156 44.5t-80 124.5z" />
    <glyph glyph-name="scaron" unicode="&#x161;" horiz-adv-x="414" 
d="M334 646l-92 -136h-70l-92 136h65l62 -87l62 87h65zM30 122h78q21 -68 105 -68q41 0 66 16.5t25 49.5q0 45 -66 62l-88 23q-107 27 -107 117q0 58 45 94.5t114 36.5q72 0 116 -33t56 -93h-75q-20 63 -98 63q-35 0 -60 -16.5t-25 -47.5q0 -22 14.5 -34.5t47.5 -21.5
l86 -21q113 -30 113 -124q0 -62 -46 -98t-119 -36t-122.5 35t-59.5 96z" />
    <glyph glyph-name="uni0162" unicode="&#x162;" horiz-adv-x="567" 
d="M30 544v70h507v-70h-214v-544h-79v544h-214zM238 -201l39 64q-18 2 -29 14t-11 30q0 21 14.5 34.5t35.5 13.5t35 -14t14 -36q0 -23 -22 -57l-29 -49h-47z" />
    <glyph glyph-name="uni0163" unicode="&#x163;" horiz-adv-x="317" 
d="M88 112v268h-72v64h72v117h75v-117h107v-64h-107v-260q0 -62 59 -62q31 0 58 18v-70q-28 -15 -70 -15q-56 0 -89 30.5t-33 90.5zM139 -201l39 64q-18 2 -29 14t-11 30q0 21 14.5 34.5t35.5 13.5t35 -14t14 -36q0 -23 -22 -57l-29 -49h-47z" />
    <glyph glyph-name="Tcaron" unicode="&#x164;" horiz-adv-x="567" 
d="M249 666l-92 121h68l59 -71l59 71h68l-92 -121h-70zM30 544v70h507v-70h-214v-544h-79v544h-214z" />
    <glyph glyph-name="tcaron" unicode="&#x165;" horiz-adv-x="317" 
d="M276 496h-60l33 164h60zM88 112v268h-72v64h72v117h75v-117h107v-64h-107v-260q0 -62 59 -62q31 0 58 18v-70q-28 -15 -70 -15q-56 0 -89 30.5t-33 90.5z" />
    <glyph glyph-name="Tbar" unicode="&#x166;" horiz-adv-x="567" 
d="M30 544v70h507v-70h-214v-193h113v-67h-113v-284h-79v284h-113v67h113v193h-214z" />
    <glyph glyph-name="tbar" unicode="&#x167;" horiz-adv-x="321" 
d="M29 219v61h63v100h-72v64h72v117h75v-117h107v-64h-107v-100h91v-61h-91v-99q0 -62 59 -62q31 0 58 18v-70q-28 -15 -70 -15q-57 0 -89.5 30.5t-32.5 90.5v107h-63z" />
    <glyph glyph-name="Utilde" unicode="&#x168;" horiz-adv-x="607" 
d="M390 784h48q0 -55 -19.5 -87t-56.5 -32q-26 0 -60 28t-50 28q-34 0 -34 -53h-49q0 55 19.5 87t56.5 32q27 0 60.5 -28t50.5 -28q32 0 34 53zM303 -9q-108 0 -174 65t-66 188v370h78v-361q0 -96 43 -144t119 -48t119 48t43 144v361h79v-371q0 -122 -66 -187t-175 -65z" />
    <glyph glyph-name="utilde" unicode="&#x169;" horiz-adv-x="487" 
d="M327 633h48q0 -54 -19.5 -86t-56.5 -32q-25 0 -57.5 29t-46.5 29q-34 0 -34 -55h-48q0 54 19.5 86t56.5 32q25 0 57.5 -29t46.5 -29q32 0 34 55zM421 444v-444h-76v56q-20 -28 -54 -46.5t-75 -18.5q-74 0 -114.5 44t-40.5 118v291h76v-279q0 -49 24 -77t73 -28
q38 0 68.5 23t42.5 60v301h76z" />
    <glyph glyph-name="Umacron" unicode="&#x16a;" horiz-adv-x="607" 
d="M197 671v61h213v-61h-213zM303 -9q-108 0 -174 65t-66 188v370h78v-361q0 -96 43 -144t119 -48t119 48t43 144v361h79v-371q0 -122 -66 -187t-175 -65z" />
    <glyph glyph-name="umacron" unicode="&#x16b;" horiz-adv-x="487" 
d="M137 530v61h213v-61h-213zM421 444v-444h-76v56q-20 -28 -54 -46.5t-75 -18.5q-74 0 -114.5 44t-40.5 118v291h76v-279q0 -49 24 -77t73 -28q38 0 68.5 23t42.5 60v301h76z" />
    <glyph glyph-name="Ubreve" unicode="&#x16c;" horiz-adv-x="607" 
d="M303 666q-52 0 -83.5 31.5t-31.5 88.5h57q0 -31 16 -47.5t42 -16.5q27 0 43 16.5t16 47.5h57q0 -58 -31.5 -89t-84.5 -31zM303 -9q-108 0 -174 65t-66 188v370h78v-361q0 -96 43 -144t119 -48t119 48t43 144v361h79v-371q0 -122 -66 -187t-175 -65z" />
    <glyph glyph-name="ubreve" unicode="&#x16d;" horiz-adv-x="487" 
d="M243 500q-52 0 -83 33.5t-31 94.5h57q0 -34 15 -53.5t42 -19.5t42 19.5t15 53.5h57q0 -61 -31 -94.5t-83 -33.5zM421 444v-444h-76v56q-20 -28 -54 -46.5t-75 -18.5q-74 0 -114.5 44t-40.5 118v291h76v-279q0 -49 24 -77t73 -28q38 0 68.5 23t42.5 60v301h76z" />
    <glyph glyph-name="Uring" unicode="&#x16e;" horiz-adv-x="607" 
d="M390 734q0 -36 -25 -61t-62 -25t-62 25t-25 61q0 37 25 62t62 25t62 -25t25 -62zM348 734q0 19 -13 32.5t-32 13.5t-32 -13.5t-13 -32.5t13 -32t32 -13t32 13t13 32zM303 -9q-108 0 -174 65t-66 188v370h78v-361q0 -96 43 -144t119 -48t119 48t43 144v361h79v-371
q0 -122 -66 -187t-175 -65z" />
    <glyph glyph-name="uring" unicode="&#x16f;" horiz-adv-x="487" 
d="M330 580q0 -37 -25 -61.5t-62 -24.5t-62 24.5t-25 61.5t25 61.5t62 24.5t62 -24.5t25 -61.5zM288 580q0 19 -13 32t-32 13t-32 -13t-13 -32t13 -32t32 -13t32 13t13 32zM421 444v-444h-76v56q-20 -28 -54 -46.5t-75 -18.5q-74 0 -114.5 44t-40.5 118v291h76v-279
q0 -49 24 -77t73 -28q38 0 68.5 23t42.5 60v301h76z" />
    <glyph glyph-name="Uhungarumlaut" unicode="&#x170;" horiz-adv-x="607" 
d="M402 668h-65l66 117h67zM279 668h-65l67 117h66zM303 -9q-108 0 -174 65t-66 188v370h78v-361q0 -96 43 -144t119 -48t119 48t43 144v361h79v-371q0 -122 -66 -187t-175 -65z" />
    <glyph glyph-name="uhungarumlaut" unicode="&#x171;" horiz-adv-x="487" 
d="M331 516h-63l67 134h64zM212 516h-63l66 134h65zM421 444v-444h-76v56q-20 -28 -54 -46.5t-75 -18.5q-74 0 -114.5 44t-40.5 118v291h76v-279q0 -49 24 -77t73 -28q38 0 68.5 23t42.5 60v301h76z" />
    <glyph glyph-name="Uogonek" unicode="&#x172;" horiz-adv-x="607" 
d="M303 -9q-108 0 -174 65t-66 188v370h78v-361q0 -96 43 -144t119 -48t119 48t43 144v361h79v-371q0 -80 -27 -131.5t-82 -90.5q-92 -65 -92 -127q0 -26 23 -26q14 0 37 15v-50q-26 -19 -52 -19q-32 0 -49.5 18t-17.5 49q0 59 57 113q-12 -3 -38 -3z" />
    <glyph glyph-name="uogonek" unicode="&#x173;" horiz-adv-x="487" 
d="M421 444v-444q-32 -53 -40.5 -71t-8.5 -35q0 -26 22 -26q16 0 37 15v-50q-24 -19 -52 -19q-32 0 -49 17.5t-17 48.5q0 18 7.5 38.5t16 34.5t28.5 47h-20v56q-20 -28 -54 -46.5t-75 -18.5q-74 0 -114.5 44t-40.5 118v291h76v-279q0 -49 24 -77t73 -28q38 0 68.5 23
t42.5 60v301h76z" />
    <glyph glyph-name="Wcircumflex" unicode="&#x174;" horiz-adv-x="767" 
d="M418 791l92 -122h-68l-59 71l-59 -71h-68l92 122h70zM353 614h63l130 -488l126 488h76l-163 -614h-72l-129 479l-131 -479h-71l-163 614h78l126 -488z" />
    <glyph glyph-name="wcircumflex" unicode="&#x175;" horiz-adv-x="629" 
d="M350 645l92 -136h-65l-62 88l-62 -88h-65l92 136h70zM349 444l91 -339l98 339h73l-131 -444h-73l-92 337l-93 -337h-73l-131 444h75l98 -339l91 339h67z" />
    <glyph glyph-name="Ycircumflex" unicode="&#x176;" horiz-adv-x="557" 
d="M314 791l92 -122h-68l-59 71l-59 -71h-68l92 122h70zM280 324l177 290h84l-224 -361v-253h-78v253l-222 361h86z" />
    <glyph glyph-name="ycircumflex" unicode="&#x177;" horiz-adv-x="455" 
d="M263 645l92 -136h-65l-62 88l-62 -88h-65l92 136h70zM198 -170h-74l67 167l-173 447h81l131 -350l129 350h78z" />
    <glyph glyph-name="Ydieresis" unicode="&#x178;" horiz-adv-x="557" 
d="M303 722q0 19 13 32.5t32 13.5q20 0 33.5 -13.5t13.5 -32.5t-13.5 -32.5t-33.5 -13.5q-19 0 -32 13.5t-13 32.5zM162 722q0 19 13.5 32.5t33.5 13.5q19 0 32.5 -13.5t13.5 -32.5t-13.5 -32.5t-32.5 -13.5q-20 0 -33.5 13.5t-13.5 32.5zM280 324l177 290h84l-224 -361
v-253h-78v253l-222 361h86z" />
    <glyph glyph-name="Zacute" unicode="&#x179;" horiz-adv-x="534" 
d="M319 668h-76l80 117h87zM492 71v-71h-451v57l349 487h-344v70h442v-56l-348 -487h352z" />
    <glyph glyph-name="zacute" unicode="&#x17a;" horiz-adv-x="434" 
d="M253 516h-69l80 134h78zM390 64v-64h-349v49l249 331h-241v64h337v-49l-247 -331h251z" />
    <glyph glyph-name="Zdotaccent" unicode="&#x17b;" horiz-adv-x="534" 
d="M335 721q0 -19 -14.5 -33.5t-33.5 -14.5t-33.5 14.5t-14.5 33.5q0 20 14 34.5t34 14.5t34 -14.5t14 -34.5zM492 71v-71h-451v57l349 487h-344v70h442v-56l-348 -487h352z" />
    <glyph glyph-name="zdotaccent" unicode="&#x17c;" horiz-adv-x="434" 
d="M272 578q0 -20 -14 -34t-34 -14t-34 14t-14 34t14 34t34 14t34 -14t14 -34zM390 64v-64h-349v49l249 331h-241v64h337v-49l-247 -331h251z" />
    <glyph glyph-name="Zcaron" unicode="&#x17d;" horiz-adv-x="534" 
d="M252 666l-92 121h68l59 -71l59 71h68l-92 -121h-70zM492 71v-71h-451v57l349 487h-344v70h442v-56l-348 -487h352z" />
    <glyph glyph-name="zcaron" unicode="&#x17e;" horiz-adv-x="434" 
d="M351 646l-92 -136h-70l-92 136h65l62 -87l62 87h65zM390 64v-64h-349v49l249 331h-241v64h337v-49l-247 -331h251z" />
    <glyph glyph-name="uni0192" unicode="&#x192;" horiz-adv-x="405" 
d="M68 281v63h82l25 138q12 67 52.5 104t102.5 37q36 0 61 -12v-68q-26 14 -60 14q-32 0 -53.5 -21t-28.5 -60l-24 -132h97v-63h-108l-56 -320q-12 -68 -45 -103t-95 -35q-35 0 -60 12v68q26 -14 59 -14q31 0 45.5 19t21.5 59l55 314h-71z" />
    <glyph glyph-name="Aringacute" unicode="&#x1fa;" horiz-adv-x="596" 
d="M339 808h-74l55 86h86zM386 711q0 -31 -25.5 -52.5t-63.5 -21.5q-37 0 -62.5 21.5t-25.5 52.5t25.5 52.5t62.5 21.5t63 -21.5t26 -52.5zM344 711q0 16 -13.5 26t-33.5 10q-19 0 -32.5 -10t-13.5 -26t13.5 -26t32.5 -10q20 0 33.5 10t13.5 26zM297 516l-100 -262h200z
M261 614h74l240 -614h-80l-71 185h-253l-70 -185h-80z" />
    <glyph glyph-name="aringacute" unicode="&#x1fb;" horiz-adv-x="502" 
d="M288 647h-74l56 86h86zM336 550q0 -31 -26 -52.5t-63 -21.5t-62.5 21.5t-25.5 52.5t25.5 52.5t62.5 21.5q38 0 63.5 -21.5t25.5 -52.5zM294 550q0 16 -13.5 26.5t-33.5 10.5q-19 0 -32.5 -10.5t-13.5 -26.5t13.5 -26t32.5 -10q20 0 33.5 10t13.5 26zM360 132v180
q-17 34 -47.5 53.5t-66.5 19.5q-62 0 -98.5 -45.5t-36.5 -117.5t36.5 -117.5t98.5 -45.5q36 0 66.5 19.5t47.5 53.5zM360 0v52q-18 -26 -52 -43.5t-73 -17.5q-94 0 -147 66t-53 165q0 98 53 164.5t147 66.5q39 0 73 -17.5t52 -43.5v52h76v-444h-76z" />
    <glyph glyph-name="AEacute" unicode="&#x1fc;" horiz-adv-x="862" 
d="M620 668h-76l80 117h87zM437 550l-180 -296h180v296zM390 614h421v-70h-297v-194h268v-70h-268v-209h297v-71h-374v185h-222l-112 -185h-82z" />
    <glyph glyph-name="aeacute" unicode="&#x1fd;" horiz-adv-x="795" 
d="M434 516h-69l80 134h78zM587 -9q-103 0 -151 79v-70h-73v65q-20 -31 -57 -52.5t-80 -21.5q-93 0 -142 66.5t-49 165.5q0 100 49 166t142 66q43 0 80 -21t57 -52v65h73v-74q21 38 58 59t81 21q90 0 139 -59.5t49 -158.5v-27h-316q1 -70 37 -111t94 -41q42 0 70.5 20
t37.5 58h71q-12 -64 -58 -103.5t-112 -39.5zM363 138v171q-42 79 -120 79q-60 0 -95.5 -46t-35.5 -119t35.5 -118.5t95.5 -45.5q78 0 120 79zM576 388q-50 0 -84 -32.5t-42 -90.5h237q-2 53 -30 88t-81 35z" />
    <glyph glyph-name="Oslashacute" unicode="&#x1fe;" horiz-adv-x="639" 
d="M351 668h-76l80 117h87zM121 307q0 -96 39 -158l284 357q-51 46 -125 46q-88 0 -143 -68.5t-55 -176.5zM518 307q0 93 -38 155l-282 -357q48 -43 121 -43q89 0 144 68.5t55 176.5zM56 18l56 71q-70 87 -70 218q0 139 78 227.5t199 88.5q97 0 170 -60l47 60l46 -33
l-54 -67q69 -86 69 -216q0 -139 -78 -227.5t-200 -88.5q-97 0 -166 57l-50 -63z" />
    <glyph glyph-name="oslashacute" unicode="&#x1ff;" horiz-adv-x="488" 
d="M272 516h-69l80 134h78zM115 222q0 -58 20 -98l184 237q-31 26 -75 26q-59 0 -94 -45.5t-35 -119.5zM373 222q0 57 -22 99l-184 -238q31 -26 77 -26q59 0 94 45.5t35 119.5zM40 1l49 63q-49 61 -49 158q0 102 56.5 166.5t147.5 64.5q68 0 117 -37l42 53l41 -29l-46 -60
q50 -65 50 -158q0 -102 -56.5 -166.5t-147.5 -64.5q-70 0 -119 38l-44 -57z" />
    <glyph glyph-name="uni0218" unicode="&#x218;" horiz-adv-x="509" 
d="M23 160h80q35 -102 156 -102q61 0 98.5 28.5t37.5 78.5q0 37 -23 60.5t-75 36.5l-110 29q-147 38 -147 158q0 77 57 125.5t145 48.5q93 0 150 -43.5t75 -118.5h-79q-33 95 -146 95q-56 0 -91.5 -27.5t-35.5 -73.5q0 -38 24 -59.5t74 -34.5l105 -27q153 -39 153 -165
q0 -82 -59.5 -130t-152.5 -48t-156 44.5t-80 124.5zM201 -201l39 64q-18 2 -29 14t-11 30q0 21 14.5 34.5t35.5 13.5t35 -14t14 -36q0 -23 -22 -57l-29 -49h-47z" />
    <glyph glyph-name="uni0219" unicode="&#x219;" horiz-adv-x="414" 
d="M30 122h78q21 -68 105 -68q41 0 66 16.5t25 49.5q0 45 -66 62l-88 23q-107 27 -107 117q0 58 45 94.5t114 36.5q72 0 116 -33t56 -93h-75q-20 63 -98 63q-35 0 -60 -16.5t-25 -47.5q0 -22 14.5 -34.5t47.5 -21.5l86 -21q113 -30 113 -124q0 -62 -46 -98t-119 -36
t-122.5 35t-59.5 96zM161 -201l39 64q-18 2 -29 14t-11 30q0 21 14.5 34.5t35.5 13.5t35 -14t14 -36q0 -23 -22 -57l-29 -49h-47z" />
    <glyph glyph-name="uni0237" unicode="&#x237;" horiz-adv-x="207" 
d="M142 444v-495q0 -62 -33.5 -95t-95.5 -33q-21 0 -32 4v64q18 -3 26 -3q60 0 60 68v490h75z" />
    <glyph glyph-name="circumflex" unicode="&#x2c6;" 
d="M285 645l92 -136h-65l-62 88l-62 -88h-65l92 136h70z" />
    <glyph glyph-name="caron" unicode="&#x2c7;" 
d="M377 646l-92 -136h-70l-92 136h65l62 -87l62 87h65z" />
    <glyph glyph-name="breve" unicode="&#x2d8;" 
d="M250 500q-52 0 -83 33.5t-31 94.5h57q0 -34 15 -53.5t42 -19.5t42 19.5t15 53.5h57q0 -61 -31 -94.5t-83 -33.5z" />
    <glyph glyph-name="dotaccent" unicode="&#x2d9;" 
d="M298 578q0 -20 -14 -34t-34 -14t-34 14t-14 34t14 34t34 14t34 -14t14 -34z" />
    <glyph glyph-name="ring" unicode="&#x2da;" 
d="M337 580q0 -37 -25 -61.5t-62 -24.5t-62 24.5t-25 61.5t25 61.5t62 24.5t62 -24.5t25 -61.5zM295 580q0 19 -13 32t-32 13t-32 -13t-13 -32t13 -32t32 -13t32 13t13 32z" />
    <glyph glyph-name="ogonek" unicode="&#x2db;" 
d="M249 4h56q-33 -54 -42.5 -73.5t-9.5 -36.5q0 -26 22 -26q16 0 37 15v-50q-24 -19 -52 -19q-32 0 -49 17.5t-17 48.5q0 18 8.5 39.5t16 34.5t30.5 50z" />
    <glyph glyph-name="tilde" unicode="&#x2dc;" 
d="M333 633h48q0 -54 -19.5 -86t-56.5 -32q-25 0 -57.5 29t-46.5 29q-34 0 -34 -55h-48q0 54 19.5 86t56.5 32q25 0 57.5 -29t46.5 -29q32 0 34 55z" />
    <glyph glyph-name="hungarumlaut" unicode="&#x2dd;" 
d="M307 516h-63l67 134h64zM188 516h-63l66 134h65z" />
    <glyph glyph-name="Wgrave" unicode="&#x1e80;" horiz-adv-x="767" 
d="M421 668h-75l-92 117h87zM353 614h63l130 -488l126 488h76l-163 -614h-72l-129 479l-131 -479h-71l-163 614h78l126 -488z" />
    <glyph glyph-name="wgrave" unicode="&#x1e81;" horiz-adv-x="629" 
d="M353 516h-69l-89 134h78zM349 444l91 -339l98 339h73l-131 -444h-73l-92 337l-93 -337h-73l-131 444h75l98 -339l91 339h67z" />
    <glyph glyph-name="Wacute" unicode="&#x1e82;" horiz-adv-x="767" 
d="M420 668h-76l80 117h87zM353 614h63l130 -488l126 488h76l-163 -614h-72l-129 479l-131 -479h-71l-163 614h78l126 -488z" />
    <glyph glyph-name="wacute" unicode="&#x1e83;" horiz-adv-x="629" 
d="M344 516h-69l80 134h78zM349 444l91 -339l98 339h73l-131 -444h-73l-92 337l-93 -337h-73l-131 444h75l98 -339l91 339h67z" />
    <glyph glyph-name="Wdieresis" unicode="&#x1e84;" horiz-adv-x="767" 
d="M408 722q0 19 13 32.5t32 13.5q20 0 33.5 -13.5t13.5 -32.5t-13.5 -32.5t-33.5 -13.5q-19 0 -32 13.5t-13 32.5zM267 722q0 19 13.5 32.5t33.5 13.5q19 0 32.5 -13.5t13.5 -32.5t-13.5 -32.5t-32.5 -13.5q-20 0 -33.5 13.5t-13.5 32.5zM353 614h63l130 -488l126 488h76
l-163 -614h-72l-129 479l-131 -479h-71l-163 614h78l126 -488z" />
    <glyph glyph-name="wdieresis" unicode="&#x1e85;" horiz-adv-x="629" 
d="M339 571q0 20 13 33.5t32 13.5q20 0 33.5 -13.5t13.5 -33.5q0 -19 -14 -32.5t-33 -13.5t-32 13.5t-13 32.5zM198 571q0 20 13.5 33.5t33.5 13.5q19 0 32.5 -13.5t13.5 -33.5q0 -19 -13.5 -32.5t-32.5 -13.5t-33 13.5t-14 32.5zM349 444l91 -339l98 339h73l-131 -444h-73
l-92 337l-93 -337h-73l-131 444h75l98 -339l91 339h67z" />
    <glyph glyph-name="Ygrave" unicode="&#x1ef2;" horiz-adv-x="557" 
d="M319 668h-75l-92 117h87zM280 324l177 290h84l-224 -361v-253h-78v253l-222 361h86z" />
    <glyph glyph-name="ygrave" unicode="&#x1ef3;" horiz-adv-x="455" 
d="M266 516h-69l-89 134h78zM198 -170h-74l67 167l-173 447h81l131 -350l129 350h78z" />
    <glyph glyph-name="endash" unicode="&#x2013;" horiz-adv-x="475" 
d="M40 231v61h395v-61h-395z" />
    <glyph glyph-name="emdash" unicode="&#x2014;" horiz-adv-x="846" 
d="M40 231v61h766v-61h-766z" />
    <glyph glyph-name="quoteleft" unicode="&#x2018;" horiz-adv-x="168" 
d="M149 614l-61 -103q19 -3 31.5 -16.5t12.5 -33.5q0 -23 -15.5 -38t-38.5 -15t-38 15.5t-15 42.5q0 26 22 63l51 85h51z" />
    <glyph glyph-name="quoteright" unicode="&#x2019;" horiz-adv-x="168" 
d="M19 417l61 103q-19 3 -31.5 16.5t-12.5 33.5q0 23 15.5 38t38.5 15t38 -15.5t15 -42.5q0 -26 -22 -63l-51 -85h-51z" />
    <glyph glyph-name="quotesinglbase" unicode="&#x201a;" horiz-adv-x="161" 
d="M19 -103l61 103q-19 3 -31.5 16.5t-12.5 33.5q0 23 15.5 38t38.5 15t38 -15.5t15 -42.5q0 -26 -22 -63l-51 -85h-51z" />
    <glyph glyph-name="quotedblleft" unicode="&#x201c;" horiz-adv-x="321" 
d="M302 614l-61 -103q19 -3 31.5 -16.5t12.5 -33.5q0 -23 -15.5 -38t-38.5 -15t-38 15.5t-15 42.5q0 26 22 63l51 85h51zM149 614l-61 -103q19 -3 31.5 -16.5t12.5 -33.5q0 -23 -15.5 -38t-38.5 -15t-38 15.5t-15 42.5q0 26 22 63l51 85h51z" />
    <glyph glyph-name="quotedblright" unicode="&#x201d;" horiz-adv-x="321" 
d="M172 417l61 103q-19 3 -31.5 16.5t-12.5 33.5q0 23 15.5 38t38.5 15t38 -15.5t15 -42.5q0 -26 -22 -63l-51 -85h-51zM19 417l61 103q-19 3 -31.5 16.5t-12.5 33.5q0 23 15.5 38t38.5 15t38 -15.5t15 -42.5q0 -26 -22 -63l-51 -85h-51z" />
    <glyph glyph-name="quotedblbase" unicode="&#x201e;" horiz-adv-x="321" 
d="M172 -103l61 103q-19 3 -31.5 16.5t-12.5 33.5q0 23 15.5 38t38.5 15t38 -15.5t15 -42.5q0 -26 -22 -63l-51 -85h-51zM19 -103l61 103q-19 3 -31.5 16.5t-12.5 33.5q0 23 15.5 38t38.5 15t38 -15.5t15 -42.5q0 -26 -22 -63l-51 -85h-51z" />
    <glyph glyph-name="dagger" unicode="&#x2020;" horiz-adv-x="317" 
d="M30 502v56h99v92h58v-92h99v-56h-99v-207h-58v207h-99z" />
    <glyph glyph-name="daggerdbl" unicode="&#x2021;" horiz-adv-x="325" 
d="M34 512v53h99v85h58v-85h101v-53h-101v-80h101v-52h-101v-85h-58v85h-99v52h99v80h-99z" />
    <glyph glyph-name="bullet" unicode="&#x2022;" horiz-adv-x="343" 
d="M308 261q0 -59 -39.5 -97.5t-97.5 -38.5t-97 38.5t-39 97.5t39 97.5t97 38.5t97.5 -38.5t39.5 -97.5z" />
    <glyph glyph-name="ellipsis" unicode="&#x2026;" horiz-adv-x="554" 
d="M415 49q0 23 15.5 39t38.5 16q22 0 37.5 -16t15.5 -39t-15.5 -38.5t-37.5 -15.5q-23 0 -38.5 15.5t-15.5 38.5zM224 49q0 23 15.5 39t37.5 16q23 0 38.5 -16t15.5 -39t-15.5 -38.5t-38.5 -15.5q-22 0 -37.5 15.5t-15.5 38.5zM32 49q0 23 15.5 39t38.5 16q22 0 37.5 -16
t15.5 -39t-15.5 -38.5t-37.5 -15.5q-23 0 -38.5 15.5t-15.5 38.5z" />
    <glyph glyph-name="perthousand" unicode="&#x2030;" horiz-adv-x="941" 
d="M33 490q0 56 38.5 94.5t94.5 38.5t94.5 -38.5t38.5 -94.5t-38.5 -94.5t-94.5 -38.5t-94.5 38.5t-38.5 94.5zM99 0l383 614h62l-383 -614h-62zM92 490q0 -31 21.5 -52.5t52.5 -21.5t53 21.5t22 52.5t-22 53t-53 22t-52.5 -22t-21.5 -53zM908 124q0 -56 -39 -94.5
t-94 -38.5t-94 38.5t-39 94.5t39 94.5t94 38.5t94 -38.5t39 -94.5zM609 124q0 -56 -38.5 -94.5t-94.5 -38.5t-94.5 38.5t-38.5 94.5t38.5 94.5t94.5 38.5t94.5 -38.5t38.5 -94.5zM849 124q0 31 -21.5 52.5t-52.5 21.5t-53 -21.5t-22 -52.5t22 -53t53 -22t52.5 22t21.5 53z
M550 124q0 31 -21.5 52.5t-52.5 21.5t-53 -21.5t-22 -52.5t22 -53t53 -22t52.5 22t21.5 53z" />
    <glyph glyph-name="guilsinglleft" unicode="&#x2039;" horiz-adv-x="215" 
d="M190 74h-73l-92 148l92 148h73l-92 -148z" />
    <glyph glyph-name="guilsinglright" unicode="&#x203a;" horiz-adv-x="215" 
d="M98 74h-73l92 148l-92 148h73l92 -148z" />
    <glyph glyph-name="fraction" unicode="&#x2044;" horiz-adv-x="210" 
d="M330 614l-383 -614h-67l383 614h67z" />
    <glyph glyph-name="Euro" unicode="&#x20ac;" horiz-adv-x="543" 
d="M29 339v60h60q20 104 82.5 164t148.5 60q76 0 128 -44t69 -124h-72q-14 47 -46 73t-79 26q-57 0 -97.5 -41.5t-56.5 -113.5h205l-12 -60h-201q-1 -11 -1 -32q0 -25 1 -37h191l-12 -60h-170q17 -70 56.5 -110t96.5 -40q47 0 79 26t46 73h72q-17 -80 -69 -124t-128 -44
q-85 0 -146.5 58.5t-83.5 160.5h-61v60h53q-1 12 -1 37q0 21 1 32h-53z" />
    <glyph glyph-name="uni2117" unicode="&#x2117;" horiz-adv-x="706" 
d="M669 307q0 -136 -92 -226t-224 -90t-224 90t-92 226t92 226t224 90t224 -90t92 -226zM630 307q0 119 -80.5 198t-196.5 79t-196.5 -79t-80.5 -198t80.5 -198t196.5 -79t196.5 79t80.5 198zM389 254h-83v-130h-69v369h152q59 0 93.5 -31t34.5 -88t-34.5 -88.5t-93.5 -31.5
zM449 374q0 27 -16.5 42.5t-47.5 15.5h-79v-116h79q64 0 64 58z" />
    <glyph glyph-name="trademark" unicode="&#x2122;" horiz-adv-x="586" 
d="M18 568v46h217v-46h-81v-208h-54v208h-82zM427 360h-36l-65 168v-168h-50v254h64l69 -180l69 180h64v-254h-50v168z" />
    <glyph glyph-name="uni2153" unicode="&#x2153;" horiz-adv-x="685" 
d="M191 615v-333h-62v259l-88 -44v64l108 54h42zM569 614l-429 -614h-67l429 614h67zM492 145v48h23q23 0 37.5 12t14.5 34q0 20 -13.5 32.5t-35.5 12.5q-21 0 -35.5 -13.5t-17.5 -35.5h-62q5 45 35.5 74t77.5 29q51 0 80.5 -27t29.5 -70q0 -24 -13 -44t-33 -28
q51 -18 51 -72q0 -45 -30.5 -73.5t-83.5 -28.5q-52 0 -83 28t-36 77h64q7 -51 57 -51q24 0 38 13t14 36q0 22 -15 34.5t-39 12.5h-25z" />
    <glyph glyph-name="uni2154" unicode="&#x2154;" horiz-adv-x="745" 
d="M210 522q0 19 -13 31.5t-33 12.5q-22 0 -35 -15t-15 -38h-66q5 48 36.5 78.5t79.5 30.5q50 0 79 -27t29 -72q0 -20 -11 -41t-20.5 -32t-32.5 -36l-74 -75h141v-55h-226v43l112 117q26 27 37.5 44t11.5 34zM629 614l-429 -614h-67l429 614h67zM552 145v48h23q23 0 37.5 12
t14.5 34q0 20 -13.5 32.5t-35.5 12.5q-21 0 -35.5 -13.5t-17.5 -35.5h-62q5 45 35.5 74t77.5 29q51 0 80.5 -27t29.5 -70q0 -24 -13 -44t-32 -28q50 -18 50 -72q0 -45 -30.5 -73.5t-83.5 -28.5q-52 0 -83 28t-36 77h65q5 -51 56 -51q24 0 38 13t14 36q0 22 -15 34.5
t-39 12.5h-25z" />
    <glyph glyph-name="uni215B" unicode="&#x215b;" horiz-adv-x="691" 
d="M191 615v-333h-62v259l-88 -44v64l108 54h42zM569 614l-429 -614h-67l429 614h67zM519 -4q-51 0 -85.5 26.5t-34.5 69.5q0 30 16.5 51t42.5 29q-47 21 -47 73q0 43 30.5 68t77.5 25q46 0 77 -25t31 -68q0 -51 -48 -73q26 -8 42.5 -29t16.5 -51q0 -43 -34 -69.5t-85 -26.5
zM519 199q21 0 35 13t14 32q0 20 -14 32.5t-35 12.5q-22 0 -36 -12.5t-14 -32.5t14 -32.5t36 -12.5zM519 46q26 0 42 14.5t16 36.5t-16.5 36t-41.5 14t-41.5 -14t-16.5 -36t16 -36.5t42 -14.5z" />
    <glyph glyph-name="uni215C" unicode="&#x215c;" horiz-adv-x="730" 
d="M608 614l-429 -614h-67l428 614h68zM140 427v48h24q23 0 37 12t14 34q0 20 -13.5 32.5t-35.5 12.5q-21 0 -35.5 -14t-16.5 -35h-63q6 45 36 73.5t77 28.5q51 0 80.5 -26.5t29.5 -69.5q0 -25 -12.5 -44.5t-32.5 -27.5q50 -18 50 -73q0 -44 -30.5 -72.5t-82.5 -28.5
q-53 0 -84 28t-36 77h65q7 -51 56 -51q24 0 38.5 13t14.5 36q0 22 -15 34.5t-39 12.5h-26zM558 -4q-51 0 -85.5 26.5t-34.5 69.5q0 30 16.5 51t42.5 29q-48 22 -48 73q0 43 31 68t78 25q45 0 76.5 -25t31.5 -68q0 -51 -48 -73q26 -8 42.5 -29t16.5 -51q0 -43 -34 -69.5
t-85 -26.5zM558 199q21 0 35 13t14 32q0 20 -14 32.5t-35 12.5q-22 0 -36.5 -12.5t-14.5 -32.5q0 -19 14.5 -32t36.5 -13zM558 46q25 0 41.5 14.5t16.5 36.5t-16.5 36t-41.5 14t-41.5 -14t-16.5 -36t16 -36.5t42 -14.5z" />
    <glyph glyph-name="uni215D" unicode="&#x215d;" horiz-adv-x="733" 
d="M612 614l-429 -614h-67l428 614h68zM171 447q-30 0 -48 -24h-54v191h194v-55h-142v-77q23 17 56 17q48 0 78 -31t30 -79q0 -50 -31.5 -81t-82.5 -31q-52 0 -84 28.5t-37 76.5h64q4 -23 19 -37t39 -14q23 0 38 16.5t15 40.5q0 25 -15 42t-39 17zM562 -4q-52 0 -86 26.5
t-34 69.5q0 30 16.5 51t42.5 29q-48 22 -48 73q0 43 31 68t78 25q45 0 76.5 -25t31.5 -68q0 -51 -48 -73q26 -8 42.5 -29t16.5 -51q0 -43 -34 -69.5t-85 -26.5zM562 199q21 0 35 13t14 32q0 20 -14 32.5t-35 12.5q-22 0 -36.5 -12.5t-14.5 -32.5q0 -19 14.5 -32t36.5 -13z
M562 46q25 0 41.5 14.5t16.5 36.5t-16.5 36t-41.5 14t-41.5 -14t-16.5 -36t16 -36.5t42 -14.5z" />
    <glyph glyph-name="uni215E" unicode="&#x215e;" horiz-adv-x="673" 
d="M270 568l-109 -287h-65l107 277h-157v56h224v-46zM551 614l-428 -614h-67l428 614h67zM502 -4q-52 0 -86 26.5t-34 69.5q0 30 16.5 51t42.5 29q-48 22 -48 73q0 43 31 68t78 25q45 0 76.5 -25t31.5 -68q0 -51 -48 -73q26 -8 42.5 -29t16.5 -51q0 -43 -34 -69.5t-85 -26.5
zM502 199q21 0 35 13t14 32q0 20 -14 32.5t-35 12.5q-22 0 -36.5 -12.5t-14.5 -32.5q0 -19 14.5 -32t36.5 -13zM502 46q25 0 41.5 14.5t16.5 36.5t-16.5 36t-41.5 14t-41.5 -14t-16.5 -36t16 -36.5t42 -14.5z" />
    <glyph glyph-name="minus" unicode="&#x2212;" horiz-adv-x="540" 
d="M73 266v62h394v-62h-394z" />
    <glyph glyph-name="approxequal" unicode="&#x2248;" horiz-adv-x="551" 
d="M79 308v62q51 40 106 40q34 0 90 -20.5t89 -20.5q52 0 109 43v-61q-56 -42 -109 -42q-34 0 -90 21t-89 21q-53 0 -106 -43zM79 184v61q51 41 106 41q34 0 90 -21t89 -21q54 0 109 43v-61q-55 -41 -109 -41q-34 0 -90 20.5t-89 20.5q-52 0 -106 -42z" />
    <glyph glyph-name="notequal" unicode="&#x2260;" horiz-adv-x="551" 
d="M79 338v57h238l68 93h59l-68 -93h97v-57h-139l-60 -82h199v-57h-240l-67 -92h-59l67 92h-95v57h136l60 82h-196z" />
    <glyph glyph-name="lessequal" unicode="&#x2264;" horiz-adv-x="427" 
d="M63 308v74l297 121v-68l-230 -90l230 -91v-67zM63 91v62h297v-62h-297z" />
    <glyph glyph-name="greaterequal" unicode="&#x2265;" horiz-adv-x="427" 
d="M364 382v-74l-297 -121v67l229 91l-229 90v68zM364 153v-62h-297v62h297z" />
    <glyph glyph-name="fi" unicode="&#xfb01;" horiz-adv-x="498" 
d="M442 578q0 -20 -14.5 -34t-34.5 -14q-19 0 -33.5 14t-14.5 34t14 34t34 14t34.5 -14t14.5 -34zM289 649v-68q-19 12 -47 12q-34 0 -53.5 -21t-19.5 -60v-68h100v-64h-100v-380h-74v380h-75v64h75v74q0 65 38 103t98 38q34 0 58 -10zM431 444v-444h-75v444h75z" />
    <glyph glyph-name="fl" unicode="&#xfb02;" horiz-adv-x="498" 
d="M431 650v-650h-75v650h75zM289 649v-68q-19 12 -47 12q-34 0 -53.5 -21t-19.5 -60v-68h100v-64h-100v-380h-74v380h-75v64h75v74q0 65 38 103t98 38q34 0 58 -10z" />
    <glyph glyph-name="i.dot" horiz-adv-x="209" 
d="M152 578q0 -20 -14 -34t-34 -14t-34 14t-14 34t14 34t34 14t34 -14t14 -34zM142 444v-444h-75v444h75z" />
    <glyph glyph-name="space_uni0326" 
d="M204 -201l39 64q-18 2 -29 14t-11 30q0 21 14.5 34.5t35.5 13.5t35 -14t14 -36q0 -23 -22 -57l-29 -49h-47z" />
    <glyph glyph-name="space_uni0326.alt" 
d="M297 680l-40 -65q18 -2 29.5 -14.5t11.5 -31.5q0 -21 -14.5 -34.5t-36.5 -13.5q-21 0 -35.5 14t-14.5 37q0 26 22 59l29 49h49z" />
    <glyph glyph-name="space_dotbelowcomb" 
d="M298 -108q0 -20 -14 -34t-34 -14t-34 14t-14 34t14 34t34 14t34 -14t14 -34z" />
    <glyph glyph-name="acute.cap" 
d="M242 668h-76l80 117h87z" />
    <glyph glyph-name="breve.cap" 
d="M249 666q-52 0 -83.5 31.5t-31.5 88.5h57q0 -31 16 -47.5t42 -16.5q27 0 43 16.5t16 47.5h57q0 -58 -31.5 -89t-84.5 -31z" />
    <glyph glyph-name="circumflex.cap" 
d="M285 791l92 -122h-68l-59 71l-59 -71h-68l92 122h70z" />
    <glyph glyph-name="dieresis.cap" 
d="M274 722q0 19 13 32.5t32 13.5q20 0 33.5 -13.5t13.5 -32.5t-13.5 -32.5t-33.5 -13.5q-19 0 -32 13.5t-13 32.5zM133 722q0 19 13.5 32.5t33.5 13.5q19 0 32.5 -13.5t13.5 -32.5t-13.5 -32.5t-32.5 -13.5q-20 0 -33.5 13.5t-13.5 32.5z" />
    <glyph glyph-name="grave.cap" 
d="M333 668h-75l-92 117h87z" />
    <glyph glyph-name="macron.cap" 
d="M143 671v61h213v-61h-213z" />
    <glyph glyph-name="ring.cap" 
d="M337 734q0 -36 -25 -61t-62 -25t-62 25t-25 61q0 37 25 62t62 25t62 -25t25 -62zM295 734q0 19 -13 32.5t-32 13.5t-32 -13.5t-13 -32.5t13 -32t32 -13t32 13t13 32z" />
    <glyph glyph-name="tilde.cap" 
d="M336 784h48q0 -55 -19.5 -87t-56.5 -32q-26 0 -60 28t-50 28q-34 0 -34 -53h-49q0 55 19.5 87t56.5 32q27 0 60.5 -28t50.5 -28q32 0 34 53z" />
    <glyph glyph-name="caron.cap" 
d="M215 666l-92 121h68l59 -71l59 71h68l-92 -121h-70z" />
    <glyph glyph-name="dotaccent.cap" 
d="M298 721q0 -19 -14 -33.5t-34 -14.5t-34 14.5t-14 33.5q0 20 14 34.5t34 14.5t34 -14.5t14 -34.5z" />
    <glyph glyph-name="caron.Slovak" 
d="M258 486h-60l33 164h60z" />
    <glyph glyph-name="hungarumlaut.cap" 
d="M310 668h-65l66 117h67zM187 668h-65l67 117h66z" />
    <glyph glyph-name="cedilla.alt" 
d="M250 -183h-71l66 132h74z" />
    <glyph glyph-name="exclamdown.cap" horiz-adv-x="203" 
d="M48 565q0 23 15.5 38.5t37.5 15.5q23 0 38.5 -15.5t15.5 -38.5t-15.5 -39t-38.5 -16q-22 0 -37.5 16t-15.5 39zM57 0l17 421h54l18 -421h-89z" />
    <glyph glyph-name="questiondown.cap" horiz-adv-x="432" 
d="M262 564q0 -23 -15.5 -39t-37.5 -16q-23 0 -38.5 16t-15.5 39t15.5 38.5t38.5 15.5q22 0 37.5 -15.5t15.5 -38.5zM24 162q0 12 1.5 23.5t6.5 23.5t7.5 20t12 21t12 18t15.5 19.5t14.5 16.5t16.5 18l16 16q41 44 43 82h74q-2 -36 -14.5 -61t-43.5 -59q-5 -6 -26.5 -28.5
t-30.5 -34t-18.5 -32.5t-9.5 -42q0 -47 30 -75t81 -28q53 0 84 33.5t36 89.5h81q-9 -87 -63.5 -140t-137.5 -53q-87 0 -137 46.5t-50 125.5z" />
    <glyph glyph-name="guilsinglleft.cap" horiz-adv-x="215" 
d="M190 158h-73l-92 147l92 148h73l-92 -148z" />
    <glyph glyph-name="guilsinglright.cap" horiz-adv-x="215" 
d="M98 158h-73l92 147l-92 148h73l92 -148z" />
    <glyph glyph-name="guillemotleft.cap" horiz-adv-x="357" 
d="M332 158h-70l-92 147l92 148h70l-92 -148zM187 158h-70l-92 147l92 148h70l-92 -148z" />
    <glyph glyph-name="guillemotright.cap" horiz-adv-x="357" 
d="M95 158h-70l92 147l-92 148h70l92 -148zM240 158h-70l92 147l-92 148h70l92 -148z" />
    <glyph glyph-name="slash.cap" horiz-adv-x="333" 
d="M5 -64l248 734h75l-248 -734h-75z" />
    <glyph glyph-name="backslash.cap" horiz-adv-x="333" 
d="M80 670l248 -734h-75l-248 734h75z" />
    <glyph glyph-name="bar.cap" horiz-adv-x="219" 
d="M73 -64v734h73v-734h-73z" />
    <glyph glyph-name="periodcentered.cap" horiz-adv-x="176" 
d="M34 302q0 23 15.5 39t38.5 16q22 0 37.5 -16t15.5 -39t-15.5 -38.5t-37.5 -15.5q-23 0 -38.5 15.5t-15.5 38.5z" />
    <glyph glyph-name="bullet.cap" horiz-adv-x="343" 
d="M308 301q0 -59 -39.5 -97.5t-97.5 -38.5t-97 38.5t-39 97.5t39 97.5t97 38.5t97.5 -38.5t39.5 -97.5z" />
    <glyph glyph-name="hyphen.cap" horiz-adv-x="321" 
d="M40 266v70h241v-70h-241z" />
    <glyph glyph-name="endash.cap" horiz-adv-x="475" 
d="M40 271v61h395v-61h-395z" />
    <glyph glyph-name="emdash.cap" horiz-adv-x="846" 
d="M40 271v61h766v-61h-766z" />
    <glyph glyph-name="parenleft.cap" horiz-adv-x="321" 
d="M30 301q0 137 72.5 236t195.5 131v-80q-83 -20 -138 -97.5t-55 -189.5q0 -111 55 -188.5t138 -98.5v-80q-123 32 -195.5 131t-72.5 236z" />
    <glyph glyph-name="parenright.cap" horiz-adv-x="321" 
d="M291 301q0 -137 -72.5 -236t-195.5 -131v80q83 21 138 98.5t55 188.5q0 112 -55 189.5t-138 97.5v80q123 -32 195.5 -131t72.5 -236z" />
    <glyph glyph-name="bracketleft.cap" horiz-adv-x="313" 
d="M145 600v-597h145v-69h-217v734h217v-68h-145z" />
    <glyph glyph-name="bracketright.cap" horiz-adv-x="313" 
d="M168 3v597h-145v68h217v-734h-217v69h145z" />
    <glyph glyph-name="braceleft.cap" horiz-adv-x="339" 
d="M175 225v-186q0 -36 36 -36h105v-69h-104q-49 0 -80 31.5t-31 81.5v183q0 36 -35 36h-46v70h46q35 0 35 37v183q0 50 31 81t80 31h104v-68h-105q-36 0 -36 -37v-185q0 -51 -43 -77q43 -26 43 -76z" />
    <glyph glyph-name="braceright.cap" horiz-adv-x="339" 
d="M164 39v186q0 50 43 76q-43 26 -43 77v185q0 37 -36 37h-105v68h104q49 0 80 -31t31 -81v-183q0 -37 35 -37h46v-70h-46q-35 0 -35 -36v-183q0 -50 -31 -81.5t-80 -31.5h-104v69h105q36 0 36 36z" />
    <glyph glyph-name="at.cap" horiz-adv-x="774" 
d="M560 473l-43 -243q-9 -54 40 -54q55 0 90 50t35 137q0 108 -76 173.5t-195 65.5q-140 0 -228.5 -91t-88.5 -231q0 -76 28 -134t75.5 -89.5t101 -47t113.5 -15.5q116 0 217 46v-57q-94 -45 -217 -45q-60 0 -114.5 12.5t-103 39t-84.5 66t-57 97t-21 127.5q0 160 106 269
t273 109q146 0 238.5 -84t92.5 -211q0 -115 -57.5 -178t-137.5 -63q-36 0 -63 15.5t-37 42.5q-15 -25 -43.5 -41t-58.5 -16q-61 0 -96.5 42t-35.5 106q0 85 51.5 148t130.5 63q63 0 91 -46l7 37h67zM450 243l23 124q-9 23 -28.5 38t-45.5 15q-52 0 -84.5 -44.5t-32.5 -101.5
q0 -40 20.5 -64.5t56.5 -24.5q53 0 91 58z" />
    <glyph glyph-name="Euro.lt" horiz-adv-x="520" 
d="M24 339v60h64q19 104 79 164t142 60q73 0 123 -44.5t66 -123.5h-74q-26 99 -117 99q-53 0 -90.5 -41.5t-52.5 -113.5h192l-12 -60h-187q-1 -11 -1 -32q0 -25 1 -37h177l-12 -60h-156q15 -70 52 -110t89 -40q91 0 117 99h74q-16 -79 -66 -123.5t-123 -44.5
q-81 0 -140.5 58.5t-79.5 160.5h-65v60h57q-1 12 -1 37q0 21 1 32h-57z" />
    <glyph glyph-name="dollar.lt" horiz-adv-x="520" 
d="M235 -89v99q-72 8 -121 48.5t-63 107.5h77q31 -92 142 -92q57 0 92 26.5t35 72.5q0 34 -21 56t-69 35l-103 27q-138 35 -138 152q0 68 47 112.5t122 49.5v90h68v-93q129 -22 161 -149h-74q-31 88 -136 88q-52 0 -84.5 -25.5t-32.5 -68.5q0 -36 22.5 -56t69.5 -33l97 -25
q143 -37 143 -157q0 -70 -45.5 -114t-120.5 -52v-99h-68z" />
    <glyph glyph-name="cent.lt" horiz-adv-x="520" 
d="M69 232q0 94 47 156t125 73v87h69v-88q58 -10 93.5 -48.5t44.5 -96.5h-75q-7 38 -34 60t-68 22q-57 0 -91.5 -46t-34.5 -119t34.5 -119t91.5 -46q41 0 68 22t34 60h75q-8 -58 -44 -96.5t-94 -48.5v-91h-69v90q-78 11 -125 73t-47 156z" />
    <glyph glyph-name="sterling.lt" horiz-adv-x="520" 
d="M200 425v-91h155v-62h-155v-116q0 -62 -22 -91h296v-65h-430v65h61q22 36 22 91v116h-83v62h83v91q0 87 50 142.5t130 55.5q71 0 115 -39.5t54 -105.5h-74q-13 79 -95 79q-50 0 -78.5 -35.5t-28.5 -96.5z" />
    <glyph glyph-name="yen.lt" horiz-adv-x="520" 
d="M64 264v59h128l-168 291h84l153 -275l153 275h81l-168 -291h128v-59h-157v-70h157v-60h-157v-134h-77v134h-157v60h157v70h-157z" />
    <glyph glyph-name="florin.lt" horiz-adv-x="520" 
d="M153 281v63h82l25 138q12 67 52.5 104t102.5 37q35 0 61 -12v-68q-26 14 -60 14q-32 0 -53.5 -21t-28.5 -60l-24 -132h97v-63h-108l-56 -320q-12 -68 -45 -103t-95 -35q-35 0 -60 12v68q26 -14 59 -14q31 0 45.5 19t21.5 59l55 314h-71z" />
    <glyph glyph-name="zero.lt" horiz-adv-x="520" 
d="M260 -9q-102 0 -165 87.5t-63 228.5t63 228.5t165 87.5t165 -87.5t63 -228.5t-63 -228.5t-165 -87.5zM260 552q-73 0 -112.5 -67t-39.5 -178t39.5 -178t112.5 -67q72 0 111.5 67t39.5 178t-39.5 178t-111.5 67z" />
    <glyph glyph-name="one.lt" horiz-adv-x="520" 
d="M77 0v70h175v450l-172 -88v80l202 103h47v-545h154v-70h-406z" />
    <glyph glyph-name="two.lt" horiz-adv-x="520" 
d="M367 449q0 47 -30.5 75.5t-81.5 28.5q-54 0 -86 -33.5t-37 -89.5h-80q9 87 63.5 140t139.5 53q88 0 138.5 -47t50.5 -126q0 -34 -17.5 -70t-40.5 -64t-57 -64l-11 -11l-159 -171h297v-70h-405v52l201 218q6 6 20.5 22.5t20 22.5t17.5 20t16.5 20.5t13 18t12 19.5t8 18
t6 19t1.5 19z" />
    <glyph glyph-name="three.lt" horiz-adv-x="520" 
d="M216 281v67h44q52 0 85 27.5t33 75.5q0 46 -33 75t-86 29q-51 0 -83.5 -30t-40.5 -79h-77q11 79 66 128t137 49q89 0 140.5 -46.5t51.5 -121.5q0 -50 -27.5 -88.5t-70.5 -51.5q50 -14 80 -53.5t30 -91.5q0 -77 -54.5 -128t-147.5 -51q-94 0 -151 49t-66 135h78
q8 -54 43.5 -85t94.5 -31q56 0 91.5 31t35.5 81q0 51 -36 80.5t-92 29.5h-45z" />
    <glyph glyph-name="four.lt" horiz-adv-x="520" 
d="M344 614l-229 -409h196v148h73v-148h108v-66h-108v-139h-73v139h-283v56l236 419h80z" />
    <glyph glyph-name="five.lt" horiz-adv-x="520" 
d="M263 330q-73 0 -118 -53h-61v337h347v-70h-282v-186q46 40 119 40q87 0 143 -57.5t56 -146.5q0 -88 -57.5 -145.5t-147.5 -57.5q-91 0 -149 49t-69 135h78q10 -55 46.5 -85.5t94.5 -30.5q57 0 93.5 38.5t36.5 96.5t-36.5 97t-93.5 39z" />
    <glyph glyph-name="seven.lt" horiz-adv-x="520" 
d="M472 558l-241 -558h-80l237 545h-348v69h432v-56z" />
    <glyph glyph-name="eight.lt" horiz-adv-x="520" 
d="M261 -9q-91 0 -151.5 49t-60.5 127q0 58 34 100t87 56q-44 15 -71.5 52t-27.5 86q0 73 54.5 117.5t135.5 44.5q82 0 136.5 -44.5t54.5 -117.5q0 -49 -27.5 -86t-71.5 -52q53 -14 87 -56t34 -100q0 -78 -60.5 -127t-152.5 -49zM261 356q49 0 82.5 28.5t33.5 72.5
q0 45 -33 73.5t-83 28.5q-49 0 -82 -28.5t-33 -73.5q0 -44 33 -72.5t82 -28.5zM261 55q60 0 99 33t39 85q0 51 -39 84t-99 33q-59 0 -98 -33t-39 -84q0 -52 39 -85t98 -33z" />
    <glyph glyph-name="period.tab" horiz-adv-x="260" 
d="M77 49q0 23 15.5 39t37.5 16t37.5 -16t15.5 -39t-15 -38.5t-38 -15.5t-38 15.5t-15 38.5z" />
    <glyph glyph-name="comma.tab" horiz-adv-x="260" 
d="M57 -107l63 106q-19 3 -31 16t-12 34q0 23 15 38t38 15t38 -15.5t15 -42.5q0 -31 -22 -63l-53 -88h-51z" />
    <glyph glyph-name="colon.tab" horiz-adv-x="260" 
d="M76 363q0 23 15.5 39t38.5 16q22 0 37.5 -16t15.5 -39t-15.5 -38.5t-37.5 -15.5q-23 0 -38.5 15.5t-15.5 38.5zM76 49q0 23 15.5 39t38.5 16q22 0 37.5 -16t15.5 -39t-15.5 -38.5t-37.5 -15.5q-23 0 -38.5 15.5t-15.5 38.5z" />
    <glyph glyph-name="semicolon.tab" horiz-adv-x="260" 
d="M76 363q0 23 15.5 39t38.5 16q22 0 37.5 -16t15.5 -39t-15.5 -38.5t-37.5 -15.5q-23 0 -38.5 15.5t-15.5 38.5zM57 -107l63 106q-44 7 -44 50q0 23 15.5 38t38.5 15t38 -15.5t15 -42.5q0 -28 -22 -63l-53 -88h-51z" />
    <glyph glyph-name="space.tab" horiz-adv-x="260" 
 />
    <glyph glyph-name="percent.lt" horiz-adv-x="520" 
d="M19 501q0 51 35.5 86.5t86.5 35.5t86.5 -35.5t35.5 -86.5q0 -50 -35.5 -85.5t-86.5 -35.5t-86.5 35.5t-35.5 85.5zM38 0l383 614h62l-383 -614h-62zM72 501q0 -29 20 -49t49 -20t49 20t20 49t-20 49.5t-49 20.5t-49 -20.5t-20 -49.5zM501 113q0 -51 -35.5 -86.5
t-85.5 -35.5q-51 0 -87 35.5t-36 86.5q0 50 36 85.5t87 35.5q50 0 85.5 -35.5t35.5 -85.5zM448 113q0 29 -20 49t-48 20q-29 0 -49.5 -20t-20.5 -49t20.5 -49.5t49.5 -20.5q28 0 48 20.5t20 49.5z" />
    <glyph glyph-name="perthousand.lt" horiz-adv-x="800" 
d="M23 501q0 51 35.5 86.5t86.5 35.5t86.5 -35.5t35.5 -86.5q0 -50 -35.5 -85.5t-86.5 -35.5t-86.5 35.5t-35.5 85.5zM42 0l383 614h62l-383 -614h-62zM76 501q0 -29 20 -49t49 -20t49 20t20 49t-20 49.5t-49 20.5t-49 -20.5t-20 -49.5zM776 113q0 -51 -35.5 -86.5
t-85.5 -35.5q-51 0 -86.5 35.5t-35.5 86.5q0 50 35.5 85.5t86.5 35.5q50 0 85.5 -35.5t35.5 -85.5zM505 113q0 -51 -35.5 -86.5t-85.5 -35.5q-51 0 -87 35.5t-36 86.5q0 50 36 85.5t87 35.5q50 0 85.5 -35.5t35.5 -85.5zM724 113q0 29 -20 49t-49 20t-49 -20t-20 -49
t20 -49.5t49 -20.5t49 20.5t20 49.5zM452 113q0 29 -20 49t-48 20q-29 0 -49.5 -20t-20.5 -49t20.5 -49.5t49.5 -20.5q28 0 48 20.5t20 49.5z" />
    <glyph glyph-name="plus.lt" horiz-adv-x="520" 
d="M229 494h62v-166h166v-62h-166v-166h-62v166h-167v62h167v166z" />
    <glyph glyph-name="minus.lt" horiz-adv-x="520" 
d="M62 266v62h395v-62h-395z" />
    <glyph glyph-name="multiply.lt" horiz-adv-x="520" 
d="M218 295l-122 121l43 42l120 -122l122 122l42 -42l-121 -121l121 -122l-42 -43l-122 122l-120 -122l-43 43z" />
    <glyph glyph-name="divide.lt" horiz-adv-x="520" 
d="M210 458q0 21 14.5 36t35.5 15q20 0 35 -15t15 -36t-15 -36t-35 -15q-21 0 -35.5 15t-14.5 36zM62 266v62h395v-62h-395zM210 136q0 21 14.5 36t35.5 15q20 0 35 -15t15 -36t-15 -36t-35 -15q-21 0 -35.5 15t-14.5 36z" />
    <glyph glyph-name="equal.lt" horiz-adv-x="520" 
d="M62 337v60h395v-60h-395zM62 199v58h395v-58h-395z" />
    <glyph glyph-name="less.lt" horiz-adv-x="520" 
d="M112 256v78l296 151v-71l-238 -119l238 -119v-71z" />
    <glyph glyph-name="greater.lt" horiz-adv-x="520" 
d="M408 334v-78l-297 -151v71l238 119l-238 119v71z" />
    <glyph glyph-name="plusminus.lt" horiz-adv-x="520" 
d="M229 518h61v-129h164v-62h-164v-129h-61v129h-164v62h164v129zM65 88v62h389v-62h-389z" />
    <glyph glyph-name="lessequal.lt" horiz-adv-x="520" 
d="M111 308v74l297 121v-68l-230 -90l230 -91v-67zM111 91v62h297v-62h-297z" />
    <glyph glyph-name="greaterequal.lt" horiz-adv-x="520" 
d="M408 382v-74l-297 -121v67l229 91l-229 90v68zM408 153v-62h-297v62h297z" />
    <glyph glyph-name="notequal.lt" horiz-adv-x="520" 
d="M62 338v57h238l68 93h60l-68 -93h97v-57h-139l-60 -82h199v-57h-240l-67 -92h-59l67 92h-96v57h137l60 82h-197z" />
    <glyph glyph-name="approxequal.lt" horiz-adv-x="520" 
d="M62 308v62q52 40 107 40q34 0 90 -20.5t89 -20.5q52 0 109 43v-61q-56 -42 -109 -42q-34 0 -90 21t-89 21q-53 0 -107 -43zM62 184v61q52 41 107 41q34 0 90 -21t89 -21q54 0 109 43v-61q-55 -41 -109 -41q-34 0 -90 20.5t-89 20.5q-52 0 -107 -42z" />
    <glyph glyph-name="dollar.alt" horiz-adv-x="284" 
d="M125 219v56q-83 11 -101 88h56q18 -44 67 -44q28 0 44.5 13t16.5 36q0 41 -45 51l-55 13q-77 18 -77 91q0 40 25.5 65t68.5 30v51h41v-52q74 -13 92 -88h-52q-16 45 -66 45q-25 0 -41 -12t-16 -36q0 -38 44 -47l52 -13q81 -18 81 -96q0 -39 -26 -64.5t-68 -30.5v-56h-41z
" />
    <glyph glyph-name="six.lt" horiz-adv-x="520" 
d="M260 -9q-89 0 -148.5 60t-59.5 149q0 76 54 170l140 244h81l-129 -224q29 18 67 18q88 0 145.5 -59.5t57.5 -148.5t-59.5 -149t-148.5 -60zM396 200q0 60 -39 100.5t-97 40.5t-97 -40.5t-39 -100.5t39 -100.5t97 -40.5t97 40.5t39 100.5z" />
    <glyph glyph-name="nine.lt" horiz-adv-x="520" 
d="M260 623q90 0 149 -59.5t59 -149.5q0 -76 -54 -170l-140 -244h-81l129 224q-29 -18 -67 -18q-88 0 -145.5 59.5t-57.5 148.5t59.5 149t148.5 60zM124 414q0 -60 39 -100.5t97 -40.5t97 40.5t39 100.5t-39 100.5t-97 40.5t-97 -40.5t-39 -100.5z" />
    </font>
</defs>
</svg>
