<?xml version="1.0" standalone="no"?>
<!DOCTYPE svg PUBLIC "-//W3C//DTD SVG 1.1//EN" "http://www.w3.org/Graphics/SVG/1.1/DTD/svg11.dtd" >
<svg>
<metadata>
Created by FontForge 20090622 at Fri Jul 21 15:26:40 2017
 By deploy user
Copyright (c) 1991 Adobe Systems Incorporated.  All Rights Reserved.Barmeno is a trademark of H. Berthold AG.
</metadata>
<defs>
<font id="Barmeno-Bold" horiz-adv-x="479" >
  <font-face 
    font-family="Barmeno"
    font-weight="700"
    font-stretch="normal"
    units-per-em="1000"
    panose-1="0 0 0 0 0 0 0 0 0 0"
    ascent="800"
    descent="-200"
    x-height="518"
    cap-height="706"
    bbox="-154 -250 1101 953"
    underline-thickness="50"
    underline-position="-75"
    unicode-range="U+0020-U+FB02"
  />
<missing-glyph horiz-adv-x="271" 
 />
    <glyph glyph-name=".notdef" horiz-adv-x="271" 
 />
    <glyph glyph-name=".null" horiz-adv-x="0" 
 />
    <glyph glyph-name="nonmarkingreturn" horiz-adv-x="333" 
 />
    <glyph glyph-name="space" unicode=" " horiz-adv-x="271" 
 />
    <glyph glyph-name="exclam" unicode="!" horiz-adv-x="292" 
d="M258 679l-51 -407q-1 -13 -6 -17t-18 -4h-41q-16 0 -18 20l-50 412q-1 14 4 18.5t19 4.5h139q14 0 19 -5.5t3 -21.5zM252 79q-1 -34 -25.5 -59.5t-62.5 -25.5q-39 0 -64 27t-25 62q0 38 27 62.5t62 24.5t62 -26.5t26 -64.5z" />
    <glyph glyph-name="quotedbl" unicode="&#x22;" horiz-adv-x="396" 
d="M363 680l-47 -259h-27l-47 247q-2 16 -2 22q0 25 18.5 42t47.5 17q38 0 52 -29q7 -12 5 -40zM154 680l-46 -259h-27l-47 247q-2 16 -2 22q0 26 18.5 42.5t47.5 16.5q62 0 56 -69z" />
    <glyph glyph-name="numbersign" unicode="#" horiz-adv-x="583" 
d="M560 315v-100h-136l-31 -215h-100l31 215h-99l-30 -215h-101l28 215h-121v100h135l13 93h-125v100h138l28 198h103l-28 -198h98l30 198h98l-27 -198h118v-100h-132l-13 -93h123zM239 315h98l14 93h-99z" />
    <glyph glyph-name="dollar" unicode="$" horiz-adv-x="542" 
d="M297 627v-201q73 -28 100 -42q118 -66 118 -188q0 -83 -55 -143q-52 -55 -163 -70v-64q0 -16 -13 -16q-28 0 -34 2t-7 13v65q-55 6 -97 24t-63 38.5t-34.5 44.5t-16.5 38.5t-3 23.5q0 30 17.5 49.5t46.5 19.5q19 0 34.5 -10t21.5 -18.5t15 -24.5q12 -24 20 -36t23 -25
t36 -20v203q-26 9 -40 14.5t-39.5 18t-40.5 23t-34 29t-29.5 38t-18 47t-7.5 59.5q0 85 57 140t152 60v67q0 10 6 12t35 2q13 0 13 -13v-68q92 -7 142 -51.5t50 -93.5q0 -31 -19 -47.5t-45 -16.5q-17 0 -31 10t-20 19.5t-19 33.5q-9 17 -14.5 24.5t-16.5 16t-27 13.5z
M297 270v-186q44 1 64 27t20 58q0 24 -9 43t-25 31t-25.5 17t-24.5 10zM243 444v187q-40 -4 -59.5 -30t-19.5 -59q0 -70 79 -98z" />
    <glyph glyph-name="percent" unicode="%" horiz-adv-x="792" 
d="M309 484q0 -59 -11.5 -107.5t-44.5 -85.5t-85 -37t-85.5 35t-46 85.5t-12.5 114.5q0 120 48 181q39 47 95 47q85 0 122 -98q20 -56 20 -135zM210 496q0 94 -14 133q-12 27 -30 27q-20 0 -30 -27q-13 -36 -13 -128q0 -102 14 -146q9 -31 31 -31q21 0 30 32q12 43 12 140z
M767 219q0 -58 -11.5 -106.5t-44.5 -86t-85 -37.5q-75 0 -109 67t-34 168q0 120 48 181q39 47 95 47q84 0 121 -98q20 -56 20 -135zM668 231q0 95 -14 133q-12 27 -30 27q-19 0 -29 -27q-13 -36 -13 -128q0 -102 14 -146q9 -31 30 -31t30 32q12 43 12 140zM604 674
l-344 -654q-7 -13 -12 -16.5t-17 -3.5q-49 0 -51 5q-1 1 -1 5q0 7 8 21l344 652q8 15 13.5 19t17.5 4q36 0 43 -1.5t7 -10.5q0 -4 -8 -20z" />
    <glyph glyph-name="ampersand" unicode="&#x26;" horiz-adv-x="667" 
d="M471 23l-67 90q-15 -23 -27 -38.5t-37 -39.5t-59 -37t-75 -13q-85 0 -134.5 54t-49.5 123q0 40 13 72t43 61t53.5 46t69.5 46q-29 44 -42 65.5t-23.5 51t-10.5 59.5q0 76 58.5 117t144.5 41q83 0 133.5 -38t50.5 -105q0 -53 -33 -94t-107 -88l72 -93q74 108 159 108
q40 0 55 -20.5t15 -42.5q0 -9 -2.5 -17t-9.5 -19t-24 -17.5t-41 -6.5q-21 1 -33 0t-31 -12.5t-39 -35.5l155 -203q12 -15 12 -22q0 -15 -20 -15h-118q-24 0 -31.5 3.5t-19.5 19.5zM355 179l-103 138q-21 -13 -35 -24t-28.5 -34t-14.5 -49q0 -36 25.5 -64t62.5 -28
q52 0 93 61zM322 461q71 48 71 101q0 32 -19 52t-47 20q-26 0 -44 -17.5t-18 -45.5q0 -24 13 -47t44 -63z" />
    <glyph glyph-name="quotesingle" unicode="'" horiz-adv-x="208" 
d="M165 680l-47 -259h-27l-47 247q-1 8 -1 22q0 29 20 44t45 15q7 0 14.5 -1.5t19.5 -7.5t18.5 -21.5t4.5 -38.5z" />
    <glyph glyph-name="parenleft" unicode="(" horiz-adv-x="313" 
d="M300 809q-118 -176 -118 -448q0 -126 25 -234q27 -121 87 -215q21 -31 21 -41q0 -11 -7.5 -18.5t-18.5 -7.5q-26 0 -71 42t-75 82q-114 150 -114 390q0 219 108 372q16 21 38.5 47t56.5 55t54 29q12 0 18.5 -7.5t6.5 -17.5q0 -11 -11 -28z" />
    <glyph glyph-name="parenright" unicode=")" horiz-adv-x="313" 
d="M13 -102q118 176 118 448q0 126 -25 234q-28 123 -87 214q-21 31 -21 42q0 10 8 18t18 8q26 0 71 -42t75 -82q114 -154 114 -391q0 -221 -108 -371q-28 -38 -74 -84.5t-75 -46.5q-12 0 -18.5 7.5t-6.5 17.5q0 12 11 28z" />
    <glyph glyph-name="asterisk" unicode="*" horiz-adv-x="313" 
d="M132 579q7 23 7 34q0 21 -16 21q-17 0 -34 -32q-15 -26 -22.5 -34t-20.5 -8q-29 0 -29 50q0 17 8 26t15 10.5t18 2.5q17 2 23.5 3t16 4t12.5 7.5t3 11.5q0 12 -10.5 16t-40.5 8q-3 1 -5 1q-12 2 -17 4t-11.5 7t-9 14t-2.5 24q0 39 29 39q12 0 18.5 -6.5t18.5 -25.5
q27 -41 43 -41q15 0 15 23q0 13 -8 40q-10 30 -10 45q0 19 9.5 30.5t24.5 11.5q16 0 24.5 -13t8.5 -31q0 -6 -8.5 -41t-8.5 -42q0 -23 16 -23q15 0 41 40q20 33 36 33q14 0 22 -12t8 -31t-8.5 -29t-17 -12.5t-26.5 -4.5q-45 -5 -45 -24t45 -24q17 -2 26 -4.5t17.5 -13.5
t8.5 -31q0 -16 -7.5 -29t-23.5 -13q-19 0 -36 31q-19 42 -41 42q-15 0 -15 -19q0 -6 2 -17t2 -12q12 -47 12 -56q0 -15 -8.5 -28t-25.5 -13q-15 0 -24 11t-9 29q0 15 10 51z" />
    <glyph glyph-name="plus" unicode="+" horiz-adv-x="500" 
d="M469 342v-102h-167v-168h-103v168h-167v102h167v167h103v-167h167z" />
    <glyph glyph-name="comma" unicode="," horiz-adv-x="250" 
d="M67 35q-24 28 -24 55q0 37 25.5 58.5t57.5 21.5q35 0 62.5 -29.5t27.5 -84.5q0 -79 -55 -146.5t-97 -67.5q-13 0 -21.5 8t-8.5 20t20 41q4 5 6 8q30 44 30 67q0 21 -23 49z" />
    <glyph glyph-name="hyphen" unicode="-" horiz-adv-x="313" 
d="M274 316v-72q0 -13 -4 -17.5t-17 -4.5h-193q-14 0 -17.5 5.5t-3.5 17.5v69q0 20 20 20h194q11 0 16 -3t5 -15z" />
    <glyph glyph-name="period" unicode="." horiz-adv-x="250" 
d="M210 80q-1 -35 -25 -60.5t-60 -25.5t-60.5 25.5t-24.5 62.5q0 40 27 64t58 24q34 0 59.5 -26t25.5 -64z" />
    <glyph glyph-name="slash" unicode="/" 
d="M465 805l-354 -937q-12 -17 -17 -18q-4 0 -15 4l-51 19q-17 8 -17 17q0 6 4 14l357 934q7 19 16 19q1 0 14 -4l48 -18q18 -7 18 -16q0 -5 -3 -14z" />
    <glyph glyph-name="zero" unicode="0" horiz-adv-x="542" 
d="M498 350q0 -124 -32 -210q-8 -23 -20 -44.5t-34.5 -50t-58.5 -45.5t-80 -17q-66 0 -118.5 40.5t-81.5 122.5q-30 90 -30 213q0 193 77 289q60 75 153 75q58 0 109.5 -35.5t83.5 -120.5q32 -91 32 -217zM342 370q0 136 -22 209q-16 49 -50 49q-33 0 -49 -45
q-21 -61 -21 -205q0 -162 22 -233q16 -52 51 -52q37 0 51 57q18 81 18 220z" />
    <glyph glyph-name="one" unicode="1" horiz-adv-x="542" 
d="M233 23v500q-112 -29 -153 -29q-26 0 -38 12.5t-12 27.5q0 27 37 39q136 40 225 111q39 33 63 33q41 0 41 -52v-639q0 -15 -6 -20.5t-19 -5.5h-113q-25 0 -25 23z" />
    <glyph glyph-name="two" unicode="2" horiz-adv-x="542" 
d="M393 336l-145 -188h215q14 0 20 -4t5 -18v-103q0 -13 -4.5 -18t-18.5 -5h-399q-38 0 -38 30q0 13 18 39l201 269q44 59 60.5 89t16.5 65q0 41 -24.5 70t-66.5 29q-70 0 -94 -79q-5 -15 -8.5 -23t-14.5 -17t-27 -9q-47 0 -47 65q0 76 60.5 136t165.5 60q102 0 159 -56.5
t57 -131.5q0 -37 -15.5 -76.5t-31 -62.5t-44.5 -61z" />
    <glyph glyph-name="three" unicode="3" horiz-adv-x="542" 
d="M366 404q46 -23 75 -56q52 -64 52 -146q0 -41 -13.5 -78t-41.5 -69.5t-77.5 -52t-114.5 -19.5q-95 0 -157 45.5t-62 106.5q0 33 20.5 53.5t48.5 20.5q38 0 67 -44q15 -25 24.5 -37.5t28.5 -24.5t42 -12q36 0 57 22.5t21 58.5q0 27 -11.5 50t-26 37.5t-38.5 27.5
t-37.5 18.5t-33.5 12.5q-12 5 -18 8t-12.5 11.5t-6.5 19.5q0 8 2 13t8.5 10t9.5 7t13 7q31 13 46 20.5t36 22.5t30 34t9 44q0 41 -24.5 64.5t-60.5 23.5q-24 0 -42.5 -11.5t-25.5 -21t-18 -27.5q-8 -14 -12.5 -20t-14 -12.5t-21.5 -6.5q-18 0 -31.5 14.5t-13.5 39.5
q0 24 12 51t35.5 53.5t67 44t98.5 17.5q98 0 152 -49t54 -124q0 -31 -9.5 -56.5t-28.5 -44.5t-29 -27t-28 -19z" />
    <glyph glyph-name="four" unicode="4" horiz-adv-x="542" 
d="M484 219v-55q0 -17 -12 -19h-50v-121q1 -16 -3.5 -22.5t-18.5 -6.5h-109q-14 -1 -18.5 4t-4.5 18v128h-204q-52 2 -52 45q0 18 23 53l282 440q22 35 56 35q49 0 49 -50v-432q44 0 53 -2.5t9 -14.5zM138 236h136v233z" />
    <glyph glyph-name="five" unicode="5" horiz-adv-x="542" 
d="M440 562h-257l-11 -141q64 19 112 19q90 0 154 -58.5t64 -170.5q0 -42 -12.5 -80.5t-39.5 -72.5t-76.5 -54.5t-116.5 -20.5q-104 0 -163 46.5t-59 105.5q0 36 22 54.5t48 18.5q38 0 60 -35q25 -43 46 -62.5t54 -19.5q40 0 61 27t21 67q0 58 -39.5 96t-104.5 38
q-23 0 -66 -8q-27 -5 -29 -5q-9 0 -17 2t-17.5 12.5t-9.5 29.5q0 3 0.5 6t1 8.5t0.5 10.5l26 309q1 14 6.5 18.5t19.5 4.5h320q9 0 13.5 -1t7.5 -5.5t3 -13.5v-100q0 -14 -4.5 -19.5t-17.5 -5.5z" />
    <glyph glyph-name="six" unicode="6" horiz-adv-x="542" 
d="M199 378q62 38 123 38q78 0 131.5 -56.5t53.5 -155.5t-62.5 -160t-166.5 -61q-103 0 -172.5 71t-69.5 222q0 89 27.5 166t69.5 127.5t93.5 86.5t98.5 52t86 16q24 0 40 -10.5t16 -30.5q0 -24 -21 -35q-2 -2 -44 -19q-172 -72 -203 -251zM190 294q-2 -22 -2 -35
q0 -22 3.5 -47t12.5 -54.5t29.5 -48.5t48.5 -19q22 0 38 11q37 25 37 87q0 49 -23.5 88t-72.5 39q-35 0 -71 -21z" />
    <glyph glyph-name="seven" unicode="7" horiz-adv-x="542" 
d="M116 56l231 507h-268q-15 0 -20.5 4.5t-5.5 18.5v96q0 14 5 19.5t20 5.5h391q44 0 44 -33q0 -13 -17 -48q-148 -323 -199 -576q-6 -32 -12 -40.5t-28 -9.5h-118q-33 2 -33 21q0 13 10 35z" />
    <glyph glyph-name="eight" unicode="8" horiz-adv-x="542" 
d="M370 391q32 -23 50 -38t41 -41t34 -57t11 -69q0 -82 -59.5 -142.5t-181.5 -60.5q-106 0 -167 51q-62 54 -62 134q0 34 10 63t33 54t38 38t45 36q-30 24 -47.5 42t-36 56.5t-18.5 83.5q0 76 53.5 129t163.5 53q55 0 95 -14t60.5 -32.5t32 -43.5t14 -40.5t2.5 -30.5
q0 -31 -8.5 -56t-27.5 -47t-33 -34t-42 -34zM241 301q-66 -55 -66 -108q0 -37 26 -69.5t70 -32.5q36 0 60 21.5t24 56.5q0 39 -28 68t-86 64zM292 445q61 37 61 100q0 36 -24 61.5t-60 25.5q-32 0 -54 -19.5t-22 -52.5q0 -60 99 -115z" />
    <glyph glyph-name="nine" unicode="9" horiz-adv-x="542" 
d="M497 445v-24q-3 -93 -34 -170.5t-74.5 -125.5t-96 -81.5t-98.5 -47.5t-82 -14q-21 0 -33 8q-18 13 -18 35q0 12 7.5 21t15 13t25.5 11q99 38 154.5 99.5t69.5 169.5l-32.5 -19.5t-36.5 -13.5t-55 -8q-85 0 -134.5 60t-49.5 150q0 91 59.5 153.5t173.5 62.5q93 0 154 -51
q85 -72 85 -228zM344 423q2 204 -95 204q-36 0 -56 -27.5t-20 -68.5q0 -50 25 -89t77 -39q31 0 69 20z" />
    <glyph glyph-name="colon" unicode=":" horiz-adv-x="292" 
d="M252 80q-1 -36 -24.5 -61t-60.5 -25q-36 0 -61 26t-25 62q0 40 27.5 64t58.5 24q34 0 60 -26t25 -64zM252 362q-1 -35 -25 -60.5t-60 -25.5q-37 0 -61.5 25.5t-24.5 63.5q0 39 27 63t59 24q34 0 60 -26t25 -64z" />
    <glyph glyph-name="semicolon" unicode=";" horiz-adv-x="292" 
d="M107 35q-23 27 -23 55q0 37 25.5 58.5t57.5 21.5q36 0 63 -29.5t27 -84.5q0 -79 -55 -146.5t-97 -67.5q-13 0 -21.5 8t-8.5 20t20 41q4 5 6 8q30 44 30 67t-24 49zM257 362q0 -35 -24 -60.5t-61 -25.5t-62.5 26t-25.5 62q0 40 27.5 64t59.5 24q35 0 61 -26t25 -64z" />
    <glyph glyph-name="less" unicode="&#x3c;" horiz-adv-x="500" 
d="M500 180v-111l-499 230v105l499 234v-113l-362 -173z" />
    <glyph glyph-name="equal" unicode="=" horiz-adv-x="500" 
d="M500 251v-103h-500v103h500zM500 440v-103h-500v103h500z" />
    <glyph glyph-name="greater" unicode="&#x3e;" horiz-adv-x="500" 
d="M500 300l-499 -230v111l362 172l-362 173v113l499 -234v-105z" />
    <glyph glyph-name="question" unicode="?" horiz-adv-x="437" 
d="M181 276l-17 122q-1 4 -1 14q0 17 7 25t32 24q17 11 25 17t21.5 19t20 29t6.5 36q0 30 -18 49t-44 19q-17 0 -30 -10t-17 -18t-9 -23q-7 -20 -12 -31t-20 -22.5t-36 -11.5q-31 0 -49 21.5t-18 51.5q0 52 52.5 94.5t157.5 42.5q76 0 126 -29q65 -40 65 -111
q0 -31 -16.5 -60t-32 -44t-46.5 -39q-34 -30 -44 -55t-17 -90q-4 -31 -8 -37.5t-19 -6.5h-42q-9 1 -11.5 4.5t-5.5 19.5zM310 79q-1 -35 -25.5 -60t-61.5 -25q-39 0 -63.5 26.5t-24.5 62.5q0 38 26.5 62.5t60.5 24.5q36 0 62.5 -26t25.5 -65z" />
    <glyph glyph-name="at" unicode="@" horiz-adv-x="896" 
d="M783 89l39 -51q-168 -161 -365 -161q-71 0 -137 20.5t-123.5 61t-92.5 112t-35 163.5q0 198 133.5 338t324.5 140q146 0 223 -84t77 -204q0 -137 -72 -246.5t-164 -109.5q-19 0 -34 7q-20 7 -31.5 20.5t-14.5 24t-5 26.5q-60 -77 -133 -77q-53 0 -95 39t-42 129
q0 109 63.5 196.5t149.5 87.5q75 0 112 -73l12 52h79l-33 -155q-28 -132 -28 -170q0 -17 7.5 -26t16.5 -9q42 0 91.5 86.5t49.5 190.5q0 60 -20 105.5t-54 72t-74.5 39t-87.5 12.5q-71 0 -140.5 -31.5t-122.5 -85.5t-86 -131t-33 -161q0 -64 19.5 -115.5t51.5 -84t74 -54.5
t84 -31t86 -9q61 0 116 15t99 43t66 45.5t49 42.5zM532 349q0 50 -24 72.5t-51 22.5q-57 0 -93.5 -67t-36.5 -138q0 -45 21 -69t50 -24q52 0 93 64t41 139z" />
    <glyph glyph-name="A" unicode="A" horiz-adv-x="604" 
d="M420 21l-47 142h-191l-46 -142q-4 -12 -10 -16.5t-19 -4.5h-87q-20 0 -20 15q0 4 5 18l231 653q5 13 10.5 17t18.5 4h78q14 0 19 -4t10 -17l229 -655q3 -7 3 -14t-4 -11t-7.5 -4.5t-11.5 -1.5h-132q-13 0 -19 4t-10 17zM211 257h132l-67 222z" />
    <glyph glyph-name="B" unicode="B" horiz-adv-x="583" 
d="M49 51v610q0 30 23 38q44 16 166 16q147 0 210 -38q78 -48 78 -139q0 -102 -105 -153q-9 -5 -22 -10q7 -1 21 -5q67 -18 102 -67t35 -112q0 -60 -31.5 -104t-85.5 -67q-64 -28 -196 -28q-119 0 -168 13q-17 5 -21.5 14t-5.5 32zM220 614v-204q139 -9 139 106q0 47 -26 75
q-26 26 -76 26q-19 0 -37 -3zM220 326v-225q26 -3 45 -3q47 0 76 18q41 27 41 88q0 44 -20 75q-32 48 -115 48q-18 0 -27 -1z" />
    <glyph glyph-name="C" unicode="C" horiz-adv-x="583" 
d="M433 536l-21 32q-34 52 -83 52q-53 0 -86.5 -57.5t-33.5 -158.5q0 -146 58 -222q47 -64 121 -64q49 0 96 36q26 20 41 20q16 0 28 -12t12 -32q0 -47 -60 -97t-162 -50q-83 0 -146 32t-99.5 86t-54.5 119t-18 137q0 167 90.5 267t226.5 100q102 0 165 -49t63 -103
q0 -30 -20.5 -50t-54.5 -20q-39 0 -62 34z" />
    <glyph glyph-name="D" unicode="D" horiz-adv-x="646" 
d="M49 48v613q0 26 19 33q19 8 72.5 14.5t103.5 6.5q178 0 274 -90q103 -97 103 -272q0 -149 -80 -241q-103 -121 -320 -121q-105 0 -149 15q-15 5 -19 13.5t-4 28.5zM222 606v-500q59 -3 102.5 16t68 55t35.5 80t11 99q0 128 -53 190t-135 62q-17 0 -29 -2z" />
    <glyph glyph-name="E" unicode="E" 
d="M390 307h-168v-189h206q14 0 20 -5t6 -20v-68q0 -15 -5.5 -20t-21.5 -5h-350q-15 0 -21.5 4.5t-6.5 19.5v653q1 16 6.5 22.5t22.5 7.5h348q10 0 15 -1t9 -6t4 -15v-68q0 -16 -6.5 -21t-21.5 -5h-204v-171h169q9 0 13.5 -1t8 -6t3.5 -15v-68q0 -15 -5.5 -19t-20.5 -4z" />
    <glyph glyph-name="F" unicode="F" horiz-adv-x="437" 
d="M382 308h-160v-284q0 -14 -6 -19t-20 -5h-121q-16 0 -21 6t-5 21v656q0 13 5 18t18 5h345q14 0 19.5 -4t5.5 -19v-67q-1 -10 -2.5 -14.5t-6.5 -7.5t-16 -3h-195v-170h159q15 0 20 -4t4 -18v-68q0 -13 -4.5 -18t-18.5 -5z" />
    <glyph glyph-name="G" unicode="G" horiz-adv-x="625" 
d="M425 177v106h-78q-15 0 -20 4t-5 18v60q0 14 5 18.5t18 4.5h216q15 0 19.5 -6.5t4.5 -21.5v-237q0 -42 -21 -64q-69 -76 -214 -76q-79 0 -134 22q-99 39 -145 133.5t-46 210.5q0 163 86.5 269t236.5 106q60 0 108.5 -16.5t75 -41t40.5 -50t14 -47.5q0 -31 -21.5 -51
t-52.5 -20q-21 0 -37 10t-23 19t-17 27q-14 23 -23 34t-27.5 21.5t-41.5 10.5q-38 0 -65.5 -23.5t-41 -62.5t-19.5 -79t-6 -84q0 -123 37.5 -196t111.5 -73q22 0 36 6t20 19t7 22.5t2 27.5z" />
    <glyph glyph-name="H" unicode="H" horiz-adv-x="625" 
d="M402 25v282h-179v-285q0 -13 -5.5 -17.5t-18.5 -4.5h-124q-15 0 -20.5 5t-5.5 18v660q0 23 24 23h125q13 0 19 -4t6 -17v-265h179v263q0 12 4.5 17.5t17.5 5.5h128q14 0 19 -5t5 -19v-660q0 -14 -5.5 -18t-19.5 -4h-125q-15 0 -19.5 5t-4.5 20z" />
    <glyph glyph-name="I" unicode="I" horiz-adv-x="271" 
d="M223 683v-658q0 -25 -25 -25h-124q-15 0 -21 5t-6 20v658q1 13 5.5 18t18.5 5h129q14 1 18.5 -4.5t4.5 -18.5z" />
    <glyph glyph-name="J" unicode="J" horiz-adv-x="271" 
d="M223 682v-582q0 -101 -27 -165q-30 -73 -93.5 -122.5t-146.5 -49.5q-70 0 -70 44q0 28 28 36q48 18 73 37t42 65.5t18 126.5v610q0 14 5.5 19t17.5 5h127q15 0 20.5 -5t5.5 -19z" />
    <glyph glyph-name="K" unicode="K" horiz-adv-x="583" 
d="M540 669l-186 -265l221 -366q9 -14 9 -21q0 -17 -24 -17h-139q-16 0 -22 3.5t-14 16.5l-168 302v-296q0 -16 -6 -21t-19 -5h-118q-14 0 -19.5 5t-5.5 20v656q0 14 4.5 19.5t18.5 5.5h121q14 0 19 -4.5t5 -18.5v-263l178 265q10 14 15.5 17.5t20.5 3.5h97q23 0 23 -15
q0 -7 -11 -22z" />
    <glyph glyph-name="L" unicode="L" horiz-adv-x="437" 
d="M222 685v-566h183q13 0 17.5 -4t4.5 -17v-77q0 -21 -22 -21h-333q-13 0 -17.5 5t-5.5 18v662q0 21 22 21h128q23 0 23 -21z" />
    <glyph glyph-name="M" unicode="M" horiz-adv-x="771" 
d="M563 25v417l-164 -424q-5 -13 -10 -17t-16 -4q-14 0 -21 3.5t-13 18.5l-162 423v-416q0 -16 -6 -21t-20 -5h-77q-15 0 -20 5.5t-5 18.5v659q0 23 23 23h126q16 0 22 -4.5t12 -19.5l155 -392l154 393q5 14 11 18.5t20 4.5h126q13 0 18.5 -4t5.5 -18v-661q0 -14 -6 -18.5
t-21 -4.5h-107q-15 0 -20 5.5t-5 19.5z" />
    <glyph glyph-name="N" unicode="N" horiz-adv-x="625" 
d="M208 684l240 -380v380q0 13 5 17.5t17 4.5h83q15 1 19.5 -5t4.5 -19v-659q0 -13 -5 -18t-19 -5h-65q-17 0 -23.5 3.5t-16.5 18.5l-268 420v-417q0 -14 -5 -19.5t-20 -5.5h-81q-14 0 -19.5 5t-5.5 18v659q0 24 26 24h95q15 0 22 -4t16 -18z" />
    <glyph glyph-name="O" unicode="O" horiz-adv-x="667" 
d="M642 370q7 -177 -81.5 -282t-227.5 -105q-137 0 -222.5 101.5t-85.5 270.5q0 164 84.5 266.5t227.5 102.5q135 0 217 -98.5t88 -255.5zM464 369q-2 112 -34.5 177t-95.5 65q-26 0 -47.5 -11.5t-35 -28t-23 -42t-14 -46.5t-7 -48t-3 -40.5t-0.5 -29.5q0 -47 6 -95
q7 -55 24 -89q35 -75 102 -75q33 0 59 21q55 42 64 149q5 36 5 93z" />
    <glyph glyph-name="P" unicode="P" horiz-adv-x="542" 
d="M49 25v640q0 17 5 24t19 11q50 15 174 15q296 0 296 -220q0 -106 -70 -165t-193 -59q-5 0 -57 2v-250q0 -13 -5.5 -18t-19.5 -5h-122q-15 0 -21 5t-6 20zM223 611v-237q24 -2 30 -2q114 0 114 121t-114 121q-17 0 -30 -3z" />
    <glyph glyph-name="Q" unicode="Q" horiz-adv-x="667" 
d="M444 -1q35 -110 189 -158q17 -5 24 -8t14.5 -11.5t7.5 -21.5q0 -15 -11.5 -27t-34.5 -12q-22 0 -66.5 11.5t-102 34.5t-110.5 70.5t-77 107.5q-86 18 -144.5 74t-83 128.5t-24.5 159.5q0 177 87 277q87 99 224 99q135 0 221 -100t86 -267q0 -260 -199 -357zM464 359
q-2 253 -129 253q-131 0 -131 -259q0 -128 32 -194q35 -71 98 -71q53 0 83.5 46t40.5 118q6 44 6 107z" />
    <glyph glyph-name="R" unicode="R" horiz-adv-x="562" 
d="M48 22v646q1 25 20 32q47 14 174 14q282 0 282 -207q0 -129 -135 -187l168 -283q9 -15 9 -21q0 -18 -22 -16h-131q-17 0 -24.5 4t-14.5 19l-121 243q-9 17 -20 17q-15 0 -15 -21v-237q-1 -15 -6.5 -20t-20.5 -5h-119q-13 0 -18 4t-6 18zM218 613v-252q136 -7 136 124
q0 43 -10.5 71.5t-30 39.5t-34.5 14.5t-36 3.5q-13 0 -25 -1z" />
    <glyph glyph-name="S" unicode="S" horiz-adv-x="521" 
d="M220 287l-56 32q-133 79 -133 201q0 97 62.5 150.5t160.5 53.5q105 0 163 -47.5t58 -98.5q0 -30 -20.5 -50t-51.5 -20q-29 0 -43.5 13t-30.5 42q-35 62 -79 62q-27 0 -44.5 -19t-17.5 -50q0 -39 26 -61t113 -69l46.5 -25.5t44 -31.5t42.5 -43.5t27 -55.5t12 -74
q0 -72 -35.5 -122t-88 -70.5t-116.5 -20.5q-60 0 -108 18t-75 45.5t-40.5 56.5t-13.5 56q0 37 23.5 56t50.5 19q18 0 32 -6t25 -19t16.5 -22t14.5 -26q34 -69 85 -69q28 0 47 19t19 52q0 41 -24 63.5t-91 60.5z" />
    <glyph glyph-name="T" unicode="T" 
d="M456 591h-129v-565q0 -14 -5 -20t-19 -6h-123q-16 0 -21.5 5.5t-5.5 21.5v564h-127q-14 0 -19.5 5t-5.5 20v66q0 24 23 24h431q24 0 24 -22v-68q0 -8 -1 -12.5t-6.5 -8.5t-15.5 -4z" />
    <glyph glyph-name="U" unicode="U" horiz-adv-x="583" 
d="M541 682v-472q-1 -37 -3.5 -58.5t-16.5 -53.5t-41 -56q-66 -59 -188 -59q-112 0 -178 50q-45 34 -58 76.5t-13 106.5v469q0 21 22 21h130q14 0 19 -4t5 -19v-453q0 -20 1 -29.5t6 -28.5t14 -28.5t28 -18t46 -8.5q25 0 42.5 8.5t26 19t13.5 29.5t6 28.5t1 27.5v454
q0 13 4.5 17.5t17.5 4.5h91q15 0 20 -4t5 -20z" />
    <glyph glyph-name="V" unicode="V" horiz-adv-x="562" 
d="M185 684l115 -408l124 410q4 12 9.5 16t18.5 4h89q22 0 22 -15q0 -4 -5 -18l-215 -649q-5 -15 -10 -19.5t-19 -4.5h-63q-14 0 -19 3t-10 16l-218 654q-4 13 -4 18q0 15 21 15h134q15 0 20 -3.5t10 -18.5z" />
    <glyph glyph-name="W" unicode="W" horiz-adv-x="812" 
d="M517 21l-112 358l-105 -357q-4 -14 -9.5 -18t-19.5 -4h-57q-16 1 -22 4.5t-10 16.5l-179 652q-3 9 -3 16q0 17 22 17h124q15 0 20 -4t9 -19l89 -395l118 398q7 20 20 20h46q11 0 14 -4t8 -21l111 -393l91 393q4 15 9 20t18 5h91q23 0 23 -15q0 -3 -1.5 -8.5t-1.5 -9.5
l-174 -651q-4 -14 -9 -18t-17 -4h-61q-15 0 -21 4t-11 17z" />
    <glyph glyph-name="X" unicode="X" horiz-adv-x="542" 
d="M353 22l-98 190l-102 -190q-8 -14 -13.5 -18t-19.5 -4h-94q-26 0 -26 16q0 4 10 23l177 313l-161 319q-5 13 -5 16q0 19 25 19h119q15 0 22 -4.5t15 -19.5l84 -160l86 160q8 16 14 20t24 4h84q22 0 22 -15q0 -4 -7 -20l-156 -283l183 -355q6 -12 6 -17q0 -16 -24 -16
h-129q-15 0 -22 4.5t-14 17.5z" />
    <glyph glyph-name="Y" unicode="Y" horiz-adv-x="542" 
d="M533 670l-175 -361v-285q0 -14 -4.5 -19t-18.5 -5h-132q-12 0 -17.5 4t-5.5 17v295l-173 354q-7 15 -7 20q0 16 23 16h141q14 0 19 -3.5t12 -18.5l97 -220l104 219q7 14 12.5 18.5t18.5 4.5h95q19 0 19 -13q0 -7 -8 -23z" />
    <glyph glyph-name="Z" unicode="Z" horiz-adv-x="500" 
d="M478 671l-237 -553h213q9 0 13.5 -0.5t7.5 -5t3 -13.5v-79q1 -13 -5 -16.5t-19 -3.5h-417q-25 0 -25 15q0 4 6 17l241 559h-200q-13 0 -16.5 4.5t-3.5 16.5v73q0 21 22 21h393q30 0 30 -16q0 -5 -6 -19z" />
    <glyph glyph-name="bracketleft" unicode="[" horiz-adv-x="292" 
d="M177 774v-841h84q11 0 15.5 -3.5t4.5 -14.5v-39q-3 -12 -20 -12h-191q-11 0 -16 3.5t-5 15.5v940q0 12 5 15.5t18 3.5h188q13 0 17 -3.5t4 -15.5q0 -36 -2.5 -42.5t-18.5 -6.5h-83z" />
    <glyph glyph-name="backslash" unicode="\" 
d="M451 -127l-51 -19q-11 -4 -18 -4q-6 0 -14 18l-354 937q-3 9 -3 14q0 9 18 16l48 18q13 4 14 4q9 0 16 -19l358 -934q3 -12 3 -14q0 -9 -17 -17z" />
    <glyph glyph-name="bracketright" unicode="]" horiz-adv-x="292" 
d="M114 -67v840h-84q-11 0 -15.5 3.5t-4.5 14.5v39q3 12 20 12h191q11 0 16 -3.5t5 -15.5v-939q0 -12 -5 -15.5t-18 -3.5h-188q-13 0 -17 3.5t-4 15.5q0 36 2.5 42.5t18.5 6.5h83z" />
    <glyph glyph-name="asciicircum" unicode="^" horiz-adv-x="729" 
d="M414 706l187 -382h-118l-116 245l-122 -245h-117l195 382h91z" />
    <glyph glyph-name="underscore" unicode="_" horiz-adv-x="500" 
d="M510 -75v-50h-520v50h520z" />
    <glyph glyph-name="grave" unicode="`" horiz-adv-x="271" 
d="M130 712l71 -83q17 -21 17 -36q0 -29 -29 -29q-13 0 -34 16l-81 69q-21 19 -21 41q0 18 11 30.5t28 12.5t38 -21z" />
    <glyph glyph-name="a" unicode="a" 
d="M433 384v-277q0 -46 -16 -66q-16 -21 -62.5 -38t-119.5 -17q-14 0 -25.5 0.5t-35 3.5t-41.5 8t-40.5 16t-37 25.5t-24.5 38.5t-10 54q0 32 9.5 57.5t31 44t41 31.5t56.5 24.5t59.5 17l65.5 15.5v52q0 16 -1 25.5t-5 22.5t-14.5 19.5t-27.5 6.5q-39 0 -55 -46
q-6 -14 -9.5 -21t-11 -17t-19.5 -14.5t-28 -4.5q-31 0 -49.5 19t-18.5 45q0 48 56.5 85.5t161.5 37.5q75 0 115 -24q55 -35 55 -124zM284 132v121q-28 -9 -42 -14.5t-32.5 -17.5t-27 -30.5t-8.5 -44.5q0 -38 19 -57t44 -19q47 0 47 62z" />
    <glyph glyph-name="b" unicode="b" horiz-adv-x="521" 
d="M201 743v-267q59 56 130 56q83 0 125.5 -68t42.5 -171q0 -46 -8 -88t-27 -82.5t-48 -70.5t-74 -48t-101 -18q-108 0 -165 48q-21 18 -26.5 38t-5.5 64v606q0 13 5 18t19 5h109q13 0 18.5 -4.5t5.5 -17.5zM201 404v-242q0 -80 51 -80q40 0 64 52t24 128q0 55 -12 96
q-20 65 -73 65q-20 0 -54 -19z" />
    <glyph glyph-name="c" unicode="c" horiz-adv-x="437" 
d="M293 369q-7 19 -13 30.5t-19.5 22.5t-30.5 11q-35 0 -55 -39.5t-20 -89.5q0 -64 30.5 -119t82.5 -55q22 0 40 10t25 19t18 25q19 28 35 28q13 0 23 -10.5t10 -34.5q0 -28 -11 -58.5t-32.5 -58.5t-59.5 -46t-86 -18q-71 0 -120 42.5t-68.5 101t-19.5 126.5q0 43 10 86
t33.5 88.5t71.5 73.5t114 28q80 0 123.5 -42t43.5 -91q0 -31 -19.5 -51.5t-46.5 -20.5q-42 0 -59 42z" />
    <glyph glyph-name="d" unicode="d" horiz-adv-x="521" 
d="M478 743v-640q-1 -19 -2 -29t-8.5 -23.5t-22.5 -23.5q-23 -16 -72.5 -28.5t-104.5 -12.5q-124 0 -185 70t-61 190q0 119 59.5 203t159.5 84q41 0 79 -20v227q0 25 26 25h105q11 -1 15.5 -1.5t8 -5.5t3.5 -15zM320 145v291q-22 13 -41 13q-47 0 -72 -52.5t-25 -129.5
q0 -76 24.5 -128.5t70.5 -52.5q43 0 43 59z" />
    <glyph glyph-name="e" unicode="e" 
d="M414 286l-258 -37q8 -38 16 -54q35 -69 112 -69q58 0 102 44q25 28 40 28q13 0 22 -10t9 -28q0 -12 -5 -30.5t-19 -44t-34.5 -47t-57.5 -37t-82 -15.5q-64 0 -111.5 23.5t-74 64t-39 88t-12.5 101.5q0 71 21 125t55.5 84.5t74.5 45.5t83 15q45 0 81.5 -16t58 -39
t35.5 -51.5t19 -51t5 -39.5q0 -20 -8 -31.5t-14.5 -14t-18.5 -4.5zM146 326l155 23q-7 90 -71 90q-41 0 -62 -33t-22 -80z" />
    <glyph glyph-name="f" unicode="f" horiz-adv-x="292" 
d="M285 452h-67v-426q0 -14 -4 -20t-17 -6h-112q-14 0 -19.5 5t-5.5 18v429h-50q-12 0 -16.5 3t-4.5 15q0 33 3 40t18 8h50q6 112 40 168q22 37 59.5 63.5t87.5 26.5q36 0 56 -17.5t20 -46.5q0 -26 -16 -41t-36 -15q-7 0 -23 4t-24 4q-19 0 -31 -14t-12 -37q0 -50 36 -95h70
q10 0 14 -3t4 -14v-39q-2 -10 -20 -10z" />
    <glyph glyph-name="g" unicode="g" horiz-adv-x="521" 
d="M500 452l-74 -23q20 -47 20 -83q0 -58 -31.5 -98.5t-74.5 -57.5t-92 -17q-28 0 -55 5q-17 -26 -17 -37q0 -10 4.5 -16t19 -9.5t27 -4.5t42.5 -2l75 -4q187 -11 187 -136q0 -23 -8.5 -49t-31 -56t-56 -53.5t-89.5 -39t-125 -15.5q-17 0 -32.5 0.5t-50 7t-58 17.5t-43 35.5
t-19.5 57.5q0 65 84 111q-12 5 -19.5 9t-19.5 13.5t-18 24.5t-6 34q0 60 93 130q-93 45 -93 158q0 74 50.5 126t153.5 52q50 0 101 -17q33 -13 58 -13q12 0 36 4q55 11 56 11q8 0 12 -13q9 -29 9 -39q0 -8 -15 -13zM172 -33q-26 -30 -26 -50q0 -27 28.5 -46.5t87.5 -19.5
q51 0 88 18.5t37 47.5q0 16 -12 25.5t-22.5 12t-29.5 4.5q-11 1 -75 4t-76 4zM302 373q-6 31 -23 54t-44 23q-24 0 -40 -19.5t-16 -52.5q0 -39 19.5 -74.5t51.5 -35.5q27 0 41 20t14 50q0 17 -3 35z" />
    <glyph glyph-name="h" unicode="h" horiz-adv-x="521" 
d="M316 22v314q0 14 -1 21.5t-4 21.5t-8.5 22t-17 14.5t-27.5 6.5q-24 0 -54 -23v-376q0 -14 -5 -18.5t-17 -4.5h-115q-15 0 -19.5 5t-4.5 19v721q0 20 22 20h115q14 0 19 -3.5t5 -16.5v-263q64 50 135 50q68 0 107 -47q29 -38 32 -110v-352q0 -12 -4.5 -17.5t-18.5 -5.5
h-115q-14 0 -19 4t-5 18z" />
    <glyph glyph-name="i" unicode="i" horiz-adv-x="250" 
d="M207 495v-470q0 -15 -5.5 -20t-19.5 -5h-118q-13 0 -16.5 5.5t-3.5 18.5v472q0 12 4 17t17 5h118q14 0 19 -4.5t5 -18.5zM204 643q0 -34 -22.5 -52t-54.5 -18q-36 0 -59.5 18t-23.5 51q0 31 21 51t61 20q38 0 57.5 -20t20.5 -50z" />
    <glyph glyph-name="j" unicode="j" horiz-adv-x="250" 
d="M208 495v-399q-4 -130 -34 -198q-29 -63 -80 -99.5t-108 -36.5q-13 0 -28 5q-20 11 -20 32q0 20 21 34q58 36 70.5 80.5t14.5 173.5v408q0 14 5.5 19t19.5 4h116q14 0 18.5 -5t4.5 -18zM205 643q1 -33 -21.5 -51.5t-55.5 -18.5q-36 0 -59 18t-23 51q0 31 21 51t61 20
q38 0 57.5 -20.5t19.5 -49.5z" />
    <glyph glyph-name="k" unicode="k" horiz-adv-x="521" 
d="M485 481l-147 -172l178 -274q8 -12 8 -19q0 -16 -23 -16h-131q-14 0 -18.5 3t-12.5 15l-137 223v-222q0 -9 -3 -13t-7.5 -5t-13.5 -1h-112q-13 0 -17.5 5t-4.5 18v722q0 20 22 20h111q9 0 13.5 -1t8 -5.5t3.5 -13.5v-431l146 181q12 14 18.5 18t22.5 5h85q22 0 22 -15
q0 -9 -11 -22z" />
    <glyph glyph-name="l" unicode="l" horiz-adv-x="250" 
d="M45 22v722q0 13 5.5 17t18.5 4h112q13 0 18 -4t5 -17v-720q0 -14 -5 -19t-18 -5h-111q-14 0 -19.5 4t-5.5 18z" />
    <glyph glyph-name="m" unicode="m" horiz-adv-x="812" 
d="M43 23v390q0 33 4.5 47t22.5 27q33 23 88.5 34t96.5 11q96 0 159 -54q35 31 84 43q41 11 96 11q47 0 81.5 -14t51 -31.5t26 -44.5t11.5 -42.5t2 -36.5v-339q0 -13 -4 -18.5t-16 -5.5h-116q-23 0 -23 23v332q0 24 -2 38.5t-16 29.5t-41 15q-31 0 -47 -18
q-12 -11 -14.5 -24t-2.5 -41v-332q0 -13 -4.5 -18t-18.5 -5h-109q-15 0 -21 4.5t-6 19.5v333q0 25 -3 40q-5 23 -22 33.5t-35 10.5q-28 0 -46 -18q-17 -17 -17 -62v-336q0 -14 -5 -19.5t-20 -5.5h-110q-13 0 -18.5 4.5t-5.5 18.5z" />
    <glyph glyph-name="n" unicode="n" horiz-adv-x="542" 
d="M496 389v-365q0 -14 -5 -19.5t-21 -5.5h-111q-22 0 -22 24v342q0 48 -15 64q-20 18 -51 18q-23 0 -37 -8t-19.5 -22.5t-7 -25t-1.5 -26.5v-344q0 -13 -6 -17t-20 -5h-111q-13 0 -17.5 5.5t-5.5 19.5v399q0 18 2 27t10 23t29 24t56 19q63 16 136 16q114 0 160 -32
q57 -36 57 -111z" />
    <glyph glyph-name="o" unicode="o" horiz-adv-x="521" 
d="M499 268q4 -126 -63 -204t-177 -78q-104 0 -170.5 72.5t-66.5 199.5q0 132 68.5 203t170.5 71q58 0 104 -22.5t74 -61t43 -84.5t17 -96zM333 273q-2 73 -21 119.5t-54 46.5q-37 0 -54 -49.5t-17 -116.5q0 -69 18.5 -125t56.5 -56t55.5 55t15.5 126z" />
    <glyph glyph-name="p" unicode="p" horiz-adv-x="521" 
d="M43 -212v630q0 45 11 58q16 20 72.5 38t128.5 18q114 0 173 -55q32 -30 52 -81.5t20 -114.5q0 -73 -21.5 -137.5t-74 -111t-126.5 -46.5q-43 0 -78 18v-215q0 -23 -22 -23h-109q-9 0 -13.5 1t-8.5 6t-4 15zM200 386v-285q25 -13 48 -13q28 0 47 18.5t27.5 48.5t11.5 54.5
t3 49.5q0 81 -23 128q-27 54 -72 54q-19 0 -29 -10t-11 -18.5t-2 -26.5z" />
    <glyph glyph-name="q" unicode="q" horiz-adv-x="521" 
d="M321 -214v253q-59 -54 -123 -54q-83 0 -129.5 71t-46.5 173q0 41 8 81t27 81t48 71.5t75.5 50t104.5 19.5q100 0 157 -45q24 -19 29.5 -38.5t6.5 -63.5v-599q0 -13 -4.5 -16.5t-17.5 -3.5h-111q-13 0 -18.5 3.5t-5.5 16.5zM321 129v238l-1.5 26.5t-4.5 21t-13.5 18
t-25.5 5.5q-41 0 -66.5 -46.5t-25.5 -131.5q0 -24 4 -48t13 -49t26.5 -40.5t41.5 -15.5q25 0 52 22z" />
    <glyph glyph-name="r" unicode="r" horiz-adv-x="396" 
d="M206 403v-381q0 -13 -5 -17.5t-17 -4.5h-115q-14 0 -18.5 4.5t-4.5 18.5v415q0 25 6 36.5t23 20.5q70 37 197 37q132 0 132 -92q0 -28 -16 -46.5t-43 -18.5q-13 0 -22 3.5t-15.5 11.5t-10 14.5t-8.5 18.5q-15 31 -41 31q-19 0 -29 -8.5t-11.5 -17.5t-1.5 -25z" />
    <glyph glyph-name="s" unicode="s" horiz-adv-x="437" 
d="M243 330l54 -25q21 -10 35.5 -19t35 -27.5t32 -46.5t11.5 -62q0 -28 -9 -55t-29 -52.5t-59 -41t-92 -15.5q-98 0 -147.5 41.5t-49.5 85.5q0 28 17.5 47.5t45.5 19.5q34 0 60 -35q2 -2 11 -15.5l11 -16.5q23 -33 51 -33q18 0 32 13.5t14 35.5q0 19 -10.5 33.5t-24 22.5
t-44.5 23l-43 21q-20 9 -33.5 17.5t-34 26.5t-31.5 44.5t-11 60.5q0 14 2.5 29.5t14 39.5t30 41.5t55 30.5t85.5 13q87 0 130 -35t43 -77q0 -24 -15 -42t-43 -18q-18 0 -31.5 8t-19.5 16t-15 24q-25 44 -55 44q-21 0 -32.5 -14.5t-11.5 -33.5q0 -20 12.5 -35.5t24.5 -22
t34 -16.5z" />
    <glyph glyph-name="t" unicode="t" horiz-adv-x="313" 
d="M280 452h-67v-287q0 -17 1.5 -28.5t7 -27.5t20.5 -25.5t38 -10.5q42 0 42 -31q0 -23 -36.5 -39.5t-81.5 -16.5q-72 0 -113 43q-34 37 -34 110v313q-51 0 -54 1q-11 1 -11 17q0 34 1.5 40t9.5 7q2 1 54 1v52q0 15 3.5 21t15.5 13l102 52q10 6 17 6q18 0 18 -29v-115h67
q19 0 22 -11v-37q0 -11 -5 -14.5t-17 -3.5z" />
    <glyph glyph-name="u" unicode="u" horiz-adv-x="521" 
d="M478 498v-375q0 -37 -6 -56.5t-30 -37.5q-59 -43 -183 -43q-123 0 -169.5 44t-46.5 122v347q0 19 22 19h113q25 0 25 -21v-338q0 -13 1.5 -21.5t6.5 -20.5t18 -18.5t34 -6.5q25 0 38 11t15 21.5t2 27.5v344q0 12 4 17t16 5h117q23 0 23 -20z" />
    <glyph glyph-name="v" unicode="v" horiz-adv-x="458" 
d="M167 498l81 -314l81 313q4 14 8.5 17.5t17.5 3.5h86q17 0 17 -15q0 -7 -4 -18l-146 -465q-4 -13 -8 -16.5t-15 -3.5h-105q-12 0 -16 3.5t-9 15.5l-151 466q-4 16 -4 18q0 15 18 15h124q12 0 17 -3.5t8 -16.5z" />
    <glyph glyph-name="w" unicode="w" horiz-adv-x="708" 
d="M422 20l-66 217l-68 -216q-4 -14 -8.5 -17.5t-18.5 -3.5h-94q-13 0 -17.5 3.5t-9.5 16.5l-136 466q-4 11 -4 17q0 15 19 15h119q14 0 19 -4t8 -17l74 -305l90 305q4 13 8 17t14 4h49q9 -2 15 -20l92 -306l75 303q4 15 8 19t16 4h80q22 0 22 -15q0 -5 -5 -22l-136 -460
q-5 -13 -9 -17t-16 -4h-91q-13 0 -19 4t-10 16z" />
    <glyph glyph-name="x" unicode="x" horiz-adv-x="458" 
d="M280 20l-64 120l-80 -120q-10 -14 -14.5 -17t-17.5 -3h-85q-19 0 -19 13q0 6 8 18l146 217l-133 234q-9 18 -9 22q0 14 20 14h116q14 0 19 -3t13 -17l64 -113l75 113q9 14 13.5 17t18.5 3h77q21 0 21 -14q0 -6 -9 -20l-133 -202l144 -251q7 -12 7 -18q0 -13 -20 -13h-125
q-15 0 -20 3t-13 17z" />
    <glyph glyph-name="y" unicode="y" 
d="M475 484l-188 -550q-10 -29 -17.5 -46t-24 -45.5t-34.5 -44.5t-48 -29t-65 -13q-49 0 -74.5 23t-25.5 55q0 26 18 45t44 19q12 0 32 -6q21 -9 32 -9q21 0 35.5 19.5t29.5 63.5l-183 519q-5 15 -5 19q0 14 21 14h121q14 0 18.5 -3.5t8.5 -19.5l88 -308l90 305q6 18 9.5 22
t17.5 4h82q22 0 22 -15q0 -8 -4 -19z" />
    <glyph glyph-name="z" unicode="z" horiz-adv-x="396" 
d="M374 482l-167 -395h150q13 0 17.5 -4t4.5 -16v-48q0 -12 -5 -15.5t-17 -3.5h-326q-19 0 -19 14q0 6 6 21l172 397h-139q-11 0 -15.5 4t-4.5 15v52q3 15 20 15h306q23 0 23 -16q0 -4 -6 -20z" />
    <glyph glyph-name="braceleft" unicode="{" horiz-adv-x="333" 
d="M-3 336v32q0 7 1 11t4.5 6t7 3t10.5 1q15 0 28 8q31 16 39 48.5t8 98.5v87q1 85 6 106q8 33 26.5 55t45 32.5t53 14.5t59.5 4q29 0 37 -3t8 -14q0 -33 -1 -37q-1 -6 -4.5 -7.5t-19.5 -1.5q-25 0 -40.5 -6t-24.5 -14t-13 -27.5t-4.5 -34t-0.5 -47.5v-82q0 -38 -1 -55.5
t-4 -46.5t-9.5 -43t-18 -30.5t-30 -25t-44.5 -12.5v-6q66 -11 90 -62q11 -24 13.5 -52.5t3.5 -110.5v-73q0 -62 7 -86q11 -36 66 -38q26 -1 30.5 -5t4.5 -21v-19q0 -13 -7.5 -17t-40.5 -4q-54 0 -95 14q-70 25 -86 93q-5 20 -6 106v87q0 28 -0.5 43t-4 38.5t-11 36t-22 23.5
t-35.5 13q-17 2 -21 5t-4 15z" />
    <glyph glyph-name="bar" unicode="|" horiz-adv-x="229" 
d="M166 750v-1000h-103v1000h103z" />
    <glyph glyph-name="braceright" unicode="}" horiz-adv-x="333" 
d="M336 368v-32q0 -12 -4 -15t-21 -5q-21 -2 -35.5 -13t-22 -23.5t-11 -36t-4 -38.5t-0.5 -43v-87q-1 -86 -6 -106q-16 -68 -86 -93q-41 -14 -95 -14q-33 0 -40.5 4t-7.5 17v19q0 17 4.5 21t30.5 5q55 2 66 38q7 24 7 86v73q1 82 3.5 110.5t13.5 52.5q24 51 90 62v6
q-26 4 -44.5 12.5t-30 25t-18 30.5t-9.5 43t-4 46.5t-1 55.5v82q0 33 -0.5 47.5t-4.5 34t-13 27.5t-24.5 14t-40.5 6q-11 0 -15 0.5t-6 2t-3 6.5q-1 4 -1 37q0 11 8 14t37 3q33 0 59.5 -4t53 -14.5t45 -32.5t26.5 -55q5 -21 6 -106v-87q0 -66 8 -98.5t39 -48.5q13 -8 28 -8
q9 -1 13 -2t7 -5.5t3 -13.5z" />
    <glyph glyph-name="asciitilde" unicode="~" horiz-adv-x="729" 
d="M570 377l46 -89q-70 -81 -147 -81q-36 0 -101 31q-77 38 -108 38q-28 0 -45.5 -13t-53.5 -55l-48 87q62 89 145 89q38 0 107 -32q81 -37 107 -37q45 0 98 62z" />
    <glyph glyph-name="exclamdown" unicode="&#xa1;" horiz-adv-x="292" 
d="M33 28l51 406q1 13 6 17.5t19 4.5q42 0 45 -1q11 -2 14 -20l49 -411q1 -14 -3.5 -19t-18.5 -5h-140q-14 0 -19 6t-3 22zM39 627q2 35 26 60t62 25q39 0 64 -26.5t25 -61.5q0 -38 -27 -63t-61 -25q-36 0 -63 26.5t-26 64.5z" />
    <glyph glyph-name="cent" unicode="&#xa2;" horiz-adv-x="458" 
d="M267 447v-324q34 -1 54.5 9t40.5 32q25 31 40 31q13 0 22.5 -10.5t9.5 -28.5q0 -23 -13 -53t-32 -53q-44 -54 -122 -63v-65q0 -10 -3.5 -13t-13.5 -3q-25 0 -30.5 2t-5.5 13v66q-79 12 -134 81t-55 186q0 125 56 196t133 82v69q0 14 17 14q32 0 35 -5q1 -3 1 -8v-67
q79 -1 125 -43t46 -87q0 -30 -17.5 -45t-37.5 -15q-15 0 -27 8t-17 16t-14 25q-8 17 -13 24.5t-16 16t-29 12.5zM214 139v305q-39 -10 -57 -49t-18 -89q0 -122 75 -167z" />
    <glyph glyph-name="sterling" unicode="&#xa3;" horiz-adv-x="625" 
d="M426 345h-109q6 -53 6 -75q0 -28 -2 -43q15 -10 41 -31q44 -36 71 -52t51 -16q26 0 48 22q24 23 39 23q19 0 29 -14q7 -10 7 -28q0 -14 -6 -35t-19.5 -48.5t-44 -46.5t-71.5 -19q-30 0 -58.5 11t-52.5 32t-35.5 33t-27.5 31q-49 -106 -139 -106q-65 0 -98 41.5t-33 96.5
q0 65 42.5 110t107.5 45q15 0 43 -4q-14 48 -25 73h-96q-12 0 -16 3t-4 14q0 38 1 40q1 11 19 11h65q-26 78 -26 119q0 83 55.5 137.5t155.5 54.5q97 0 157 -50.5t60 -108.5q0 -32 -19 -49t-47 -17q-17 0 -29.5 8.5t-18.5 17.5t-14 25q-10 22 -15 32t-15.5 24t-23.5 19.5
t-31 5.5q-65 0 -65 -88q0 -39 21 -130h122q18 0 18 -16q0 -39 -2.5 -45.5t-15.5 -6.5zM224 160q-36 27 -60 27q-22 0 -36.5 -14t-14.5 -36q0 -21 14.5 -36t35.5 -15q46 0 61 74z" />
    <glyph glyph-name="currency" unicode="&#xa4;" horiz-adv-x="667" 
d="M642 570l-79 -77q16 -27 24 -42t15.5 -44.5t7.5 -64.5q0 -86 -48 -157l79 -79l-78 -77l-78 79q-28 -16 -42.5 -23.5t-44 -15t-64.5 -7.5q-82 0 -154 47l-79 -78l-77 77l80 78q-17 27 -25 43t-15.5 45.5t-7.5 66.5q0 35 7.5 64t15 44.5t24.5 43.5l-77 77l76 77l78 -77
q27 16 43 24t46.5 15.5t66.5 7.5q34 0 63.5 -7.5t44 -15t42.5 -24.5l78 77zM508 340q1 78 -52 127.5t-122 49.5q-72 0 -124 -49t-52 -130q0 -76 52 -126t123 -50q73 0 123.5 50.5t51.5 127.5z" />
    <glyph glyph-name="yen" unicode="&#xa5;" horiz-adv-x="542" 
d="M359 310v-38h117q24 0 24 -20q0 -37 -1 -39q-2 -13 -24 -13h-116v-176q0 -14 -5 -19t-18 -5h-132q-8 1 -12.5 2t-7.5 5.5t-3 13.5v179h-115q-14 0 -19 3.5t-5 16.5q0 39 3 45.5t20 6.5h116v44l-18 37h-97q-14 0 -19 3.5t-5 16.5q0 39 3 45.5t20 6.5h63l-120 245
q-7 15 -7 20q0 16 23 16h141q14 0 19 -3.5t12 -18.5l97 -220l104 219q7 14 12.5 18.5t18.5 4.5h95q19 0 19 -13q0 -7 -8 -23l-119 -245h61q24 0 24 -20q0 -37 -1 -39q-2 -13 -24 -13h-95z" />
    <glyph glyph-name="brokenbar" unicode="&#xa6;" horiz-adv-x="229" 
d="M63 -175v350h103v-350h-103zM166 325h-103v350h103v-350z" />
    <glyph glyph-name="section" unicode="&#xa7;" 
d="M201 117l-45 21q-26 12 -42.5 22.5t-41.5 30.5t-38 48t-13 61q0 51 25.5 85t67.5 62q-52 52 -52 120q0 72 49.5 114.5t135.5 42.5q87 0 135 -39t48 -87q0 -31 -18 -49.5t-44 -18.5q-40 0 -62 45q-11 22 -17.5 32t-19.5 19.5t-29 9.5q-25 0 -37.5 -16.5t-12.5 -38.5
q0 -35 23.5 -54t86.5 -49l42.5 -20t40.5 -23.5t39.5 -31.5t24.5 -38.5t11 -49.5q0 -38 -23 -75.5t-67 -65.5q75 -62 75 -146q0 -69 -51.5 -119t-143.5 -50t-147 46t-55 100q0 26 16.5 49t50.5 23q20 0 34.5 -10t21.5 -22t19 -37q26 -53 68 -53q23 0 37.5 15.5t14.5 39.5
q0 20 -8.5 36.5t-27 30t-32 21t-39.5 19.5zM297 217q39 28 39 67q0 28 -19 45t-56 34q-56 24 -84 40q-36 -39 -36 -69q0 -39 57 -71q38 -19 99 -46z" />
    <glyph glyph-name="dieresis" unicode="&#xa8;" horiz-adv-x="271" 
d="M112 648q2 -27 -17 -50t-60 -23q-35 0 -55.5 20t-20.5 48q0 32 23.5 51t54.5 19q30 0 52 -17.5t23 -47.5zM312 648q2 -27 -17 -50t-60 -23q-35 0 -55.5 20t-20.5 48q0 32 23.5 51t54.5 19q30 0 52 -17.5t23 -47.5z" />
    <glyph glyph-name="copyright" unicode="&#xa9;" horiz-adv-x="833" 
d="M545 264l72 -65q-22 -22 -38.5 -36.5t-60.5 -32.5t-94 -18q-106 0 -174.5 67t-68.5 176q0 107 70 175t170 68q39 0 72 -8.5t57.5 -24.5t37 -27t28.5 -28l-71 -68q-57 59 -120 59q-62 0 -103 -40.5t-41 -106.5q0 -64 41 -104.5t103 -40.5q29 0 52.5 9t35.5 18t32 28z
M772 351q-1 -148 -104 -251t-253 -103q-145 0 -249.5 101.5t-104.5 254.5q0 151 103.5 253.5t251.5 102.5q153 0 255 -105t101 -253zM740 352q0 136 -92.5 230.5t-229.5 94.5t-231 -95t-94 -228q0 -138 94.5 -231.5t228.5 -93.5q138 0 231 95t93 228z" />
    <glyph glyph-name="ordfeminine" unicode="&#xaa;" horiz-adv-x="313" 
d="M277 621v-172q0 -29 -10 -41q-9 -12 -37.5 -23t-76.5 -11q-133 0 -133 91q0 24 10 42.5t23.5 29.5t38.5 20.5t43 14t49 11.5q0 27 -0.5 38t-3.5 22.5t-9 14.5t-17 3q-24 0 -34 -28q-4 -12 -7.5 -18t-12.5 -12t-23 -6q-19 0 -30.5 11.5t-11.5 29.5q0 29 34.5 52.5
t101.5 23.5q36 0 59 -8.5t32.5 -24.5t12 -28.5t2.5 -31.5zM184 465v75q-18 -6 -26 -9t-20 -11t-17 -19.5t-5 -27.5q0 -23 12 -34.5t27 -11.5q29 0 29 38z" />
    <glyph glyph-name="guillemotleft" unicode="&#xab;" horiz-adv-x="458" 
d="M363 246l53 -90q7 -12 7 -22q0 -12 -8 -20.5t-19 -8.5q-16 0 -32 21q-62 77 -119 125q-16 13 -21 20t-5 18q0 19 21 35q54 44 108 108q24 28 31 34t17 6q11 0 19 -7.5t8 -19.5q0 -10 -9 -24l-52 -92q-13 -24 -13 -39q0 -18 14 -44zM162 246l53 -90q7 -12 7 -22
q0 -12 -8 -20.5t-19 -8.5q-16 0 -32 21q-62 77 -119 125q-16 13 -21 20t-5 18q0 19 21 35q54 44 108 108q24 28 31 34t17 6q11 0 19 -7.5t8 -19.5q0 -10 -9 -24l-52 -92q-13 -24 -13 -39q0 -18 14 -44z" />
    <glyph glyph-name="logicalnot" unicode="&#xac;" horiz-adv-x="667" 
d="M564 0v242h-564v103h667v-345h-103z" />
    <glyph glyph-name="registered" unicode="&#xae;" horiz-adv-x="833" 
d="M258 583h155q79 -2 106 -11q38 -13 57.5 -43.5t19.5 -64.5q0 -75 -86 -107q17 -9 25.5 -15.5t17.5 -25t14 -49.5q16 -99 37 -138h-109q-14 30 -24 99q-4 27 -6.5 40t-8.5 26.5t-11.5 18t-20 8.5t-29 4.5t-42.5 0.5v-197h-95v454zM353 510v-108h57q16 0 23.5 0.5t23 3
t23.5 8t14.5 17t6.5 27.5q0 24 -15 36.5t-28 14t-34 1.5h-71zM773 351q-1 -148 -104 -251t-253 -103q-143 0 -249 101t-106 255q0 152 104.5 254t250.5 102q153 0 255.5 -105t101.5 -253zM741 352q1 134 -92.5 229.5t-230.5 95.5q-136 0 -230.5 -95t-94.5 -229
q0 -136 94.5 -230t229.5 -94q137 0 230 93.5t94 229.5z" />
    <glyph glyph-name="macron" unicode="&#xaf;" horiz-adv-x="271" 
d="M262 602h-260q-20 0 -22 12v48q0 12 5 16t17 4h260q11 0 16 -1t9 -5.5t4 -13.5q0 -45 -1 -47q-1 -9 -6.5 -11t-21.5 -2z" />
    <glyph glyph-name="degree" unicode="&#xb0;" horiz-adv-x="354" 
d="M177 755q71 0 121.5 -50.5t50.5 -121.5q0 -72 -50.5 -122.5t-121.5 -50.5t-121.5 50.5t-50.5 122.5q0 71 50.5 121.5t121.5 50.5zM177 654q-30 0 -51 -21t-21 -51t21 -51t51 -21q29 0 50 21t21 51t-21 51t-50 21z" />
    <glyph glyph-name="plusminus" unicode="&#xb1;" horiz-adv-x="500" 
d="M469 103v-103h-437v103h437zM303 340v-167h-103v167h-168v103h168v168h103v-168h166v-103h-166z" />
    <glyph glyph-name="twosuperior" unicode="&#xb2;" horiz-adv-x="333" 
d="M243 474l-89 -115h132q10 0 13.5 -3t3.5 -12v-64q0 -9 -3 -12t-12 -3h-249q-25 0 -25 20q0 9 12 24l125 168l28 38.5t14 26.5t6 30q0 24 -15 42.5t-41 18.5q-42 0 -58 -48q-3 -8 -4.5 -11t-5 -9t-9 -8.5t-12.5 -2.5q-31 0 -31 40q0 48 38 85.5t104 37.5q64 0 99.5 -35.5
t35.5 -82.5q0 -23 -9.5 -47t-19.5 -39t-28 -39z" />
    <glyph glyph-name="threesuperior" unicode="&#xb3;" horiz-adv-x="333" 
d="M229 517q28 -16 46 -35q32 -38 32 -91q0 -55 -38.5 -96t-115.5 -41q-59 0 -98 29t-39 67q0 20 13 33t30 13q25 0 42 -27q9 -15 15 -23t18 -15.5t26 -7.5q21 0 34.5 13.5t13.5 36.5q0 54 -77 85q-24 9 -30.5 13.5t-7.5 15.5q0 13 21 24q24 10 37 17t25.5 22.5t12.5 35.5
q0 25 -15 39.5t-37 14.5q-32 0 -54 -37q-13 -25 -30 -25q-11 0 -19.5 9.5t-8.5 25.5q0 35 33.5 69.5t99.5 34.5q61 0 95 -30.5t34 -77.5q0 -25 -12.5 -46t-21.5 -28.5t-24 -17.5z" />
    <glyph glyph-name="acute" unicode="&#xb4;" horiz-adv-x="271" 
d="M198 649l-82 -69q-21 -16 -34 -16q-29 0 -29 29q0 13 18 36l71 83q21 21 38 21t27.5 -12.5t10.5 -30.5q0 -21 -20 -41z" />
    <glyph glyph-name="mu" unicode="&#xb5;" horiz-adv-x="521" 
d="M338 518h117q23 0 23 -20v-375q0 -37 -6 -56.5t-30 -37.5q-61 -43 -182 -43q-29 0 -62 4v-201q0 -23 -22 -23h-107q-9 0 -13.5 1t-8.5 6t-4 15v711q0 19 22 19h113q25 0 25 -21v-338q0 -13 1.5 -21.5t6.5 -20.5t18 -18.5t34 -6.5q25 0 38 11t15 21.5t2 27.5v344
q0 12 4 17t16 5z" />
    <glyph glyph-name="paragraph" unicode="&#xb6;" horiz-adv-x="667" 
d="M309 706h240v-66h-35v-807h-71v807h-131v-807h-71v473q-75 17 -112 61q-44 52 -44 132t45 134q26 32 63 49.5t59.5 20t56.5 3.5z" />
    <glyph glyph-name="periodcentered" unicode="&#xb7;" horiz-adv-x="250" 
d="M209 278q0 -35 -23.5 -60.5t-60.5 -25.5q-36 0 -60.5 25.5t-24.5 62.5q0 40 27 64t58 24q34 0 59.5 -26t24.5 -64z" />
    <glyph glyph-name="cedilla" unicode="&#xb8;" horiz-adv-x="271" 
d="M108 6h60l-14 -81q32 -1 53 -11t28.5 -25t10 -24.5t2.5 -19.5q0 -38 -30 -64.5t-86 -26.5q-30 0 -70 11t-40 34q0 10 6.5 17.5t15.5 7.5q1 0 18 -4q54 -6 55 -6q19 0 32.5 9t13.5 26q0 14 -9.5 21.5t-18 8.5t-23.5 1q-19 0 -16 24z" />
    <glyph glyph-name="onesuperior" unicode="&#xb9;" horiz-adv-x="333" 
d="M146 281v310q-76 -18 -94 -18q-16 0 -24 8t-8 18q0 8 5.5 14t9.5 7.5t16 5.5q78 23 132 66q24 21 40 21q26 0 26 -32v-400q0 -16 -17 -16h-69q-17 0 -17 16z" />
    <glyph glyph-name="ordmasculine" unicode="&#xba;" horiz-adv-x="333" 
d="M315 550q2 -79 -39.5 -127.5t-110.5 -48.5q-64 0 -105.5 45.5t-41.5 124.5q0 82 42.5 126.5t106.5 44.5q70 0 108 -49t40 -116zM211 553q-1 45 -13 74t-34 29q-23 0 -33 -31.5t-10 -71.5q0 -42 11.5 -77t34.5 -35q24 0 34.5 34.5t9.5 77.5z" />
    <glyph glyph-name="guillemotright" unicode="&#xbb;" horiz-adv-x="458" 
d="M95 331l-52 91q-8 14 -8 22q0 12 8 20t19 8q16 0 32 -20q61 -76 119 -126q16 -12 21 -19t5 -19q0 -19 -21 -35q-57 -46 -108 -108q-23 -28 -30.5 -34t-17.5 -6q-11 0 -19 7.5t-8 19.5q0 11 9 25l52 91q13 22 13 39q0 18 -14 44zM296 331l-52 91q-8 14 -8 22q0 12 8 20
t19 8q16 0 32 -20q61 -76 119 -126q16 -12 21 -19t5 -19q0 -18 -20 -35q-57 -44 -109 -108q-23 -28 -30.5 -34t-17.5 -6q-11 0 -19 7.5t-8 19.5q0 11 9 25l52 91q14 24 14 39q0 16 -15 44z" />
    <glyph glyph-name="onequarter" unicode="&#xbc;" horiz-adv-x="792" 
d="M759 137v-35q0 -10 -8 -12h-31v-79q0 -9 -3 -12t-12 -3h-70q-4 0 -6.5 1t-3.5 3.5t-1 3.5t-1 6v80h-126q-33 0 -33 27q0 12 11 30l179 279q13 22 35 22q31 0 31 -32v-268q27 0 33 -1.5t6 -9.5zM544 148h83v142zM611 672l-342 -651q-7 -14 -12 -17.5t-17 -3.5q-49 0 -51 5
q-1 1 -1 5q0 2 4 11t4 11l343 650q11 23 25 24h41q16 0 16 -12q0 -4 -10 -22zM146 281v310q-76 -18 -94 -18q-16 0 -24 8t-8 17q0 12 7.5 17.5t23.5 10.5q71 20 132 66q25 21 40 21q26 0 26 -32v-400q0 -16 -17 -16h-69q-17 0 -17 16z" />
    <glyph glyph-name="onehalf" unicode="&#xbd;" horiz-adv-x="792" 
d="M586 672l-342 -651q-7 -14 -11.5 -17.5t-17.5 -3.5q-37 0 -44.5 1.5t-7.5 9.5q0 1 4 10t4 11l342 650q5 10 7 13.5t6 6.5t10 4h44q16 0 16 -12q0 -4 -10 -22zM146 281v310q-63 -18 -94 -18q-16 0 -24 7.5t-8 17.5q0 19 31 27q77 23 132 67q25 21 40 21q26 0 26 -32v-400
q0 -16 -17 -16h-69q-17 0 -17 16zM701 209l-89 -115h132q10 0 13.5 -3t3.5 -12v-64q0 -9 -3 -12t-12 -3h-249q-25 0 -25 20q0 9 12 24l125 168l28 38.5t14 26.5t6 30q0 24 -15 42.5t-41 18.5q-44 0 -58 -48q-3 -8 -4.5 -11t-5 -9t-9 -8.5t-12.5 -2.5q-31 0 -31 40
q0 48 38 85.5t104 37.5q64 0 99.5 -35.5t35.5 -82.5q0 -23 -9.5 -47t-19.5 -39t-28 -39z" />
    <glyph glyph-name="threequarters" unicode="&#xbe;" horiz-adv-x="792" 
d="M759 137v-35q0 -10 -8 -12h-31v-79q0 -9 -3 -12t-12 -3h-70q-4 0 -6.5 1t-3.5 3.5t-1 3.5t-1 6v80h-126q-33 0 -33 27q0 12 11 30l179 279q13 22 35 22q31 0 31 -31v-269q27 0 33 -1.5t6 -9.5zM544 148h83v142zM618 672l-343 -651q-7 -14 -12 -17.5t-17 -3.5q-49 0 -51 5
q-1 1 -1 5t9 22l342 650q12 22 25 24h42q15 0 15 -12q0 -4 -9 -22zM229 517q28 -16 46 -35q32 -38 32 -91q0 -55 -38.5 -96t-115.5 -41q-59 0 -98 29t-39 67q0 20 13 33t30 13q24 0 42 -27q10 -16 16 -24t17.5 -15t25.5 -7q21 0 34.5 13.5t13.5 36.5q0 55 -77 85
q-23 8 -30 13t-8 16q0 11 7 16t34 17q55 22 55 66q0 25 -15 39.5t-37 14.5q-31 0 -54 -37q-13 -25 -30 -25q-11 0 -19.5 9.5t-8.5 25.5q0 35 33.5 69.5t99.5 34.5q61 0 95 -30.5t34 -77.5q0 -25 -12.5 -46t-21.5 -28.5t-24 -17.5z" />
    <glyph glyph-name="questiondown" unicode="&#xbf;" horiz-adv-x="437" 
d="M257 430l16 -122q1 -4 1 -13q0 -18 -7 -26t-32 -24q-17 -11 -25 -17t-21.5 -19t-20 -29t-6.5 -36q0 -30 18 -49t44 -19q17 0 30 10t17 18t9 23q7 20 12 31t20 22.5t36 11.5q31 0 49 -21.5t18 -51.5q0 -52 -52.5 -94t-157.5 -42q-77 0 -126 29q-65 40 -65 110q0 24 7 44.5
t24.5 40.5t28.5 29.5l35 29.5q34 29 44 54t18 90q4 31 8 37.5t19 6.5h42q9 -1 11.5 -4.5t5.5 -19.5zM128 627q1 35 25.5 60t61.5 25q39 0 63 -26.5t24 -61.5q0 -38 -26.5 -63t-60.5 -25q-36 0 -62 26t-25 65z" />
    <glyph glyph-name="Agrave" unicode="&#xc0;" horiz-adv-x="604" 
d="M420 21l-47 142h-191l-46 -142q-4 -12 -10 -16.5t-19 -4.5h-87q-20 0 -20 15q0 4 5 18l231 653q5 13 10.5 17t18.5 4h78q14 0 19 -4t10 -17l229 -655q3 -7 3 -14t-4 -11t-7.5 -4.5t-11.5 -1.5h-132q-13 0 -19 4t-10 17zM211 257h132l-67 222zM250 922l82 -99
q12 -12 12 -31q0 -15 -9 -24t-22 -9t-31 14l-82 65q-30 26 -30 54q0 20 12 35t31 15q17 0 37 -20z" />
    <glyph glyph-name="Aacute" unicode="&#xc1;" horiz-adv-x="604" 
d="M420 21l-47 142h-191l-46 -142q-4 -12 -10 -16.5t-19 -4.5h-87q-20 0 -20 15q0 4 5 18l231 653q5 13 10.5 17t18.5 4h78q14 0 19 -4t10 -17l229 -655q3 -7 3 -14t-4 -11t-7.5 -4.5t-11.5 -1.5h-132q-13 0 -19 4t-10 17zM211 257h132l-67 222zM421 838l-83 -65
q-16 -14 -30 -14q-13 0 -22 9t-9 24q0 18 11 31l83 99q18 20 37 20t31 -15t12 -35q0 -28 -30 -54z" />
    <glyph glyph-name="Acircumflex" unicode="&#xc2;" horiz-adv-x="604" 
d="M420 21l-47 142h-191l-46 -142q-4 -12 -10 -16.5t-19 -4.5h-87q-20 0 -20 15q0 4 5 18l231 653q5 13 10.5 17t18.5 4h78q14 0 19 -4t10 -17l229 -655q3 -7 3 -14t-4 -11t-7.5 -4.5t-11.5 -1.5h-132q-13 0 -19 4t-10 17zM211 257h132l-67 222zM268 804l-68 -42
q-16 -8 -24 -8q-9 0 -16.5 8.5t-7.5 20.5q0 11 5 18t25 24q59 55 77 75q12 14 19.5 19t20.5 5q18 0 34 -16q34 -36 85 -76q13 -10 18 -14.5t9 -11.5t4 -16q0 -13 -7.5 -23t-16.5 -10q-7 0 -23 8l-67 39q-19 12 -33 12q-12 0 -34 -12z" />
    <glyph glyph-name="Atilde" unicode="&#xc3;" horiz-adv-x="604" 
d="M420 21l-47 142h-191l-46 -142q-4 -12 -10 -16.5t-19 -4.5h-87q-20 0 -20 15q0 4 5 18l231 653q5 13 10.5 17t18.5 4h78q14 0 19 -4t10 -17l229 -655q3 -7 3 -14t-4 -11t-7.5 -4.5t-11.5 -1.5h-132q-13 0 -19 4t-10 17zM211 257h132l-67 222zM294 791q-38 19 -53 19
q-19 0 -41 -24q-17 -17 -29 -17q-11 0 -19.5 8t-8.5 25q0 32 24 66t72 34q25 0 72 -25q38 -21 55 -21q19 0 37 18q22 25 36 25q26 0 26 -32q0 -35 -25.5 -67.5t-73.5 -32.5q-30 0 -72 24z" />
    <glyph glyph-name="Adieresis" unicode="&#xc4;" horiz-adv-x="604" 
d="M420 21l-47 142h-191l-46 -142q-4 -12 -10 -16.5t-19 -4.5h-87q-20 0 -20 15q0 4 5 18l231 653q5 13 10.5 17t18.5 4h78q14 0 19 -4t10 -17l229 -655q3 -7 3 -14t-4 -11t-7.5 -4.5t-11.5 -1.5h-132q-13 0 -19 4t-10 17zM211 257h132l-67 222zM277 829q2 -29 -18 -53
t-62 -24q-36 0 -59.5 18.5t-23.5 51.5t23 53t60 20q34 0 56 -18.5t24 -47.5zM489 829q2 -29 -18 -53t-62 -24q-36 0 -59.5 18.5t-23.5 51.5t22.5 53t60.5 20q35 0 57 -18t23 -48z" />
    <glyph glyph-name="Aring" unicode="&#xc5;" horiz-adv-x="604" 
d="M420 21l-47 142h-191l-46 -142q-4 -12 -10 -16.5t-19 -4.5h-87q-20 0 -20 15q0 4 5 18l231 653q5 13 10.5 17t18.5 4h78q14 0 19 -4t10 -17l229 -655q3 -7 3 -14t-4 -11t-7.5 -4.5t-11.5 -1.5h-132q-13 0 -19 4t-10 17zM211 257h132l-67 222zM404 854q2 -43 -26 -74
t-74 -31q-45 0 -74 30t-29 72q0 45 30.5 73.5t71.5 28.5q40 0 69.5 -28t31.5 -71zM345 852q-1 18 -13 30t-30 12t-30 -12.5t-12 -31.5t13 -30.5t30 -11.5q19 0 31 13t11 31z" />
    <glyph glyph-name="AE" unicode="&#xc6;" horiz-adv-x="792" 
d="M516 308l39 -189h201q12 0 16.5 -4.5t4.5 -15.5v-77q0 -13 -4.5 -17.5t-16.5 -4.5h-328q-22 0 -26 19l-27 142h-181l-55 -142q-5 -12 -10 -15.5t-18 -3.5h-92q-22 0 -22 14q0 5 7 21l281 653q5 12 10.5 15t18.5 4h368q12 0 16.5 -5t4.5 -17v-75q0 -13 -5.5 -16.5
t-18.5 -3.5h-220l34 -169h187q13 0 18 -3.5t5 -15.5v-73q0 -13 -4.5 -17t-17.5 -4h-165zM230 255h126l-43 216z" />
    <glyph glyph-name="Ccedilla" unicode="&#xc7;" horiz-adv-x="583" 
d="M281 -96l10 83q-117 20 -183 100q-41 49 -62 122.5t-21 147.5q0 167 90.5 267t226.5 100q102 0 165 -49t63 -103q0 -30 -20.5 -50t-54.5 -20q-27 0 -41 11.5t-33 41.5q-42 65 -92 65q-53 0 -86.5 -57.5t-33.5 -158.5q0 -146 58 -222q47 -64 121 -64q49 0 96 36
q26 20 41 20q16 0 28 -12t12 -32q0 -45 -57.5 -95t-158.5 -52l-10 -58q32 -1 53 -11t28.5 -25t10 -24.5t2.5 -19.5q0 -38 -30 -64.5t-86 -26.5q-30 0 -70 11t-40 34q0 11 6 18t16 7q1 0 2.5 -0.5t5.5 -1.5t10 -2q54 -6 55 -6q19 0 32.5 9t13.5 26q0 14 -9.5 21.5t-18 8.5
t-23.5 1q-19 0 -16 24z" />
    <glyph glyph-name="Egrave" unicode="&#xc8;" 
d="M390 307h-168v-189h206q14 0 20 -5t6 -20v-68q0 -15 -5.5 -20t-21.5 -5h-350q-15 0 -21.5 4.5t-6.5 19.5v653q1 16 6.5 22.5t22.5 7.5h348q10 0 15 -1t9 -6t4 -15v-68q0 -16 -6.5 -21t-21.5 -5h-204v-171h169q9 0 13.5 -1t8 -6t3.5 -15v-68q0 -15 -5.5 -19t-20.5 -4z
M198 922l82 -99q12 -12 12 -31q0 -15 -9 -24t-22 -9t-31 14l-82 65q-30 26 -30 54q0 20 12 35t31 15q17 0 37 -20z" />
    <glyph glyph-name="Eacute" unicode="&#xc9;" 
d="M390 307h-168v-189h206q14 0 20 -5t6 -20v-68q0 -15 -5.5 -20t-21.5 -5h-350q-15 0 -21.5 4.5t-6.5 19.5v653q1 16 6.5 22.5t22.5 7.5h348q10 0 15 -1t9 -6t4 -15v-68q0 -16 -6.5 -21t-21.5 -5h-204v-171h169q9 0 13.5 -1t8 -6t3.5 -15v-68q0 -15 -5.5 -19t-20.5 -4z
M369 838l-83 -65q-16 -14 -30 -14q-13 0 -22 9t-9 24q0 18 11 31l83 99q18 20 37 20t31 -15t12 -35q0 -28 -30 -54z" />
    <glyph glyph-name="Ecircumflex" unicode="&#xca;" 
d="M390 307h-168v-189h206q14 0 20 -5t6 -20v-68q0 -15 -5.5 -20t-21.5 -5h-350q-15 0 -21.5 4.5t-6.5 19.5v653q1 16 6.5 22.5t22.5 7.5h348q10 0 15 -1t9 -6t4 -15v-68q0 -16 -6.5 -21t-21.5 -5h-204v-171h169q9 0 13.5 -1t8 -6t3.5 -15v-68q0 -15 -5.5 -19t-20.5 -4z
M216 804l-68 -42q-16 -8 -24 -8q-9 0 -16.5 8.5t-7.5 20.5q0 11 5 18t25 24q59 55 77 75q12 14 19.5 19t20.5 5q18 0 34 -16q34 -36 85 -76q13 -10 18 -14.5t9 -11.5t4 -16q0 -13 -7.5 -23t-16.5 -10q-7 0 -23 8l-67 39q-19 12 -33 12q-12 0 -34 -12z" />
    <glyph glyph-name="Edieresis" unicode="&#xcb;" 
d="M390 307h-168v-189h206q14 0 20 -5t6 -20v-68q0 -15 -5.5 -20t-21.5 -5h-350q-15 0 -21.5 4.5t-6.5 19.5v653q1 16 6.5 22.5t22.5 7.5h348q10 0 15 -1t9 -6t4 -15v-68q0 -16 -6.5 -21t-21.5 -5h-204v-171h169q9 0 13.5 -1t8 -6t3.5 -15v-68q0 -15 -5.5 -19t-20.5 -4z
M223 829q2 -29 -18 -53t-62 -24q-36 0 -59.5 18.5t-23.5 51.5t23 53t60 20q34 0 56 -18.5t24 -47.5zM435 829q2 -29 -18 -53t-62 -24q-36 0 -59.5 18.5t-23.5 51.5t22.5 53t60.5 20q35 0 57 -18t23 -48z" />
    <glyph glyph-name="Igrave" unicode="&#xcc;" horiz-adv-x="271" 
d="M223 683v-658q0 -25 -25 -25h-124q-15 0 -21 5t-6 20v658q1 13 5.5 18t18.5 5h129q14 1 18.5 -4.5t4.5 -18.5zM83 922l82 -99q12 -12 12 -31q0 -15 -9 -24t-22 -9t-31 14l-82 65q-30 26 -30 54q0 20 12 35t31 15q17 0 37 -20z" />
    <glyph glyph-name="Iacute" unicode="&#xcd;" horiz-adv-x="271" 
d="M223 683v-658q0 -25 -25 -25h-124q-15 0 -21 5t-6 20v658q1 13 5.5 18t18.5 5h129q14 1 18.5 -4.5t4.5 -18.5zM254 838l-83 -65q-16 -14 -30 -14q-13 0 -22 9t-9 24q0 18 11 31l83 99q18 20 37 20t31 -15t12 -35q0 -28 -30 -54z" />
    <glyph glyph-name="Icircumflex" unicode="&#xce;" horiz-adv-x="271" 
d="M223 683v-658q0 -25 -25 -25h-124q-15 0 -21 5t-6 20v658q1 13 5.5 18t18.5 5h129q14 1 18.5 -4.5t4.5 -18.5zM101 804l-68 -42q-16 -8 -24 -8q-9 0 -16.5 8.5t-7.5 20.5q0 11 5 18t25 24q59 55 77 75q12 14 19.5 19t20.5 5q18 0 34 -16q34 -36 85 -76q13 -10 18 -14.5
t9 -11.5t4 -16q0 -13 -7.5 -23t-16.5 -10q-7 0 -23 8l-67 39q-19 12 -33 12q-12 0 -34 -12z" />
    <glyph glyph-name="Idieresis" unicode="&#xcf;" horiz-adv-x="271" 
d="M223 683v-658q0 -25 -25 -25h-124q-15 0 -21 5t-6 20v658q1 13 5.5 18t18.5 5h129q14 1 18.5 -4.5t4.5 -18.5zM108 829q2 -29 -18 -53t-62 -24q-36 0 -59.5 18.5t-23.5 51.5t23 53t60 20q34 0 56 -18.5t24 -47.5zM320 829q2 -29 -18 -53t-62 -24q-36 0 -59.5 18.5
t-23.5 51.5t22.5 53t60.5 20q35 0 57 -18t23 -48z" />
    <glyph glyph-name="Eth" unicode="&#xd0;" horiz-adv-x="646" 
d="M49 48v281h-51q-13 2 -13 18v65q0 16 13 18q3 1 51 1v230q0 26 19 33q19 8 72.5 14.5t103.5 6.5q178 0 274 -90q103 -97 103 -272q0 -149 -80 -241q-103 -121 -320 -121q-105 0 -149 15q-15 5 -19 13.5t-4 28.5zM335 329h-113v-223q59 -3 102.5 16t68 55t35.5 80t11 99
q0 128 -53 190t-135 62q-17 0 -29 -2v-175h113q12 0 16 -4t4 -16v-62q0 -12 -4.5 -16t-15.5 -4z" />
    <glyph glyph-name="Ntilde" unicode="&#xd1;" horiz-adv-x="625" 
d="M208 684l240 -380v380q0 13 5 17.5t17 4.5h83q15 1 19.5 -5t4.5 -19v-659q0 -13 -5 -18t-19 -5h-65q-17 0 -23.5 3.5t-16.5 18.5l-268 420v-417q0 -14 -5 -19.5t-20 -5.5h-81q-14 0 -19.5 5t-5.5 18v659q0 24 26 24h95q15 0 22 -4t16 -18zM315 791q-38 19 -53 19
q-19 0 -41 -24q-17 -17 -29 -17q-11 0 -19.5 8t-8.5 25q0 32 24 66t72 34q17 0 29 -4.5t43 -20.5q38 -21 55 -21q19 0 37 18q22 25 36 25q26 0 26 -32q0 -35 -25.5 -67.5t-73.5 -32.5q-30 0 -72 24z" />
    <glyph glyph-name="Ograve" unicode="&#xd2;" horiz-adv-x="667" 
d="M642 370q7 -177 -81.5 -282t-227.5 -105q-137 0 -222.5 101.5t-85.5 270.5q0 164 84.5 266.5t227.5 102.5q135 0 217 -98.5t88 -255.5zM464 369q-2 112 -34.5 177t-95.5 65q-26 0 -47.5 -11.5t-35 -28t-23 -42t-14 -46.5t-7 -48t-3 -40.5t-0.5 -29.5q0 -47 6 -95
q7 -55 24 -89q35 -75 102 -75q33 0 59 21q55 42 64 149q5 36 5 93zM281 922l82 -99q12 -12 12 -31q0 -15 -9 -24t-22 -9t-31 14l-82 65q-30 26 -30 54q0 20 12 35t31 15q17 0 37 -20z" />
    <glyph glyph-name="Oacute" unicode="&#xd3;" horiz-adv-x="667" 
d="M642 370q7 -177 -81.5 -282t-227.5 -105q-137 0 -222.5 101.5t-85.5 270.5q0 164 84.5 266.5t227.5 102.5q135 0 217 -98.5t88 -255.5zM464 369q-2 112 -34.5 177t-95.5 65q-26 0 -47.5 -11.5t-35 -28t-23 -42t-14 -46.5t-7 -48t-3 -40.5t-0.5 -29.5q0 -47 6 -95
q7 -55 24 -89q35 -75 102 -75q33 0 59 21q55 42 64 149q5 36 5 93zM452 838l-83 -65q-16 -14 -30 -14q-13 0 -22 9t-9 24q0 18 11 31l83 99q18 20 37 20t31 -15t12 -35q0 -28 -30 -54z" />
    <glyph glyph-name="Ocircumflex" unicode="&#xd4;" horiz-adv-x="667" 
d="M642 370q7 -177 -81.5 -282t-227.5 -105q-137 0 -222.5 101.5t-85.5 270.5q0 164 84.5 266.5t227.5 102.5q135 0 217 -98.5t88 -255.5zM464 369q-2 112 -34.5 177t-95.5 65q-26 0 -47.5 -11.5t-35 -28t-23 -42t-14 -46.5t-7 -48t-3 -40.5t-0.5 -29.5q0 -47 6 -95
q7 -55 24 -89q35 -75 102 -75q33 0 59 21q55 42 64 149q5 36 5 93zM310 804l-68 -42q-16 -8 -24 -8q-9 0 -16.5 8.5t-7.5 20.5q0 11 5 18t25 24q59 55 77 75q12 14 19.5 19t20.5 5q18 0 34 -16q34 -36 85 -76q13 -10 18 -14.5t9 -11.5t4 -16q0 -13 -7.5 -23t-16.5 -10
q-7 0 -23 8l-67 39q-19 12 -33 12q-12 0 -34 -12z" />
    <glyph glyph-name="Otilde" unicode="&#xd5;" horiz-adv-x="667" 
d="M642 370q7 -177 -81.5 -282t-227.5 -105q-137 0 -222.5 101.5t-85.5 270.5q0 164 84.5 266.5t227.5 102.5q135 0 217 -98.5t88 -255.5zM464 369q-2 112 -34.5 177t-95.5 65q-26 0 -47.5 -11.5t-35 -28t-23 -42t-14 -46.5t-7 -48t-3 -40.5t-0.5 -29.5q0 -47 6 -95
q7 -55 24 -89q35 -75 102 -75q33 0 59 21q55 42 64 149q5 36 5 93zM336 791q-38 19 -53 19q-19 0 -41 -24q-17 -17 -29 -17q-11 0 -19.5 8t-8.5 25q0 32 24 66t72 34q25 0 72 -25q38 -21 55 -21q19 0 37 18q22 25 36 25q26 0 26 -32q0 -35 -25.5 -67.5t-73.5 -32.5
q-30 0 -72 24z" />
    <glyph glyph-name="Odieresis" unicode="&#xd6;" horiz-adv-x="667" 
d="M642 370q7 -177 -81.5 -282t-227.5 -105q-137 0 -222.5 101.5t-85.5 270.5q0 164 84.5 266.5t227.5 102.5q135 0 217 -98.5t88 -255.5zM464 369q-2 112 -34.5 177t-95.5 65q-26 0 -47.5 -11.5t-35 -28t-23 -42t-14 -46.5t-7 -48t-3 -40.5t-0.5 -29.5q0 -47 6 -95
q7 -55 24 -89q35 -75 102 -75q33 0 59 21q55 42 64 149q5 36 5 93zM309 829q2 -29 -18 -53t-62 -24q-36 0 -59.5 18.5t-23.5 51.5t23 53t60 20q34 0 56 -18.5t24 -47.5zM521 829q2 -29 -18 -53t-62 -24q-36 0 -59.5 18.5t-23.5 51.5t22.5 53t60.5 20q35 0 57 -18t23 -48z
" />
    <glyph glyph-name="multiply" unicode="&#xd7;" horiz-adv-x="500" 
d="M323 292l132 -132l-74 -74l-131 132l-131 -132l-74 74l130 132l-130 132l74 74l131 -132l131 132l74 -74z" />
    <glyph glyph-name="Oslash" unicode="&#xd8;" horiz-adv-x="667" 
d="M639 717l-76 -101q79 -103 79 -249q0 -172 -86 -278t-223 -106q-110 0 -187 68l-72 -96q-8 -12 -15 -12q-5 0 -23 14t-18 21q0 4 8 15l76 103q-77 91 -77 246q0 166 84.5 274t227.5 108q103 0 183 -63l71 96q8 10 12 10q5 0 24.5 -14.5t19.5 -20.5q0 -3 -8 -15zM462 479
l-230 -311q31 -67 95 -67q56 0 95 56q51 72 51 211q0 69 -11 111zM209 242l232 312q-37 72 -97 72q-61 0 -105.5 -68t-44.5 -188q0 -81 15 -128z" />
    <glyph glyph-name="Ugrave" unicode="&#xd9;" horiz-adv-x="583" 
d="M541 682v-472q-1 -37 -3.5 -58.5t-16.5 -53.5t-41 -56q-66 -59 -188 -59q-112 0 -178 50q-45 34 -58 76.5t-13 106.5v469q0 21 22 21h130q14 0 19 -4t5 -19v-453q0 -20 1 -29.5t6 -28.5t14 -28.5t28 -18t46 -8.5q25 0 42.5 8.5t26 19t13.5 29.5t6 28.5t1 27.5v454
q0 13 4.5 17.5t17.5 4.5h91q15 0 20 -4t5 -20zM240 922l82 -99q12 -12 12 -31q0 -15 -9 -24t-22 -9t-31 14l-82 65q-30 26 -30 54q0 20 12 35t31 15q17 0 37 -20z" />
    <glyph glyph-name="Uacute" unicode="&#xda;" horiz-adv-x="583" 
d="M541 682v-472q-1 -37 -3.5 -58.5t-16.5 -53.5t-41 -56q-66 -59 -188 -59q-112 0 -178 50q-45 34 -58 76.5t-13 106.5v469q0 21 22 21h130q14 0 19 -4t5 -19v-453q0 -20 1 -29.5t6 -28.5t14 -28.5t28 -18t46 -8.5q25 0 42.5 8.5t26 19t13.5 29.5t6 28.5t1 27.5v454
q0 13 4.5 17.5t17.5 4.5h91q15 0 20 -4t5 -20zM411 838l-83 -65q-16 -14 -30 -14q-13 0 -22 9t-9 24q0 18 11 31l83 99q18 20 37 20t31 -15t12 -35q0 -28 -30 -54z" />
    <glyph glyph-name="Ucircumflex" unicode="&#xdb;" horiz-adv-x="583" 
d="M541 682v-472q-1 -37 -3.5 -58.5t-16.5 -53.5t-41 -56q-66 -59 -188 -59q-112 0 -178 50q-45 34 -58 76.5t-13 106.5v469q0 21 22 21h130q14 0 19 -4t5 -19v-453q0 -20 1 -29.5t6 -28.5t14 -28.5t28 -18t46 -8.5q25 0 42.5 8.5t26 19t13.5 29.5t6 28.5t1 27.5v454
q0 13 4.5 17.5t17.5 4.5h91q15 0 20 -4t5 -20zM268 804l-68 -42q-16 -8 -24 -8q-9 0 -16.5 8.5t-7.5 20.5q0 11 5 18t25 24q59 55 77 75q12 14 19.5 19t20.5 5q18 0 34 -16q34 -36 85 -76q13 -10 18 -14.5t9 -11.5t4 -16q0 -13 -7.5 -23t-16.5 -10q-7 0 -23 8l-67 39
q-19 12 -33 12q-12 0 -34 -12z" />
    <glyph glyph-name="Udieresis" unicode="&#xdc;" horiz-adv-x="583" 
d="M541 682v-472q-1 -37 -3.5 -58.5t-16.5 -53.5t-41 -56q-66 -59 -188 -59q-112 0 -178 50q-45 34 -58 76.5t-13 106.5v469q0 21 22 21h130q14 0 19 -4t5 -19v-453q0 -20 1 -29.5t6 -28.5t14 -28.5t28 -18t46 -8.5q25 0 42.5 8.5t26 19t13.5 29.5t6 28.5t1 27.5v454
q0 13 4.5 17.5t17.5 4.5h91q15 0 20 -4t5 -20zM272 829q2 -29 -18 -53t-62 -24q-36 0 -59.5 18.5t-23.5 51.5t23 53t60 20q34 0 56 -18.5t24 -47.5zM484 829q2 -29 -18 -53t-62 -24q-36 0 -59.5 18.5t-23.5 51.5t22.5 53t60.5 20q35 0 57 -18t23 -48z" />
    <glyph glyph-name="Yacute" unicode="&#xdd;" horiz-adv-x="542" 
d="M533 670l-175 -361v-285q0 -14 -4.5 -19t-18.5 -5h-132q-12 0 -17.5 4t-5.5 17v295l-173 354q-7 15 -7 20q0 16 23 16h141q14 0 19 -3.5t12 -18.5l97 -220l104 219q7 14 12.5 18.5t18.5 4.5h95q19 0 19 -13q0 -7 -8 -23zM390 838l-83 -65q-16 -14 -30 -14q-13 0 -22 9
t-9 24q0 18 11 31l83 99q18 20 37 20t31 -15t12 -35q0 -28 -30 -54z" />
    <glyph glyph-name="Thorn" unicode="&#xde;" horiz-adv-x="542" 
d="M198 0h-122q-14 0 -20.5 4.5t-6.5 20.5v656q0 15 6 20t21 5h122q14 0 19.5 -5t5.5 -19v-107q57 11 95 11q106 0 163 -54q62 -62 62 -166q0 -106 -70 -165t-193 -59q-5 0 -57 2v-120q0 -14 -5.5 -19t-19.5 -5zM223 483v-237q24 -2 30 -2q114 0 114 122q0 34 -8.5 58.5
t-18.5 36.5t-26.5 18t-25.5 7t-23 1q-22 0 -42 -4z" />
    <glyph glyph-name="germandbls" unicode="&#xdf;" horiz-adv-x="562" 
d="M202 579v-558q0 -13 -5 -17t-16 -4h-111q-16 0 -21 4.5t-6 18.5v402q1 29 2 47t7.5 59t16 69t29.5 65t46.5 59.5t68.5 38.5t94 16q83 0 130.5 -42.5t47.5 -99.5q0 -26 -11.5 -54.5t-23 -45t-36.5 -49.5q-26 -34 -26 -54q0 -18 9 -30t43 -43q38 -34 57.5 -54.5t39 -60
t19.5 -82.5q0 -29 -9.5 -58t-29.5 -57t-58.5 -45.5t-90.5 -17.5q-64 0 -98 27q-30 23 -30 56q0 25 16 41t37 16q18 0 44 -23q26 -28 47 -28q20 0 31 13.5t11 33.5q0 36 -44 76l-57 51q-23 21 -35.5 34t-27 41t-14.5 58q0 21 7.5 42t15 33t25.5 38q34 48 44 67.5t10 42.5
q0 33 -20.5 55.5t-53.5 22.5q-28 0 -50.5 -24t-23.5 -80z" />
    <glyph glyph-name="agrave" unicode="&#xe0;" 
d="M433 384v-277q0 -46 -16 -66q-16 -21 -62.5 -38t-119.5 -17q-14 0 -25.5 0.5t-35 3.5t-41.5 8t-40.5 16t-37 25.5t-24.5 38.5t-10 54q0 32 9.5 57.5t31 44t41 31.5t56.5 24.5t59.5 17l65.5 15.5v52q0 16 -1 25.5t-5 22.5t-14.5 19.5t-27.5 6.5q-39 0 -55 -46
q-6 -14 -9.5 -21t-11 -17t-19.5 -14.5t-28 -4.5q-31 0 -49.5 19t-18.5 45q0 48 56.5 85.5t161.5 37.5q75 0 115 -24q55 -35 55 -124zM284 132v121q-28 -9 -42 -14.5t-32.5 -17.5t-27 -30.5t-8.5 -44.5q0 -38 19 -57t44 -19q47 0 47 62zM181 712l71 -83q17 -21 17 -36
q0 -29 -29 -29q-13 0 -34 16l-81 69q-21 19 -21 41q0 18 11 30.5t28 12.5t38 -21z" />
    <glyph glyph-name="aacute" unicode="&#xe1;" 
d="M433 384v-277q0 -46 -16 -66q-16 -21 -62.5 -38t-119.5 -17q-14 0 -25.5 0.5t-35 3.5t-41.5 8t-40.5 16t-37 25.5t-24.5 38.5t-10 54q0 32 9.5 57.5t31 44t41 31.5t56.5 24.5t59.5 17l65.5 15.5v52q0 16 -1 25.5t-5 22.5t-14.5 19.5t-27.5 6.5q-39 0 -55 -46
q-6 -14 -9.5 -21t-11 -17t-19.5 -14.5t-28 -4.5q-31 0 -49.5 19t-18.5 45q0 48 56.5 85.5t161.5 37.5q75 0 115 -24q55 -35 55 -124zM284 132v121q-28 -9 -42 -14.5t-32.5 -17.5t-27 -30.5t-8.5 -44.5q0 -38 19 -57t44 -19q47 0 47 62zM352 649l-82 -69q-21 -16 -34 -16
q-29 0 -29 29q0 13 18 36l71 83q21 21 38 21t27.5 -12.5t10.5 -30.5q0 -21 -20 -41z" />
    <glyph glyph-name="acircumflex" unicode="&#xe2;" 
d="M433 384v-277q0 -46 -16 -66q-16 -21 -62.5 -38t-119.5 -17q-14 0 -25.5 0.5t-35 3.5t-41.5 8t-40.5 16t-37 25.5t-24.5 38.5t-10 54q0 32 9.5 57.5t31 44t41 31.5t56.5 24.5t59.5 17l65.5 15.5v52q0 16 -1 25.5t-5 22.5t-14.5 19.5t-27.5 6.5q-39 0 -55 -46
q-6 -14 -9.5 -21t-11 -17t-19.5 -14.5t-28 -4.5q-31 0 -49.5 19t-18.5 45q0 48 56.5 85.5t161.5 37.5q75 0 115 -24q55 -35 55 -124zM284 132v121q-28 -9 -42 -14.5t-32.5 -17.5t-27 -30.5t-8.5 -44.5q0 -38 19 -57t44 -19q47 0 47 62zM194 605l-49 -32q-18 -9 -27 -9
q-11 0 -18 7.5t-7 17.5q0 14 16 28q2 1 11.5 9.5t11.5 9.5q25 21 62 62q21 23 38 23q16 0 33 -17q37 -35 80 -68q22 -18 27.5 -24.5t5.5 -16.5q0 -12 -8 -20.5t-19 -8.5q-9 0 -23 8l-54 33q-24 12 -40 12q-18 0 -40 -14z" />
    <glyph glyph-name="atilde" unicode="&#xe3;" 
d="M433 384v-277q0 -46 -16 -66q-16 -21 -62.5 -38t-119.5 -17q-14 0 -25.5 0.5t-35 3.5t-41.5 8t-40.5 16t-37 25.5t-24.5 38.5t-10 54q0 32 9.5 57.5t31 44t41 31.5t56.5 24.5t59.5 17l65.5 15.5v52q0 16 -1 25.5t-5 22.5t-14.5 19.5t-27.5 6.5q-39 0 -55 -46
q-6 -14 -9.5 -21t-11 -17t-19.5 -14.5t-28 -4.5q-31 0 -49.5 19t-18.5 45q0 48 56.5 85.5t161.5 37.5q75 0 115 -24q55 -35 55 -124zM284 132v121q-28 -9 -42 -14.5t-32.5 -17.5t-27 -30.5t-8.5 -44.5q0 -38 19 -57t44 -19q47 0 47 62zM236 600q-44 26 -59 26q-20 0 -39 -22
q-17 -21 -29 -21q-25 0 -25 32q0 38 28 67t68 29q29 0 70 -27q32 -18 49 -18q27 0 48 29q13 15 23 15t16 -8.5t6 -20.5q0 -35 -26.5 -66.5t-69.5 -31.5q-31 0 -60 17z" />
    <glyph glyph-name="adieresis" unicode="&#xe4;" 
d="M433 384v-277q0 -46 -16 -66q-16 -21 -62.5 -38t-119.5 -17q-14 0 -25.5 0.5t-35 3.5t-41.5 8t-40.5 16t-37 25.5t-24.5 38.5t-10 54q0 32 9.5 57.5t31 44t41 31.5t56.5 24.5t59.5 17l65.5 15.5v52q0 16 -1 25.5t-5 22.5t-14.5 19.5t-27.5 6.5q-39 0 -55 -46
q-6 -14 -9.5 -21t-11 -17t-19.5 -14.5t-28 -4.5q-31 0 -49.5 19t-18.5 45q0 48 56.5 85.5t161.5 37.5q75 0 115 -24q55 -35 55 -124zM284 132v121q-28 -9 -42 -14.5t-32.5 -17.5t-27 -30.5t-8.5 -44.5q0 -38 19 -57t44 -19q47 0 47 62zM216 648q2 -27 -17 -50t-60 -23
q-35 0 -55.5 20t-20.5 48q0 32 23.5 51t54.5 19q30 0 52 -17.5t23 -47.5zM416 648q2 -27 -17 -50t-60 -23q-35 0 -55.5 20t-20.5 48q0 32 23.5 51t54.5 19q30 0 52 -17.5t23 -47.5z" />
    <glyph glyph-name="aring" unicode="&#xe5;" 
d="M433 384v-277q0 -46 -16 -66q-16 -21 -62.5 -38t-119.5 -17q-14 0 -25.5 0.5t-35 3.5t-41.5 8t-40.5 16t-37 25.5t-24.5 38.5t-10 54q0 32 9.5 57.5t31 44t41 31.5t56.5 24.5t59.5 17l65.5 15.5v52q0 16 -1 25.5t-5 22.5t-14.5 19.5t-27.5 6.5q-39 0 -55 -46
q-6 -14 -9.5 -21t-11 -17t-19.5 -14.5t-28 -4.5q-31 0 -49.5 19t-18.5 45q0 48 56.5 85.5t161.5 37.5q75 0 115 -24q55 -35 55 -124zM284 132v121q-28 -9 -42 -14.5t-32.5 -17.5t-27 -30.5t-8.5 -44.5q0 -38 19 -57t44 -19q47 0 47 62zM332 656q0 -39 -26 -65.5t-65 -26.5
q-40 0 -66.5 26.5t-26.5 64.5q0 37 26 64.5t66 27.5q38 0 65 -25t27 -66zM279 658q0 16 -11.5 26t-27.5 10q-17 0 -28 -11.5t-11 -26.5q0 -17 12 -28t27 -11q16 0 28 11.5t11 29.5z" />
    <glyph glyph-name="ae" unicode="&#xe6;" horiz-adv-x="729" 
d="M666 282l-238 -31q10 -60 35 -88q33 -38 84 -38q26 0 45.5 8.5t28.5 17.5t21 26q18 22 34 22q12 0 21.5 -10t9.5 -30t-10.5 -47.5t-30 -56.5t-57 -49t-83.5 -20q-84 0 -146 79q-53 -79 -175 -79q-90 0 -137.5 41.5t-47.5 102.5q0 38 18 67.5t43 47t65 30.5t69.5 18.5
t71.5 11.5q-1 98 -12 120q-12 24 -43 24q-16 0 -27.5 -8t-15.5 -16t-11 -25q-7 -19 -13 -29.5t-21.5 -21t-37.5 -10.5q-25 0 -44.5 17t-19.5 47q0 47 51.5 88t147.5 41q40 0 68.5 -7.5t44.5 -22t22 -22.5t12 -21q50 74 141 74q80 0 130.5 -56t50.5 -147q0 -15 -3 -24
t-10.5 -14t-13 -6.5t-17.5 -3.5zM424 323l149 20q-4 98 -68 98q-31 0 -55.5 -27.5t-25.5 -90.5zM287 235q-19 -3 -30 -5t-29 -9t-28 -16t-18 -25.5t-8 -38.5q0 -29 15 -51t43 -22q49 0 54 64q2 28 1 103z" />
    <glyph glyph-name="ccedilla" unicode="&#xe7;" horiz-adv-x="437" 
d="M177 -96l10 86q-46 11 -79.5 40.5t-49.5 60.5t-25 71t-10 58.5t-1 35.5q0 43 10 86t33.5 88.5t71.5 73.5t114 28q80 0 123.5 -42t43.5 -91q0 -31 -19.5 -51.5t-46.5 -20.5q-40 0 -59 42q-8 20 -13.5 30.5t-19 22t-30.5 11.5q-35 0 -55 -39.5t-20 -89.5q0 -64 30.5 -119
t82.5 -55q22 0 40 10t25 18.5t18 24.5q19 29 35 29q13 0 23 -10.5t10 -34.5q0 -25 -9 -52.5t-27.5 -56t-54.5 -48.5t-83 -24l-10 -61q32 -1 53 -11t28.5 -25t10 -24.5t2.5 -19.5q0 -37 -30 -64t-85 -27q-31 0 -71 11t-40 34q0 10 6.5 17.5t15.5 7.5q1 0 18 -4q54 -6 55 -6
q19 0 32.5 9t13.5 26q0 14 -9.5 21.5t-18 8.5t-23.5 1q-19 0 -16 24z" />
    <glyph glyph-name="egrave" unicode="&#xe8;" 
d="M414 286l-258 -37q8 -38 16 -54q35 -69 112 -69q58 0 102 44q25 28 40 28q13 0 22 -10t9 -28q0 -12 -5 -30.5t-19 -44t-34.5 -47t-57.5 -37t-82 -15.5q-64 0 -111.5 23.5t-74 64t-39 88t-12.5 101.5q0 71 21 125t55.5 84.5t74.5 45.5t83 15q45 0 81.5 -16t58 -39
t35.5 -51.5t19 -51t5 -39.5q0 -20 -8 -31.5t-14.5 -14t-18.5 -4.5zM146 326l155 23q-7 90 -71 90q-41 0 -62 -33t-22 -80zM181 712l71 -83q17 -21 17 -36q0 -29 -29 -29q-13 0 -34 16l-81 69q-21 19 -21 41q0 18 11 30.5t28 12.5t38 -21z" />
    <glyph glyph-name="eacute" unicode="&#xe9;" 
d="M414 286l-258 -37q8 -38 16 -54q35 -69 112 -69q58 0 102 44q25 28 40 28q13 0 22 -10t9 -28q0 -12 -5 -30.5t-19 -44t-34.5 -47t-57.5 -37t-82 -15.5q-64 0 -111.5 23.5t-74 64t-39 88t-12.5 101.5q0 71 21 125t55.5 84.5t74.5 45.5t83 15q45 0 81.5 -16t58 -39
t35.5 -51.5t19 -51t5 -39.5q0 -20 -8 -31.5t-14.5 -14t-18.5 -4.5zM146 326l155 23q-7 90 -71 90q-41 0 -62 -33t-22 -80zM352 649l-82 -69q-21 -16 -34 -16q-29 0 -29 29q0 13 18 36l71 83q21 21 38 21t27.5 -12.5t10.5 -30.5q0 -21 -20 -41z" />
    <glyph glyph-name="ecircumflex" unicode="&#xea;" 
d="M414 286l-258 -37q8 -38 16 -54q35 -69 112 -69q58 0 102 44q25 28 40 28q13 0 22 -10t9 -28q0 -12 -5 -30.5t-19 -44t-34.5 -47t-57.5 -37t-82 -15.5q-64 0 -111.5 23.5t-74 64t-39 88t-12.5 101.5q0 71 21 125t55.5 84.5t74.5 45.5t83 15q45 0 81.5 -16t58 -39
t35.5 -51.5t19 -51t5 -39.5q0 -20 -8 -31.5t-14.5 -14t-18.5 -4.5zM146 326l155 23q-7 90 -71 90q-41 0 -62 -33t-22 -80zM205 605l-49 -32q-18 -9 -27 -9q-11 0 -18 7.5t-7 17.5q0 14 16 28q2 1 11.5 9.5t11.5 9.5q25 21 62 62q21 23 38 23q16 0 33 -17q37 -35 80 -68
q22 -18 27.5 -24.5t5.5 -16.5q0 -12 -8 -20.5t-19 -8.5q-9 0 -23 8l-54 33q-24 12 -40 12q-18 0 -40 -14z" />
    <glyph glyph-name="edieresis" unicode="&#xeb;" 
d="M414 286l-258 -37q8 -38 16 -54q35 -69 112 -69q58 0 102 44q25 28 40 28q13 0 22 -10t9 -28q0 -12 -5 -30.5t-19 -44t-34.5 -47t-57.5 -37t-82 -15.5q-64 0 -111.5 23.5t-74 64t-39 88t-12.5 101.5q0 71 21 125t55.5 84.5t74.5 45.5t83 15q45 0 81.5 -16t58 -39
t35.5 -51.5t19 -51t5 -39.5q0 -20 -8 -31.5t-14.5 -14t-18.5 -4.5zM146 326l155 23q-7 90 -71 90q-41 0 -62 -33t-22 -80zM226 648q2 -27 -17 -50t-60 -23q-35 0 -55.5 20t-20.5 48q0 32 23.5 51t54.5 19q30 0 52 -17.5t23 -47.5zM426 648q2 -27 -17 -50t-60 -23
q-35 0 -55.5 20t-20.5 48q0 32 23.5 51t54.5 19q30 0 52 -17.5t23 -47.5z" />
    <glyph glyph-name="igrave" unicode="&#xec;" horiz-adv-x="250" 
d="M207 495v-470q0 -15 -5.5 -20t-19.5 -5h-118q-13 0 -16.5 5t-3.5 19v471q0 12 4 17.5t17 5.5h118q14 0 19 -4.5t5 -18.5zM67 712l71 -83q17 -21 17 -36q0 -29 -29 -29q-13 0 -34 16l-81 69q-21 19 -21 41q0 18 11 30.5t28 12.5t38 -21z" />
    <glyph glyph-name="iacute" unicode="&#xed;" horiz-adv-x="250" 
d="M207 495v-470q0 -15 -5.5 -20t-19.5 -5h-118q-13 0 -16.5 5t-3.5 19v471q0 12 4 17.5t17 5.5h118q14 0 19 -4.5t5 -18.5zM238 649l-82 -69q-21 -16 -34 -16q-29 0 -29 29q0 13 18 36l71 83q21 21 38 21t27.5 -12.5t10.5 -30.5q0 -21 -20 -41z" />
    <glyph glyph-name="icircumflex" unicode="&#xee;" horiz-adv-x="250" 
d="M207 495v-470q0 -15 -5.5 -20t-19.5 -5h-118q-13 0 -16.5 5t-3.5 19v471q0 12 4 17.5t17 5.5h118q14 0 19 -4.5t5 -18.5zM80 605l-49 -32q-18 -9 -27 -9q-11 0 -18 7.5t-7 17.5q0 14 16 28q2 1 11.5 9.5t11.5 9.5q25 21 62 62q21 23 38 23q16 0 33 -17q37 -35 80 -68
q22 -18 27.5 -24.5t5.5 -16.5q0 -12 -8 -20.5t-19 -8.5q-9 0 -23 8l-54 33q-24 12 -40 12q-18 0 -40 -14z" />
    <glyph glyph-name="idieresis" unicode="&#xef;" horiz-adv-x="250" 
d="M207 495v-470q0 -15 -5.5 -20t-19.5 -5h-118q-13 0 -16.5 5t-3.5 19v471q0 12 4 17.5t17 5.5h118q14 0 19 -4.5t5 -18.5zM101 648q2 -27 -17 -50t-60 -23q-35 0 -55.5 20t-20.5 48q0 32 23.5 51t54.5 19q30 0 52 -17.5t23 -47.5zM301 648q2 -27 -17 -50t-60 -23
q-35 0 -55.5 20t-20.5 48q0 32 23.5 51t54.5 19q30 0 52 -17.5t23 -47.5z" />
    <glyph glyph-name="eth" unicode="&#xf0;" horiz-adv-x="521" 
d="M478 651l-61 -17q84 -145 84 -328q0 -19 -0.5 -34.5t-5 -51t-13 -63t-26.5 -62t-42 -57t-63.5 -38.5t-88.5 -16q-112 0 -176.5 75t-64.5 197q0 68 19.5 122t51.5 86t68.5 48.5t74.5 16.5q46 0 78 -23q2 -1 6 -5q0 4 -7.5 24.5t-10.5 27.5q-10 23 -25 43l-115 -31
q-9 -3 -13 -3q-6 0 -12 13q-1 2 -5 12l-7.5 18.5t-3.5 9.5q0 7 12 10l105 28q-20 25 -49 50q-12 10 -12 17q0 9 16 14q16 6 23 9l54 18q16 5 23 5q13 0 34.5 -19t34 -34.5t16.5 -21.5l66 18q16 4 18 4q5 0 10 -11q18 -36 18 -43q0 -5 -11 -8zM333 270q-2 73 -21.5 119.5
t-54.5 46.5q-37 0 -54 -49.5t-17 -116.5q0 -25 3.5 -53t11 -58.5t24 -50t38.5 -19.5q37 0 54.5 56t15.5 125z" />
    <glyph glyph-name="ntilde" unicode="&#xf1;" horiz-adv-x="542" 
d="M496 389v-365q0 -14 -5 -19.5t-21 -5.5h-111q-22 0 -22 24v342q0 48 -15 64q-20 18 -51 18q-23 0 -37 -8t-19.5 -22.5t-7 -25t-1.5 -26.5v-344q0 -13 -6 -17t-20 -5h-111q-13 0 -17.5 5.5t-5.5 19.5v399q0 18 2 27t10 23t29 24t56 19q63 16 136 16q114 0 160 -32
q57 -36 57 -111zM269 600q-44 26 -59 26q-20 0 -39 -22q-17 -21 -29 -21q-25 0 -25 32q0 38 28 67t68 29q29 0 70 -27q31 -18 49 -18q27 0 48 29q14 15 23 15q10 0 16 -8.5t6 -20.5q0 -35 -26.5 -66.5t-69.5 -31.5q-31 0 -60 17z" />
    <glyph glyph-name="ograve" unicode="&#xf2;" horiz-adv-x="521" 
d="M499 268q4 -126 -63 -204t-177 -78q-104 0 -170.5 72.5t-66.5 199.5q0 132 68.5 203t170.5 71q58 0 104 -22.5t74 -61t43 -84.5t17 -96zM333 273q-2 73 -21 119.5t-54 46.5q-37 0 -54 -49.5t-17 -116.5q0 -69 18.5 -125t56.5 -56t55.5 55t15.5 126zM202 712l71 -83
q17 -21 17 -36q0 -29 -29 -29q-13 0 -34 16l-81 69q-21 19 -21 41q0 18 11 30.5t28 12.5t38 -21z" />
    <glyph glyph-name="oacute" unicode="&#xf3;" horiz-adv-x="521" 
d="M499 268q4 -126 -63 -204t-177 -78q-104 0 -170.5 72.5t-66.5 199.5q0 132 68.5 203t170.5 71q58 0 104 -22.5t74 -61t43 -84.5t17 -96zM333 273q-2 73 -21 119.5t-54 46.5q-37 0 -54 -49.5t-17 -116.5q0 -69 18.5 -125t56.5 -56t55.5 55t15.5 126zM373 649l-82 -69
q-21 -16 -34 -16q-29 0 -29 29q0 13 18 36l71 83q21 21 38 21t27.5 -12.5t10.5 -30.5q0 -21 -20 -41z" />
    <glyph glyph-name="ocircumflex" unicode="&#xf4;" horiz-adv-x="521" 
d="M499 268q4 -126 -63 -204t-177 -78q-104 0 -170.5 72.5t-66.5 199.5q0 132 68.5 203t170.5 71q58 0 104 -22.5t74 -61t43 -84.5t17 -96zM333 273q-2 73 -21 119.5t-54 46.5q-37 0 -54 -49.5t-17 -116.5q0 -69 18.5 -125t56.5 -56t55.5 55t15.5 126zM215 605l-49 -32
q-18 -9 -27 -9q-11 0 -18 7.5t-7 17.5q0 14 16 28q2 1 11.5 9.5t11.5 9.5q25 21 62 62q21 23 38 23q16 0 33 -17q37 -35 80 -68q22 -18 27.5 -24.5t5.5 -16.5q0 -12 -8 -20.5t-19 -8.5q-9 0 -23 8l-54 33q-24 12 -40 12q-18 0 -40 -14z" />
    <glyph glyph-name="otilde" unicode="&#xf5;" horiz-adv-x="521" 
d="M499 268q4 -126 -63 -204t-177 -78q-104 0 -170.5 72.5t-66.5 199.5q0 132 68.5 203t170.5 71q58 0 104 -22.5t74 -61t43 -84.5t17 -96zM333 273q-2 73 -21 119.5t-54 46.5q-37 0 -54 -49.5t-17 -116.5q0 -69 18.5 -125t56.5 -56t55.5 55t15.5 126zM257 600
q-44 26 -59 26q-20 0 -39 -22q-17 -21 -29 -21q-25 0 -25 32q0 38 28 67t68 29q29 0 70 -27q32 -18 49 -18q27 0 48 29q14 15 23 15q10 0 16 -8.5t6 -20.5q0 -35 -26.5 -66.5t-69.5 -31.5q-31 0 -60 17z" />
    <glyph glyph-name="odieresis" unicode="&#xf6;" horiz-adv-x="521" 
d="M499 268q4 -126 -63 -204t-177 -78q-104 0 -170.5 72.5t-66.5 199.5q0 132 68.5 203t170.5 71q58 0 104 -22.5t74 -61t43 -84.5t17 -96zM333 273q-2 73 -21 119.5t-54 46.5q-37 0 -54 -49.5t-17 -116.5q0 -69 18.5 -125t56.5 -56t55.5 55t15.5 126zM239 648
q2 -27 -17 -50t-60 -23q-35 0 -55.5 20t-20.5 48q0 32 23.5 51t54.5 19q30 0 52 -17.5t23 -47.5zM439 648q2 -27 -17 -50t-60 -23q-35 0 -55.5 20t-20.5 48q0 32 23.5 51t54.5 19q30 0 52 -17.5t23 -47.5z" />
    <glyph glyph-name="divide" unicode="&#xf7;" horiz-adv-x="500" 
d="M320 128q-1 -29 -21.5 -47.5t-48.5 -18.5t-47.5 20t-19.5 47q0 30 21 49t47 19q29 0 49 -20.5t20 -48.5zM500 342v-102h-499v102h499zM320 455q0 -30 -21 -50t-49 -20q-26 0 -46.5 20t-20.5 48q0 27 20 47.5t50 20.5q26 0 46 -19t21 -47z" />
    <glyph glyph-name="oslash" unicode="&#xf8;" horiz-adv-x="521" 
d="M499 534l-65 -86q57 -75 57 -193q0 -120 -63.5 -194.5t-166.5 -74.5q-80 0 -136 49l-60 -77q-8 -10 -12 -10q-5 0 -20.5 12t-15.5 18q0 3 6 12l63 84q-55 69 -55 182q0 118 61 197t169 79q83 0 136 -46l59 78q10 11 13 11q6 0 20.5 -12.5t14.5 -17.5q0 -6 -5 -11z
M333 313l-132 -176q17 -60 59 -60q12 0 23.5 6.5t24.5 23.5t21 53t8 87q0 30 -4 66zM189 210l133 176l-2 6q-1 5 -2 7.5t-3 8.5t-4.5 10l-6 9.5t-7.5 9t-9 7t-11 5t-13 1.5q-37 0 -58 -49t-21 -126q0 -29 4 -65z" />
    <glyph glyph-name="ugrave" unicode="&#xf9;" horiz-adv-x="521" 
d="M478 498v-375q0 -37 -6 -56.5t-30 -37.5q-59 -43 -183 -43q-123 0 -169.5 44t-46.5 122v347q0 19 22 19h113q25 0 25 -21v-338q0 -13 1.5 -21.5t6.5 -20.5t18 -18.5t34 -6.5q25 0 38 11t15 21.5t2 27.5v344q0 12 4 17t16 5h117q23 0 23 -20zM202 712l71 -83
q17 -21 17 -36q0 -29 -29 -29q-13 0 -34 16l-81 69q-21 19 -21 41q0 18 11 30.5t28 12.5t38 -21z" />
    <glyph glyph-name="uacute" unicode="&#xfa;" horiz-adv-x="521" 
d="M478 498v-375q0 -37 -6 -56.5t-30 -37.5q-59 -43 -183 -43q-123 0 -169.5 44t-46.5 122v347q0 19 22 19h113q25 0 25 -21v-338q0 -13 1.5 -21.5t6.5 -20.5t18 -18.5t34 -6.5q25 0 38 11t15 21.5t2 27.5v344q0 12 4 17t16 5h117q23 0 23 -20zM373 649l-82 -69
q-21 -16 -34 -16q-29 0 -29 29q0 13 18 36l71 83q21 21 38 21t27.5 -12.5t10.5 -30.5q0 -21 -20 -41z" />
    <glyph glyph-name="ucircumflex" unicode="&#xfb;" horiz-adv-x="521" 
d="M478 498v-375q0 -37 -6 -56.5t-30 -37.5q-59 -43 -183 -43q-123 0 -169.5 44t-46.5 122v347q0 19 22 19h113q25 0 25 -21v-338q0 -13 1.5 -21.5t6.5 -20.5t18 -18.5t34 -6.5q25 0 38 11t15 21.5t2 27.5v344q0 12 4 17t16 5h117q23 0 23 -20zM215 605l-49 -32
q-18 -9 -27 -9q-11 0 -18 7.5t-7 17.5q0 14 16 28q2 1 11.5 9.5t11.5 9.5q25 21 62 62q21 23 38 23q16 0 33 -17q37 -35 80 -68q22 -18 27.5 -24.5t5.5 -16.5q0 -12 -8 -20.5t-19 -8.5q-9 0 -23 8l-54 33q-24 12 -40 12q-18 0 -40 -14z" />
    <glyph glyph-name="udieresis" unicode="&#xfc;" horiz-adv-x="521" 
d="M478 498v-375q0 -37 -6 -56.5t-30 -37.5q-59 -43 -183 -43q-123 0 -169.5 44t-46.5 122v347q0 19 22 19h113q25 0 25 -21v-338q0 -13 1.5 -21.5t6.5 -20.5t18 -18.5t34 -6.5q25 0 38 11t15 21.5t2 27.5v344q0 12 4 17t16 5h117q23 0 23 -20zM237 648q2 -27 -17 -50
t-60 -23q-35 0 -55.5 20t-20.5 48q0 32 23.5 51t54.5 19q30 0 52 -17.5t23 -47.5zM437 648q2 -27 -17 -50t-60 -23q-35 0 -55.5 20t-20.5 48q0 32 23.5 51t54.5 19q30 0 52 -17.5t23 -47.5z" />
    <glyph glyph-name="yacute" unicode="&#xfd;" 
d="M475 484l-188 -550q-10 -29 -17.5 -46t-24 -45.5t-34.5 -44.5t-48 -29t-65 -13q-49 0 -74.5 23t-25.5 55q0 26 18 45t44 19q12 0 32 -6q21 -9 32 -9q21 0 35.5 19.5t29.5 63.5l-183 519q-5 15 -5 19q0 14 21 14h121q14 0 18.5 -3.5t8.5 -19.5l88 -308l90 305q6 18 9.5 22
t17.5 4h82q22 0 22 -15q0 -8 -4 -19zM352 649l-82 -69q-21 -16 -34 -16q-29 0 -29 29q0 13 18 36l71 83q21 21 38 21t27.5 -12.5t10.5 -30.5q0 -21 -20 -41z" />
    <glyph glyph-name="thorn" unicode="&#xfe;" horiz-adv-x="521" 
d="M178 -234h-109q-9 0 -13.5 1t-8.5 6t-4 15v955q0 13 5 17.5t19 4.5h109q13 0 18.5 -4t5.5 -18v-219q45 9 83 9q109 0 163 -71.5t54 -180.5q0 -119 -57.5 -207t-164.5 -88q-43 0 -78 18v-215q0 -23 -22 -23zM200 386v-285q25 -13 48 -13q28 0 47.5 19t27.5 49.5t11 55
t3 47.5q0 80 -22 129q-23 54 -71 54q-15 0 -24.5 -4.5t-13.5 -14.5t-4.5 -16.5z" />
    <glyph glyph-name="ydieresis" unicode="&#xff;" 
d="M475 484l-188 -550q-10 -29 -17.5 -46t-24 -45.5t-34.5 -44.5t-48 -29t-65 -13q-49 0 -74.5 23t-25.5 55q0 26 18 45t44 19q12 0 32 -6q21 -9 32 -9q21 0 35.5 19.5t29.5 63.5l-183 519q-5 15 -5 19q0 14 21 14h121q14 0 18.5 -3.5t8.5 -19.5l88 -308l90 305q6 18 9.5 22
t17.5 4h82q22 0 22 -15q0 -8 -4 -19zM221 648q2 -27 -17 -50t-60 -23q-35 0 -55.5 20t-20.5 48q0 32 23.5 51t54.5 19q30 0 52 -17.5t23 -47.5zM421 648q2 -27 -17 -50t-60 -23q-35 0 -55.5 20t-20.5 48q0 32 23.5 51t54.5 19q30 0 52 -17.5t23 -47.5z" />
    <glyph glyph-name="dotlessi" unicode="&#x131;" horiz-adv-x="250" 
d="M207 495v-470q0 -15 -5.5 -20t-19.5 -5h-118q-13 0 -16.5 5t-3.5 19v471q0 12 4 17.5t17 5.5h118q14 0 19 -4.5t5 -18.5z" />
    <glyph glyph-name="Lslash" unicode="&#x141;" horiz-adv-x="437" 
d="M-1 348l50 32v305q0 21 22 21h128q23 0 23 -21v-193l99 63q7 5 12 5q10 0 10 -16v-67q-1 -16 -3.5 -22t-13.5 -14l-104 -67v-255h183q13 0 17.5 -4t4.5 -17v-77q0 -21 -22 -21h-333q-13 0 -17.5 5t-5.5 18v240l-43 -28q-8 -5 -12 -5q-10 0 -10 17v75q0 16 15 26z" />
    <glyph glyph-name="lslash" unicode="&#x142;" horiz-adv-x="250" 
d="M-5 381l50 38v325q0 13 5.5 17t18.5 4h112q13 0 18 -4t5 -17v-202l53 40q8 6 13 6q13 0 13 -21v-49q0 -16 -16 -31l-63 -49v-414q0 -14 -5 -19t-18 -5h-111q-14 0 -19.5 4t-5.5 18v294l-40 -31q-9 -7 -15 -7q-12 0 -12 24v47q0 18 17 32z" />
    <glyph glyph-name="OE" unicode="&#x152;" horiz-adv-x="875" 
d="M828 0h-355q-17 1 -20.5 7.5t-3.5 36.5q-64 -61 -154 -61q-123 0 -196.5 103t-73.5 268q0 178 78 276q75 94 199 94q90 0 147 -63q0 32 3 38.5t19 6.5h359q13 0 18.5 -3.5t5.5 -17.5v-71q-1 -9 -1.5 -13t-6 -7.5t-15.5 -3.5h-217v-170h181q14 -1 18.5 -4.5t4.5 -17.5v-70
q0 -12 -4.5 -16.5t-18.5 -4.5h-181v-187h217q23 0 23 -24v-72q0 -14 -5.5 -19t-20.5 -5zM449 290v115q0 87 -22 139q-18 41 -45 58t-51 17q-11 0 -21.5 -2t-31.5 -16t-36 -38t-27 -74.5t-12 -118.5q0 -54 7 -103q23 -168 125 -168q46 0 79 46t35 145z" />
    <glyph glyph-name="oe" unicode="&#x153;" horiz-adv-x="771" 
d="M707 286l-243 -30q9 -62 36 -95q33 -36 79 -36q58 0 98 46q23 28 40 28q15 0 23 -11.5t8 -29.5q0 -12 -4.5 -31t-18 -44t-32.5 -46t-52 -36t-74 -15q-102 0 -161 92q-54 -92 -160 -92q-99 0 -159 68q-65 72 -65 206q0 128 61.5 200.5t165.5 72.5q35 0 62 -8t46 -25
t28 -27t21 -29q50 89 156 89q47 0 84.5 -18t59 -47t32.5 -63t11 -70q0 -26 -11 -36t-31 -13zM460 328l151 20q-4 94 -70 94q-37 0 -60 -34q-19 -28 -21 -80zM324 275q-3 74 -20 119q-6 21 -21 35t-34 14q-73 0 -73 -178q0 -28 3 -55t11 -56t24 -47t39 -18q26 0 43 22
q32 42 28 164z" />
    <glyph glyph-name="Scaron" unicode="&#x160;" horiz-adv-x="521" 
d="M220 287l-56 32q-133 79 -133 201q0 97 62.5 150.5t160.5 53.5q105 0 163 -47.5t58 -98.5q0 -30 -20.5 -50t-51.5 -20q-29 0 -43.5 13t-30.5 42q-35 62 -79 62q-27 0 -44.5 -19t-17.5 -50q0 -39 26 -61t113 -69l46.5 -25.5t44 -31.5t42.5 -43.5t27 -55.5t12 -74
q0 -72 -35.5 -122t-88 -70.5t-116.5 -20.5q-60 0 -108 18t-75 45.5t-40.5 56.5t-13.5 56q0 37 23.5 56t50.5 19q18 0 32 -6t25 -19t16.5 -22t14.5 -26q34 -69 85 -69q28 0 47 19t19 52q0 41 -24 63.5t-91 60.5zM290 874l69 42q16 8 24 8q9 0 16.5 -8.5t7.5 -20.5
q0 -11 -5 -18t-25 -23q-54 -49 -78 -76q-19 -24 -39 -24q-18 0 -34 16q-36 38 -85 76q-14 11 -18.5 15t-8.5 11t-4 16q0 14 7.5 23.5t16.5 9.5q7 0 23 -8l66 -39q22 -12 34 -12q15 0 33 12z" />
    <glyph glyph-name="scaron" unicode="&#x161;" horiz-adv-x="437" 
d="M243 330l54 -25q21 -10 35.5 -19t35 -27.5t32 -46.5t11.5 -62q0 -28 -9 -55t-29 -52.5t-59 -41t-92 -15.5q-98 0 -147.5 41.5t-49.5 85.5q0 28 17.5 47.5t45.5 19.5q34 0 60 -35q2 -2 11 -15.5l11 -16.5q23 -33 51 -33q18 0 32 13.5t14 35.5q0 19 -10.5 33.5t-24 22.5
t-44.5 23l-43 21q-20 9 -33.5 17.5t-34 26.5t-31.5 44.5t-11 60.5q0 14 2.5 29.5t14 39.5t30 41.5t55 30.5t85.5 13q87 0 130 -35t43 -77q0 -24 -15 -42t-43 -18q-18 0 -31.5 8t-19.5 16t-15 24q-25 44 -55 44q-21 0 -32.5 -14.5t-11.5 -33.5q0 -20 12.5 -35.5t24.5 -22
t34 -16.5zM257 680l49 32q18 9 26 9q11 0 18.5 -7.5t7.5 -17.5t-5 -16t-22 -21q-32 -27 -74 -72q-23 -23 -38 -23t-34 17q-29 28 -79 69q-22 17 -27.5 23.5t-5.5 16.5q0 13 8 21t18 8q11 0 23 -8l55 -33q22 -12 40 -12q16 0 40 14z" />
    <glyph glyph-name="Ydieresis" unicode="&#x178;" horiz-adv-x="542" 
d="M533 670l-175 -361v-285q0 -14 -4.5 -19t-18.5 -5h-132q-12 0 -17.5 4t-5.5 17v295l-173 354q-7 15 -7 20q0 16 23 16h141q14 0 19 -3.5t12 -18.5l97 -220l104 219q7 14 12.5 18.5t18.5 4.5h95q19 0 19 -13q0 -7 -8 -23zM254 829q2 -29 -18 -53t-62 -24q-36 0 -59.5 18.5
t-23.5 51.5t23 53t60 20q34 0 56 -18.5t24 -47.5zM466 829q2 -29 -18 -53t-62 -24q-36 0 -59.5 18.5t-23.5 51.5t22.5 53t60.5 20q35 0 57 -18t23 -48z" />
    <glyph glyph-name="Zcaron" unicode="&#x17d;" horiz-adv-x="500" 
d="M478 671l-237 -553h213q9 0 13.5 -0.5t7.5 -5t3 -13.5v-79q1 -13 -5 -16.5t-19 -3.5h-417q-25 0 -25 15q0 4 6 17l241 559h-200q-13 0 -16.5 4.5t-3.5 16.5v73q0 21 22 21h393q30 0 30 -16q0 -5 -6 -19zM290 874l69 42q16 8 24 8q9 0 16.5 -8.5t7.5 -20.5q0 -11 -5 -18
t-25 -23q-54 -49 -78 -76q-19 -24 -39 -24q-18 0 -34 16q-36 38 -85 76q-14 11 -18.5 15t-8.5 11t-4 16q0 14 7.5 23.5t16.5 9.5q7 0 23 -8l66 -39q22 -12 34 -12q15 0 33 12z" />
    <glyph glyph-name="zcaron" unicode="&#x17e;" horiz-adv-x="396" 
d="M374 482l-167 -395h150q13 0 17.5 -4t4.5 -16v-48q0 -12 -5 -15.5t-17 -3.5h-326q-19 0 -19 14q0 6 6 21l172 397h-139q-11 0 -15.5 4t-4.5 15v52q3 15 20 15h306q23 0 23 -16q0 -4 -6 -20zM242 680l49 32q18 9 26 9q11 0 18.5 -7.5t7.5 -17.5t-5 -16t-22 -21
q-32 -27 -74 -72q-23 -23 -38 -23t-34 17q-29 28 -79 69q-22 17 -27.5 23.5t-5.5 16.5q0 13 8 21t18 8q11 0 23 -8l55 -33q22 -12 40 -12q16 0 40 14z" />
    <glyph glyph-name="florin" unicode="&#x192;" horiz-adv-x="354" 
d="M314 393h-67l-25 -239q-7 -48 -13.5 -78t-24 -76.5t-43.5 -84.5q-37 -55 -85.5 -83.5t-92.5 -28.5q-37 0 -62 17.5t-25 47.5q0 26 17 43t41 17q20 0 39 -17q20 -17 32 -17q16 0 24 16q18 41 31 201l29 282h-50q-19 0 -19 13q0 15 4 39q3 12 22 14h50q17 110 57 169
q25 36 66 63t92 27q32 0 50.5 -15t18.5 -41q0 -29 -18 -46.5t-41 -17.5q-7 0 -23 4t-23 4q-20 0 -34 -17t-14 -44q0 -47 25 -86h71q17 0 17 -12q0 -19 -5 -44q-3 -10 -21 -10z" />
    <glyph glyph-name="circumflex" unicode="&#x2c6;" horiz-adv-x="271" 
d="M94 605l-49 -32q-18 -9 -27 -9q-11 0 -18 7.5t-7 17.5q0 14 16 28q2 1 11.5 9.5t11.5 9.5q25 21 62 62q21 23 38 23q16 0 33 -17q37 -35 80 -68q22 -18 27.5 -24.5t5.5 -16.5q0 -12 -8 -20.5t-19 -8.5q-9 0 -23 8l-54 33q-24 12 -40 12q-18 0 -40 -14z" />
    <glyph glyph-name="caron" unicode="&#x2c7;" horiz-adv-x="271" 
d="M177 680l49 32q18 9 26 9q11 0 18.5 -7.5t7.5 -17.5t-5 -16t-22 -21q-32 -27 -74 -72q-23 -23 -38 -23t-34 17q-29 28 -79 69q-22 17 -27.5 23.5t-5.5 16.5q0 13 8 21t18 8q11 0 23 -8l55 -33q22 -12 40 -12q16 0 40 14z" />
    <glyph glyph-name="breve" unicode="&#x2d8;" horiz-adv-x="271" 
d="M66 703q8 -19 13 -28t20.5 -18.5t38.5 -9.5q51 0 66 45q5 18 10.5 25.5t18.5 7.5q27 0 27 -36q0 -46 -32 -84t-90 -38q-54 0 -90.5 33.5t-36.5 89.5q0 35 29 35q17 0 26 -22z" />
    <glyph glyph-name="dotaccent" unicode="&#x2d9;" horiz-adv-x="271" 
d="M212 648q2 -28 -17.5 -50.5t-59.5 -22.5q-36 0 -56 20t-20 48q0 32 23 51t55 19q29 0 51 -17.5t24 -47.5z" />
    <glyph glyph-name="ring" unicode="&#x2da;" horiz-adv-x="271" 
d="M227 656q0 -39 -26 -65.5t-65 -26.5q-40 0 -66.5 26.5t-26.5 64.5q0 37 26 64.5t66 27.5q38 0 65 -25t27 -66zM174 658q0 16 -11.5 26t-27.5 10q-17 0 -28 -11.5t-11 -26.5q0 -17 12 -28t27 -11q16 0 28 11.5t11 29.5z" />
    <glyph glyph-name="ogonek" unicode="&#x2db;" horiz-adv-x="271" 
d="M132 11l80 13q-18 -14 -26 -21q-67 -55 -67 -100q0 -16 10.5 -31.5t34.5 -15.5q3 0 24 3t25 3q13 0 19 -7t6 -15q0 -23 -35.5 -36.5t-71.5 -13.5q-48 0 -73 26.5t-25 63.5q0 30 16.5 56.5t33.5 40t49 34.5z" />
    <glyph glyph-name="tilde" unicode="&#x2dc;" horiz-adv-x="271" 
d="M134 600q-44 26 -59 26q-20 0 -39 -22q-17 -21 -29 -21q-25 0 -25 32q0 38 28 67t68 29q29 0 70 -27q31 -18 49 -18q27 0 48 29q13 15 23 15t16 -8.5t6 -20.5q0 -35 -26.5 -66.5t-69.5 -31.5q-31 0 -60 17z" />
    <glyph glyph-name="hungarumlaut" unicode="&#x2dd;" horiz-adv-x="271" 
d="M246 661l-70 -84q-13 -13 -25 -13q-10 0 -16.5 6.5t-6.5 14.5q0 6 8 22l50 90q20 32 42 32q15 0 24.5 -10t9.5 -24q0 -16 -16 -34zM125 661l-69 -84q-13 -13 -25 -13q-10 0 -16.5 6.5t-6.5 14.5q0 6 8 22l50 90q20 32 42 32q15 0 24.5 -10t9.5 -24q0 -15 -17 -34z" />
    <glyph glyph-name="endash" unicode="&#x2013;" horiz-adv-x="542" 
d="M503 314v-49q0 -13 -5.5 -17t-18.5 -4h-416q-14 0 -19 3.5t-5 16.5v50q0 12 5 16t18 4h417q24 0 24 -20z" />
    <glyph glyph-name="emdash" unicode="&#x2014;" horiz-adv-x="688" 
d="M58 334h570q18 0 20 -11q1 -3 1 -37q0 -13 -5 -17t-18 -4h-568q-17 0 -19 12v38q0 11 4 15t15 4z" />
    <glyph glyph-name="quoteleft" unicode="&#x2018;" horiz-adv-x="250" 
d="M190 690q-38 -55 -38 -79q0 -19 20 -46q28 -36 28 -60q0 -28 -20.5 -47t-51.5 -19q-38 0 -61.5 28t-23.5 74q0 68 47.5 134.5t80.5 66.5q11 0 19.5 -8.5t8.5 -19.5t-9 -24z" />
    <glyph glyph-name="quoteright" unicode="&#x2019;" horiz-adv-x="250" 
d="M60 491q37 55 37 78q0 22 -19 47q-28 36 -28 60q0 28 20 47t52 19q38 0 61.5 -28t23.5 -74q0 -69 -48 -135t-81 -66q-11 0 -19.5 8t-8.5 19t10 25z" />
    <glyph glyph-name="quotesinglbase" unicode="&#x201a;" horiz-adv-x="250" 
d="M60 -81q38 55 38 79q0 19 -20 46q-28 36 -28 60q0 27 20.5 46.5t51.5 19.5q38 0 61.5 -28t23.5 -74q0 -69 -48 -135t-81 -66q-11 0 -19.5 8t-8.5 20q0 10 10 24z" />
    <glyph glyph-name="quotedblleft" unicode="&#x201c;" horiz-adv-x="458" 
d="M399 690q-38 -55 -38 -79q0 -21 19 -46q29 -35 29 -60q0 -28 -20.5 -47t-51.5 -19q-38 0 -61.5 28t-23.5 74q0 69 47.5 135t80.5 66q11 0 19.5 -8.5t8.5 -19.5q0 -8 -9 -24zM190 690q-37 -56 -37 -79q0 -21 19 -46q28 -36 28 -60q0 -28 -20 -47t-51 -19q-38 0 -62 28
t-24 74q0 69 48 135t81 66q11 0 19.5 -8.5t8.5 -19.5q0 -10 -10 -24z" />
    <glyph glyph-name="quotedblright" unicode="&#x201d;" horiz-adv-x="458" 
d="M60 491q37 55 37 78q0 22 -19 47q-28 36 -28 60q0 28 20 47t51 19q38 0 62 -28t24 -74q0 -69 -48 -135t-81 -66q-11 0 -19.5 8t-8.5 19t10 25zM268 491q38 54 38 78q0 20 -20 47q-28 36 -28 60q0 27 20.5 46.5t51.5 19.5q38 0 61.5 -28t23.5 -74q0 -69 -48 -135t-81 -66
q-11 0 -19.5 8t-8.5 19t10 25z" />
    <glyph glyph-name="quotedblbase" unicode="&#x201e;" horiz-adv-x="458" 
d="M60 -81q37 56 37 79q0 21 -19 46q-28 36 -28 60q0 28 20 47t51 19q38 0 62 -28t24 -74q0 -69 -48 -135t-81 -66q-11 0 -19.5 8t-8.5 20q0 10 10 24zM268 -81q38 55 38 79q0 19 -20 46q-28 36 -28 60q0 27 20.5 46.5t51.5 19.5q38 0 61.5 -28t23.5 -74q0 -69 -48 -135
t-81 -66q-11 0 -19.5 8t-8.5 20q0 10 10 24z" />
    <glyph glyph-name="dagger" unicode="&#x2020;" 
d="M441 384l-144 10l28 -367q2 -14 -2 -20.5t-18 -6.5h-123q-15 0 -20 5.5t-4 20.5l26 368l-147 -10q-17 -1 -21.5 4t-4.5 20v83q0 14 5 18.5t21 3.5l146 -10l-21 177q-2 15 2 20.5t19 5.5h112q14 0 19 -3.5t3 -17.5l-20 -182l147 10q13 1 19 -3t6 -19v-84q0 -15 -6 -19.5
t-22 -3.5z" />
    <glyph glyph-name="daggerdbl" unicode="&#x2021;" horiz-adv-x="500" 
d="M455 166l-152 12l23 -154q2 -14 -3 -18.5t-20 -4.5h-108q-13 0 -17.5 4.5t-3.5 17.5l22 155l-150 -12q-15 -1 -20 3.5t-6 19.5v77q0 13 5.5 17.5t20.5 3.5l150 -12v187l-150 -12q-16 -1 -21 4.5t-5 19.5v77q1 14 6.5 17.5t19.5 2.5l150 -11l-22 125q-3 14 3 17.5t19 3.5
h110q22 0 22 -15q0 -6 -1 -9l-24 -122l152 11q14 1 19.5 -2.5t5.5 -16.5v-81q-1 -8 -2 -12.5t-7 -7t-16 -1.5l-152 12v-187l152 12q14 1 19.5 -3.5t5.5 -17.5v-78q0 -14 -5 -18.5t-20 -3.5z" />
    <glyph glyph-name="bullet" unicode="&#x2022;" horiz-adv-x="333" 
d="M309 353q-1 -61 -39.5 -102t-98.5 -41q-65 0 -106 43t-41 100q0 58 42 100t103 42q62 0 101 -41.5t39 -100.5z" />
    <glyph glyph-name="ellipsis" unicode="&#x2026;" horiz-adv-x="1000" 
d="M252 80q-1 -35 -25 -60.5t-60 -25.5t-60.5 25.5t-24.5 62.5q0 40 27 64t58 24q34 0 59.5 -26t25.5 -64zM585 80q-1 -35 -25 -60.5t-60 -25.5t-60.5 25.5t-24.5 62.5q0 40 27 64t58 24q34 0 59.5 -26t25.5 -64zM918 80q-1 -35 -25 -60.5t-60 -25.5t-60.5 25.5t-24.5 62.5
q0 40 27 64t58 24q34 0 59.5 -26t25.5 -64z" />
    <glyph glyph-name="perthousand" unicode="&#x2030;" horiz-adv-x="1125" 
d="M309 484q0 -58 -11.5 -106.5t-44.5 -86t-85 -37.5t-85.5 35t-46 85.5t-12.5 114.5q0 120 48 181q39 47 95 47q85 0 122 -98q20 -56 20 -135zM210 496q0 94 -14 133q-12 27 -30 27q-20 0 -30 -27q-13 -36 -13 -128q0 -102 14 -146q9 -31 31 -31q21 0 30 32q12 43 12 140z
M767 219q0 -59 -11.5 -107.5t-44.5 -85.5t-85 -37q-75 0 -109 67t-34 168q0 120 48 181q39 47 95 47q84 0 121 -98q20 -56 20 -135zM668 231q0 95 -14 133q-12 27 -30 27q-19 0 -29 -27q-13 -36 -13 -128q0 -102 14 -146q9 -31 30 -31t30 32q12 43 12 140zM604 674
l-344 -654q-7 -13 -11.5 -16.5t-16.5 -3.5q-49 0 -51 5q-1 1 -1 5q0 5 7 21l344 652q8 15 13.5 19t17.5 4q36 0 43 -1.5t7 -10.5q0 -6 -8 -20zM1101 219q0 -59 -11.5 -107.5t-44.5 -85.5t-85 -37t-85.5 35t-46 85.5t-12.5 114.5q0 120 48 181q39 47 95 47q85 0 122 -98
q20 -56 20 -135zM1002 231q0 95 -14 133q-12 27 -30 27q-20 0 -30 -27q-13 -36 -13 -128q0 -102 14 -146q9 -31 31 -31q21 0 30 32q12 43 12 140z" />
    <glyph glyph-name="guilsinglleft" unicode="&#x2039;" horiz-adv-x="250" 
d="M159 246l52 -90q7 -12 7 -22q0 -12 -8 -20.5t-19 -8.5q-16 0 -32 21q-61 78 -119 125q-16 13 -21 20t-5 18q0 17 21 35q53 43 109 108q24 28 30.5 34t16.5 6q11 0 19 -7.5t8 -19.5q0 -8 -8 -24l-53 -92q-13 -24 -13 -39q0 -16 15 -44z" />
    <glyph glyph-name="guilsinglright" unicode="&#x203a;" horiz-adv-x="250" 
d="M91 331l-52 91q-7 12 -7 22q0 12 7.5 20t18.5 8q16 0 33 -20q60 -76 119 -126q23 -19 25 -30q1 -3 1 -8q0 -17 -21 -35q-57 -46 -109 -108q-24 -28 -30.5 -34t-16.5 -6q-11 0 -19 7.5t-8 19.5q0 9 8 25l53 91q13 26 13 39q0 16 -15 44z" />
    <glyph glyph-name="fraction" unicode="&#x2044;" horiz-adv-x="125" 
d="M271 674l-344 -654q-7 -13 -11.5 -16.5t-16.5 -3.5q-50 0 -52 5q-1 2 -1 5q0 4 8 22l344 652q8 14 13 18t18 4q36 0 43 -1.5t7 -10.5q0 -4 -8 -20z" />
    <glyph glyph-name="trademark" unicode="&#x2122;" horiz-adv-x="687" 
d="M655 706v-332h-69l3 191l4 68l-15 -55l-62 -204h-63l-64 205l-15 53l5 -67l4 -191h-69v332h92l80 -251l76 251h93zM184 648v-274h-71v274h-105v58h278v-58h-102z" />
    <glyph glyph-name="minus" unicode="&#x2212;" horiz-adv-x="500" 
d="M500 345v-104h-500v104h500z" />
    <glyph glyph-name="fi" unicode="&#xfb01;" horiz-adv-x="542" 
d="M285 452h-67v-426q0 -14 -4 -20t-17 -6h-112q-14 0 -19.5 5t-5.5 18v429h-50q-12 0 -16.5 3t-4.5 15q0 33 3 40t18 8h50q6 112 40 168q22 37 59.5 63.5t87.5 26.5q36 0 56 -17.5t20 -46.5q0 -26 -16 -41t-36 -15q-7 0 -24 4t-23 4q-19 0 -31 -14t-12 -37q0 -50 36 -95h70
q10 0 14 -3t4 -14q0 -36 -1 -39q-1 -7 -4.5 -8.5t-14.5 -1.5zM498 495v-470q0 -15 -5.5 -20t-19.5 -5h-118q-13 0 -16.5 5t-3.5 19v471q0 12 4 17.5t17 5.5h118q14 0 19 -4.5t5 -18.5zM495 644q1 -34 -22 -52.5t-55 -18.5q-36 0 -59 18t-23 51q0 31 21.5 51.5t60.5 20.5
q37 0 56.5 -20t20.5 -50z" />
    <glyph glyph-name="fl" unicode="&#xfb02;" horiz-adv-x="542" 
d="M285 452h-67v-426q0 -14 -4 -20t-17 -6h-112q-14 0 -19.5 5t-5.5 18v429h-50q-12 0 -16.5 3t-4.5 15q0 33 3 40t18 8h50q6 112 40 168q22 37 59.5 63.5t87.5 26.5q36 0 56 -17.5t20 -46.5q0 -26 -16 -41t-37 -15q-6 0 -22.5 4t-23.5 4q-19 0 -31 -14t-12 -37
q0 -50 36 -95h70q10 0 14 -3t4 -14q0 -36 -1 -39q-1 -7 -4.5 -8.5t-14.5 -1.5zM337 22v722q0 13 5.5 17t18.5 4h112q13 0 18 -4t5 -17v-720q0 -14 -5 -19t-18 -5h-111q-14 0 -19.5 3.5t-5.5 18.5z" />
    </font>
</defs>
</svg>
