<?xml version="1.0" standalone="no"?>
<!DOCTYPE svg PUBLIC "-//W3C//DTD SVG 1.1//EN" "http://www.w3.org/Graphics/SVG/1.1/DTD/svg11.dtd" >
<svg xmlns="http://www.w3.org/2000/svg" xmlns:xlink="http://www.w3.org/1999/xlink" version="1.1">
<metadata>
Created by FontForge 20150102 at Sun Feb  8 04:42:21 2015
 By uniteet7
Copyright (c) 1991 Adobe Systems Incorporated.  All Rights Reserved.Barmeno is a trademark of H. Berthold AG.
</metadata>
<defs>
<font id="Barmeno-ExtraBold" horiz-adv-x="479" >
  <font-face 
    font-family="Barmeno-ExtraBold"
    font-weight="800"
    font-stretch="normal"
    units-per-em="1000"
    panose-1="2 11 9 0 0 0 0 0 0 0"
    ascent="800"
    descent="-200"
    x-height="518"
    cap-height="706"
    bbox="-137 -258 1105 969"
    underline-thickness="50"
    underline-position="-50"
    unicode-range="U+0020-2122"
  />
<missing-glyph horiz-adv-x="502" 
d="M-1 0h500v500h-500v-500zM9 10v480h480v-480h-480z" />
    <glyph glyph-name=".notdef" horiz-adv-x="502" 
d="M-1 0h500v500h-500v-500zM9 10v480h480v-480h-480z" />
    <glyph glyph-name="space" unicode=" " horiz-adv-x="271" 
 />
    <glyph glyph-name="exclam" unicode="!" horiz-adv-x="292" 
d="M278 677v4q1 2 1 5q0 9 -5 14.5t-18 5.5h-176q-13 0 -19 -3t-6 -14v-4q1 -5 1 -6l59 -391q2 -13 6.5 -18.5t17.5 -5.5h51q13 0 18 4.5t7 20.5zM263 92q0 45 -30 74.5t-71 29.5q-37 0 -69 -28t-32 -73q0 -41 29 -71t73 -30t71.5 29.5t28.5 68.5z" />
    <glyph glyph-name="quotedbl" unicode="&#x22;" horiz-adv-x="396" 
d="M372 670q1 5 1 17q0 28 -19.5 45t-47.5 17q-32 0 -53.5 -18.5t-21.5 -47.5q0 -9 2 -25l55 -250h31zM164 670q0 1 1 8v9q0 28 -19 45t-48 17t-52 -17t-23 -50q0 -8 2 -24l54 -250h32z" />
    <glyph glyph-name="numbersign" unicode="#" horiz-adv-x="583" 
d="M559 310h-98l13 95h109v124h-92l24 176h-125l-24 -176h-99l24 176h-124l-25 -176h-117v-124h100l-13 -95h-112v-124h94l-25 -186h124l26 186h99l-27 -186h126l26 186h116v124zM236 310l14 95h98l-13 -95h-99z" />
    <glyph glyph-name="dollar" unicode="$" horiz-adv-x="562" 
d="M310 602q20 -7 29 -18.5t27 -47.5q15 -27 29.5 -40.5t42.5 -13.5t52 19t24 59q0 55 -53.5 102.5t-150.5 55.5v66q0 15 -15 15q-33 0 -39 -2.5t-6 -14.5v-64q-94 -5 -155.5 -61.5t-61.5 -148.5q0 -41 13.5 -80t38.5 -68q29 -33 68 -51.5t97 -36.5v-163q-15 7 -25 19
t-31 48q-17 32 -35.5 50.5t-52.5 18.5t-55 -24t-21 -60q0 -23 11 -50.5t36 -54.5t68.5 -47t104.5 -26v-61q0 -11 3 -15.5t13 -4.5h29q9 0 12 5.5t3 15.5v60v0q53 7 94.5 21t76.5 53q26 28 40.5 67t14.5 80q0 40 -14 77.5t-39 65.5q-28 31 -65.5 49t-103.5 41l-4 1v164z
M310 251v0q29 -10 48 -26t19 -52q0 -23 -7.5 -37t-18.5 -21t-20.5 -9t-20.5 -3v148zM250 455v0q-11 4 -20.5 8t-19 13t-16 23.5t-6.5 36.5q0 34 18 54t44 22v-157z" />
    <glyph glyph-name="percent" unicode="%" horiz-adv-x="792" 
d="M313 481q0 23 -1 44t-6 49t-16.5 55.5t-29.5 47.5l-1 1q-15 16 -36.5 28t-55.5 12q-27 0 -52.5 -11.5t-47.5 -38.5q-28 -36 -37.5 -82t-9.5 -92q0 -76 15 -129q17 -55 52.5 -83.5t80.5 -28.5q23 0 47 9t46.5 33.5t37 70.5t14.5 115zM196 501q0 -54 -1.5 -87t-5 -49
t-8.5 -21.5t-13 -5.5q-12 0 -17.5 10.5t-6.5 20.5q-4 20 -5.5 56t-1.5 77t1.5 75.5t7.5 50.5v1q3 7 7.5 12t12.5 5t13 -4.5t8.5 -20t5.5 -43.5t3 -77zM772 216q0 22 -1 43.5t-6 49.5t-16 55.5t-30 47.5l-1 1q-15 16 -36.5 28t-55.5 12q-28 0 -53.5 -11.5t-47.5 -38.5
q-28 -36 -37.5 -82t-9.5 -92q0 -77 15 -128q17 -56 52.5 -84t81.5 -28q23 0 47 9t46.5 33t37 70t14.5 115zM655 235q0 -54 -2 -86.5t-5 -48t-8 -21t-13 -5.5q-12 0 -18 10t-7 20q-4 20 -5.5 56t-1.5 77t1.5 75t7.5 51v1q3 7 7.5 12t12.5 5t13.5 -5t9 -19.5t5.5 -43t3 -78.5z
M609 672q9 17 9 21q0 5 -3 9.5t-14 4.5q-51 0 -54 -1q-10 -1 -14.5 -6t-11.5 -18l-339 -646q-5 -11 -7 -15.5t-2 -9.5q0 -7 5 -9t11 -2h49q12 0 17.5 4t12.5 18z" />
    <glyph glyph-name="ampersand" unicode="&#x26;" horiz-adv-x="688" 
d="M454 27q14 -20 21.5 -23.5t33.5 -3.5h153q9 0 16 3t7 14q0 5 -2 8t-9 12l-2 2l-160 209q17 20 36.5 28t36.5 8q4 0 20 -1q15 -2 19 -2q31 0 52.5 20t21.5 50q0 7 -2 17.5t-10 24t-25 23.5t-46 10q-30 0 -56 -11t-46.5 -27.5t-33.5 -31.5t-25 -32l-55 73q69 49 99 86.5
t30 90.5q0 38 -16 66.5t-43.5 46t-62 26t-72.5 8.5t-75 -8t-69 -27t-51.5 -50t-19.5 -75q0 -42 15.5 -75.5t59.5 -100.5l-2 -1q-46 -31 -73 -51.5t-49.5 -45t-35 -55t-12.5 -69.5q0 -32 11.5 -63.5t35 -57.5t59.5 -41.5t83 -15.5q40 0 72 11.5t55 29.5t36.5 34t27.5 36l1 1z
M345 176q-15 -20 -32.5 -26t-30.5 -6q-30 0 -53 22.5t-23 56.5q0 29 15 47t34 30zM338 475v1q-23 27 -36 49t-13 43q0 19 13 33.5t33 14.5q21 0 36.5 -17t15.5 -46q0 -27 -14.5 -46t-34.5 -32z" />
    <glyph glyph-name="quotesingle" unicode="'" horiz-adv-x="208" 
d="M174 670v8q1 4 1 8q0 21 -8 34l-1 2q-8 10 -21 18.5t-36 8.5q-30 0 -53 -17.5t-23 -48.5q0 -9 2 -25l54 -250h32z" />
    <glyph glyph-name="parenleft" unicode="(" horiz-adv-x="333" 
d="M323 812q11 17 11 32q0 10 -6 19t-23 9q-18 0 -41 -14.5t-47 -36t-45 -45t-34 -41.5q-57 -78 -83.5 -174.5t-26.5 -202.5q0 -127 28.5 -222t85.5 -171q18 -23 41 -46.5t46 -42.5t44 -30.5t35 -11.5q13 0 22.5 9t9.5 22q0 8 -3 13.5t-17 25.5l-6 9l-3 5q-26 45 -46 93
t-35 129q-9 51 -14.5 111.5t-5.5 115.5q0 161 43 300q14 42 30 75t40 70z" />
    <glyph glyph-name="parenright" unicode=")" horiz-adv-x="333" 
d="M11 -105q-11 -18 -11 -33q0 -10 6.5 -18.5t22.5 -8.5q18 0 41 14t47 36t44.5 45t34.5 42q57 78 83.5 174.5t26.5 202.5q0 128 -28.5 222.5t-85.5 169.5q-18 23 -41 46.5t-46 42.5t-44 30.5t-35 11.5q-13 0 -22 -9t-9 -21q0 -9 4 -17t21 -32l1 -2q26 -43 47 -93t36 -131
q10 -51 15 -112t5 -116q0 -161 -43 -299q-14 -43 -30 -75t-40 -70z" />
    <glyph glyph-name="asterisk" unicode="*" horiz-adv-x="313" 
d="M129 578q-6 -19 -8.5 -29t-2.5 -22q0 -18 9 -30.5t27 -12.5q19 0 29 14t10 30q0 8 -2.5 17.5t-8.5 29.5l-2 6q-3 10 -4.5 17.5t-1.5 13.5q0 18 15 18q12 0 22 -15t16 -32q6 -14 13.5 -22.5t21.5 -8.5q19 0 27.5 16.5t8.5 32.5q0 32 -14 41t-39 10v0q-24 1 -34.5 4.5
t-10.5 16.5t12.5 16.5t32.5 3.5h1q24 1 38 9t14 38q0 21 -9 35t-25 14q-11 0 -19 -8t-17 -25l-5 -9q-14 -22 -19 -27.5t-13 -5.5q-17 0 -17 24q0 11 3 20.5t8 21.5l1 1l1 3q7 23 7 35q0 19 -10 32.5t-27 13.5t-27.5 -13t-10.5 -31q0 -7 2 -17.5t9 -26.5q10 -24 10 -39
q0 -23 -16 -23q-9 0 -18 11.5t-20 30.5t-18 26t-21 7q-21 0 -26.5 -14.5t-5.5 -36.5q0 -27 13 -35t41 -10h1q23 -2 32 -5.5t9 -15.5t-8.5 -15t-38.5 -6h-6q-17 -1 -30.5 -9t-13.5 -32q0 -56 34 -56q16 0 24 10t21 35v1l1 1q9 17 14 23t12 6q8 0 13 -5.5t5 -13.5
q0 -6 -2.5 -15t-6.5 -19z" />
    <glyph glyph-name="plus" unicode="+" horiz-adv-x="500" 
d="M467 356h-154v154h-127v-154h-152v-128h152v-156h127v156h154v128z" />
    <glyph glyph-name="comma" unicode="," horiz-adv-x="250" 
d="M55 41q13 -19 18 -30t5 -25q0 -17 -8.5 -35t-20.5 -36v0l-2 -3q-19 -28 -23 -36t-4 -18q0 -14 10.5 -24t25.5 -10q23 0 53 20.5t58 56t46 80t18 90.5q0 59 -30 91.5t-71 33.5q-35 0 -65.5 -25.5t-30.5 -71.5q0 -19 5 -30.5t16 -27.5z" />
    <glyph glyph-name="hyphen" unicode="-" horiz-adv-x="292" 
d="M262 324q-1 12 -5.5 15.5t-17.5 3.5h-189q-12 0 -16.5 -5t-4.5 -16v-88q0 -12 4 -17.5t17 -5.5h191q12 0 16.5 5t4.5 18v90z" />
    <glyph glyph-name="period" unicode="." horiz-adv-x="250" 
d="M221 92q0 44 -29 74t-67 30q-36 0 -66 -28t-30 -73q0 -41 27 -71t70 -30q42 0 68 30t27 68z" />
    <glyph glyph-name="slash" unicode="/" horiz-adv-x="500" 
d="M487 806q3 6 3 12q0 7 -4.5 11t-11.5 7h-1l-63 24q-10 4 -15 4q-12 0 -20 -21l-360 -936q-5 -10 -5 -17q0 -6 5 -10t12 -7l70 -27q9 -3 13 -3q11 0 18 19z" />
    <glyph glyph-name="zero" unicode="0" horiz-adv-x="542" 
d="M505 346q0 35 -2 69t-10 79t-25.5 88.5t-47.5 76.5q-29 32 -67.5 49t-80.5 17q-51 0 -91 -21.5t-70 -59.5q-24 -30 -39.5 -67t-23 -74t-10 -70.5t-2.5 -65.5q0 -60 5 -110t20 -97q27 -89 84 -133.5t129 -44.5q47 0 83 17.5t60.5 44.5t39.5 56.5t24 57.5q14 43 19 89.5
t5 98.5zM318 377v-26l1 -27q0 -48 -3 -105q-1 -24 -2.5 -39.5t-6 -30t-13 -23.5t-21.5 -9q-14 0 -22.5 10t-13 26.5t-6.5 33t-3 38.5q-3 37 -3.5 73.5t-0.5 80.5q0 65 2 104q1 33 4 58t8 39v1q5 11 11.5 19.5t20.5 8.5q7 0 17 -6.5t16 -27.5q5 -14 8 -41.5t4.5 -59t2 -56
t0.5 -41.5z" />
    <glyph glyph-name="one" unicode="1" horiz-adv-x="542" 
d="M227 23q0 -14 8 -18.5t18 -4.5h149q26 0 26 29v630q0 10 -1.5 19t-6 18.5t-15.5 16t-28 6.5q-19 0 -32.5 -7t-41.5 -28q-58 -40 -109.5 -63.5t-119.5 -45.5q-18 -6 -30 -15t-12 -29q0 -5 1.5 -12t7.5 -15.5t20 -15t37 -6.5q24 0 60 4.5t69 11.5v-475z" />
    <glyph glyph-name="two" unicode="2" horiz-adv-x="542" 
d="M410 341l1 2q42 56 63.5 98t21.5 92q0 34 -13.5 67.5t-41.5 61.5t-72.5 45t-103.5 17q-57 0 -102 -16t-75.5 -44.5t-46 -63.5t-15.5 -72q0 -77 58 -77q25 0 36.5 13.5t19.5 36.5v1q11 27 28 44.5t54 17.5q38 0 59 -25t21 -60q0 -29 -13 -52t-58 -81l-193 -261
q-11 -15 -16.5 -25t-5.5 -22q0 -23 13.5 -30.5t29.5 -7.5h415q15 0 20 6t5 18v132q0 14 -6 19t-22 5h-184z" />
    <glyph glyph-name="three" unicode="3" horiz-adv-x="542" 
d="M388 403q16 10 29 20t26.5 27t22.5 40.5t9 52.5q0 18 -5 44t-26 58t-68 55.5t-124 23.5q-63 0 -107.5 -18t-69.5 -45t-36 -54.5t-11 -47.5q0 -28 16 -46t39 -18q18 0 28.5 9t26.5 30v0q15 21 30.5 33.5t40.5 12.5q12 0 25 -3.5t25 -12t20 -24.5t8 -40q0 -39 -25.5 -60.5
t-86.5 -48.5q-18 -9 -27.5 -18.5t-9.5 -26.5q0 -19 12.5 -28.5t49.5 -25.5q18 -7 35.5 -17t36 -25.5t30 -36t11.5 -46.5t-15.5 -39.5t-40.5 -13.5t-40 13.5t-47 60.5l-1 2q-14 16 -29.5 26.5t-41.5 10.5q-35 0 -58 -25t-23 -62q0 -64 60.5 -111.5t162.5 -47.5q71 0 122 19
t81.5 50.5t45 71t14.5 81.5q0 47 -13 83t-32 59.5t-35.5 35.5t-34.5 22v0z" />
    <glyph glyph-name="four" unicode="4" horiz-adv-x="542" 
d="M493 226q0 13 -7 15t-46 2v421q0 8 -1.5 16.5t-7 17.5t-17.5 15.5t-31 6.5q-26 0 -40.5 -11t-29.5 -31l-1 -1l-284 -419l-1 -2q-15 -23 -21 -36t-6 -27q0 -19 8 -31t19 -18t21 -7.5t18 -1.5h187v-117q0 -12 5 -18t19 -6h137q17 0 21.5 8t4.5 21v112h40q7 1 9.5 5t3.5 11
v2v73zM148 243l113 178v-178h-113z" />
    <glyph glyph-name="five" unicode="5" horiz-adv-x="542" 
d="M447 532q15 0 19 5.5t4 20.5v128q0 13 -4.5 17t-17.5 4h-340q-14 -1 -19.5 -5.5t-6.5 -18.5l-27 -301q-2 -12 -2 -27q0 -27 16 -41t41 -14q6 0 33 3q26 2 30 2q27 0 54 -7t49 -22t35.5 -39t13.5 -57q0 -20 -7.5 -35t-18.5 -22q-13 -9 -34 -9q-26 0 -40.5 13t-46.5 61v1
q-13 16 -29 27.5t-42 11.5q-32 0 -58.5 -22.5t-26.5 -65.5q0 -26 12.5 -53.5t40 -51.5t73 -38.5t107.5 -14.5q77 0 128.5 23t79 58.5t38 74t10.5 73.5q0 61 -18.5 106.5t-50.5 74t-72 42t-83 13.5q-30 0 -58 -4.5t-50 -10.5l11 100h257z" />
    <glyph glyph-name="six" unicode="6" horiz-adv-x="542" 
d="M222 398q3 19 8.5 40t19.5 47t39.5 53.5t64.5 49.5q17 9 32.5 16t46.5 20q18 8 29 17.5t11 30.5t-16.5 37.5t-52.5 16.5q-54 0 -119 -27t-124.5 -82t-97.5 -139t-38 -192q0 -162 80 -239q33 -32 77.5 -48.5t93.5 -16.5q107 0 174 61t67 164q0 104 -54.5 161.5
t-133.5 57.5q-38 0 -63.5 -8.5t-43.5 -19.5zM210 299h1q10 4 20 6.5t25 2.5q41 0 61.5 -37.5t20.5 -86.5q0 -34 -16.5 -52.5t-38.5 -18.5q-26 0 -42 20t-23 47t-9 49.5t-2 35.5q0 9 0.5 16.5t2.5 17.5z" />
    <glyph glyph-name="seven" unicode="7" horiz-adv-x="542" 
d="M95 65q-12 -25 -12 -38q0 -17 10.5 -22t28.5 -5h147q24 0 31.5 11t12.5 43q8 48 17.5 92.5t29 111.5t54.5 156.5t86 197.5q14 28 17 35.5t3 17.5q0 14 -6 23t-14.5 12.5t-16 4.5t-16.5 1h-401q-15 0 -22 -5t-7 -21v-122q0 -14 6 -20t22 -6h248z" />
    <glyph glyph-name="eight" unicode="8" horiz-adv-x="542" 
d="M392 392l1 1q52 43 76.5 77t24.5 89q0 78 -56.5 121.5t-160.5 43.5q-115 0 -173 -54t-58 -137q0 -51 22 -94t71 -85q-26 -21 -44 -36.5t-34 -37.5t-26 -49.5t-10 -61.5q0 -41 18 -77t50 -61q39 -30 84 -39.5t89 -9.5q78 0 128.5 22.5t77 56t35.5 67t9 63.5q0 37 -10.5 67
t-28 53t-37 40.5t-48.5 40.5zM236 283q42 -22 70 -49.5t28 -60.5q0 -28 -19 -43.5t-45 -15.5q-32 0 -56 26t-24 58q0 19 10 41.5t36 43.5zM296 458q-58 31 -74 53.5t-16 44.5q0 29 19 44t44 15q28 0 50 -20.5t22 -54.5t-14 -52.5t-31 -29.5v0z" />
    <glyph glyph-name="nine" unicode="9" horiz-adv-x="542" 
d="M318 322q-8 -51 -26 -89t-44.5 -64t-59 -44t-76.5 -35v0q-28 -12 -42 -23t-14 -33q0 -4 1.5 -12t7.5 -17.5t19 -16.5t35 -7q7 0 24 1.5t44.5 7.5t61.5 19t67 34q45 30 85.5 74.5t65.5 94.5q22 44 35.5 99.5t13.5 134.5q0 83 -23 139t-67 90q-38 31 -79 40.5t-80 9.5
q-68 0 -116.5 -19.5t-78 -51.5t-42.5 -71t-13 -78q0 -41 11.5 -79.5t35 -69t59.5 -48.5t83 -18q39 0 64 9t48 23zM332 422q-21 -6 -45 -6q-30 0 -49 14t-28.5 34.5t-12 39t-2.5 31.5q0 29 14 50.5t44 21.5q24 0 40 -15t24.5 -40t11.5 -52.5t3 -58.5v-19z" />
    <glyph glyph-name="colon" unicode=":" horiz-adv-x="292" 
d="M263 92q0 44 -29 74t-67 30q-36 0 -66.5 -28t-30.5 -73q0 -40 27.5 -70.5t70.5 -30.5q42 0 68 30t27 68zM263 385q0 44 -29 73.5t-67 29.5q-36 0 -66.5 -27.5t-30.5 -72.5q0 -41 27.5 -71t70.5 -30q42 0 68 29.5t27 68.5z" />
    <glyph glyph-name="semicolon" unicode=";" horiz-adv-x="292" 
d="M95 41q14 -19 19 -29.5t5 -25.5q0 -17 -8.5 -35t-20.5 -36v0l-2 -3q-19 -28 -23 -36t-4 -18q0 -14 10.5 -24t25.5 -10q23 0 53 20.5t58 56t46 80t18 90.5q0 59 -30 91.5t-71 33.5q-35 0 -65.5 -25.5t-30.5 -71.5q0 -18 4.5 -29.5t14.5 -26.5zM271 385q0 43 -29.5 73
t-68.5 30q-36 0 -67 -28t-31 -72q0 -41 27.5 -71t71.5 -30q43 0 69.5 30t27.5 68z" />
    <glyph glyph-name="less" unicode="&#x3c;" horiz-adv-x="500" 
d="M500 207l-328 144l328 148v139l-499 -225v-124l499 -220v138z" />
    <glyph glyph-name="equal" unicode="=" horiz-adv-x="500" 
d="M500 251h-500v-128h500v128zM500 458h-500v-127h500v127z" />
    <glyph glyph-name="greater" unicode="&#x3e;" horiz-adv-x="500" 
d="M500 289v124l-500 224v-138l329 -148l-329 -144v-138z" />
    <glyph glyph-name="question" unicode="?" horiz-adv-x="458" 
d="M186 290q3 -15 6 -19.5t12 -5.5h55q17 0 21 7.5t9 41.5q5 31 9.5 49.5t10.5 30.5t15 21.5t25 22.5l3 2q50 38 74 68t24 75q0 33 -18 64t-53 50q-28 15 -60 21t-70 6q-60 0 -104 -12.5t-71.5 -33t-40 -45t-12.5 -49.5q0 -13 4 -27t13.5 -27t25.5 -21t38 -8q34 0 50.5 19.5
t28.5 51.5q6 18 15.5 29t28.5 11q20 0 34.5 -15.5t14.5 -38.5q0 -34 -19 -53t-55 -38l-1 -1q-15 -7 -24.5 -18t-9.5 -32q0 -9 1 -15zM335 92q0 44 -30 74t-70 30q-37 0 -68.5 -28t-31.5 -72q0 -42 28 -72t73 -30q44 0 71 29.5t28 68.5z" />
    <glyph glyph-name="at" unicode="@" horiz-adv-x="896" 
d="M779 101v0q-29 -28 -55.5 -49t-66.5 -44t-91.5 -38t-111.5 -15q-53 0 -106 15t-98 48t-72.5 87.5t-27.5 130.5q0 81 30.5 154t83 127.5t119 85t135.5 30.5q43 0 83 -12t72 -37.5t51 -66.5t19 -97q0 -54 -13.5 -103t-34.5 -86.5t-43 -58.5t-38 -21q-8 0 -13.5 8t-5.5 19
q0 12 2.5 32t7.5 46.5t9.5 48t7.5 37.5q1 1 1 3l33 158h-90l-10 -39l-1 1q-18 26 -40 42.5t-63 16.5q-46 0 -86.5 -24.5t-70 -66.5t-45.5 -93.5t-16 -102.5q0 -46 12.5 -79.5t33.5 -53.5t45 -28.5t47 -8.5q44 0 73 20t52 47l1 1q0 -1 1 -4q5 -19 14 -31q12 -16 33 -25t44 -9
q45 0 87.5 29t76.5 80t53.5 115.5t19.5 132.5q0 54 -17.5 105t-54 93t-94 66.5t-134.5 24.5q-95 0 -179 -37t-146.5 -103.5t-97.5 -153t-35 -181.5q0 -101 38 -172t97.5 -112.5t125.5 -59t126 -17.5q67 0 124.5 16t102 40.5t76 49.5t67.5 58zM523 350q0 -34 -10 -69
t-27.5 -63t-39.5 -45t-45 -17q-27 0 -45.5 22t-18.5 62q0 33 8.5 67.5t24.5 63.5t38 46.5t48 17.5q23 0 44.5 -20t22.5 -65z" />
    <glyph glyph-name="A" unicode="A" horiz-adv-x="604" 
d="M382 24q4 -14 10.5 -19t21.5 -5h163q12 0 20 4t8 16q0 4 -2 11q-1 2 -1 3l-213 646q-6 16 -12 21t-23 5h-98q-15 0 -22 -5t-13 -21l-213 -636q-1 -2 -4.5 -13t-3.5 -13q0 -10 6.5 -14t17.5 -4h105q16 0 22.5 5.5t10.5 20.5l20 80h179zM216 217l54 213l57 -213h-111z" />
    <glyph glyph-name="B" unicode="B" horiz-adv-x="583" 
d="M42 54q0 -24 6 -34.5t27 -15.5q22 -5 73.5 -9t108.5 -4q61 0 108 5.5t84 20.5q57 24 89.5 70t32.5 106t-32.5 109t-94.5 67q-14 4 -20 5q14 6 21 10q49 24 76.5 61.5t27.5 89.5q0 49 -21.5 84.5t-60.5 58.5q-37 22 -90.5 30t-134.5 8q-59 0 -108.5 -5.5t-68.5 -13.5
q-15 -6 -19 -16.5t-4 -29.5v-597zM249 596q4 0 9 1q10 1 17 1q23 0 36.5 -6.5t23.5 -21.5q6 -10 10 -26t4 -33t-2.5 -32t-12.5 -29.5t-30.5 -23.5t-54.5 -9v179zM249 318h6q7 1 11 1q51 0 73.5 -30t22.5 -81q0 -41 -19.5 -64.5t-63.5 -23.5q-11 0 -30 1v197z" />
    <glyph glyph-name="C" unicode="C" horiz-adv-x="583" 
d="M405 523q26 -38 71 -38q40 0 64.5 23.5t24.5 58.5q0 24 -13.5 51t-41.5 51.5t-71.5 39.5t-100.5 15q-58 0 -113.5 -22.5t-100.5 -68.5t-72 -116t-27 -161q0 -72 17 -138t54 -119.5t98 -85t145 -31.5q56 0 99 16.5t71 42.5t41.5 53.5t13.5 49.5q0 25 -15 40.5t-37 15.5
q-11 0 -18 -3.5t-25 -18.5l-1 -1q-18 -14 -34 -22t-40 -8t-48.5 12.5t-45.5 38.5q-28 36 -40 92.5t-12 127.5q0 35 4.5 67.5t13.5 58t24 41t35 15.5q17 0 29.5 -10t26.5 -31q3 -4 10 -16q10 -14 14 -20z" />
    <glyph glyph-name="D" unicode="D" horiz-adv-x="625" 
d="M40 54q0 -21 4.5 -31t20.5 -16q24 -8 69 -12.5t88 -4.5q34 0 71 3.5t81.5 16.5t88 41t75.5 72q29 41 46 99t17 128q0 104 -28 171.5t-67 105.5q-31 31 -69 49.5t-75 27t-66 10.5t-55 2q-49 0 -104.5 -7t-75.5 -15q-10 -4 -15.5 -12t-5.5 -25v-603zM250 587h8q3 1 7 1
q67 0 92 -58.5t25 -187.5q0 -120 -28.5 -166.5t-103.5 -46.5v458z" />
    <glyph glyph-name="E" unicode="E" 
d="M397 292q17 0 24 5t7 22v85q0 16 -8 21t-25 5h-145v135h178q16 0 23 5t7 22v89q0 16 -7 20.5t-23 4.5h-355q-18 0 -25 -7t-8 -24v-645q0 -17 7 -23.5t25 -6.5h357q17 0 23 5.5t6 21.5v90q0 17 -7 22.5t-22 5.5h-179v147h147z" />
    <glyph glyph-name="F" unicode="F" horiz-adv-x="437" 
d="M381 293q14 0 20 5.5t6 20.5v89q0 14 -5.5 18.5t-22.5 4.5h-128v136h166q14 0 19 6.5t5 19.5v90q0 15 -7.5 19.5t-22.5 4.5h-346q-13 0 -18.5 -5t-6.5 -19v-653q1 -18 6 -24t23 -6h155q15 0 21 5.5t6 21.5v266h130z" />
    <glyph glyph-name="G" unicode="G" horiz-adv-x="625" 
d="M397 190q-1 -30 -8.5 -46.5t-32.5 -16.5q-17 0 -34.5 9.5t-34.5 36t-27.5 75.5t-10.5 123q0 68 11 122.5t27 77.5q21 30 59 30q25 0 39.5 -14.5t37.5 -56.5q13 -20 30 -32.5t48 -12.5q39 0 63.5 23.5t24.5 58.5q0 19 -11 45.5t-37.5 52t-73 43t-113.5 17.5
q-82 0 -144.5 -30t-103.5 -82.5t-61 -121t-20 -145.5q0 -49 8.5 -99.5t29.5 -98t58 -85.5t91 -59q55 -22 137 -22q64 0 120 17.5t95 56.5q16 17 20.5 30.5t4.5 33.5v256q0 16 -5 23t-22 7h-219q-17 0 -22.5 -5t-6.5 -20v-76q1 -16 7 -21.5t23 -5.5h53v-88z" />
    <glyph glyph-name="H" unicode="H" horiz-adv-x="625" 
d="M373 27q0 -16 4.5 -21.5t21.5 -5.5h159q15 0 21 5.5t6 21.5v653q0 16 -6 21t-22 5h-159q-15 0 -20 -6.5t-5 -20.5v-250h-122v250q0 17 -7.5 22t-21.5 5h-156q-26 -1 -26 -27v-652q0 -17 7 -22t23 -5h154q15 0 21 6t6 21v265h122v-265z" />
    <glyph glyph-name="I" unicode="I" horiz-adv-x="292" 
d="M253 680q0 14 -5 20t-21 6h-161q-15 0 -21 -5t-6 -21v-651q0 -17 7 -23t21 -6h158q12 0 20 5t8 23v652z" />
    <glyph glyph-name="J" unicode="J" horiz-adv-x="292" 
d="M252 679q0 17 -7 22t-23 5h-155q-17 0 -23 -7t-6 -20v-615q-1 -59 -8.5 -95t-22.5 -55.5t-35 -30t-58 -24.5q-18 -6 -24 -18.5t-6 -22.5q0 -17 9 -28t24 -17t30.5 -8t30.5 -2q72 0 118 25.5t76 59.5q28 31 44.5 64.5t24 65.5t9.5 58.5t2 58.5v584z" />
    <glyph glyph-name="K" unicode="K" horiz-adv-x="583" 
d="M566 667l1 2q6 9 7.5 12.5t1.5 7.5q0 10 -6 13.5t-17 3.5h-127q-15 0 -20.5 -3.5t-15.5 -18.5l-1 -2l-145 -248v248q0 24 -26 24h-152q-26 0 -26 -27v-655q0 -16 7 -20t19 -4h151q16 0 21.5 8t5.5 23v266l123 -271q8 -17 15 -21.5t25 -4.5h168q12 0 20 4.5t8 15.5
q0 7 -10 24l-195 365z" />
    <glyph glyph-name="L" unicode="L" horiz-adv-x="437" 
d="M250 683q-1 15 -7 19t-20 4h-157q-12 0 -18.5 -4t-7.5 -20v-656q1 -16 6.5 -21t20.5 -5h336q13 0 19.5 4.5t6.5 19.5v99q0 15 -6.5 18.5t-19.5 3.5h-153v538z" />
    <glyph glyph-name="M" unicode="M" horiz-adv-x="771" 
d="M540 31q0 -18 6 -24.5t23 -6.5h130q18 1 25 5.5t7 22.5v652q0 17 -6.5 21.5t-22.5 4.5h-151q-16 0 -22 -4.5t-12 -19.5l-131 -332l-127 329q-7 19 -13.5 23t-26.5 4h-151q-12 0 -20 -4.5t-8 -21.5v-650q1 -17 6.5 -23.5t21.5 -6.5h95q17 0 23 7t7 23v355l131 -356
q8 -21 15.5 -26.5t25.5 -5.5t24 5t16 29l135 354v-354z" />
    <glyph glyph-name="N" unicode="N" horiz-adv-x="604" 
d="M228 679q-9 16 -18 21.5t-28 5.5h-115q-16 0 -21 -7t-5 -20v-654q0 -15 7 -20t22 -5h104q14 0 18.5 6.5t4.5 22.5v352l211 -354q11 -17 18.5 -22t27.5 -5h85q15 0 20 6t5 21v654q0 16 -7 20.5t-22 4.5h-103q-26 0 -26 -22v-303z" />
    <glyph glyph-name="O" unicode="O" horiz-adv-x="646" 
d="M621 368q-7 170 -88 263.5t-206 93.5q-65 0 -120 -24.5t-96 -72t-63.5 -116.5t-22.5 -156q0 -84 20.5 -153.5t59.5 -119t94 -75.5t122 -26q59 0 112.5 21.5t96 65.5t67.5 113t25 161q0 4 -1 12v13zM406 368q0 -56 -3 -94.5t-12 -71.5q-2 -8 -6 -19t-11.5 -23t-19.5 -20
t-28 -8q-24 0 -40.5 17.5t-26.5 49.5t-14 74t-4 92q0 69 7 114t19 68t25.5 31t30.5 8q27 0 40.5 -15.5t21.5 -37.5v-1q12 -36 16 -75t5 -89z" />
    <glyph glyph-name="P" unicode="P" horiz-adv-x="562" 
d="M40 29q0 -16 5.5 -22.5t21.5 -6.5h155q16 0 22.5 5t6.5 21v233q8 0 14 -1q29 -1 44 -1q52 0 97.5 13t81 40.5t55.5 71.5t20 105q0 72 -27 118t-72.5 69.5t-98.5 32t-117 8.5q-18 0 -47 -1t-61 -3.5t-57.5 -7t-32.5 -11.5q-7 -6 -8.5 -14.5t-1.5 -20.5v-628zM251 592
q1 0 7 1h9q28 0 45.5 -12t26 -30t10.5 -34.5t2 -33.5q0 -14 -1.5 -29.5t-9 -33t-24.5 -29.5t-44 -12q-5 0 -11 1h-10v212z" />
    <glyph glyph-name="Q" unicode="Q" horiz-adv-x="646" 
d="M443 0q35 22 61.5 44.5t53.5 61t44.5 99t17.5 143.5q0 75 -17.5 146t-63.5 128q-39 49 -93.5 76t-120.5 27q-64 0 -120 -26t-96 -72q-44 -52 -64.5 -124.5t-20.5 -158.5q0 -60 12 -117t39 -106t72 -85t108 -52q8 -21 17.5 -39.5t29.5 -40.5q27 -30 66 -57t81.5 -47
t82 -30.5t68.5 -10.5q28 0 42 14t14 33q0 21 -12 31t-40 20v0q-61 21 -102.5 57.5t-58.5 85.5zM404 359q0 -47 -3 -89t-11 -78.5t-25 -59.5t-43 -23q-40 0 -60.5 55t-20.5 185q0 12 0.5 34t3 50.5t7 57t12.5 47.5v1q9 19 21.5 33.5t37.5 14.5t38 -15t20 -34q11 -28 17 -70.5
t6 -108.5z" />
    <glyph glyph-name="R" unicode="R" horiz-adv-x="583" 
d="M40 27q0 -15 5.5 -21t22.5 -6h148q16 0 23 5.5t7 22.5v223v1q1 10 2 12.5t4 2.5q5 0 9 -10l106 -230q7 -17 15 -22t28 -5h160q11 0 18 4.5t7 14.5q0 8 -9 23l-152 273v0q18 10 35 22.5t36 34.5t32 54.5t13 74.5q0 22 -3.5 44t-13.5 44q-20 44 -56.5 71t-78 38.5t-79 14.5
t-81.5 3q-50 0 -103.5 -4.5t-73.5 -10.5q-13 -4 -16.5 -11t-4.5 -25v-2v-636zM246 594q55 0 76.5 -28t21.5 -98q0 -17 -2 -33t-11 -33.5t-30 -29.5t-55 -12v234z" />
    <glyph glyph-name="S" unicode="S" horiz-adv-x="542" 
d="M217 271q3 -2 38 -23l18 -11q28 -20 38 -38.5t10 -39.5t-12 -33.5t-29 -12.5q-22 0 -37.5 15.5t-26.5 40.5l-1 1q-20 41 -42.5 64.5t-62.5 23.5q-31 0 -59 -22t-28 -65q0 -31 14 -64t44 -61.5t77 -46t110 -17.5q42 0 84.5 9.5t80.5 33.5t62.5 68t24.5 109q0 50 -15 87.5
t-40 64.5t-53.5 46t-72.5 44h-1q-41 24 -61.5 36.5t-33 24t-17.5 23t-5 28.5q0 22 10.5 36t28.5 14q21 0 35.5 -15t30.5 -41v-1q18 -33 35 -48.5t51 -15.5q38 0 62.5 23t24.5 59q0 19 -11.5 45.5t-37.5 52t-72.5 42.5t-112.5 17q-49 0 -91 -12.5t-74.5 -39t-50.5 -67
t-18 -94.5q0 -67 34 -117.5t96 -88.5z" />
    <glyph glyph-name="T" unicode="T" 
d="M454 566q16 0 20.5 8t4.5 20v88q0 15 -6.5 20t-21.5 5h-421q-14 0 -21.5 -5.5t-7.5 -21.5v-85q0 -17 5.5 -23t23.5 -6h104v-533q0 -20 6 -26.5t25 -6.5h154q27 0 27 31v535h108z" />
    <glyph glyph-name="U" unicode="U" horiz-adv-x="562" 
d="M536 681q0 16 -6 20.5t-24 4.5h-113q-14 0 -19.5 -5.5t-5.5 -21.5v-442q0 -46 -10 -68.5t-48 -22.5q-46 0 -57.5 20t-11.5 67v446q0 16 -5.5 21.5t-22.5 5.5h-161q-25 0 -25 -25v-472q0 -50 6.5 -80t19.5 -50q24 -41 82.5 -69t145.5 -28q96 0 156 33.5t81 82.5
q11 23 14 50.5t4 69.5v0v463z" />
    <glyph glyph-name="V" unicode="V" horiz-adv-x="562" 
d="M224 678q-4 18 -11 23t-25 5h-164q-11 0 -17.5 -3t-6.5 -12q0 -4 4 -19l202 -649q5 -15 11 -19t22 -4h83q17 0 23 5.5t12 24.5l201 636l2 8q3 10 3 13q0 10 -7 14.5t-20 4.5h-106q-16 0 -22 -4.5t-11 -19.5l-95 -337z" />
    <glyph glyph-name="W" unicode="W" horiz-adv-x="792" 
d="M477 25q6 -16 13.5 -20.5t24.5 -4.5h81q14 0 20.5 5.5t10.5 22.5l162 645q3 9 3 16q0 11 -7 14t-18 3h-114q-15 0 -20 -6t-10 -24l-63 -319l-86 324q-5 16 -10 20.5t-18 4.5h-52q-12 0 -16.5 -4t-8.5 -18l-94 -327l-63 323q-3 18 -9.5 22t-25.5 4h-151q-10 0 -18 -3
t-8 -15q0 -7 3 -15l170 -648q4 -15 11.5 -20t25.5 -5h76q17 0 23.5 5t10.5 21l76 288z" />
    <glyph glyph-name="X" unicode="X" horiz-adv-x="542" 
d="M312 27q8 -16 16.5 -21.5t26.5 -5.5h160q12 0 19.5 4.5t7.5 13.5q0 7 -6 19l-165 350l144 278q1 1 2 4q5 12 5 18q0 12 -7.5 15.5t-19.5 3.5h-100q-20 0 -27.5 -5t-16.5 -23l-61 -126l-58 126q-8 16 -16.5 22t-27.5 6h-141q-13 0 -21.5 -3.5t-8.5 -15.5q0 -7 4 -17
l149 -327l-158 -297q-9 -16 -10.5 -20t-1.5 -8q0 -12 7.5 -15t19.5 -3h121q16 0 23 4.5t14 18.5l67 145z" />
    <glyph glyph-name="Y" unicode="Y" horiz-adv-x="542" 
d="M534 670l2 5q4 10 4 15q0 10 -6.5 13t-18.5 3h-112q-16 0 -22.5 -5.5t-13.5 -22.5l-70 -181l-60 183q-6 17 -13.5 21.5t-23.5 4.5h-173q-25 0 -25 -18q0 -6 6 -20l153 -356v-286q0 -16 6.5 -21t21.5 -5h164q12 0 18 4t6 18v283z" />
    <glyph glyph-name="Z" unicode="Z" horiz-adv-x="500" 
d="M478 668l1 3q5 14 5 18q0 11 -7.5 14t-22.5 3h-392q-11 0 -18 -4t-7 -19v-95q0 -13 4 -17.5t17 -4.5h156l-200 -533q-5 -12 -5 -17q0 -10 8 -13t18 -3h419q13 0 18.5 4t5.5 17v103q0 12 -6 16t-19 4h-168z" />
    <glyph glyph-name="bracketleft" unicode="[" horiz-adv-x="292" 
d="M192 766h76q17 0 20 8.5t3 55.5q0 11 -6.5 14t-16.5 3h-206q-13 0 -17 -4t-5 -16v-946q0 -13 5.5 -17t16.5 -4h206q9 0 16 3.5t7 15.5q0 48 -1 50q-1 8 -7 10t-14 2h-77v825z" />
    <glyph glyph-name="backslash" unicode="\" horiz-adv-x="500" 
d="M473 -127q7 3 12 7t5 10q0 7 -5 17l-360 936q-8 21 -20 21q-5 0 -15 -4l-63 -24v0q-8 -3 -12.5 -7t-4.5 -11q0 -6 3 -12l359 -944q7 -19 18 -19q4 0 13 3z" />
    <glyph glyph-name="bracketright" unicode="]" horiz-adv-x="292" 
d="M99 -59h-76q-17 0 -20 -8.5t-3 -55.5q0 -11 6.5 -14t16.5 -3h206q12 0 16.5 4t5.5 16v946q0 13 -5.5 17t-16.5 4h-206q-9 0 -16 -3.5t-7 -15.5q0 -48 1 -50q1 -8 7 -10t14 -2h77v-825z" />
    <glyph glyph-name="asciicircum" unicode="^" horiz-adv-x="729" 
d="M421 706h-104l-203 -395h137l116 231l110 -231h138z" />
    <glyph glyph-name="underscore" unicode="_" horiz-adv-x="500" 
d="M510 -75h-520v-50h520v50z" />
    <glyph glyph-name="grave" unicode="`" horiz-adv-x="271" 
d="M138 715v0q-10 11 -19.5 17.5t-24.5 6.5q-20 0 -32.5 -14t-12.5 -33q0 -14 5.5 -23t16.5 -20l74 -68q10 -10 20 -16t24 -6q17 0 24.5 10.5t7.5 22.5q0 10 -4.5 19t-16.5 24z" />
    <glyph glyph-name="a" unicode="a" 
d="M445 387q0 27 -4 47.5t-17 41.5q-22 33 -59 45t-91 12q-50 0 -88.5 -5t-72.5 -19q-38 -17 -60.5 -43.5t-22.5 -57.5q0 -30 21.5 -53t61.5 -23q37 0 51.5 15.5t27.5 47.5v1q6 17 14.5 27t26.5 10q22 0 27.5 -16t5.5 -41v-54q-48 -7 -87 -16t-79 -28.5t-65.5 -54.5
t-25.5 -87q0 -47 22 -78t57 -46.5t73 -21t79 -5.5q48 0 83.5 7t58 17t33.5 19t16 15q9 12 11.5 27t2.5 37v280zM266 143q0 -27 -5.5 -43.5t-28.5 -16.5q-19 0 -29.5 17.5t-10.5 44.5q0 14 4 33.5t14 33.5q9 13 20.5 19t35.5 12v-100z" />
    <glyph glyph-name="b" unicode="b" horiz-adv-x="521" 
d="M225 741q0 15 -6.5 19.5t-20.5 4.5h-138q-16 0 -21 -5.5t-5 -21.5v-610v-1q1 -47 14.5 -73.5t67.5 -47.5q56 -21 126 -21q24 0 48.5 3t57 15.5t64 41.5t52.5 76q18 38 26.5 85t8.5 94q0 48 -9 89.5t-28 74t-49 51t-71 18.5q-40 0 -66.5 -14t-50.5 -36v0v258zM225 402
q10 4 19 4q13 0 23 -4.5t19 -19t14.5 -44.5t5.5 -77q0 -22 -1.5 -48.5t-7 -52.5t-16.5 -43.5t-28 -17.5q-18 0 -22.5 13.5t-5.5 46.5v3v240z" />
    <glyph glyph-name="c" unicode="c" horiz-adv-x="437" 
d="M275 359q9 -27 28 -37.5t39 -10.5q34 0 55.5 25.5t21.5 62.5q0 21 -8.5 44.5t-27.5 44t-50.5 33.5t-75.5 13q-50 0 -87.5 -14t-64.5 -39q-26 -24 -43 -56.5t-25.5 -64.5t-11.5 -58.5t-3 -45.5q0 -43 10 -89t33.5 -87.5t64.5 -68t100 -26.5q50 0 87 17.5t59.5 46t33 61.5
t10.5 64q0 24 -10 40t-30 16q-12 0 -19.5 -6.5t-18.5 -20.5l-1 -2q-11 -18 -25 -29.5t-39 -11.5q-23 0 -41.5 15.5t-31 40.5t-18.5 52.5t-6 50.5q0 40 13.5 67.5t35.5 27.5q17 0 26 -12.5t20 -42.5z" />
    <glyph glyph-name="d" unicode="d" horiz-adv-x="521" 
d="M482 742q0 14 -7 18.5t-21 4.5h-135q-13 0 -21 -5t-8 -21v-218q-16 7 -29.5 10.5t-33.5 3.5q-45 0 -83 -21.5t-65.5 -61.5t-42 -92.5t-14.5 -112.5q0 -57 13.5 -104t42.5 -82.5t77 -55.5t114 -20q57 0 106.5 13t70.5 26q23 14 29 31t7 50v2v635zM290 153q0 -26 -4 -37.5
t-18 -11.5t-24.5 17.5t-16 44t-8 54.5t-2.5 51t2 49.5t8 53t18 45t30 18.5q8 0 15 -3v-281z" />
    <glyph glyph-name="e" unicode="e" 
d="M408 269h1q21 4 34.5 14.5t13.5 43.5q0 24 -9.5 58.5t-32.5 68.5t-62.5 57t-95.5 23q-42 0 -83.5 -15t-76 -47.5t-55 -84.5t-20.5 -122q0 -49 9 -87.5t22 -66t25 -43.5t22 -26q34 -33 79 -45.5t87 -12.5q56 0 94 21t59 50.5t29.5 57.5t8.5 44q0 21 -10 33.5t-26 12.5
q-11 0 -18.5 -4.5t-24.5 -21.5l-3 -2q-14 -11 -30 -17.5t-42 -6.5q-15 0 -32.5 3.5t-35 12.5t-31.5 26t-20 41zM170 326q0 43 12.5 69.5t42.5 26.5q15 0 24.5 -8t14.5 -20.5t7 -24.5t3 -27z" />
    <glyph glyph-name="f" unicode="f" horiz-adv-x="313" 
d="M305 442q18 0 20 12v48q0 10 -5 13t-16 3h-60q-30 37 -40 56t-10 33q0 17 10 28.5t27 11.5q9 0 28 -6q18 -6 26 -6q22 0 42.5 17t20.5 49t-22.5 54.5t-70.5 22.5q-49 0 -91 -24.5t-67 -63.5t-33.5 -80.5t-10.5 -90.5v-1h-47q-16 0 -19 -8t-3 -51q1 -10 5 -13.5t16 -3.5
h48v-415q0 -16 6 -21.5t22 -5.5h142q13 0 17 7.5t4 22.5v412h61z" />
    <glyph glyph-name="g" unicode="g" horiz-adv-x="521" 
d="M513 440q17 7 17 16q0 2 -2 11.5t-6 24.5l-3 13q0 1 -1 2q-2 4 -5 7t-9 3q-2 0 -16 -3t-22 -5q-8 -1 -20 -4q-16 -4 -32 -4q-13 0 -22.5 2.5t-30.5 9.5q-21 8 -48 14t-64 6q-56 0 -94 -14t-62 -34q-24 -21 -41 -53.5t-17 -79.5q0 -13 2 -31t11 -42.5t29.5 -48t53.5 -37.5
q-50 -34 -72.5 -70t-22.5 -68q0 -37 16.5 -56t38.5 -30q-40 -20 -56.5 -46t-16.5 -52q0 -35 19 -59t50 -37t67 -18t72 -5q88 0 150.5 23t98.5 59t51.5 73.5t15.5 67.5q0 47 -22.5 76t-55.5 43t-63 18.5t-66 6.5h-1l-49 2q-57 2 -73.5 6.5t-16.5 23.5q0 9 6 23q2 0 9 -1
q25 -2 42 -2q38 0 74.5 10.5t66.5 32t47.5 55t17.5 76.5q0 21 -3 35.5t-8 33.5l-1 2zM173 -54q3 0 46 -2q22 -1 50 -3h1q62 -3 80 -8t18 -24q0 -18 -23 -32t-73 -14q-60 0 -86 18q-9 6 -16.5 15t-7.5 21q0 15 11 29zM287 370q4 -17 4 -34q0 -31 -12.5 -41t-24.5 -10
q-14 0 -24 11.5t-15.5 28t-8.5 32.5t-3 25q0 22 10 37t25 15q20 0 31.5 -20.5t17.5 -41.5v-2z" />
    <glyph glyph-name="h" unicode="h" horiz-adv-x="542" 
d="M305 23q0 -15 6 -19t22 -4h143q15 0 21 4.5t6 20.5v360v1q-1 33 -8 59.5t-30 50.5q-22 22 -48 29.5t-50 7.5q-44 0 -74 -12t-58 -31v253q0 15 -5.5 18.5t-20.5 3.5h-146q-24 0 -24 -21v-716q0 -28 23 -28h149q14 0 18.5 5t5.5 20v368q12 8 25 8q30 0 39 -23q4 -9 5 -19
t1 -24v-312z" />
    <glyph glyph-name="i" unicode="i" horiz-adv-x="271" 
d="M235 494q0 14 -5 19t-19 5h-150q-16 0 -20.5 -6.5t-4.5 -19.5v-464q0 -15 3.5 -21.5t17.5 -6.5h153q12 0 18.5 5t6.5 20v469zM227 634q0 33 -22 56.5t-67 23.5q-51 0 -73.5 -24.5t-22.5 -56.5q0 -38 28.5 -57.5t68.5 -19.5q35 0 61.5 19t26.5 59z" />
    <glyph glyph-name="j" unicode="j" horiz-adv-x="271" 
d="M235 493q0 15 -5.5 20t-21.5 5h-145q-16 0 -22 -4.5t-6 -19.5v-430v-1q0 -53 -0.5 -79t-1.5 -40t-2.5 -21.5t-5.5 -16.5q-8 -20 -22.5 -32.5t-36.5 -25.5h-1q-9 -6 -16.5 -15t-7.5 -25q0 -17 7.5 -26.5t19 -14t21.5 -5.5t21 -1q50 0 100.5 25.5t82.5 82.5q15 26 24 56
t12.5 58t4.5 48t1 42v420zM227 634q0 33 -22 56.5t-67 23.5q-51 0 -73.5 -24.5t-22.5 -56.5q0 -38 28 -57.5t68 -19.5q36 0 62.5 19t26.5 59z" />
    <glyph glyph-name="k" unicode="k" horiz-adv-x="542" 
d="M516 478q12 14 12 23q0 11 -7 14t-19 3h-101q-19 0 -27 -4.5t-20 -19.5l-122 -166v415q0 14 -6.5 18t-22.5 4h-138q-27 0 -27 -23l5 -715q0 -27 24 -27h140q13 0 19 4t6 17v206l100 -207q7 -13 12.5 -16.5t19.5 -3.5h166q11 0 19 3t8 15q0 6 -6 17q-1 3 -2 4l-162 282z
" />
    <glyph glyph-name="l" unicode="l" horiz-adv-x="271" 
d="M38 26q1 -16 7 -21t21 -5h139q15 0 21 5.5t6 20.5v715q0 14 -6 19t-21 5h-140q-13 0 -20 -4t-7 -19v-716z" />
    <glyph glyph-name="m" unicode="m" horiz-adv-x="833" 
d="M39 25q0 -14 5.5 -19t19.5 -5h141q16 0 22 6t6 22v326q0 23 1.5 33t8.5 19q14 17 35 17q23 0 34 -18q5 -8 6 -16t1 -32v-331q0 -15 6.5 -20.5t22.5 -5.5h139q16 0 20.5 5.5t5.5 20.5v325q0 21 1 30t4 16q3 8 13 15.5t25 7.5q28 0 35.5 -17.5t7.5 -46.5v-331
q0 -13 5.5 -19.5t20.5 -6.5h143q15 0 19.5 5.5t5.5 21.5v337q-2 89 -47.5 129.5t-130.5 40.5q-55 0 -103 -12t-86 -39v0q-29 23 -63.5 37t-101.5 14q-19 0 -48.5 -3.5t-61 -10.5t-58.5 -19t-41 -28q-9 -10 -11 -21t-2 -42v-385z" />
    <glyph glyph-name="n" unicode="n" horiz-adv-x="542" 
d="M503 404q0 12 -1.5 24t-8 26t-20 28.5t-36.5 25.5q-21 11 -49 16t-60 7q-34 2 -52 2q-49 0 -104 -8t-95 -29q-25 -13 -32 -29t-7 -44v-395q0 -15 4.5 -21.5t19.5 -6.5h140q16 0 23 3.5t7 18.5v335q0 37 6.5 56t33.5 19q24 0 30.5 -16.5t6.5 -50.5v-339q0 -26 24 -26h142
q16 0 22 4.5t6 20.5v379z" />
    <glyph glyph-name="o" unicode="o" horiz-adv-x="521" 
d="M499 271q-4 115 -66 188.5t-172 73.5q-61 0 -112.5 -25t-86.5 -80q-19 -32 -30 -72t-11 -102q0 -69 19.5 -121t53 -84.5t75.5 -48t88 -15.5q47 0 90 16t77.5 50t54.5 89t20 130v1zM298 274q0 -82 -7.5 -121t-33.5 -39q-12 0 -19.5 12t-10.5 30.5t-4 39t-1 48.5
q0 24 0.5 53.5t3.5 53.5q3 31 10 50.5t24 19.5q18 0 24.5 -19t10.5 -50v-3q2 -20 2.5 -36t0.5 -39z" />
    <glyph glyph-name="p" unicode="p" horiz-adv-x="521" 
d="M39 -208q0 -15 6.5 -20t21.5 -5h139q15 0 19.5 6.5t4.5 19.5v201l3 -1q14 -5 27 -7.5t32 -2.5q52 0 92 23.5t66 65.5t38.5 95.5t12.5 112.5q0 68 -22 121t-53 81q-35 32 -80.5 42t-94.5 10q-78 0 -133.5 -18.5t-67.5 -33.5q-7 -8 -9 -18.5t-2 -37.5v-634zM230 385
q0 18 3.5 29t15.5 11q20 0 36.5 -43t16.5 -133q0 -31 -3.5 -62t-13.5 -53q-6 -13 -15 -20.5t-25 -7.5q-8 0 -14 3h-1v276z" />
    <glyph glyph-name="q" unicode="q" horiz-adv-x="521" 
d="M292 -209q0 -14 6 -18.5t21 -4.5h137q15 0 20.5 4t5.5 19v589v2q-1 46 -7 66.5t-30 38.5q-32 25 -72.5 35.5t-86.5 10.5q-76 0 -128 -29t-82 -75.5t-42 -99.5t-12 -105q0 -40 8.5 -81.5t27 -77.5t50 -58t74.5 -22q39 0 64.5 15t45.5 35v-244zM292 140q-11 -9 -21 -9
q-17 0 -28 17t-16.5 43.5t-7 52.5t-1.5 48q0 38 5 63.5t13 39.5t16.5 19.5t16.5 5.5q15 0 19 -12.5t4 -44.5v-223z" />
    <glyph glyph-name="r" unicode="r" horiz-adv-x="417" 
d="M234 400q0 21 5.5 30.5t26.5 9.5q16 0 22 -7t12 -26q10 -30 22 -45t41 -15q32 0 50 23t18 56q0 37 -17 59.5t-41.5 32.5t-46 12.5t-42.5 2.5q-38 0 -90 -5.5t-90 -18.5q-45 -15 -55 -29.5t-10 -46.5v-407q0 -15 4.5 -20.5t20.5 -5.5h144q16 0 21 4.5t5 19.5v376z" />
    <glyph glyph-name="s" unicode="s" horiz-adv-x="437" 
d="M252 339q-31 13 -47.5 26.5t-16.5 36.5q0 15 8 25.5t21 10.5q14 0 23 -9.5t20 -29.5q17 -27 33 -41t45 -14q31 0 49 21t18 50q0 21 -9.5 42t-31 38.5t-56.5 27.5t-83 10q-60 0 -100.5 -16t-62 -41t-30 -52t-8.5 -52q0 -33 11 -59t28 -44t34.5 -29t37.5 -20l43 -20h1
q42 -22 56 -34t14 -33q0 -16 -9.5 -25.5t-21.5 -9.5t-21 8.5t-19 22.5q-1 2 -2 3q-2 4 -3 5q-7 12 -10 16.5t-8 11.5q-10 13 -25.5 23t-40.5 10q-35 0 -55 -23t-20 -54q0 -22 11 -45.5t35.5 -44t65.5 -33.5t97 -13t95 15.5t61.5 41t32 55t9.5 59.5q0 35 -11.5 62t-28.5 45
t-33 28t-36 20z" />
    <glyph glyph-name="t" unicode="t" horiz-adv-x="333" 
d="M302 442q10 0 16 2t7 10q1 2 1 46q0 12 -5.5 15t-18.5 3h-59v107q0 15 -4 25.5t-19 10.5q-6 0 -14 -3l-3 -1l-131 -58q-12 -6 -15 -12t-3 -21v-48h-51q-13 0 -13 -13v-44q0 -8 2.5 -13t12.5 -6h49v-290q0 -45 9 -75.5t37 -54.5q24 -21 52 -29t59 -8q53 0 95 20.5t42 46.5
q0 24 -14 30.5t-35 6.5q-36 2 -45.5 24.5t-10.5 65.5v263h59z" />
    <glyph glyph-name="u" unicode="u" horiz-adv-x="521" 
d="M487 494q0 15 -6.5 19.5t-20.5 4.5h-146q-15 0 -18.5 -5.5t-4.5 -19.5v-1v-327q0 -26 -5 -39t-25 -13q-21 0 -26.5 12.5t-5.5 39.5v330q0 14 -7 18.5t-20 4.5h-141q-12 0 -19 -4t-7 -18v-342q0 -38 9 -67.5t33 -52.5t69.5 -36t116.5 -13q74 0 135 19.5t79 53.5
q10 19 10 62v374z" />
    <glyph glyph-name="v" unicode="v" 
d="M206 496q-2 13 -8 17.5t-19 4.5h-157q-9 0 -15.5 -4t-6.5 -13q0 -3 4 -16q1 -2 1 -3l139 -461q5 -14 9.5 -17.5t17.5 -3.5h145q12 0 16.5 4.5t8.5 17.5l134 460q1 5 2 7q3 9 3 12q0 10 -6 13.5t-14 3.5h-109q-14 0 -19.5 -3.5t-9.5 -17.5l-61 -274z" />
    <glyph glyph-name="w" unicode="w" horiz-adv-x="750" 
d="M429 24q5 -14 11.5 -19t23.5 -5h120q12 0 17.5 4.5t10.5 19.5l133 456q5 16 5 22q0 11 -7 13.5t-18 2.5h-102q-14 0 -18.5 -5t-7.5 -20l-62 -261l-82 268q-4 12 -8.5 15t-17.5 3h-58q-12 0 -17 -3.5t-9 -15.5l-82 -267l-57 265q-3 14 -9 17.5t-21 3.5h-151q-9 0 -16 -3
t-7 -13q0 -3 3 -14l1 -4l131 -457q6 -17 11 -22t20 -5h128q15 0 20 4t10 19l53 164z" />
    <glyph glyph-name="x" unicode="x" 
d="M264 24q9 -16 14 -20t22 -4h156q10 0 16.5 3t6.5 13q0 9 -7 19l-139 250l127 199q8 11 8 19q0 10 -7 12.5t-19 2.5h-90q-15 0 -19.5 -3t-15.5 -19l-60 -88l-45 88q-9 15 -14.5 18.5t-21.5 3.5h-144q-9 0 -16 -3t-7 -13q0 -4 2 -8.5t7 -14.5l128 -237l-139 -209
q-7 -9 -7 -17q0 -9 6 -12.5t16 -3.5h107q13 0 18.5 3t14.5 16l60 93z" />
    <glyph glyph-name="y" unicode="y" horiz-adv-x="500" 
d="M498 483l1 5q3 10 3 14q0 11 -6.5 13.5t-17.5 2.5h-105q-16 0 -21 -5t-10 -25l-71 -265l-64 271q-4 17 -8.5 20.5t-20.5 3.5h-155q-10 0 -16.5 -2.5t-6.5 -13.5q0 -5 5 -21l181 -532q-15 -29 -23.5 -38.5t-23.5 -9.5q-8 0 -22 7l-5 2q-19 11 -37 11q-31 0 -53 -21
t-22 -54q0 -37 29.5 -65t85.5 -28q47 0 80.5 16.5t56 43t35.5 54.5t28 69z" />
    <glyph glyph-name="z" unicode="z" horiz-adv-x="417" 
d="M396 478l1 2q3 11 3 18q0 13 -7.5 16.5t-18.5 3.5h-321q-12 0 -16 -5t-4 -15v-61q0 -10 4 -15t14 -5h115l-148 -379q-4 -10 -5 -14t-1 -7q0 -10 6 -13.5t16 -3.5h341q14 0 19 4t5 18v60q0 13 -5 17t-19 4h-123z" />
    <glyph glyph-name="braceleft" unicode="{" horiz-adv-x="354" 
d="M261 640q0 51 2 74t10 38t27 21t54 6q12 0 14 6t2 39q0 20 -6.5 24t-34.5 4q-43 0 -74.5 -3t-59.5 -13.5t-48 -32t-29 -56.5q-3 -15 -4 -29t-2 -74v-4v-81q0 -70 -8 -106t-40 -51q-2 -1 -17 -4q-12 -2 -21 -4.5t-11 -4.5q-5 -7 -5 -20q0 -43 1 -46q3 -9 18 -11
q29 -3 46 -15t25 -32t10 -44.5t2 -63.5v-91v-4q1 -57 2 -73t4 -29q9 -37 30.5 -59t51 -32t60.5 -12t78 -2q21 0 26.5 2.5t5.5 16.5q0 41 -1 45q-2 9 -19 9q-34 0 -52 6.5t-25.5 21.5t-9.5 38t-2 73v58v6q-1 77 -3.5 105t-13.5 51q-18 35 -44 47.5t-51 15.5v6h1q12 2 26 6
t30 13.5t29.5 29t19.5 49.5q3 18 4 37.5t2 76.5v13v59z" />
    <glyph glyph-name="bar" unicode="|" horiz-adv-x="229" 
d="M178 750h-127v-1000h127v1000z" />
    <glyph glyph-name="braceright" unicode="}" horiz-adv-x="354" 
d="M93 581v-13q1 -52 2 -74.5t4 -39.5q6 -29 19.5 -49t29.5 -29.5t29 -13.5t28 -6v0v-6q-25 -3 -51 -15.5t-44 -47.5q-11 -23 -13.5 -50t-3.5 -106v-6v-58q0 -50 -2 -73t-9.5 -38t-25 -21.5t-52.5 -6.5q-17 0 -19 -9q-1 -4 -1 -45q0 -14 5.5 -16.5t26.5 -2.5q47 0 78 2
t60.5 11.5t51 31.5t30.5 60q4 14 4.5 28t1.5 74v4v91q0 39 2 63.5t10 44.5t25 32t46 15q15 2 18 11q1 3 1 46q0 13 -5 20q-2 2 -8.5 3.5t-23.5 5.5q-15 3 -17 4q-32 15 -40 51t-8 106v81v4q-1 57 -2 73t-4 30q-9 35 -29 56.5t-48 32t-59.5 13.5t-74.5 3q-28 0 -34.5 -4
t-6.5 -24q0 -33 2 -39t14 -6q36 0 54.5 -6t26.5 -21t10 -38t2 -74v-59z" />
    <glyph glyph-name="asciitilde" unicode="~" horiz-adv-x="729" 
d="M574 387q-23 -26 -48 -44t-52 -18q-15 0 -32 6t-42 16l-2 1q-6 3 -9 4q-39 18 -54.5 24.5t-27.5 11t-23.5 6t-25.5 1.5q-31 0 -56.5 -10t-44 -24.5t-30 -28.5t-24.5 -32l55 -103q38 43 56 56.5t48 13.5q19 0 39.5 -7.5t60.5 -27.5q36 -17 59.5 -25t48.5 -8q42 0 83.5 24
t72.5 59z" />
    <glyph glyph-name="quotesinglbase" unicode="&#x201a;" horiz-adv-x="250" 
d="M51 -86q-1 -2 -1 -3q-8 -13 -8 -22q0 -14 10 -24t24 -10q17 0 41.5 20.5t48 54.5t38.5 74.5t15 78.5q0 47 -25.5 79.5t-70.5 32.5q-37 0 -61 -22t-24 -53q0 -19 6 -31.5t22 -33.5q12 -15 17.5 -27.5t5.5 -27.5t-8 -32.5t-30 -53.5z" />
    <glyph glyph-name="florin" unicode="&#x192;" horiz-adv-x="396" 
d="M342 385q8 0 13.5 2.5t7.5 9.5q1 2 3 26t2 26q0 8 -4.5 10t-15.5 2h-60l-3 5q-17 24 -27.5 43t-10.5 35q0 19 11.5 33t30.5 14q9 0 25 -6q18 -6 28 -6q25 0 47 19.5t22 54.5q0 29 -20 48.5t-64 19.5q-50 0 -94.5 -24.5t-73.5 -63.5q-30 -39 -42.5 -81t-19.5 -90v-2h-47
q-10 0 -15.5 -3t-7.5 -13q-1 -5 -3 -24.5t-2 -21.5q0 -9 5 -11.5t14 -2.5h48l-27 -268q-4 -33 -10 -97q-7 -60 -14 -81.5t-24 -21.5q-7 0 -13.5 3t-17.5 12q-9 8 -21 14t-27 6q-30 0 -51 -21t-21 -50q0 -22 11.5 -37t29 -23.5t37 -12t36.5 -3.5q64 0 122.5 36.5t94.5 95.5
q22 37 32.5 75t18.5 89l36 285h61z" />
    <glyph glyph-name="quotedblbase" unicode="&#x201e;" 
d="M51 -86q-1 -2 -1 -3q-8 -13 -8 -22q0 -14 10 -24t24 -10q17 0 41.5 20.5t48 54.5t38.5 74.5t15 78.5q0 47 -25.5 79.5t-70.5 32.5q-37 0 -61 -22t-24 -53q0 -19 6 -31.5t22 -33.5q12 -15 17.5 -27.5t5.5 -27.5t-8 -32.5t-30 -53.5zM280 -86q-1 -2 -1 -3q-8 -13 -8 -22
q0 -14 10 -24t24 -10q17 0 41.5 20.5t48 54.5t38.5 74.5t15 78.5q0 47 -25.5 79.5t-70.5 32.5q-37 0 -61 -22t-24 -53q0 -19 6.5 -32t22.5 -33q12 -17 17.5 -28.5t5.5 -26.5t-8 -31.5t-31 -54.5z" />
    <glyph glyph-name="ellipsis" unicode="&#x2026;" horiz-adv-x="1000" 
d="M262 92q0 44 -29 74t-67 30q-36 0 -66 -28t-30 -73q0 -41 27 -71t70 -30q42 0 68 30t27 68zM595 92q0 44 -29 74t-67 30q-36 0 -66 -28t-30 -73q0 -41 27 -71t70 -30q42 0 68 30t27 68zM928 92q0 44 -29 74t-67 30q-36 0 -66 -28t-30 -73q0 -41 27 -71t70 -30q42 0 68 30
t27 68z" />
    <glyph glyph-name="dagger" unicode="&#x2020;" horiz-adv-x="500" 
d="M461 368q18 0 24 5.5t6 20.5v102q0 15 -6.5 18.5t-21.5 3.5l-144 -8l23 170q1 3 1 9q0 11 -5.5 14t-17.5 3h-138q-13 -1 -19 -4.5t-6 -15.5q0 -6 1 -9l25 -167l-146 8q-17 0 -22 -6.5t-6 -21.5v-97q0 -15 5 -20t23 -5l146 9l-31 -346q0 -20 7 -25.5t23 -5.5h148
q11 0 17.5 4t6.5 16q0 5 -2 15l-33 342z" />
    <glyph glyph-name="daggerdbl" unicode="&#x2021;" horiz-adv-x="500" 
d="M461 152q17 0 22.5 5.5t5.5 19.5v93q0 13 -4.5 17.5t-20.5 4.5l-151 -10v168l147 -10q17 0 23 5t6 19v95q0 13 -5 17.5t-18 4.5l-153 -10l28 107q2 8 2 12q0 11 -6.5 13.5t-17.5 2.5h-137q-9 0 -15.5 -2.5t-6.5 -12.5q0 -2 1 -5v-3l24 -112l-144 9q-17 0 -23.5 -4.5
t-6.5 -18.5v-88q0 -16 5 -22.5t24 -6.5l145 10v-168l-145 10h-4q-3 1 -4 1q-21 0 -21 -25v-90q0 -15 5.5 -20.5t22.5 -5.5l146 10l-24 -136v-4q-1 -4 -1 -5q0 -11 6 -14t18 -3h135q10 0 16 3t6 13q0 7 -1 11l-27 135z" />
    <glyph glyph-name="circumflex" unicode="&#x2c6;" horiz-adv-x="271" 
d="M223 573q14 -9 26 -9q13 0 23 9.5t10 24.5q0 11 -6.5 19.5t-29.5 25.5q-1 1 -17 14q-12 10 -22.5 18.5t-12.5 10.5l-11 9q-12 10 -19 15.5t-9 6.5q-9 7 -23 7q-13 0 -21.5 -5.5t-22.5 -19.5q-3 -4 -11 -12q-29 -31 -56 -51l-5 -4q-17 -15 -22 -21.5t-5 -17.5t9 -20.5
t23 -9.5q10 0 19.5 5t47.5 28q26 14 46 14q18 0 47 -13h1z" />
    <glyph glyph-name="perthousand" unicode="&#x2030;" horiz-adv-x="1125" 
d="M313 481q0 23 -1 44t-6 49t-16.5 55.5t-29.5 47.5l-1 1q-15 16 -36.5 28t-55.5 12q-27 0 -52.5 -11.5t-47.5 -38.5q-28 -36 -37.5 -82t-9.5 -92q0 -76 15 -129q17 -55 52.5 -83.5t80.5 -28.5q23 0 47 9t46.5 33.5t37 70.5t14.5 115zM196 501q0 -54 -1.5 -87t-5 -49
t-8.5 -21.5t-13 -5.5q-12 0 -17.5 10t-6.5 20q-4 20 -5.5 56.5t-1.5 77.5t1.5 75t7.5 51v1q3 7 7.5 12t12.5 5t13 -4.5t8.5 -20t5.5 -43.5t3 -77zM772 217q0 22 -1 43t-6 49t-16.5 55.5t-29.5 47.5l-1 1q-15 16 -36.5 28t-55.5 12q-28 0 -53.5 -11.5t-47.5 -38.5
q-28 -35 -37.5 -81t-9.5 -93q0 -77 15 -128q17 -56 52.5 -84t81.5 -28q23 0 47 9t46.5 33t37 70t14.5 116zM655 236q0 -54 -2 -87t-5 -48.5t-8 -21t-13 -5.5q-12 0 -18 10t-7 20q-4 20 -5.5 56.5t-1.5 77.5t1.5 75t7.5 50v1q3 7 7.5 12t12.5 5t13.5 -5t9 -19.5t5.5 -43
t3 -77.5zM610 672q8 16 8 20q0 5 -3 9.5t-14 4.5h-53q-9 -1 -13.5 -6t-11.5 -18l-1 -1l-340 -646q-1 -1 -2 -4q-6 -15 -6 -20q0 -7 5 -9t11 -2h48q13 0 18.5 3.5t12.5 17.5zM1105 217q0 22 -1 43t-6 49t-16.5 55.5t-29.5 47.5l-1 1q-15 16 -36.5 28t-55.5 12
q-27 0 -52.5 -11.5t-47.5 -38.5q-28 -35 -37.5 -81t-9.5 -93q0 -77 15 -128q17 -56 52 -84t81 -28q23 0 47 9t46.5 33t37 70t14.5 116zM988 236q0 -53 -1.5 -86t-5 -49.5t-8.5 -21.5t-13 -5q-12 0 -17.5 10t-6.5 20q-4 20 -5.5 56.5t-1.5 77.5t1.5 75t7.5 50v1q3 7 7.5 12
t12.5 5t13 -4.5t8.5 -20t5.5 -43.5t3 -77z" />
    <glyph glyph-name="Scaron" unicode="&#x160;" horiz-adv-x="542" 
d="M217 271q3 -2 38 -23l18 -11q28 -20 38 -38.5t10 -39.5t-12 -33.5t-29 -12.5q-22 0 -37.5 15.5t-26.5 40.5l-1 1q-20 41 -42.5 64.5t-62.5 23.5q-31 0 -59 -22t-28 -65q0 -31 14 -64t44 -61.5t77 -46t110 -17.5q42 0 84.5 9.5t80.5 33.5t62.5 68t24.5 109q0 50 -15 87.5
t-40 64.5t-53.5 46t-72.5 44h-1q-41 24 -61.5 36.5t-33 24t-17.5 23t-5 28.5q0 22 10.5 36t28.5 14q21 0 35.5 -15t30.5 -41v-1q18 -33 35 -48.5t51 -15.5q38 0 62.5 23t24.5 59q0 19 -11.5 45.5t-37.5 52t-72.5 42.5t-112.5 17q-49 0 -91 -12.5t-74.5 -39t-50.5 -67
t-18 -94.5q0 -67 34 -117.5t96 -88.5zM303 884q-16 -10 -34 -10q-16 0 -36 11l-58 31q-15 10 -24 10q-12 0 -21.5 -12t-9.5 -29q0 -14 6 -21.5t27 -23.5v0l7 -5q25 -21 37.5 -32t33.5 -33q9 -10 17.5 -14.5t24.5 -4.5q14 0 22 5t19 18l7 7q16 19 28 30.5t38 33.5
q23 19 29 27t6 21q0 15 -9 25t-21 10q-8 0 -22 -7l-5 -2z" />
    <glyph glyph-name="guilsinglleft" unicode="&#x2039;" horiz-adv-x="271" 
d="M177 243l-1 1q-7 12 -10.5 21.5t-3.5 21.5q0 13 3.5 22t10.5 20l52 88l1 2q9 16 9 27q0 13 -9 22.5t-23 9.5q-12 0 -19 -5t-22 -23q-33 -37 -65.5 -67t-57.5 -50l-2 -1q-13 -11 -20.5 -20.5t-7.5 -24.5q0 -13 6.5 -22t24.5 -23q27 -22 61.5 -55.5t62.5 -66.5
q19 -22 38 -22q14 0 23 9.5t9 24.5q0 11 -8 24z" />
    <glyph glyph-name="OE" unicode="&#x152;" horiz-adv-x="833" 
d="M784 0q16 0 22.5 5.5t6.5 20.5v92q0 17 -6 22.5t-22 5.5h-182v145h148q15 0 20.5 4.5t5.5 17.5v92q0 15 -6.5 19t-21.5 4h-146v137h185q16 0 20.5 6.5t4.5 21.5v91q0 15 -6 19t-21 4h-351q-18 -1 -21.5 -6.5t-3.5 -32.5q-21 23 -50 40t-80 17q-49 0 -97 -22.5t-84 -70.5
q-33 -44 -52.5 -112.5t-19.5 -167.5q0 -89 19 -159t53 -117t78.5 -70.5t94.5 -23.5q47 0 79.5 16.5t58.5 38.5q0 -24 3.5 -30.5t21.5 -6.5h349zM410 365q0 -50 -2 -89t-10.5 -74t-26 -57t-46.5 -22q-45 0 -65.5 61t-20.5 195q0 48 2 80.5t9 62.5q10 42 30 58.5t41 16.5
q5 0 14.5 -2.5t21 -11t22.5 -26t18 -45.5q13 -52 13 -147z" />
    <glyph glyph-name="quoteleft" unicode="&#x2018;" horiz-adv-x="250" 
d="M199 683q9 14 9 25q0 14 -10 24t-24 10q-17 0 -41 -20.5t-48 -54.5t-39 -74.5t-15 -79.5q0 -47 25.5 -79.5t70.5 -32.5q37 0 61 22t24 54q0 18 -6 30.5t-23 34.5v0q-12 17 -17.5 28.5t-5.5 25.5q0 15 8 32t31 55z" />
    <glyph glyph-name="quoteright" unicode="&#x2019;" horiz-adv-x="250" 
d="M51 460q-1 -2 -1 -3q-8 -13 -8 -22q0 -14 10 -24t24 -10q17 0 41.5 20.5t48 54.5t38.5 74.5t15 78.5q0 48 -25.5 80.5t-70.5 32.5q-37 0 -61 -22t-24 -54q0 -19 6 -31.5t22 -33.5q12 -15 17.5 -27.5t5.5 -27.5q0 -14 -8 -32t-30 -54z" />
    <glyph glyph-name="quotedblleft" unicode="&#x201c;" 
d="M428 683q9 14 9 25q0 14 -10 24t-24 10q-17 0 -41 -20.5t-48 -54.5t-39 -74.5t-15 -79.5q0 -47 25.5 -79.5t70.5 -32.5q37 0 61 22t24 54q0 18 -6 30.5t-23 34.5v0q-12 17 -17.5 28.5t-5.5 25.5q0 15 8 32t31 55zM199 683q9 14 9 25q0 14 -10 24t-24 10q-17 0 -41 -20.5
t-48 -54.5t-39 -74.5t-15 -79.5q0 -47 25.5 -79.5t70.5 -32.5q37 0 61 22t24 54q0 18 -6 30.5t-23 34.5v0q-12 17 -17.5 28.5t-5.5 25.5q0 15 8 32t31 55z" />
    <glyph glyph-name="quotedblright" unicode="&#x201d;" 
d="M51 460q-1 -2 -1 -3q-8 -13 -8 -22q0 -14 10 -24t24 -10q17 0 41.5 20.5t48 54.5t38.5 74.5t15 78.5q0 48 -25.5 80.5t-70.5 32.5q-37 0 -61 -22t-24 -54q0 -19 6 -31.5t22 -33.5q12 -15 17.5 -27.5t5.5 -27.5q0 -14 -8 -32t-30 -54zM280 460q-1 -2 -1 -3q-8 -13 -8 -22
q0 -14 10 -24t24 -10q17 0 41.5 20.5t48 54.5t38.5 74.5t15 78.5q0 48 -25.5 80.5t-70.5 32.5q-37 0 -61 -22t-24 -54q0 -19 6.5 -32t22.5 -33q12 -17 17.5 -28.5t5.5 -26.5q0 -14 -8 -31.5t-31 -54.5z" />
    <glyph glyph-name="bullet" unicode="&#x2022;" horiz-adv-x="333" 
d="M322 352q0 68 -44 112t-109 44q-32 0 -60.5 -12t-50.5 -34t-34 -50.5t-12 -59.5q0 -27 10.5 -54.5t31 -50.5t50 -36.5t65.5 -13.5q38 0 67 13.5t48 36t28.5 50t9.5 55.5z" />
    <glyph glyph-name="endash" unicode="&#x2013;" horiz-adv-x="521" 
d="M491 321q0 23 -25 23h-414q-22 0 -22 -20v-65q0 -14 5 -17.5t19 -3.5h412q13 0 19 4t6 17v62z" />
    <glyph glyph-name="emdash" unicode="&#x2014;" horiz-adv-x="667" 
d="M51 344q-9 0 -14.5 -2.5t-6.5 -11.5q-1 -3 -1 -47q0 -12 4.5 -16t17.5 -4h562q12 0 18 4.5t6 17.5v46q-3 13 -23 13h-563z" />
    <glyph glyph-name="tilde" unicode="&#x2dc;" horiz-adv-x="271" 
d="M129 597l1 -1q16 -7 29.5 -11.5t31.5 -4.5q45 0 72.5 32t27.5 71q0 13 -3 18q-6 15 -23 15q-8 0 -13.5 -4t-15.5 -16l-1 -1q-9 -10 -18.5 -16t-24.5 -6q-11 0 -20 3.5t-31 17.5q-2 1 -3 1q-15 9 -28.5 14t-31.5 5q-38 0 -68 -27t-30 -72q0 -16 7 -27.5t23 -11.5
q7 0 12 3.5t17 16.5l3 3q8 8 16 13.5t18 5.5q7 0 16 -3.5t37 -17.5z" />
    <glyph glyph-name="trademark" unicode="&#x2122;" horiz-adv-x="688" 
d="M674 706h-107l-71 -240l-76 240h-106v-332h81l-5 177l-6 66l14 -51l59 -192h74l57 191l13 53l-5 -67l-4 -177h82v332zM187 639h100v67h-286v-67h102v-265h84v265z" />
    <glyph glyph-name="scaron" unicode="&#x161;" horiz-adv-x="437" 
d="M132 708q-14 9 -27 9t-23 -9t-10 -25q0 -11 6.5 -19t29.5 -26q10 -8 19.5 -15.5t24.5 -20.5l9 -7q2 -1 6 -5t12.5 -11t12.5 -11t5 -4q12 -7 25 -7t21.5 5.5t22.5 19.5l16 17l16 16q3 3 15.5 13.5t22.5 18.5l10 9l1 1q8 7 13 14t5 17q0 11 -8.5 20.5t-22.5 9.5
q-11 0 -21.5 -5t-46.5 -28q-26 -14 -46 -14q-19 0 -47 14zM252 339q-31 13 -47.5 26.5t-16.5 36.5q0 15 8 25.5t21 10.5q14 0 23 -9.5t20 -29.5q17 -27 33 -41t45 -14q31 0 49 21t18 50q0 21 -9.5 42t-31 38.5t-56.5 27.5t-83 10q-60 0 -100.5 -16t-62 -41t-30 -52t-8.5 -52
q0 -33 11 -59t28 -44t34.5 -29t37.5 -20l43 -20h1q42 -22 56 -34t14 -33q0 -16 -9.5 -25.5t-21.5 -9.5t-21 8.5t-19 22.5q-1 2 -2 3q-2 4 -3 5q-7 12 -10 16.5t-8 11.5q-10 13 -25.5 23t-40.5 10q-35 0 -55 -23t-20 -54q0 -22 11 -45.5t35.5 -44t65.5 -33.5t97 -13t95 15.5
t61.5 41t32 55t9.5 59.5q0 35 -11.5 62t-28.5 45t-33 28t-36 20z" />
    <glyph glyph-name="guilsinglright" unicode="&#x203a;" horiz-adv-x="271" 
d="M94 333l2 -3q13 -25 13 -42q0 -19 -14 -41l-52 -88q-10 -18 -10 -29q0 -14 9 -23t23 -9q12 0 18.5 5t21.5 21l1 1q34 38 66 68t57 50h1q13 11 20.5 20.5t7.5 25.5q0 13 -6 21.5t-23 22.5l-1 1q-27 22 -61.5 55.5t-62.5 65.5q-20 23 -38 23q-14 0 -23.5 -9.5t-9.5 -24.5
q0 -9 8 -23l1 -1z" />
    <glyph glyph-name="oe" unicode="&#x153;" horiz-adv-x="771" 
d="M699 275q24 2 37 12t13 44q0 88 -50 145t-141 57q-55 0 -91 -20.5t-61 -53.5l-1 1q-29 35 -60 54.5t-90 19.5q-45 0 -86.5 -14t-74.5 -46.5t-52.5 -86t-19.5 -129.5q0 -87 25.5 -143t63 -84t73.5 -37.5t64 -9.5q34 0 60.5 8.5t45 21t30 25t22.5 26.5v0q9 -13 20 -25
t30 -25t47 -21.5t64 -8.5q48 0 83 19.5t56.5 48t31 57t9.5 47.5q0 21 -10.5 34t-25.5 13q-11 0 -19 -5.5t-27 -22.5q-13 -11 -29 -18t-45 -7q-49 0 -79.5 24t-37.5 75zM468 334q1 21 4.5 37.5t13.5 29.5q19 25 47 25q19 0 31 -8.5t17 -21t6.5 -24t1.5 -25.5zM304 271
q-2 -92 -12.5 -127t-37.5 -35q-26 0 -36.5 31.5t-10.5 107.5q0 98 11 138t40 40q27 0 37 -30.5t10 -87.5l-1 -18v-19z" />
    <glyph glyph-name="Ydieresis" unicode="&#x178;" horiz-adv-x="542" 
d="M534 670l2 5q4 10 4 15q0 10 -6.5 13t-18.5 3h-112q-16 0 -22.5 -5.5t-13.5 -22.5l-70 -181l-60 183q-6 17 -13.5 21.5t-23.5 4.5h-173q-25 0 -25 -18q0 -6 6 -20l153 -356v-286q0 -16 6.5 -21t21.5 -5h164q12 0 18 4t6 18v283zM258 840q-2 32 -27 51.5t-65 19.5
q-43 0 -68.5 -22t-25.5 -58t26.5 -56.5t68.5 -20.5q46 0 68.5 25t22.5 61zM485 840q-3 32 -27.5 51.5t-64.5 19.5q-43 0 -69 -22t-26 -58t27 -56.5t68 -20.5q47 0 69.5 25.5t22.5 60.5z" />
    <glyph glyph-name="exclamdown" unicode="&#xa1;" horiz-adv-x="292" 
d="M14 29v-4q-1 -4 -1 -6q0 -8 5 -13.5t17 -5.5h176q14 1 20 4.5t6 14.5q0 1 -1 4v5l-59 391q-3 13 -7 18t-17 5h-51q-13 0 -18 -4.5t-8 -20.5zM29 614q0 -44 30 -73.5t70 -29.5q38 0 69.5 27.5t31.5 72.5q0 41 -28.5 71t-73.5 30q-44 0 -71.5 -29.5t-27.5 -68.5z" />
    <glyph glyph-name="cent" unicode="&#xa2;" horiz-adv-x="458" 
d="M269 431q16 -3 24.5 -13t18.5 -32q13 -24 26.5 -37.5t37.5 -13.5q26 0 45.5 18.5t19.5 52.5q0 36 -21.5 63.5t-51.5 44.5q-25 15 -48 19t-51 4v64q0 11 -5.5 13t-38.5 2q-17 0 -17 -16v-67q-36 -6 -69 -25.5t-59.5 -54t-42 -84.5t-15.5 -116q0 -111 52.5 -179.5
t133.5 -85.5v-67q1 -12 7 -14.5t34 -2.5q20 0 20 19v62q32 4 61.5 15.5t58.5 46.5q20 24 32.5 55t12.5 56q0 20 -10 32.5t-26 12.5q-12 0 -19.5 -4.5t-26.5 -22.5q-15 -12 -28 -17.5t-38 -5.5l-8 1h-9v277zM208 175q-18 14 -29 34.5t-16 41t-7 37t-2 29.5q0 38 13 71.5
t41 40.5v-254z" />
    <glyph glyph-name="sterling" unicode="&#xa3;" horiz-adv-x="646" 
d="M427 334q17 0 20 8.5t3 54.5q0 12 -6 15t-16 3h-104q-9 45 -12.5 73.5t-3.5 48.5q0 11 1.5 23t6 24t14.5 20t26 8q27 0 41.5 -16.5t32.5 -53.5q14 -27 29 -40.5t42 -13.5q30 0 53.5 19.5t23.5 58.5q0 30 -16.5 59t-46 51.5t-70.5 35.5t-89 13q-40 0 -79 -9t-72 -33
q-37 -28 -56.5 -70t-19.5 -90q0 -23 4.5 -45t14.5 -58l1 -5h-49q-14 0 -17.5 -4t-3.5 -17v-49q2 -8 6 -9.5t18 -1.5h82q1 -2 10 -22q8 -17 9 -19h-1q-48 -2 -82 -12.5t-63 -47.5q-36 -44 -36 -103q0 -26 7.5 -52t24 -48t43.5 -35t64 -13q30 0 53 9t39.5 23.5t27 29.5
t21.5 35q34 -45 78 -71.5t91 -26.5t78 21.5t47 52t22 57t6 38.5q0 23 -11.5 37t-31.5 14q-11 0 -18.5 -4t-17.5 -13h-1q-19 -17 -29 -22t-26 -5q-17 0 -34.5 7.5t-53.5 31.5q-1 0 -11 8l-52 36q1 17 1 54q0 26 -1 40h89zM219 165q-3 -25 -13.5 -43t-34.5 -18
q-19 0 -30.5 12.5t-11.5 28.5q0 17 12.5 28t28.5 11q11 0 24 -5.5t25 -13.5z" />
    <glyph glyph-name="currency" unicode="&#xa4;" horiz-adv-x="667" 
d="M661 571l-96 95l-80 -80l-3 2q-40 22 -69.5 31.5t-78.5 9.5q-48 0 -78.5 -10t-71.5 -32l-2 -1l-80 80l-94 -95l79 -81l-1 -1q-22 -40 -31.5 -69t-9.5 -76q0 -55 11.5 -89t31.5 -66v-1l-81 -81l94 -95l81 82q40 -22 71.5 -33t79.5 -11q46 0 76.5 10t70.5 30l4 2l80 -82
l96 95l-81 82l2 3q22 40 31.5 70.5t9.5 80.5q0 48 -10 78t-31 71l-1 1zM497 340q0 -33 -12 -63.5t-34 -53.5t-51.5 -36t-62.5 -13t-63 12t-53.5 33.5t-37 51.5t-13.5 65q0 43 15 75.5t39 53t52.5 30.5t56.5 10q29 0 58.5 -10.5t53.5 -32t38 -52.5t14 -70z" />
    <glyph glyph-name="yen" unicode="&#xa5;" horiz-adv-x="542" 
d="M381 305l20 46q107 0 110 1q9 1 11 7t2 15q0 50 -1 53q-1 8 -6.5 10t-15.5 2h-62l99 231l2 5q4 10 4 15q0 10 -6 13t-19 3h-112q-16 0 -22.5 -5.5t-13.5 -22.5l-70 -181l-60 183q-6 17 -13.5 21.5t-23.5 4.5h-173q-25 0 -25 -18q0 -6 6 -20l99 -229h-70q-12 0 -16 -5
t-4 -16v-52q1 -15 20 -15h107l17 -39v-40h-124q-12 0 -16 -5t-4 -16v-52q1 -15 20 -15h124v-158q0 -15 6.5 -20.5t21.5 -5.5h164q12 0 18 4t6 18v162h121q13 0 17.5 5.5t4.5 17.5q0 50 -1 53q-1 8 -6.5 10t-15.5 2h-120v33z" />
    <glyph glyph-name="brokenbar" unicode="&#xa6;" horiz-adv-x="229" 
d="M51 -175h127v350h-127v-350zM178 325v350h-127v-350h127z" />
    <glyph glyph-name="section" unicode="&#xa7;" horiz-adv-x="500" 
d="M201 112v0q54 -24 80 -44t26 -53q0 -16 -11.5 -29.5t-30.5 -13.5q-23 0 -36 15t-29 47l-1 1l-1 1q-13 25 -29 39.5t-46 14.5q-22 0 -38 -9t-25 -22.5t-12.5 -27.5t-3.5 -25q0 -27 14.5 -53.5t42 -48t67 -34t87.5 -12.5q100 0 155.5 50t55.5 123q0 55 -23 90.5t-51 60.5
l-1 1q27 16 45 35t27.5 37.5t13 34t3.5 28.5q0 32 -14.5 58t-38.5 45t-49.5 32.5t-64.5 30.5l-1 1q-59 29 -80 45.5t-21 45.5q0 17 10 30t29 13q20 0 31.5 -12.5t27.5 -41.5v-1q11 -21 26.5 -34.5t44.5 -13.5q32 0 52.5 22.5t20.5 56.5q0 22 -10.5 44.5t-33.5 42t-60.5 31
t-88.5 11.5q-41 0 -76.5 -9.5t-63.5 -29.5t-44 -51.5t-16 -73.5q0 -68 49 -119l-1 -1q-18 -12 -31 -23.5t-26 -28.5t-21.5 -40t-8.5 -52q0 -33 13 -59t33.5 -45t40.5 -31t47 -26l1 -1zM306 234q-39 17 -57 25t-26 12q-33 16 -47.5 28.5t-14.5 33.5q0 15 7 27t19 26l1 1
q24 -13 35 -17.5t44 -19.5h1q37 -17 53 -30t16 -35q0 -17 -9 -28.5t-21 -21.5z" />
    <glyph glyph-name="dieresis" unicode="&#xa8;" horiz-adv-x="271" 
d="M117 640q-3 33 -27.5 52t-58.5 19t-61 -21t-27 -56q0 -31 22.5 -53t62.5 -22q48 0 68.5 24.5t20.5 56.5zM329 640q-3 33 -28 52t-58 19q-35 0 -61.5 -21t-26.5 -56q0 -31 22.5 -53t62.5 -22q48 0 68.5 24.5t20.5 56.5z" />
    <glyph glyph-name="copyright" unicode="&#xa9;" horiz-adv-x="833" 
d="M534 271q-28 -24 -49 -35t-56 -11q-61 0 -95.5 35.5t-34.5 94.5q0 57 34.5 93t92.5 36q36 0 61 -14t47 -35v0l87 83q-17 17 -32.5 30t-38.5 26t-54.5 21.5t-70.5 8.5q-58 0 -105 -20t-79.5 -55t-49 -80.5t-16.5 -95.5q0 -47 15 -91.5t46 -80t80 -56t114 -20.5
q37 0 68 8.5t53.5 21.5t37.5 25.5t32 29.5zM773 351q0 71 -26 136t-73.5 115t-113 78.5t-142.5 28.5q-73 0 -138.5 -27t-114.5 -76t-76.5 -114t-27.5 -138q0 -77 28.5 -143t78.5 -114t114.5 -74t134.5 -26q74 0 139 27t113.5 75.5t75.5 113.5t28 138zM741 351
q0 -64 -24.5 -123t-68.5 -104t-103.5 -70t-128.5 -25q-66 0 -125.5 25t-103.5 69.5t-69 104t-25 125.5t25 125t69.5 104t104.5 70t127 25q69 0 129 -26t103 -71.5t66.5 -104.5t23.5 -124z" />
    <glyph glyph-name="ordfeminine" unicode="&#xaa;" horiz-adv-x="313" 
d="M284 625q0 50 -26 70.5t-81 20.5q-38 0 -61 -4.5t-39 -10.5q-25 -11 -38.5 -28t-13.5 -34q0 -19 13.5 -33.5t39.5 -14.5q23 0 32.5 9.5t16.5 30.5q4 11 9 17t16 6q14 0 17 -11.5t3 -58.5q-30 -4 -54.5 -10t-49 -18t-40.5 -34t-16 -55q0 -28 13 -47t34 -29t45.5 -14
t51.5 -4q54 0 81.5 12.5t37.5 23.5q9 12 9 40v176zM172 472q0 -17 -3.5 -27.5t-17.5 -10.5q-12 0 -18 11t-6 27q0 32 11.5 44t33.5 19v0v-63z" />
    <glyph glyph-name="guillemotleft" unicode="&#xab;" horiz-adv-x="500" 
d="M405 243q-15 23 -15 44q0 18 12 41l1 1l52 88q11 17 11 29q0 13 -9.5 22.5t-23.5 9.5q-12 0 -19 -5.5t-21 -22.5q-33 -37 -65.5 -67t-57.5 -50q-14 -10 -22 -20t-8 -26q0 -14 6.5 -22.5t24.5 -22.5q27 -22 61.5 -55.5t62.5 -66.5q18 -22 38 -22q14 0 23 9.5t9 24.5
q0 8 -6 21l-2 3zM179 243q-15 23 -15 44q0 18 12 41l1 1l53 88l1 2q9 16 9 27q0 13 -9.5 22.5t-23.5 9.5q-12 0 -19 -5.5t-21 -22.5q-33 -37 -65.5 -67t-57.5 -50q-14 -10 -22 -20t-8 -26q0 -13 6.5 -22t24.5 -23q27 -22 61.5 -55.5t62.5 -66.5q18 -22 38 -22q14 0 23 9.5
t9 24.5q0 8 -6 21l-2 3z" />
    <glyph glyph-name="logicalnot" unicode="&#xac;" horiz-adv-x="667" 
d="M539 0h127v354h-666v-127h539v-227z" />
    <glyph glyph-name="minus" unicode="&#xad;" horiz-adv-x="500" 
d="M500 354h-500v-127h500v127z" />
    <glyph glyph-name="minus" unicode="&#x2212;" horiz-adv-x="500" 
d="M500 354h-500v-127h500v127z" />
    <glyph glyph-name="registered" unicode="&#xae;" horiz-adv-x="833" 
d="M250 586v-458h110v192q36 0 52.5 -2t25.5 -10.5t13 -24.5t10 -56q5 -36 10 -58t15 -41h126q-15 28 -22 56t-16 84l-1 3q-7 40 -17.5 55.5t-33.5 30.5q15 7 28 14.5t24.5 19t19.5 29.5t8 42q0 36 -20.5 68.5t-60.5 44.5q-21 7 -47 9t-61 2h-163zM360 502q78 0 87 -1
q45 -3 45 -45q0 -11 -5 -22.5t-15 -17.5q-9 -5 -22.5 -7t-41.5 -2h-48v95zM773 352q0 72 -26.5 137t-75 115t-114.5 77.5t-141 27.5q-71 0 -135.5 -26.5t-114 -75t-77.5 -114t-28 -140.5q0 -77 28.5 -143t78.5 -113.5t114 -73.5t133 -26q74 0 139.5 27t114.5 76t76.5 114
t27.5 138zM741 352q0 -66 -25 -125t-69.5 -103.5t-104 -69.5t-126.5 -25q-66 0 -125 25t-103.5 69t-69.5 103.5t-25 126.5q0 66 24.5 125t69.5 104t104.5 70t126.5 25q68 0 127 -25t103 -70.5t68.5 -104.5t24.5 -125z" />
    <glyph glyph-name="macron" unicode="&#xaf;" horiz-adv-x="271" 
d="M1 676q-23 0 -23 -20v-47q0 -14 5.5 -17.5t19.5 -3.5h265q11 0 18 3.5t7 15.5q0 51 -1 54q-2 10 -8.5 12.5t-16.5 2.5h-266z" />
    <glyph glyph-name="degree" unicode="&#xb0;" horiz-adv-x="354" 
d="M177 745q-36 0 -68 -13.5t-55 -38t-36 -56t-13 -65.5q0 -35 13 -66.5t37 -55.5t55.5 -37t66.5 -13t66.5 13.5t55.5 37.5t37 55t13 66q0 34 -13 65.5t-36 56t-55 38t-68 13.5zM178 630q23 0 39 -16t16 -40q0 -23 -16 -39t-39 -16t-39.5 16t-16.5 39q0 24 16.5 40t39.5 16z
" />
    <glyph glyph-name="plusminus" unicode="&#xb1;" horiz-adv-x="500" 
d="M469 127h-437v-127h437v127zM315 340h154v127h-154v155h-127v-155h-156v-127h156v-156h127v156z" />
    <glyph glyph-name="twosuperior" unicode="&#xb2;" horiz-adv-x="333" 
d="M253 480q27 36 40.5 62t13.5 57q0 47 -37 83t-107 36t-109.5 -37t-39.5 -85q0 -18 7.5 -33.5t28.5 -15.5q14 0 21 7.5t13 21.5l1 3q6 16 17 27.5t34 11.5q24 0 37 -16.5t13 -36.5q0 -18 -8 -32t-33 -46l-124 -169l-1 -1q-13 -18 -13 -28q0 -15 9 -19.5t20 -4.5h257
q16 0 16 15v83q0 15 -17 15h-116z" />
    <glyph glyph-name="threesuperior" unicode="&#xb3;" horiz-adv-x="333" 
d="M242 517l1 1q23 15 38 34t15 52q0 12 -3 28t-16 36.5t-42.5 35t-77.5 14.5q-40 0 -67.5 -11.5t-43.5 -28.5t-22.5 -34t-6.5 -29q0 -18 10.5 -29.5t23.5 -11.5q11 0 17.5 5t14.5 17l3 3q8 12 18 20.5t26 8.5q17 0 33 -11t16 -39q0 -25 -16.5 -38.5t-53.5 -29.5l-1 -1
q-11 -6 -16.5 -11.5t-5.5 -15.5q0 -11 7 -17t30 -16q1 0 2 -1v0q29 -13 50 -30.5t21 -47.5q0 -18 -10.5 -26t-24.5 -8q-15 0 -24.5 8.5t-24.5 30.5v0q-10 15 -21 23.5t-29 8.5q-21 0 -36 -15t-15 -40q0 -40 37.5 -69.5t101.5 -29.5q44 0 76 12t51 31.5t28 44.5t9 51
q0 30 -8 52t-19 36.5t-22 22t-23 14.5z" />
    <glyph glyph-name="acute" unicode="&#xb4;" horiz-adv-x="271" 
d="M200 649l2 2q9 10 14 19t5 22q0 19 -12 33t-32 14q-15 0 -24.5 -6.5t-19.5 -17.5v0l-63 -80q-12 -15 -16.5 -24t-4.5 -19q0 -12 8 -22.5t25 -10.5q13 0 23 6t20 16z" />
    <glyph glyph-name="mu" unicode="&#xb5;" horiz-adv-x="521" 
d="M487 494q0 15 -6.5 19.5t-20.5 4.5h-146q-15 0 -18.5 -5.5t-4.5 -19.5v-1v-327q0 -26 -5 -39t-25 -13q-21 0 -26.5 12.5t-5.5 39.5v330q0 14 -7 18.5t-20 4.5h-141q-12 0 -19 -4t-7 -18v-704q0 -14 6 -19t22 -5h136q15 0 19.5 6t4.5 19v193h17q13 -1 23 -1q74 0 135 19.5
t79 53.5q10 19 10 62v374z" />
    <glyph glyph-name="paragraph" unicode="&#xb6;" horiz-adv-x="667" 
d="M308 706q-24 0 -47.5 -2.5t-50.5 -12.5t-53.5 -30.5t-46.5 -54.5q-15 -27 -22 -57.5t-7 -56.5q0 -34 10.5 -69.5t34.5 -65.5q24 -29 50 -42t58 -22l2 -1v-459h84v795h118v-795h84v795h36v78h-250z" />
    <glyph glyph-name="periodcentered" unicode="&#xb7;" horiz-adv-x="250" 
d="M221 281q0 44 -29 73.5t-67 29.5q-35 0 -65.5 -28t-30.5 -72q0 -41 27.5 -71t69.5 -30t68 29.5t27 68.5z" />
    <glyph glyph-name="periodcentered" unicode="&#x2219;" horiz-adv-x="250" 
d="M221 281q0 44 -29 73.5t-67 29.5q-35 0 -65.5 -28t-30.5 -72q0 -41 27.5 -71t69.5 -30t68 29.5t27 68.5z" />
    <glyph glyph-name="cedilla" unicode="&#xb8;" horiz-adv-x="271" 
d="M106 9l-14 -112q0 -13 3 -20t12 -7h10l10 1q14 0 22.5 -8.5t8.5 -19.5q0 -10 -8 -21t-34 -11q-12 0 -25 1.5t-27 4.5l-6 1q-8 2 -11.5 2.5t-6.5 0.5q-11 0 -18 -9t-7 -20q0 -14 14 -24t34.5 -15.5t40.5 -8t33 -2.5q62 0 90 28t28 66q0 16 -6 32.5t-20 29.5
q-15 14 -31.5 18.5t-37.5 5.5l12 87h-66z" />
    <glyph glyph-name="onesuperior" unicode="&#xb9;" horiz-adv-x="333" 
d="M139 281q0 -16 17 -16h91q18 0 18 19v393q0 15 -6 26.5t-26 11.5q-12 0 -20.5 -4.5t-25.5 -18.5v0q-37 -25 -68 -39t-72 -28l-4 -1h-1q-10 -4 -17.5 -9.5t-7.5 -18.5q0 -9 8 -19.5t35 -10.5q17 0 37 3t42 7v-295z" />
    <glyph glyph-name="ordmasculine" unicode="&#xba;" horiz-adv-x="333" 
d="M316 552q-2 72 -40.5 118t-108.5 46q-26 0 -51.5 -8.5t-48 -28t-36.5 -54t-14 -83.5q0 -84 42.5 -126.5t105.5 -42.5q29 0 55.5 10t48 31t34.5 55.5t13 82.5zM190 554q0 -36 -2 -60t-10 -34q-7 -7 -12 -7q-14 0 -19 20t-5 62q0 20 1 45.5t5 41.5q1 8 5.5 16t12.5 8
q15 0 21 -33q2 -13 2.5 -28t0.5 -31z" />
    <glyph glyph-name="guillemotright" unicode="&#xbb;" horiz-adv-x="500" 
d="M95 333l2 -3q13 -25 13 -42t-12 -40l-1 -1l-53 -88q-10 -18 -10 -29q0 -14 9.5 -23t23.5 -9q11 0 18.5 5.5t21.5 21.5q34 38 66 68t57 50l2 1q14 11 21 20.5t7 24.5q0 13 -6 21t-21 21l-4 3q-27 22 -61.5 55.5t-62.5 65.5q-20 23 -38 23q-14 0 -23 -9.5t-9 -24.5
q0 -11 8 -24zM321 333l2 -3q13 -25 13 -42t-12 -40l-1 -1l-53 -88q-10 -18 -10 -29q0 -14 9 -23t23 -9q12 0 18.5 5t21.5 21l1 1q34 38 66 68t57 50l2 1q14 11 21 20.5t7 24.5q0 13 -6 21t-21 21l-4 3q-27 22 -61.5 55.5t-62.5 65.5q-20 23 -38 23q-14 0 -23 -9.5t-9 -24.5
q0 -11 8 -24z" />
    <glyph glyph-name="onequarter" unicode="&#xbc;" horiz-adv-x="792" 
d="M139 281q0 -16 17 -16h91q18 0 18 19v393q0 15 -6 26t-26 11q-12 0 -21 -4.5t-25 -17.5q-37 -25 -68 -39t-72 -28l-4 -1q-11 -4 -18.5 -9.5t-7.5 -18.5q0 -9 8 -19.5t35 -10.5q17 0 37 3t42 7v-295zM732 413q0 14 -6.5 25.5t-29.5 11.5q-16 0 -25 -7t-19 -20v0l-178 -262
q-17 -26 -17 -41q0 -14 8 -24.5t31 -11.5h119v-74q0 -13 16 -14h85q16 1 16 16v72q23 0 27 1t5 7q1 1 1 49q0 8 -5 9.5t-28 1.5v261zM549 152l71 111v-111h-71zM620 672q9 15 9 21q0 4 -3 8.5t-14 4.5h-54q-10 -1 -14.5 -6t-11.5 -18l-340 -647q-1 -1 -2 -4q-6 -15 -6 -20
q0 -7 5 -9t11 -2h48q13 0 18.5 3.5t12.5 17.5z" />
    <glyph glyph-name="onehalf" unicode="&#xbd;" horiz-adv-x="792" 
d="M139 281q0 -15 17 -16h91q18 0 18 20v392q0 15 -6 26.5t-26 11.5q-12 0 -20.5 -4.5t-25.5 -18.5v0q-39 -26 -72.5 -40.5t-71.5 -26.5q-2 -1 -3 -1q-10 -4 -16.5 -10t-6.5 -18q0 -9 8 -19.5t35 -10.5q17 0 37 3t42 7v-295zM711 215q27 36 40.5 62t13.5 57q0 47 -37 83
t-107 36t-109.5 -37t-39.5 -85q0 -18 7.5 -33.5t28.5 -15.5q14 0 21 7.5t13 21.5l1 3q6 16 17 27.5t34 11.5q24 0 37 -16.5t13 -36.5q0 -18 -8 -32t-33 -46l-124 -169l-1 -1q-13 -18 -13 -28q0 -15 9 -19.5t20 -4.5h257q16 0 16 15v83q0 15 -17 15h-116zM599 672
q5 10 6.5 13.5t1.5 7.5t-3 8.5t-14 4.5h-53q-10 -1 -14.5 -6t-11.5 -18l-339 -647q-9 -17 -9 -24t5 -9t11 -2h48q13 0 18.5 4t12.5 18z" />
    <glyph glyph-name="threequarters" unicode="&#xbe;" horiz-adv-x="792" 
d="M242 518l1 1q23 15 38 34t15 53q0 11 -3 27.5t-16 36.5t-42.5 34.5t-77.5 14.5q-40 0 -67.5 -11.5t-43.5 -28.5t-22.5 -34t-6.5 -29q0 -18 10 -29t24 -11q11 0 17.5 5t16.5 17q1 1 1 2q8 12 18 20.5t26 8.5q17 0 33 -11t16 -39q0 -25 -16.5 -38.5t-53.5 -29.5
q-11 -6 -17 -12t-6 -16q0 -11 7 -17t30 -16q1 0 2 -1v0q29 -13 50 -30.5t21 -47.5q0 -18 -10.5 -26t-24.5 -8q-15 0 -24.5 8.5t-24.5 30.5v0q-10 15 -21 23.5t-29 8.5q-21 0 -36 -15t-15 -40q0 -40 37.5 -69.5t101.5 -29.5q44 0 76 12t51 31.5t28 44.5t9 51q0 30 -8 52
t-19 36.5t-22 22t-23 14.5zM732 414q0 14 -6.5 25t-29.5 11q-16 0 -25.5 -7t-18.5 -19l-178 -263q-17 -26 -17 -41q0 -14 8 -24.5t32 -11.5h118v-74q0 -13 16 -14h85q16 1 16 16v72q23 0 27 1t5 7q1 1 1 49q0 8 -5 9.5t-28 1.5v262zM549 152l71 111v-111h-71zM631 672
q9 17 9 21q0 5 -3 9.5t-14 4.5q-51 0 -54 -1q-9 -1 -13.5 -5.5t-11.5 -17.5l-1 -1l-339 -647q-5 -11 -7 -15.5t-2 -8.5q0 -7 5 -9t11 -2h48q13 0 18.5 3.5t12.5 17.5z" />
    <glyph glyph-name="questiondown" unicode="&#xbf;" horiz-adv-x="458" 
d="M272 416q-3 15 -6 19.5t-12 5.5h-55q-17 0 -21 -7.5t-9 -41.5q-5 -31 -9.5 -49.5t-10.5 -30.5t-15 -21.5t-25 -22.5l-4 -3q-48 -38 -72 -67.5t-24 -74.5q0 -33 18 -64t53 -50q28 -15 60 -21t70 -6q60 0 104 12.5t71.5 33t40 45t12.5 49.5q0 13 -4 27t-13.5 27t-25.5 21
t-38 8q-34 0 -50.5 -19.5t-28.5 -51.5q-6 -18 -15.5 -29t-28.5 -11q-20 0 -34.5 15.5t-14.5 38.5q0 34 19 53t55 38l1 1q15 8 24.5 18.5t9.5 31.5q0 10 -1 15zM123 614q0 -44 30 -73.5t70 -29.5q37 0 68.5 28t31.5 72q0 41 -28.5 71t-72.5 30t-71 -29.5t-28 -68.5z" />
    <glyph glyph-name="Agrave" unicode="&#xc0;" horiz-adv-x="604" 
d="M382 24q4 -14 10.5 -19t21.5 -5h163q12 0 20 4t8 16q0 4 -2 11q-1 2 -1 3l-213 646q-6 16 -12 21t-23 5h-98q-15 0 -22 -5t-13 -21l-213 -636q-1 -2 -4.5 -13t-3.5 -13q0 -10 6.5 -14t17.5 -4h105q16 0 22.5 5.5t10.5 20.5l20 80h179zM216 217l54 213l57 -213h-111z
M267 927l-1 1q-9 11 -18.5 17t-23.5 6q-22 0 -35.5 -17t-13.5 -39q0 -20 9.5 -33.5t25.5 -27.5v0l72 -60q19 -17 37 -17q14 0 25 10t11 28q0 11 -3.5 19.5t-7.5 13.5l-1 1z" />
    <glyph glyph-name="Aacute" unicode="&#xc1;" horiz-adv-x="604" 
d="M382 24q4 -14 10.5 -19t21.5 -5h163q12 0 20 4t8 16q0 4 -2 11q-1 2 -1 3l-213 646q-6 16 -12 21t-23 5h-98q-15 0 -22 -5t-13 -21l-213 -636q-1 -2 -4.5 -13t-3.5 -13q0 -10 6.5 -14t17.5 -4h105q16 0 22.5 5.5t10.5 20.5l20 80h179zM216 217l54 213l57 -213h-111z
M419 834q16 14 25 27.5t9 33.5q0 22 -13 39t-36 17q-14 0 -24 -7t-18 -17l-76 -98q-4 -4 -8.5 -13t-4.5 -21q0 -18 11.5 -28t25.5 -10q11 0 18.5 4.5t18.5 12.5v0z" />
    <glyph glyph-name="Acircumflex" unicode="&#xc2;" horiz-adv-x="604" 
d="M382 24q4 -14 10.5 -19t21.5 -5h163q12 0 20 4t8 16q0 4 -2 11q-1 2 -1 3l-213 646q-6 16 -12 21t-23 5h-98q-15 0 -22 -5t-13 -21l-213 -636q-1 -2 -4.5 -13t-3.5 -13q0 -10 6.5 -14t17.5 -4h105q16 0 22.5 5.5t10.5 20.5l20 80h179zM216 217l54 213l57 -213h-111z
M269 795q16 10 34 10q16 0 36 -11l58 -31q15 -10 24 -10q12 0 21.5 12t9.5 29q0 14 -5.5 21.5t-25.5 22.5l-1 1q-4 3 -6 5q-27 21 -39.5 32t-32.5 33q-10 10 -18.5 14.5t-24.5 4.5q-14 0 -22 -5t-19 -18l-1 -1q-13 -15 -18 -20.5t-12.5 -13t-16 -15t-25.5 -21.5l-3 -3
q-20 -17 -26 -24.5t-6 -20.5q0 -15 9.5 -25t20.5 -10q8 0 23 7l4 2z" />
    <glyph glyph-name="Atilde" unicode="&#xc3;" horiz-adv-x="604" 
d="M382 24q4 -14 10.5 -19t21.5 -5h163q12 0 20 4t8 16q0 4 -2 11q-1 2 -1 3l-213 646q-6 16 -12 21t-23 5h-98q-15 0 -22 -5t-13 -21l-213 -636q-1 -2 -4.5 -13t-3.5 -13q0 -10 6.5 -14t17.5 -4h105q16 0 22.5 5.5t10.5 20.5l20 80h179zM216 217l54 213l57 -213h-111z
M295 788l9 -4q24 -9 35.5 -12.5t26.5 -3.5q48 0 74 33t26 71q0 14 -6 25.5t-24 11.5q-9 0 -15.5 -4t-22.5 -18l-2 -2q-8 -7 -16 -11t-19 -4q-12 0 -44 15q-3 1 -5 2l-3 1q-33 16 -43.5 19.5t-24.5 3.5q-26 0 -44.5 -10t-30 -26t-16.5 -33.5t-5 -33.5q0 -23 11.5 -31.5
t22.5 -8.5q10 0 16.5 4t15.5 12l2 2q13 12 18.5 15t14.5 3q15 0 49 -16z" />
    <glyph glyph-name="Adieresis" unicode="&#xc4;" horiz-adv-x="604" 
d="M382 24q4 -14 10.5 -19t21.5 -5h163q12 0 20 4t8 16q0 4 -2 11q-1 2 -1 3l-213 646q-6 16 -12 21t-23 5h-98q-15 0 -22 -5t-13 -21l-213 -636q-1 -2 -4.5 -13t-3.5 -13q0 -10 6.5 -14t17.5 -4h105q16 0 22.5 5.5t10.5 20.5l20 80h179zM216 217l54 213l57 -213h-111z
M282 840q-2 32 -27 51.5t-65 19.5q-43 0 -68.5 -22t-25.5 -58t26.5 -56.5t68.5 -20.5q46 0 68.5 25t22.5 61zM509 840q-3 32 -27.5 51.5t-64.5 19.5q-43 0 -69 -22t-26 -58t27 -56.5t68 -20.5q47 0 69.5 25.5t22.5 60.5z" />
    <glyph glyph-name="Aring" unicode="&#xc5;" horiz-adv-x="604" 
d="M382 24q4 -14 10.5 -19t21.5 -5h163q12 0 20 4t8 16q0 4 -2 11q-1 2 -1 3l-213 646q-6 16 -12 21t-23 5h-98q-15 0 -22 -5t-13 -21l-213 -636q-1 -2 -4.5 -13t-3.5 -13q0 -10 6.5 -14t17.5 -4h105q16 0 22.5 5.5t10.5 20.5l20 80h179zM216 217l54 213l57 -213h-111z
M414 861q-1 49 -34.5 78.5t-75.5 29.5q-44 0 -77.5 -30.5t-33.5 -79.5q0 -46 31 -78.5t81 -32.5q49 0 79 32.5t30 80.5zM347 860q0 -19 -12.5 -32t-31.5 -13q-16 0 -29.5 11t-13.5 31q0 19 12 32t31 13q17 0 30 -11.5t14 -30.5z" />
    <glyph glyph-name="AE" unicode="&#xc6;" horiz-adv-x="792" 
d="M544 292h138q15 0 20.5 4.5t5.5 19.5v92q0 13 -6 17.5t-21 4.5h-164l-27 136h190q16 0 22 5t6 19v93q0 14 -5.5 18.5t-20.5 4.5h-363q-15 0 -21.5 -3.5t-11.5 -16.5l-278 -649l-1 -3q-4 -8 -5.5 -12t-1.5 -7q0 -10 7 -12.5t18 -2.5h114q14 0 19.5 4t11.5 18l31 85h175
l16 -84q3 -13 9 -18t18 -5h339q12 0 17.5 4.5t5.5 17.5v100q0 13 -5 18t-20 5h-180zM242 219l72 193l39 -193h-111z" />
    <glyph glyph-name="Ccedilla" unicode="&#xc7;" horiz-adv-x="583" 
d="M274 -104v-3q-1 -2 -1 -5q0 -8 3.5 -13t11.5 -5q2 0 11 1h8q15 0 23.5 -8.5t8.5 -20.5q0 -10 -8 -20.5t-34 -10.5t-58 7q-8 2 -11.5 2.5t-6.5 0.5q-11 0 -18 -9t-7 -20q0 -14 14 -24t34.5 -15.5t40.5 -8t33 -2.5q62 0 90 28t28 66q0 16 -6 32.5t-20 29.5q-15 14 -32 18.5
t-37 5.5l8 60q56 2 97 19.5t67 43.5t38 52.5t12 46.5q0 25 -14.5 40.5t-36.5 15.5q-11 0 -18 -3.5t-26 -18.5q-18 -15 -34 -23t-40 -8t-48.5 12.5t-44.5 38.5q-28 36 -40.5 92.5t-12.5 127.5q0 35 4.5 67.5t14 58t24 41t33.5 15.5q20 0 33.5 -13t30.5 -41l2 -3
q24 -34 39.5 -46t46.5 -12q40 0 64.5 23.5t24.5 58.5q0 24 -13.5 51t-41.5 51.5t-71.5 39.5t-101.5 15q-57 0 -112.5 -22.5t-100.5 -68.5t-72 -116t-27 -161q0 -72 19 -145t58 -122q23 -29 49.5 -49t52 -31t45.5 -16t36 -7z" />
    <glyph glyph-name="Egrave" unicode="&#xc8;" 
d="M397 292q17 0 24 5t7 22v85q0 16 -8 21t-25 5h-145v135h178q16 0 23 5t7 22v89q0 16 -7 20.5t-23 4.5h-355q-18 0 -25 -7t-8 -24v-645q0 -17 7 -23.5t25 -6.5h357q17 0 23 5.5t6 21.5v90q0 17 -7 22.5t-22 5.5h-179v147h147zM204 927l-1 1q-9 11 -18.5 17t-23.5 6
q-22 0 -35.5 -17t-13.5 -39q0 -20 9.5 -33.5t25.5 -27.5v0l72 -60q19 -17 37 -17q14 0 25 10t11 28q0 11 -3.5 19.5t-7.5 13.5l-1 1z" />
    <glyph glyph-name="Eacute" unicode="&#xc9;" 
d="M397 292q17 0 24 5t7 22v85q0 16 -8 21t-25 5h-145v135h178q16 0 23 5t7 22v89q0 16 -7 20.5t-23 4.5h-355q-18 0 -25 -7t-8 -24v-645q0 -17 7 -23.5t25 -6.5h357q17 0 23 5.5t6 21.5v90q0 17 -7 22.5t-22 5.5h-179v147h147zM356 834q16 14 25 27.5t9 33.5q0 22 -13 39
t-36 17q-14 0 -24 -7t-18 -17l-76 -98q-4 -4 -8.5 -13t-4.5 -21q0 -18 11.5 -28t25.5 -10q11 0 18.5 4.5t18.5 12.5v0z" />
    <glyph glyph-name="Ecircumflex" unicode="&#xca;" 
d="M397 292q17 0 24 5t7 22v85q0 16 -8 21t-25 5h-145v135h178q16 0 23 5t7 22v89q0 16 -7 20.5t-23 4.5h-355q-18 0 -25 -7t-8 -24v-645q0 -17 7 -23.5t25 -6.5h357q17 0 23 5.5t6 21.5v90q0 17 -7 22.5t-22 5.5h-179v147h147zM217 795q16 10 34 10q16 0 36 -11l58 -31
q15 -10 24 -10q12 0 21.5 12t9.5 29q0 14 -5.5 21.5t-25.5 22.5l-1 1q-4 3 -6 5q-27 21 -39.5 32t-32.5 33q-10 10 -18.5 14.5t-24.5 4.5q-14 0 -22 -5t-19 -18l-1 -1q-13 -15 -18 -20.5t-12.5 -13t-16 -15t-25.5 -21.5l-3 -3q-20 -17 -26 -24.5t-6 -20.5q0 -15 9.5 -25
t20.5 -10q8 0 23 7l4 2z" />
    <glyph glyph-name="Edieresis" unicode="&#xcb;" 
d="M397 292q17 0 24 5t7 22v85q0 16 -8 21t-25 5h-145v135h178q16 0 23 5t7 22v89q0 16 -7 20.5t-23 4.5h-355q-18 0 -25 -7t-8 -24v-645q0 -17 7 -23.5t25 -6.5h357q17 0 23 5.5t6 21.5v90q0 17 -7 22.5t-22 5.5h-179v147h147zM227 840q-2 32 -27 51.5t-65 19.5
q-43 0 -68.5 -22t-25.5 -58t26.5 -56.5t68.5 -20.5q46 0 68.5 25t22.5 61zM454 840q-3 32 -27.5 51.5t-64.5 19.5q-43 0 -69 -22t-26 -58t27 -56.5t68 -20.5q47 0 69.5 25.5t22.5 60.5z" />
    <glyph glyph-name="Igrave" unicode="&#xcc;" horiz-adv-x="292" 
d="M253 680q0 14 -5 20t-21 6h-161q-15 0 -21 -5t-6 -21v-651q0 -17 7 -23t21 -6h158q12 0 20 5t8 23v652zM111 927l-1 1q-9 11 -18.5 17t-23.5 6q-22 0 -35.5 -17t-13.5 -39q0 -20 9.5 -33.5t25.5 -27.5v0l72 -60q19 -17 37 -17q14 0 25 10t11 28q0 11 -3.5 19.5t-7.5 13.5
l-1 1z" />
    <glyph glyph-name="Iacute" unicode="&#xcd;" horiz-adv-x="292" 
d="M253 680q0 14 -5 20t-21 6h-161q-15 0 -21 -5t-6 -21v-651q0 -17 7 -23t21 -6h158q12 0 20 5t8 23v652zM263 834q16 14 25 27.5t9 33.5q0 22 -13 39t-36 17q-14 0 -24 -7t-18 -17l-76 -98q-4 -4 -8.5 -13t-4.5 -21q0 -18 11.5 -28t25.5 -10q11 0 18.5 4.5t18.5 12.5v0z
" />
    <glyph glyph-name="Icircumflex" unicode="&#xce;" horiz-adv-x="292" 
d="M253 680q0 14 -5 20t-21 6h-161q-15 0 -21 -5t-6 -21v-651q0 -17 7 -23t21 -6h158q12 0 20 5t8 23v652zM113 795q16 10 34 10q16 0 36 -11l58 -31q15 -10 24 -10q12 0 21.5 12t9.5 29q0 14 -5.5 21.5t-25.5 22.5l-1 1q-4 3 -6 5q-27 21 -39.5 32t-32.5 33
q-10 10 -18.5 14.5t-24.5 4.5q-14 0 -22 -5t-19 -18l-1 -1q-13 -15 -18 -20.5t-12.5 -13t-16 -15t-25.5 -21.5l-3 -3q-20 -17 -26 -24.5t-6 -20.5q0 -15 9.5 -25t20.5 -10q8 0 23 7l4 2z" />
    <glyph glyph-name="Idieresis" unicode="&#xcf;" horiz-adv-x="292" 
d="M253 680q0 14 -5 20t-21 6h-161q-15 0 -21 -5t-6 -21v-651q0 -17 7 -23t21 -6h158q12 0 20 5t8 23v652zM123 840q-2 32 -27 51.5t-65 19.5q-43 0 -68.5 -22t-25.5 -58t26.5 -56.5t68.5 -20.5q46 0 68.5 25t22.5 61zM350 840q-3 32 -27.5 51.5t-64.5 19.5q-43 0 -69 -22
t-26 -58t27 -56.5t68 -20.5q47 0 69.5 25.5t22.5 60.5z" />
    <glyph glyph-name="Eth" unicode="&#xd0;" horiz-adv-x="625" 
d="M40 54q0 -21 4.5 -31t20.5 -16q24 -8 69 -12.5t88 -4.5q34 0 71 3.5t81.5 16.5t88 41t75.5 72q29 41 46 99t17 128q0 103 -28 171t-67 106q-31 31 -69 49.5t-75 27t-66 10.5t-55 2q-49 0 -104.5 -7t-75.5 -15q-12 -5 -16 -13t-5 -24v-219q-39 0 -41 -1q-15 -3 -15 -20
v-83q0 -15 8 -17.5t48 -2.5v-260zM250 587h8q3 1 7 1q67 0 92 -58.5t25 -188.5q0 -120 -28.5 -166t-103.5 -46v185h58q24 0 24 21v80q-1 13 -5.5 18t-18.5 5h-58v149z" />
    <glyph glyph-name="Ntilde" unicode="&#xd1;" horiz-adv-x="604" 
d="M228 679q-9 16 -18 21.5t-28 5.5h-115q-16 0 -21 -7t-5 -20v-654q0 -15 7 -20t22 -5h104q14 0 18.5 6.5t4.5 22.5v352l211 -354q11 -17 18.5 -22t27.5 -5h85q15 0 20 6t5 21v654q0 16 -7 20.5t-22 4.5h-103q-26 0 -26 -22v-303zM295 788l9 -4q24 -9 35.5 -12.5t26.5 -3.5
q48 0 74 33t26 71q0 14 -6 25.5t-24 11.5q-9 0 -15.5 -4t-22.5 -18l-2 -2q-8 -7 -16 -11t-19 -4q-12 0 -44 15q-3 1 -5 2l-3 1q-33 16 -43.5 19.5t-24.5 3.5q-26 0 -44.5 -10t-30 -26t-16.5 -33.5t-5 -33.5q0 -23 11.5 -31.5t22.5 -8.5q10 0 16.5 4t15.5 12l2 2
q13 12 18.5 15t14.5 3q15 0 49 -16z" />
    <glyph glyph-name="Ograve" unicode="&#xd2;" horiz-adv-x="646" 
d="M621 368q-7 170 -88 263.5t-206 93.5q-65 0 -120 -24.5t-96 -72t-63.5 -116.5t-22.5 -156q0 -84 20.5 -153.5t59.5 -119t94 -75.5t122 -26q59 0 112.5 21.5t96 65.5t67.5 113t25 161q0 4 -1 12v13zM406 368q0 -56 -3 -94.5t-12 -71.5q-2 -8 -6 -19t-11.5 -23t-19.5 -20
t-28 -8q-24 0 -40.5 17.5t-26.5 49.5t-14 74t-4 92q0 69 7 114t19 68t25.5 31t30.5 8q27 0 40.5 -15.5t21.5 -37.5v-1q12 -36 16 -75t5 -89zM288 927l-1 1q-9 11 -18.5 17t-23.5 6q-22 0 -35.5 -17t-13.5 -39q0 -20 9.5 -33.5t25.5 -27.5v0l72 -60q19 -17 37 -17q14 0 25 10
t11 28q0 11 -3.5 19.5t-7.5 13.5l-1 1z" />
    <glyph glyph-name="Oacute" unicode="&#xd3;" horiz-adv-x="646" 
d="M621 368q-7 170 -88 263.5t-206 93.5q-65 0 -120 -24.5t-96 -72t-63.5 -116.5t-22.5 -156q0 -84 20.5 -153.5t59.5 -119t94 -75.5t122 -26q59 0 112.5 21.5t96 65.5t67.5 113t25 161q0 4 -1 12v13zM406 368q0 -56 -3 -94.5t-12 -71.5q-2 -8 -6 -19t-11.5 -23t-19.5 -20
t-28 -8q-24 0 -40.5 17.5t-26.5 49.5t-14 74t-4 92q0 69 7 114t19 68t25.5 31t30.5 8q27 0 40.5 -15.5t21.5 -37.5v-1q12 -36 16 -75t5 -89zM440 834q16 14 25 27.5t9 33.5q0 22 -13 39t-36 17q-14 0 -24 -7t-18 -17l-76 -98q-4 -4 -8.5 -13t-4.5 -21q0 -18 11.5 -28
t25.5 -10q11 0 18.5 4.5t18.5 12.5v0z" />
    <glyph glyph-name="Ocircumflex" unicode="&#xd4;" horiz-adv-x="646" 
d="M621 368q-7 170 -88 263.5t-206 93.5q-65 0 -120 -24.5t-96 -72t-63.5 -116.5t-22.5 -156q0 -84 20.5 -153.5t59.5 -119t94 -75.5t122 -26q59 0 112.5 21.5t96 65.5t67.5 113t25 161q0 4 -1 12v13zM406 368q0 -56 -3 -94.5t-12 -71.5q-2 -8 -6 -19t-11.5 -23t-19.5 -20
t-28 -8q-24 0 -40.5 17.5t-26.5 49.5t-14 74t-4 92q0 69 7 114t19 68t25.5 31t30.5 8q27 0 40.5 -15.5t21.5 -37.5v-1q12 -36 16 -75t5 -89zM290 795q16 10 34 10q16 0 36 -11l58 -31q15 -10 24 -10q12 0 21.5 12t9.5 29q0 14 -5.5 21.5t-25.5 22.5l-1 1q-4 3 -6 5
q-27 21 -39.5 32t-32.5 33q-10 10 -18.5 14.5t-24.5 4.5q-14 0 -22 -5t-19 -18l-1 -1q-13 -15 -18 -20.5t-12.5 -13t-16 -15t-25.5 -21.5l-3 -3q-20 -17 -26 -24.5t-6 -20.5q0 -15 9.5 -25t20.5 -10q8 0 23 7l4 2z" />
    <glyph glyph-name="Otilde" unicode="&#xd5;" horiz-adv-x="646" 
d="M621 368q-7 170 -88 263.5t-206 93.5q-65 0 -120 -24.5t-96 -72t-63.5 -116.5t-22.5 -156q0 -84 20.5 -153.5t59.5 -119t94 -75.5t122 -26q59 0 112.5 21.5t96 65.5t67.5 113t25 161q0 4 -1 12v13zM406 368q0 -56 -3 -94.5t-12 -71.5q-2 -8 -6 -19t-11.5 -23t-19.5 -20
t-28 -8q-24 0 -40.5 17.5t-26.5 49.5t-14 74t-4 92q0 69 7 114t19 68t25.5 31t30.5 8q27 0 40.5 -15.5t21.5 -37.5v-1q12 -36 16 -75t5 -89zM316 788l9 -4q24 -9 35.5 -12.5t26.5 -3.5q48 0 74 33t26 71q0 14 -6 25.5t-24 11.5q-9 0 -15.5 -4t-22.5 -18l-2 -2q-8 -7 -16 -11
t-19 -4q-12 0 -44 15q-3 1 -5 2l-3 1q-33 16 -43.5 19.5t-24.5 3.5q-26 0 -44.5 -10t-30 -26t-16.5 -33.5t-5 -33.5q0 -23 11.5 -31.5t22.5 -8.5q10 0 16.5 4t15.5 12l2 2q13 12 18.5 15t14.5 3q15 0 49 -16z" />
    <glyph glyph-name="Odieresis" unicode="&#xd6;" horiz-adv-x="646" 
d="M621 368q-7 170 -88 263.5t-206 93.5q-65 0 -120 -24.5t-96 -72t-63.5 -116.5t-22.5 -156q0 -84 20.5 -153.5t59.5 -119t94 -75.5t122 -26q59 0 112.5 21.5t96 65.5t67.5 113t25 161q0 4 -1 12v13zM406 368q0 -56 -3 -94.5t-12 -71.5q-2 -8 -6 -19t-11.5 -23t-19.5 -20
t-28 -8q-24 0 -40.5 17.5t-26.5 49.5t-14 74t-4 92q0 69 7 114t19 68t25.5 31t30.5 8q27 0 40.5 -15.5t21.5 -37.5v-1q12 -36 16 -75t5 -89zM301 840q-2 32 -27 51.5t-65 19.5q-43 0 -68.5 -22t-25.5 -58t26.5 -56.5t68.5 -20.5q46 0 68.5 25t22.5 61zM528 840
q-3 32 -27.5 51.5t-64.5 19.5q-43 0 -69 -22t-26 -58t27 -56.5t68 -20.5q47 0 69.5 25.5t22.5 60.5z" />
    <glyph glyph-name="multiply" unicode="&#xd7;" horiz-adv-x="500" 
d="M340 291l124 125l-90 89l-124 -124l-124 124l-90 -89l124 -125l-124 -123l90 -91l124 123l124 -123l90 91z" />
    <glyph glyph-name="Oslash" unicode="&#xd8;" horiz-adv-x="646" 
d="M623 716l1 1q5 8 5 12q0 3 -7 9.5t-15.5 13t-17 11.5t-10.5 5q-6 0 -13 -11l-67 -93l-1 1q-34 27 -71.5 43.5t-99.5 16.5q-66 0 -121 -25.5t-94.5 -75t-61 -120.5t-21.5 -159q0 -19 2 -46t7.5 -60.5t17.5 -66.5t31 -58q4 -5 12 -13l-74 -104l-1 -2q-6 -9 -6 -15
q0 -5 5.5 -10.5t26.5 -20.5l1 -1q8 -6 13 -6q7 0 16 12l69 93l1 -1q33 -27 73 -45.5t105 -18.5q63 0 116.5 25t93.5 74t62 121t22 162q0 70 -18 133t-55 114zM425 438q0 -33 -3 -81t-13 -101.5t-32 -92t-58 -38.5q-16 0 -27.5 8t-19.5 19.5t-12 21t-8 21.5zM231 287
q-2 12 -3 22t-1 28q0 48 6 95.5t18.5 87.5t33 64t48.5 24q26 0 44.5 -21.5t27.5 -54.5z" />
    <glyph glyph-name="Ugrave" unicode="&#xd9;" horiz-adv-x="562" 
d="M536 681q0 16 -6 20.5t-24 4.5h-113q-14 0 -19.5 -5.5t-5.5 -21.5v-442q0 -46 -10 -68.5t-48 -22.5q-46 0 -57.5 20t-11.5 67v446q0 16 -5.5 21.5t-22.5 5.5h-161q-25 0 -25 -25v-472q0 -50 6.5 -80t19.5 -50q24 -41 82.5 -69t145.5 -28q96 0 156 33.5t81 82.5
q11 23 14 50.5t4 69.5v0v463zM246 927l-1 1q-9 11 -18.5 17t-23.5 6q-22 0 -35.5 -17t-13.5 -39q0 -20 9.5 -33.5t25.5 -27.5v0l72 -60q19 -17 37 -17q14 0 25 10t11 28q0 11 -3.5 19.5t-7.5 13.5l-1 1z" />
    <glyph glyph-name="Uacute" unicode="&#xda;" horiz-adv-x="562" 
d="M536 681q0 16 -6 20.5t-24 4.5h-113q-14 0 -19.5 -5.5t-5.5 -21.5v-442q0 -46 -10 -68.5t-48 -22.5q-46 0 -57.5 20t-11.5 67v446q0 16 -5.5 21.5t-22.5 5.5h-161q-25 0 -25 -25v-472q0 -50 6.5 -80t19.5 -50q24 -41 82.5 -69t145.5 -28q96 0 156 33.5t81 82.5
q11 23 14 50.5t4 69.5v0v463zM398 834q16 14 25 27.5t9 33.5q0 22 -13 39t-36 17q-14 0 -24 -7t-18 -17l-76 -98q-4 -4 -8.5 -13t-4.5 -21q0 -18 11.5 -28t25.5 -10q11 0 18.5 4.5t18.5 12.5v0z" />
    <glyph glyph-name="Ucircumflex" unicode="&#xdb;" horiz-adv-x="562" 
d="M536 681q0 16 -6 20.5t-24 4.5h-113q-14 0 -19.5 -5.5t-5.5 -21.5v-442q0 -46 -10 -68.5t-48 -22.5q-46 0 -57.5 20t-11.5 67v446q0 16 -5.5 21.5t-22.5 5.5h-161q-25 0 -25 -25v-472q0 -50 6.5 -80t19.5 -50q24 -41 82.5 -69t145.5 -28q96 0 156 33.5t81 82.5
q11 23 14 50.5t4 69.5v0v463zM248 795q16 10 34 10q16 0 36 -11l58 -31q15 -10 24 -10q12 0 21.5 12t9.5 29q0 14 -5.5 21.5t-25.5 22.5l-1 1q-4 3 -6 5q-27 21 -39.5 32t-32.5 33q-10 10 -18.5 14.5t-24.5 4.5q-14 0 -22 -5t-19 -18l-1 -1q-13 -15 -18 -20.5t-12.5 -13
t-16 -15t-25.5 -21.5l-3 -3q-20 -17 -26 -24.5t-6 -20.5q0 -15 9.5 -25t20.5 -10q8 0 23 7l4 2z" />
    <glyph glyph-name="Udieresis" unicode="&#xdc;" horiz-adv-x="562" 
d="M536 681q0 16 -6 20.5t-24 4.5h-113q-14 0 -19.5 -5.5t-5.5 -21.5v-442q0 -46 -10 -68.5t-48 -22.5q-46 0 -57.5 20t-11.5 67v446q0 16 -5.5 21.5t-22.5 5.5h-161q-25 0 -25 -25v-472q0 -50 6.5 -80t19.5 -50q24 -41 82.5 -69t145.5 -28q96 0 156 33.5t81 82.5
q11 23 14 50.5t4 69.5v0v463zM268 840q-2 32 -27 51.5t-65 19.5q-43 0 -68.5 -22t-25.5 -58t26.5 -56.5t68.5 -20.5q46 0 68.5 25t22.5 61zM495 840q-3 32 -27.5 51.5t-64.5 19.5q-43 0 -69 -22t-26 -58t27 -56.5t68 -20.5q47 0 69.5 25.5t22.5 60.5z" />
    <glyph glyph-name="Yacute" unicode="&#xdd;" horiz-adv-x="542" 
d="M534 670l2 5q4 10 4 15q0 10 -6.5 13t-18.5 3h-112q-16 0 -22.5 -5.5t-13.5 -22.5l-70 -181l-60 183q-6 17 -13.5 21.5t-23.5 4.5h-173q-25 0 -25 -18q0 -6 6 -20l153 -356v-286q0 -16 6.5 -21t21.5 -5h164q12 0 18 4t6 18v283zM388 834q16 14 25 27.5t9 33.5
q0 22 -13 39t-36 17q-14 0 -24 -7t-18 -17l-76 -98q-4 -4 -8.5 -13t-4.5 -21q0 -18 11.5 -28t25.5 -10q11 0 18.5 4.5t18.5 12.5v0z" />
    <glyph glyph-name="Thorn" unicode="&#xde;" horiz-adv-x="562" 
d="M40 30q0 -17 5.5 -23.5t21.5 -6.5h155q15 0 22 5.5t7 21.5v121q8 0 14 -1q29 -1 44 -1q50 0 95 12t81 39t57 72t21 108q0 39 -8 70.5t-19.5 53t-23.5 35t-23 22.5q-34 27 -75.5 36t-84.5 9q-17 0 -31 -1t-45 -4h-1v79q0 16 -5 23t-22 7h-156q-17 -1 -23 -7t-6 -23v-647z
M251 481l4 1q13 1 21 1q38 0 56.5 -26.5t18.5 -83.5q0 -15 -1.5 -30t-9 -33t-24.5 -30t-44 -12q-5 0 -11 1h-10v212z" />
    <glyph glyph-name="germandbls" unicode="&#xdf;" horiz-adv-x="604" 
d="M235 583q0 20 3.5 34t16.5 28q11 11 23 15t22 4q30 0 48 -20t18 -48q0 -11 -1.5 -18.5t-6 -16.5t-13.5 -21.5t-29 -42.5l-1 -1q-25 -35 -37 -60t-12 -57q0 -46 22.5 -78t61.5 -66l1 -1l57 -52l1 -1q14 -14 22.5 -27.5t8.5 -31.5q0 -10 -4.5 -21t-19.5 -11
q-12 0 -18.5 4.5t-16.5 15.5q-1 0 -6 6q-10 11 -22 19t-29 8q-24 0 -43.5 -19.5t-19.5 -50.5q0 -8 3.5 -20.5t16.5 -28.5t42 -27.5t75 -11.5q61 0 101 21t61 52.5t29 62t8 54.5q0 63 -28 105t-90 101q-29 29 -35 37.5t-6 22.5q0 13 6.5 25t19.5 30q31 37 49 69t18 69
q0 58 -50.5 102.5t-141.5 44.5q-101 0 -163.5 -45.5t-91 -111.5t-36.5 -125.5t-9 -119.5v-1v-351q1 -16 6.5 -21.5t20.5 -5.5h141q14 0 18 6t4 20z" />
    <glyph glyph-name="agrave" unicode="&#xe0;" 
d="M190 715v0q-10 11 -19.5 17.5t-24.5 6.5q-20 0 -32.5 -14t-12.5 -33q0 -14 5.5 -23t16.5 -20l74 -68q10 -10 20 -16t24 -6q17 0 24.5 10.5t7.5 22.5q0 10 -4.5 19t-16.5 24zM445 387q0 27 -4 47.5t-17 41.5q-22 33 -59 45t-91 12q-50 0 -88.5 -5t-72.5 -19
q-38 -17 -60.5 -43.5t-22.5 -57.5q0 -30 21.5 -53t61.5 -23q37 0 51.5 15.5t27.5 47.5v1q6 17 14.5 27t26.5 10q22 0 27.5 -16t5.5 -41v-54q-48 -7 -87 -16t-79 -28.5t-65.5 -54.5t-25.5 -87q0 -47 22 -78t57 -46.5t73 -21t79 -5.5q48 0 83.5 7t58 17t33.5 19t16 15
q9 12 11.5 27t2.5 37v280zM266 143q0 -27 -5.5 -43.5t-28.5 -16.5q-19 0 -29.5 17.5t-10.5 44.5q0 14 4 33.5t14 33.5q9 13 20.5 19t35.5 12v-100z" />
    <glyph glyph-name="aacute" unicode="&#xe1;" 
d="M353 649l2 2q9 10 14 19t5 22q0 19 -12 33t-32 14q-15 0 -24.5 -6.5t-19.5 -17.5v0l-63 -80q-12 -15 -16.5 -24t-4.5 -19q0 -12 8 -22.5t25 -10.5q13 0 23 6t20 16zM445 387q0 27 -4 47.5t-17 41.5q-22 33 -59 45t-91 12q-50 0 -88.5 -5t-72.5 -19q-38 -17 -60.5 -43.5
t-22.5 -57.5q0 -30 21.5 -53t61.5 -23q37 0 51.5 15.5t27.5 47.5v1q6 17 14.5 27t26.5 10q22 0 27.5 -16t5.5 -41v-54q-48 -7 -87 -16t-79 -28.5t-65.5 -54.5t-25.5 -87q0 -47 22 -78t57 -46.5t73 -21t79 -5.5q48 0 83.5 7t58 17t33.5 19t16 15q9 12 11.5 27t2.5 37v280z
M266 143q0 -27 -5.5 -43.5t-28.5 -16.5q-19 0 -29.5 17.5t-10.5 44.5q0 14 4 33.5t14 33.5q9 13 20.5 19t35.5 12v-100z" />
    <glyph glyph-name="acircumflex" unicode="&#xe2;" 
d="M326 573q14 -9 26 -9q13 0 23 9.5t10 24.5q0 11 -6.5 19.5t-29.5 25.5q-1 1 -17 14q-12 10 -22.5 18.5t-12.5 10.5l-11 9q-12 10 -19 15.5t-9 6.5q-9 7 -23 7q-13 0 -21.5 -5.5t-22.5 -19.5q-3 -4 -11 -12q-29 -31 -56 -51l-5 -4q-17 -15 -22 -21.5t-5 -17.5t9 -20.5
t23 -9.5q10 0 19.5 5t47.5 28q26 14 46 14q18 0 47 -13h1zM445 387q0 27 -4 47.5t-17 41.5q-22 33 -59 45t-91 12q-50 0 -88.5 -5t-72.5 -19q-38 -17 -60.5 -43.5t-22.5 -57.5q0 -30 21.5 -53t61.5 -23q37 0 51.5 15.5t27.5 47.5v1q6 17 14.5 27t26.5 10q22 0 27.5 -16
t5.5 -41v-54q-48 -7 -87 -16t-79 -28.5t-65.5 -54.5t-25.5 -87q0 -47 22 -78t57 -46.5t73 -21t79 -5.5q48 0 83.5 7t58 17t33.5 19t16 15q9 12 11.5 27t2.5 37v280zM266 143q0 -27 -5.5 -43.5t-28.5 -16.5q-19 0 -29.5 17.5t-10.5 44.5q0 14 4 33.5t14 33.5q9 13 20.5 19
t35.5 12v-100z" />
    <glyph glyph-name="atilde" unicode="&#xe3;" 
d="M231 597l1 -1q16 -7 29.5 -11.5t31.5 -4.5q45 0 72.5 32t27.5 71q0 13 -3 18q-6 15 -23 15q-8 0 -13.5 -4t-15.5 -16l-1 -1q-9 -10 -18.5 -16t-24.5 -6q-11 0 -20 3.5t-31 17.5q-2 1 -3 1q-15 9 -28.5 14t-31.5 5q-38 0 -68 -27t-30 -72q0 -16 7 -27.5t23 -11.5
q7 0 12 3.5t17 16.5l3 3q8 8 16 13.5t18 5.5q7 0 16 -3.5t37 -17.5zM445 387q0 27 -4 47.5t-17 41.5q-22 33 -59 45t-91 12q-50 0 -88.5 -5t-72.5 -19q-38 -17 -60.5 -43.5t-22.5 -57.5q0 -30 21.5 -53t61.5 -23q37 0 51.5 15.5t27.5 47.5v1q6 17 14.5 27t26.5 10
q22 0 27.5 -16t5.5 -41v-54q-48 -7 -87 -16t-79 -28.5t-65.5 -54.5t-25.5 -87q0 -47 22 -78t57 -46.5t73 -21t79 -5.5q48 0 83.5 7t58 17t33.5 19t16 15q9 12 11.5 27t2.5 37v280zM266 143q0 -27 -5.5 -43.5t-28.5 -16.5q-19 0 -29.5 17.5t-10.5 44.5q0 14 4 33.5t14 33.5
q9 13 20.5 19t35.5 12v-100z" />
    <glyph glyph-name="adieresis" unicode="&#xe4;" 
d="M220 640q-3 33 -27.5 52t-58.5 19t-61 -21t-27 -56q0 -31 22.5 -53t62.5 -22q48 0 68.5 24.5t20.5 56.5zM432 640q-3 33 -28 52t-58 19q-35 0 -61.5 -21t-26.5 -56q0 -31 22.5 -53t62.5 -22q48 0 68.5 24.5t20.5 56.5zM445 387q0 27 -4 47.5t-17 41.5q-22 33 -59 45
t-91 12q-50 0 -88.5 -5t-72.5 -19q-38 -17 -60.5 -43.5t-22.5 -57.5q0 -30 21.5 -53t61.5 -23q37 0 51.5 15.5t27.5 47.5v1q6 17 14.5 27t26.5 10q22 0 27.5 -16t5.5 -41v-54q-48 -7 -87 -16t-79 -28.5t-65.5 -54.5t-25.5 -87q0 -47 22 -78t57 -46.5t73 -21t79 -5.5
q48 0 83.5 7t58 17t33.5 19t16 15q9 12 11.5 27t2.5 37v280zM266 143q0 -27 -5.5 -43.5t-28.5 -16.5q-19 0 -29.5 17.5t-10.5 44.5q0 14 4 33.5t14 33.5q9 13 20.5 19t35.5 12v-100z" />
    <glyph glyph-name="aring" unicode="&#xe5;" 
d="M338 661q0 44 -29.5 71.5t-70.5 27.5q-44 0 -72 -30t-28 -70t27.5 -69.5t73.5 -29.5q43 0 71 29t28 71zM277 663q0 -17 -11 -29t-28 -12q-15 0 -27 11t-12 27t11 27.5t28 11.5q16 0 27 -9.5t12 -26.5zM445 387q0 27 -4 47.5t-17 41.5q-22 33 -59 45t-91 12
q-50 0 -88.5 -5t-72.5 -19q-38 -17 -60.5 -43.5t-22.5 -57.5q0 -30 21.5 -53t61.5 -23q37 0 51.5 15.5t27.5 47.5v1q6 17 14.5 27t26.5 10q22 0 27.5 -16t5.5 -41v-54q-48 -7 -87 -16t-79 -28.5t-65.5 -54.5t-25.5 -87q0 -47 22 -78t57 -46.5t73 -21t79 -5.5q48 0 83.5 7
t58 17t33.5 19t16 15q9 12 11.5 27t2.5 37v280zM266 143q0 -27 -5.5 -43.5t-28.5 -16.5q-19 0 -29.5 17.5t-10.5 44.5q0 14 4 33.5t14 33.5q9 13 20.5 19t35.5 12v-100z" />
    <glyph glyph-name="ae" unicode="&#xe6;" horiz-adv-x="729" 
d="M660 270q25 4 36 14t11 45q0 61 -19 102t-48.5 63t-59.5 30.5t-55 8.5q-32 0 -56.5 -7t-40.5 -17t-24.5 -20t-16.5 -21l-1 1q-7 14 -14 22t-22 17q-43 25 -116 25q-96 0 -150.5 -39.5t-54.5 -90.5q0 -35 23 -55t54 -20q36 0 53.5 18t30.5 48v1l1 2q8 22 15 30.5t22 8.5
q26 0 32.5 -16.5t6.5 -46.5q0 -9 -0.5 -24t-2.5 -43q-50 -7 -89 -15.5t-77.5 -27t-63.5 -51t-25 -81.5q0 -29 11.5 -57t42.5 -51t67.5 -30.5t71.5 -7.5q52 0 98 13.5t82 51.5q27 -28 58.5 -46.5t81.5 -18.5q47 0 82 19t56 47.5t31 57.5t10 48q0 21 -10 33.5t-26 12.5
q-11 0 -19 -5t-19 -15q-18 -16 -33.5 -23.5t-44.5 -7.5q-37 0 -70.5 22t-41.5 70zM431 327q1 42 15 70t49 28q17 0 28 -8t16 -20.5t6.5 -24t2.5 -29.5v-2zM264 225q0 -35 -0.5 -71.5t-1.5 -43.5q-2 -13 -8 -21.5t-20 -8.5q-19 0 -29.5 16.5t-10.5 43.5q0 26 6 42.5t16 25
t20.5 11.5t27.5 6v0z" />
    <glyph glyph-name="ccedilla" unicode="&#xe7;" horiz-adv-x="437" 
d="M174 -104q0 -13 3 -19.5t12 -6.5q2 0 11 1h8q15 0 23.5 -8.5t8.5 -20.5q0 -10 -8 -20.5t-34 -10.5t-58 7q-9 2 -12 2.5t-6 0.5q-11 0 -18 -9t-7 -20q0 -14 14 -24t34.5 -15.5t40.5 -8t33 -2.5q62 0 90 28t28 66q0 16 -6 32.5t-20 29.5q-16 14 -32.5 18.5t-36.5 5.5l8 63
q48 5 81 25.5t52.5 49t27.5 58.5t8 56q0 24 -9.5 40t-29.5 16q-13 0 -21 -6.5t-19 -22.5v-1q-12 -18 -25 -29t-38 -11q-23 0 -41.5 15.5t-31 40.5t-18.5 52.5t-6 50.5q0 40 13.5 67.5t35.5 27.5q16 0 25 -11.5t16 -28.5v-1q10 -28 24.5 -45t46.5 -17q34 0 56 25.5t22 62.5
q0 21 -8.5 44.5t-27.5 44t-50.5 33.5t-74.5 13q-51 0 -88 -14t-65 -39q-26 -24 -43 -56t-25.5 -64.5t-11.5 -58.5t-3 -46q0 -24 4.5 -59t20.5 -79t50 -80t89 -49z" />
    <glyph glyph-name="egrave" unicode="&#xe8;" 
d="M190 715v0q-10 11 -19.5 17.5t-24.5 6.5q-20 0 -32.5 -14t-12.5 -33q0 -14 5.5 -23t16.5 -20l74 -68q10 -10 20 -16t24 -6q17 0 24.5 10.5t7.5 22.5q0 10 -4.5 19t-16.5 24zM408 269h1q21 4 34.5 14.5t13.5 43.5q0 24 -9.5 58.5t-32.5 68.5t-62.5 57t-95.5 23
q-42 0 -83.5 -15t-76 -47.5t-55 -84.5t-20.5 -122q0 -49 9 -87.5t22 -66t25 -43.5t22 -26q34 -33 79 -45.5t87 -12.5q56 0 94 21t59 50.5t29.5 57.5t8.5 44q0 21 -10 33.5t-26 12.5q-11 0 -18.5 -4.5t-24.5 -21.5l-3 -2q-14 -11 -30 -17.5t-42 -6.5q-15 0 -32.5 3.5
t-35 12.5t-31.5 26t-20 41zM170 326q0 43 12.5 69.5t42.5 26.5q15 0 24.5 -8t14.5 -20.5t7 -24.5t3 -27z" />
    <glyph glyph-name="eacute" unicode="&#xe9;" 
d="M353 649l2 2q9 10 14 19t5 22q0 19 -12 33t-32 14q-15 0 -24.5 -6.5t-19.5 -17.5v0l-63 -80q-12 -15 -16.5 -24t-4.5 -19q0 -12 8 -22.5t25 -10.5q13 0 23 6t20 16zM408 269h1q21 4 34.5 14.5t13.5 43.5q0 24 -9.5 58.5t-32.5 68.5t-62.5 57t-95.5 23q-42 0 -83.5 -15
t-76 -47.5t-55 -84.5t-20.5 -122q0 -49 9 -87.5t22 -66t25 -43.5t22 -26q34 -33 79 -45.5t87 -12.5q56 0 94 21t59 50.5t29.5 57.5t8.5 44q0 21 -10 33.5t-26 12.5q-11 0 -18.5 -4.5t-24.5 -21.5l-3 -2q-14 -11 -30 -17.5t-42 -6.5q-15 0 -32.5 3.5t-35 12.5t-31.5 26
t-20 41zM170 326q0 43 12.5 69.5t42.5 26.5q15 0 24.5 -8t14.5 -20.5t7 -24.5t3 -27z" />
    <glyph glyph-name="ecircumflex" unicode="&#xea;" 
d="M337 573q14 -9 26 -9q13 0 23 9.5t10 24.5q0 11 -6.5 19.5t-29.5 25.5q-1 1 -17 14q-12 10 -22.5 18.5t-12.5 10.5l-11 9q-12 10 -19 15.5t-9 6.5q-9 7 -23 7q-13 0 -21.5 -5.5t-22.5 -19.5q-3 -4 -11 -12q-29 -31 -56 -51l-5 -4q-17 -15 -22 -21.5t-5 -17.5t9 -20.5
t23 -9.5q10 0 19.5 5t47.5 28q26 14 46 14q18 0 47 -13h1zM408 269h1q21 4 34.5 14.5t13.5 43.5q0 24 -9.5 58.5t-32.5 68.5t-62.5 57t-95.5 23q-42 0 -83.5 -15t-76 -47.5t-55 -84.5t-20.5 -122q0 -49 9 -87.5t22 -66t25 -43.5t22 -26q34 -33 79 -45.5t87 -12.5q56 0 94 21
t59 50.5t29.5 57.5t8.5 44q0 21 -10 33.5t-26 12.5q-11 0 -18.5 -4.5t-24.5 -21.5l-3 -2q-14 -11 -30 -17.5t-42 -6.5q-15 0 -32.5 3.5t-35 12.5t-31.5 26t-20 41zM170 326q0 43 12.5 69.5t42.5 26.5q15 0 24.5 -8t14.5 -20.5t7 -24.5t3 -27z" />
    <glyph glyph-name="edieresis" unicode="&#xeb;" 
d="M232 640q-3 33 -27.5 52t-58.5 19t-61 -21t-27 -56q0 -31 22.5 -53t62.5 -22q48 0 68.5 24.5t20.5 56.5zM444 640q-3 33 -28 52t-58 19q-35 0 -61.5 -21t-26.5 -56q0 -31 22.5 -53t62.5 -22q48 0 68.5 24.5t20.5 56.5zM408 269h1q21 4 34.5 14.5t13.5 43.5
q0 24 -9.5 58.5t-32.5 68.5t-62.5 57t-95.5 23q-42 0 -83.5 -15t-76 -47.5t-55 -84.5t-20.5 -122q0 -49 9 -87.5t22 -66t25 -43.5t22 -26q34 -33 79 -45.5t87 -12.5q56 0 94 21t59 50.5t29.5 57.5t8.5 44q0 21 -10 33.5t-26 12.5q-11 0 -18.5 -4.5t-24.5 -21.5l-3 -2
q-14 -11 -30 -17.5t-42 -6.5q-15 0 -32.5 3.5t-35 12.5t-31.5 26t-20 41zM170 326q0 43 12.5 69.5t42.5 26.5q15 0 24.5 -8t14.5 -20.5t7 -24.5t3 -27z" />
    <glyph glyph-name="igrave" unicode="&#xec;" horiz-adv-x="271" 
d="M86 715v0q-10 11 -19.5 17.5t-24.5 6.5q-20 0 -32.5 -14t-12.5 -33q0 -14 5.5 -23t16.5 -20l74 -68q10 -10 20 -16t24 -6q17 0 24.5 10.5t7.5 22.5q0 10 -4.5 19t-16.5 24zM235 494q0 14 -5 19t-19 5h-150q-16 0 -20.5 -6.5t-4.5 -19.5v-464q0 -15 3.5 -21.5t17.5 -6.5
h153q12 0 18.5 5t6.5 20v469z" />
    <glyph glyph-name="iacute" unicode="&#xed;" horiz-adv-x="271" 
d="M249 649l2 2q9 10 14 19t5 22q0 19 -12 33t-32 14q-15 0 -24.5 -6.5t-19.5 -17.5v0l-63 -80q-12 -15 -16.5 -24t-4.5 -19q0 -12 8 -22.5t25 -10.5q13 0 23 6t20 16zM235 494q0 14 -5 19t-19 5h-150q-16 0 -20.5 -6.5t-4.5 -19.5v-464q0 -15 3.5 -21.5t17.5 -6.5h153
q12 0 18.5 5t6.5 20v469z" />
    <glyph glyph-name="icircumflex" unicode="&#xee;" horiz-adv-x="271" 
d="M222 573q14 -9 26 -9q13 0 23 9.5t10 24.5q0 11 -6.5 19.5t-29.5 25.5q-1 1 -17 14q-12 10 -22.5 18.5t-12.5 10.5l-11 9q-12 10 -19 15.5t-9 6.5q-9 7 -23 7q-13 0 -21.5 -5.5t-22.5 -19.5q-3 -4 -11 -12q-29 -31 -56 -51l-5 -4q-17 -15 -22 -21.5t-5 -17.5t9 -20.5
t23 -9.5q10 0 19.5 5t47.5 28q26 14 46 14q18 0 47 -13h1zM235 494q0 14 -5 19t-19 5h-150q-16 0 -20.5 -6.5t-4.5 -19.5v-464q0 -15 3.5 -21.5t17.5 -6.5h153q12 0 18.5 5t6.5 20v469z" />
    <glyph glyph-name="idieresis" unicode="&#xef;" horiz-adv-x="271" 
d="M117 640q-3 33 -27.5 52t-58.5 19t-61 -21t-27 -56q0 -31 22 -53t63 -22q48 0 68.5 24.5t20.5 56.5zM329 640q-3 33 -28 52t-58 19q-35 0 -61.5 -21t-26.5 -56q0 -31 22.5 -53t62.5 -22q48 0 68.5 24.5t20.5 56.5zM235 494q0 14 -5 19t-19 5h-150q-16 0 -20.5 -6.5
t-4.5 -19.5v-464q0 -15 3.5 -21.5t17.5 -6.5h153q12 0 18.5 5t6.5 20v469z" />
    <glyph glyph-name="eth" unicode="&#xf0;" horiz-adv-x="521" 
d="M374 701q-10 16 -24 33t-22 23q-12 12 -27 12q-9 0 -28 -5q-1 0 -3 -1l-66 -20q-1 0 -4 -1l-21 -7t-13 -5q-8 -5 -8 -11q0 -5 6 -12l2 -4q5 -4 16 -18t22 -30l-79 -22q-10 -3 -12.5 -4.5t-2.5 -5.5q0 -3 10 -25q5 -11 8 -18t4 -9q4 -8 10 -8q3 0 9 2l94 25
q13 -20 21.5 -41t15.5 -44q-12 10 -28.5 17t-42.5 7q-83 0 -136 -73.5t-53 -194.5q0 -70 18.5 -123t51.5 -86.5t75.5 -50t91.5 -16.5q83 0 134 38t73 92.5t27.5 102t5.5 91.5q0 88 -20.5 171.5t-62.5 156.5q2 1 15 4q17 5 27 7.5t11 3.5l2 1q7 3 7 8q0 2 -3 9.5t-7 16.5
t-7.5 17t-4.5 9q-5 7 -10 7q-2 0 -7 -1q-2 -1 -4 -1zM299 274q0 -82 -7.5 -121.5t-33.5 -39.5q-13 0 -20.5 12t-10.5 31.5t-4 40t-1 48.5q0 18 1.5 51t3.5 55q2 30 9 50t25 20t24.5 -19t10.5 -50v-3q3 -28 3 -75z" />
    <glyph glyph-name="ntilde" unicode="&#xf1;" horiz-adv-x="542" 
d="M264 597l1 -1q16 -7 29.5 -11.5t31.5 -4.5q45 0 72.5 32t27.5 71q0 13 -3 18q-6 15 -23 15q-8 0 -13.5 -4t-15.5 -16l-1 -1q-9 -10 -18.5 -16t-24.5 -6q-11 0 -20 3.5t-31 17.5q-2 1 -3 1q-15 9 -28.5 14t-31.5 5q-38 0 -68 -27t-30 -72q0 -16 7 -27.5t23 -11.5
q7 0 12 3.5t17 16.5l3 3q8 8 16 13.5t18 5.5q7 0 16 -3.5t37 -17.5zM503 404q0 12 -1.5 24t-8 26t-20 28.5t-36.5 25.5q-21 11 -49 16t-60 7q-34 2 -52 2q-49 0 -104 -8t-95 -29q-25 -13 -32 -29t-7 -44v-395q0 -15 4.5 -21.5t19.5 -6.5h140q16 0 23 3.5t7 18.5v335
q0 37 6.5 56t33.5 19q24 0 30.5 -16.5t6.5 -50.5v-339q0 -26 24 -26h142q16 0 22 4.5t6 20.5v379z" />
    <glyph glyph-name="ograve" unicode="&#xf2;" horiz-adv-x="521" 
d="M211 715v0q-10 11 -19.5 17.5t-24.5 6.5q-20 0 -32.5 -14t-12.5 -33q0 -14 5.5 -23t16.5 -20l74 -68q10 -10 20 -16t24 -6q17 0 24.5 10.5t7.5 22.5q0 10 -4.5 19t-16.5 24zM499 271q-4 115 -66 188.5t-172 73.5q-61 0 -112.5 -25t-86.5 -80q-19 -32 -30 -72t-11 -102
q0 -69 19.5 -121t53 -84.5t75.5 -48t88 -15.5q47 0 90 16t77.5 50t54.5 89t20 130v1zM298 274q0 -82 -7.5 -121t-33.5 -39q-12 0 -19.5 12t-10.5 30.5t-4 39t-1 48.5q0 24 0.5 53.5t3.5 53.5q3 31 10 50.5t24 19.5q18 0 24.5 -19t10.5 -50v-3q2 -20 2.5 -36t0.5 -39z" />
    <glyph glyph-name="oacute" unicode="&#xf3;" horiz-adv-x="521" 
d="M374 649l2 2q9 10 14 19t5 22q0 19 -12 33t-32 14q-15 0 -24.5 -6.5t-19.5 -17.5v0l-63 -80q-12 -15 -16.5 -24t-4.5 -19q0 -12 8 -22.5t25 -10.5q13 0 23 6t20 16zM499 271q-4 115 -66 188.5t-172 73.5q-61 0 -112.5 -25t-86.5 -80q-19 -32 -30 -72t-11 -102
q0 -69 19.5 -121t53 -84.5t75.5 -48t88 -15.5q47 0 90 16t77.5 50t54.5 89t20 130v1zM298 274q0 -82 -7.5 -121t-33.5 -39q-12 0 -19.5 12t-10.5 30.5t-4 39t-1 48.5q0 24 0.5 53.5t3.5 53.5q3 31 10 50.5t24 19.5q18 0 24.5 -19t10.5 -50v-3q2 -20 2.5 -36t0.5 -39z" />
    <glyph glyph-name="ocircumflex" unicode="&#xf4;" horiz-adv-x="521" 
d="M347 573q14 -9 26 -9q13 0 23 9.5t10 24.5q0 11 -6.5 19.5t-29.5 25.5q-1 1 -17 14q-12 10 -22.5 18.5t-12.5 10.5l-11 9q-12 10 -19 15.5t-9 6.5q-9 7 -23 7q-13 0 -21.5 -5.5t-22.5 -19.5q-3 -4 -11 -12q-29 -31 -56 -51l-5 -4q-17 -15 -22 -21.5t-5 -17.5t9 -20.5
t23 -9.5q10 0 19.5 5t47.5 28q26 14 46 14q18 0 47 -13h1zM499 271q-4 115 -66 188.5t-172 73.5q-61 0 -112.5 -25t-86.5 -80q-19 -32 -30 -72t-11 -102q0 -69 19.5 -121t53 -84.5t75.5 -48t88 -15.5q47 0 90 16t77.5 50t54.5 89t20 130v1zM298 274q0 -82 -7.5 -121
t-33.5 -39q-12 0 -19.5 12t-10.5 30.5t-4 39t-1 48.5q0 24 0.5 53.5t3.5 53.5q3 31 10 50.5t24 19.5q18 0 24.5 -19t10.5 -50v-3q2 -20 2.5 -36t0.5 -39z" />
    <glyph glyph-name="otilde" unicode="&#xf5;" horiz-adv-x="521" 
d="M252 597l1 -1q16 -7 29.5 -11.5t31.5 -4.5q45 0 72.5 32t27.5 71q0 13 -3 18q-6 15 -23 15q-8 0 -13.5 -4t-15.5 -16l-1 -1q-9 -10 -18.5 -16t-24.5 -6q-11 0 -20 3.5t-31 17.5q-2 1 -3 1q-15 9 -28.5 14t-31.5 5q-38 0 -68 -27t-30 -72q0 -16 7 -27.5t23 -11.5
q7 0 12 3.5t17 16.5l3 3q8 8 16 13.5t18 5.5q7 0 16 -3.5t37 -17.5zM499 271q-4 115 -66 188.5t-172 73.5q-61 0 -112.5 -25t-86.5 -80q-19 -32 -30 -72t-11 -102q0 -69 19.5 -121t53 -84.5t75.5 -48t88 -15.5q47 0 90 16t77.5 50t54.5 89t20 130v1zM298 274
q0 -82 -7.5 -121t-33.5 -39q-12 0 -19.5 12t-10.5 30.5t-4 39t-1 48.5q0 24 0.5 53.5t3.5 53.5q3 31 10 50.5t24 19.5q18 0 24.5 -19t10.5 -50v-3q2 -20 2.5 -36t0.5 -39z" />
    <glyph glyph-name="odieresis" unicode="&#xf6;" horiz-adv-x="521" 
d="M243 640q-3 33 -27.5 52t-58.5 19t-61 -21t-27 -56q0 -31 22.5 -53t62.5 -22q48 0 68.5 24.5t20.5 56.5zM455 640q-3 33 -28 52t-58 19q-35 0 -61.5 -21t-26.5 -56q0 -31 22.5 -53t62.5 -22q48 0 68.5 24.5t20.5 56.5zM499 271q-4 115 -66 188.5t-172 73.5
q-61 0 -112.5 -25t-86.5 -80q-19 -32 -30 -72t-11 -102q0 -69 19.5 -121t53 -84.5t75.5 -48t88 -15.5q47 0 90 16t77.5 50t54.5 89t20 130v1zM298 274q0 -82 -7.5 -121t-33.5 -39q-12 0 -19.5 12t-10.5 30.5t-4 39t-1 48.5q0 24 0.5 53.5t3.5 53.5q3 31 10 50.5t24 19.5
q18 0 24.5 -19t10.5 -50v-3q2 -20 2.5 -36t0.5 -39z" />
    <glyph glyph-name="divide" unicode="&#xf7;" horiz-adv-x="500" 
d="M331 108q0 33 -22.5 58t-57.5 25q-34 0 -57.5 -24t-23.5 -58q0 -33 24 -56t57 -23q31 0 55 21.5t25 56.5zM500 353h-499v-126h499v126zM331 468q0 35 -23 58.5t-58 23.5q-31 0 -55.5 -23.5t-24.5 -58.5q0 -33 24 -56t55 -23q35 0 58.5 23t23.5 56z" />
    <glyph glyph-name="oslash" unicode="&#xf8;" horiz-adv-x="521" 
d="M509 537l1 1q4 6 4 11q-1 3 -3 5.5t-10 8.5q-15 13 -20 16.5t-9 3.5q-3 0 -5 -1.5t-7 -8.5l-3 -3l-59 -77q-24 17 -55 28.5t-80 11.5q-114 0 -176.5 -76t-62.5 -199q0 -53 14 -101t43 -87l-65 -85q-5 -7 -5 -12q0 -3 5 -8.5t12.5 -11t14.5 -9.5t9 -4q6 0 14 11l60 78
q20 -18 51 -31.5t82 -13.5q109 0 174.5 71.5t65.5 193.5q0 53 -12.5 106t-44.5 94zM317 284q0 -21 -2.5 -63t-7.5 -67q-4 -23 -14 -42.5t-33 -19.5q-19 0 -30 16.5t-14 40.5zM206 237q0 16 3.5 59.5t8.5 72.5q4 25 14 45.5t33 20.5q20 0 29.5 -17.5t13.5 -44.5z" />
    <glyph glyph-name="ugrave" unicode="&#xf9;" horiz-adv-x="521" 
d="M211 715v0q-10 11 -19.5 17.5t-24.5 6.5q-20 0 -32.5 -14t-12.5 -33q0 -14 5.5 -23t16.5 -20l74 -68q10 -10 20 -16t24 -6q17 0 24.5 10.5t7.5 22.5q0 10 -4.5 19t-16.5 24zM487 494q0 15 -6.5 19.5t-20.5 4.5h-146q-15 0 -18.5 -5.5t-4.5 -19.5v-1v-327q0 -26 -5 -39
t-25 -13q-21 0 -26.5 12.5t-5.5 39.5v330q0 14 -7 18.5t-20 4.5h-141q-12 0 -19 -4t-7 -18v-342q0 -38 9 -67.5t33 -52.5t69.5 -36t116.5 -13q74 0 135 19.5t79 53.5q10 19 10 62v374z" />
    <glyph glyph-name="uacute" unicode="&#xfa;" horiz-adv-x="521" 
d="M374 649l2 2q9 10 14 19t5 22q0 19 -12 33t-32 14q-15 0 -24.5 -6.5t-19.5 -17.5v0l-63 -80q-12 -15 -16.5 -24t-4.5 -19q0 -12 8 -22.5t25 -10.5q13 0 23 6t20 16zM487 494q0 15 -6.5 19.5t-20.5 4.5h-146q-15 0 -18.5 -5.5t-4.5 -19.5v-1v-327q0 -26 -5 -39t-25 -13
q-21 0 -26.5 12.5t-5.5 39.5v330q0 14 -7 18.5t-20 4.5h-141q-12 0 -19 -4t-7 -18v-342q0 -38 9 -67.5t33 -52.5t69.5 -36t116.5 -13q74 0 135 19.5t79 53.5q10 19 10 62v374z" />
    <glyph glyph-name="ucircumflex" unicode="&#xfb;" horiz-adv-x="521" 
d="M347 573q14 -9 26 -9q13 0 23 9.5t10 24.5q0 11 -6.5 19.5t-29.5 25.5q-1 1 -17 14q-12 10 -22.5 18.5t-12.5 10.5l-11 9q-12 10 -19 15.5t-9 6.5q-9 7 -23 7q-13 0 -21.5 -5.5t-22.5 -19.5q-3 -4 -11 -12q-29 -31 -56 -51l-5 -4q-17 -15 -22 -21.5t-5 -17.5t9 -20.5
t23 -9.5q10 0 19.5 5t47.5 28q26 14 46 14q18 0 47 -13h1zM487 494q0 15 -6.5 19.5t-20.5 4.5h-146q-15 0 -18.5 -5.5t-4.5 -19.5v-1v-327q0 -26 -5 -39t-25 -13q-21 0 -26.5 12.5t-5.5 39.5v330q0 14 -7 18.5t-20 4.5h-141q-12 0 -19 -4t-7 -18v-342q0 -38 9 -67.5
t33 -52.5t69.5 -36t116.5 -13q74 0 135 19.5t79 53.5q10 19 10 62v374z" />
    <glyph glyph-name="udieresis" unicode="&#xfc;" horiz-adv-x="521" 
d="M244 640q-3 33 -27.5 52t-58.5 19t-61 -21t-27 -56q0 -31 22.5 -53t62.5 -22q48 0 68.5 24.5t20.5 56.5zM456 640q-3 33 -28 52t-58 19q-35 0 -61.5 -21t-26.5 -56q0 -31 22.5 -53t62.5 -22q48 0 68.5 24.5t20.5 56.5zM487 494q0 15 -6.5 19.5t-20.5 4.5h-146
q-15 0 -18.5 -5.5t-4.5 -19.5v-1v-327q0 -26 -5 -39t-25 -13q-21 0 -26.5 12.5t-5.5 39.5v330q0 14 -7 18.5t-20 4.5h-141q-12 0 -19 -4t-7 -18v-342q0 -38 9 -67.5t33 -52.5t69.5 -36t116.5 -13q74 0 135 19.5t79 53.5q10 19 10 62v374z" />
    <glyph glyph-name="yacute" unicode="&#xfd;" horiz-adv-x="500" 
d="M365 649l2 2q9 10 14 19t5 22q0 19 -12 33t-32 14q-15 0 -24.5 -6.5t-19.5 -17.5v0l-63 -80q-12 -15 -16.5 -24t-4.5 -19q0 -12 8 -22.5t25 -10.5q13 0 23 6t20 16zM498 483l1 5q3 10 3 14q0 11 -6.5 13.5t-17.5 2.5h-105q-16 0 -21 -5t-10 -25l-71 -265l-64 271
q-4 17 -8.5 20.5t-20.5 3.5h-155q-10 0 -16.5 -2.5t-6.5 -13.5q0 -5 5 -21l181 -532q-15 -29 -23.5 -38.5t-23.5 -9.5q-8 0 -22 7l-5 2q-19 11 -37 11q-31 0 -53 -21t-22 -54q0 -37 29.5 -65t85.5 -28q47 0 80.5 16.5t56 43t35.5 54.5t28 69z" />
    <glyph glyph-name="thorn" unicode="&#xfe;" horiz-adv-x="521" 
d="M229 741q0 15 -6.5 19.5t-20.5 4.5h-137q-16 0 -21 -5.5t-5 -21.5v-946q0 -14 6 -19t22 -5h139q15 0 19.5 6t4.5 19v201q2 -1 3 -1q14 -5 27 -7.5t33 -2.5q98 0 153 82.5t55 212.5q0 74 -16 122.5t-44 78.5t-64 42t-80 12q-18 0 -34 -1.5t-34 -4.5v214zM230 385
q0 19 4 29.5t17 10.5q15 0 25 -17t16 -44.5t8.5 -56.5t2.5 -58q0 -31 -3.5 -62t-13.5 -53q-6 -14 -15 -21t-26 -7q-8 0 -14 3h-1v276z" />
    <glyph glyph-name="ydieresis" unicode="&#xff;" horiz-adv-x="500" 
d="M233 640q-3 33 -27.5 52t-58.5 19t-61 -21t-27 -56q0 -31 22.5 -53t62.5 -22q48 0 68.5 24.5t20.5 56.5zM445 640q-3 33 -28 52t-58 19q-35 0 -61.5 -21t-26.5 -56q0 -31 22.5 -53t62.5 -22q48 0 68.5 24.5t20.5 56.5zM498 483l1 5q3 10 3 14q0 11 -6.5 13.5t-17.5 2.5
h-105q-16 0 -21 -5t-10 -25l-71 -265l-64 271q-4 17 -8.5 20.5t-20.5 3.5h-155q-10 0 -16.5 -2.5t-6.5 -13.5q0 -5 5 -21l181 -532q-15 -29 -23.5 -38.5t-23.5 -9.5q-8 0 -22 7l-5 2q-19 11 -37 11q-31 0 -53 -21t-22 -54q0 -37 29.5 -65t85.5 -28q47 0 80.5 16.5t56 43
t35.5 54.5t28 69z" />
    </font>
</defs>
</svg>
