<?xml version="1.0" standalone="no"?>
<!DOCTYPE svg PUBLIC "-//W3C//DTD SVG 1.1//EN" "http://www.w3.org/Graphics/SVG/1.1/DTD/svg11.dtd" >
<svg>
<metadata>
Created by FontForge 20090622 at Fri Jan 29 04:49:33 2016
 By deploy user
TrueType font: Copyright &#194;&#169; 1991, 1994 ParaGraph. Technical realization by TeamAXis Corp. Hinted with AXisType ToolKit: Copyright &#194;&#169; 1992, 1994 by Dmitry Komissarov. Bauhaus is a registered trade mark of International Typeface Corporation.
</metadata>
<defs>
<font id="BauhausLightCTT-Bold" horiz-adv-x="586" >
  <font-face 
    font-family="BauhausLightCTT"
    font-weight="700"
    font-stretch="normal"
    units-per-em="1000"
    panose-1="0 0 0 0 0 0 0 0 0 0"
    ascent="800"
    descent="-200"
    x-height="486"
    cap-height="700"
    bbox="-86 -256 1109 943"
    underline-thickness="50"
    underline-position="-75"
    unicode-range="U+0020-U+2219"
  />
<missing-glyph horiz-adv-x="943" 
d="M58 0v943h827v-943h-827zM827 58v827h-711v-827h711z" />
    <glyph glyph-name=".notdef" horiz-adv-x="943" 
d="M58 0v943h827v-943h-827zM827 58v827h-711v-827h711z" />
    <glyph glyph-name=".null" horiz-adv-x="0" 
 />
    <glyph glyph-name="nonmarkingreturn" horiz-adv-x="233" 
 />
    <glyph glyph-name="space" unicode=" " horiz-adv-x="233" 
 />
    <glyph glyph-name="exclam" unicode="!" horiz-adv-x="278" 
d="M220 700l-13 -507h-136l-13 507h162zM222 71q0 -32 -22 -57.5t-61 -25.5q-38 0 -60.5 25.5t-22.5 57.5t22 57.5t61 25.5q38 0 62 -27q21 -24 21 -56z" />
    <glyph glyph-name="quotedbl" unicode="&#x22;" horiz-adv-x="300" 
d="M293 429h-112v271h112v-271zM119 429h-112v271h112v-271z" />
    <glyph glyph-name="numbersign" unicode="#" horiz-adv-x="596" 
d="M554 500l-3 -90h-100l-18 -120h91l-3 -90h-100l-27 -200h-98l27 200h-96l-27 -200h-98l27 200h-88l3 90h97l18 120h-88l3 90h97l27 200h98l-27 -200h96l27 200h98l-27 -200h91zM353 410h-96l-18 -120h96z" />
    <glyph glyph-name="dollar" unicode="$" horiz-adv-x="517" 
d="M444 257q0 -59 -34 -104q-37 -49 -102 -63v-122h-88v122h-136v122h171q27 0 41 9.5t14 29.5q0 26 -30 52q-10 9 -62 43q-77 52 -99 75q-47 48 -47 110q0 65 41 111t107 46v104h88v-104h109v-116h-161q-20 0 -31 -5q-19 -9 -19 -32q0 -18 13 -30t69 -50q84 -56 104 -76
q52 -52 52 -122z" />
    <glyph glyph-name="percent" unicode="%" horiz-adv-x="889" 
d="M824 177q0 -76 -51.5 -126.5t-125.5 -50.5t-125.5 50.5t-51.5 126.5t51.5 126.5t125.5 50.5t125.5 -50.5t51.5 -126.5zM699 700l-450 -700h-89l453 700h86zM386 523q0 -76 -51.5 -126.5t-125.5 -50.5t-125.5 50.5t-51.5 126.5t51.5 126.5t125.5 50.5t125.5 -50.5
t51.5 -126.5zM726 177q0 33 -23 56t-56 23t-56 -23t-23 -56t23 -56t56 -23t56 23t23 56zM288 523q0 33 -23 56t-56 23t-56 -23t-23 -56t23 -56t56 -23t56 23t23 56z" />
    <glyph glyph-name="ampersand" unicode="&#x26;" horiz-adv-x="736" 
d="M739 0h-173l-41 56q-34 -30 -78 -47q-54 -21 -116 -21q-129 0 -214.5 80.5t-85.5 207.5q0 50 18 96q31 80 109 130q-22 21 -29.5 44.5t-7.5 46.5q0 48 35.5 77.5t94.5 29.5h273v-140h-249l230 -275q1 9 1 25q0 79 -55 128l97 92q48 -43 75.5 -100t27.5 -119
q0 -52 -15 -96q-9 -27 -27 -55zM434 173l-193 229q-25 -20 -41 -46q-21 -35 -21 -75q0 -66 41.5 -109.5t103.5 -43.5q28 0 57.5 10t52.5 35z" />
    <glyph glyph-name="quotesingle" unicode="'" horiz-adv-x="222" 
d="M167 429h-112v271h112v-271z" />
    <glyph glyph-name="parenleft" unicode="(" horiz-adv-x="444" 
d="M392 -152l-74 -76q-109 86 -165.5 208t-56.5 262q0 141 56 262t166 208l74 -76q-97 -80 -146 -191q-42 -96 -42 -203q0 -105 42 -202q49 -112 146 -192z" />
    <glyph glyph-name="parenright" unicode=")" horiz-adv-x="444" 
d="M348 242q0 -141 -56 -262t-166 -208l-74 76q97 80 146 191q42 96 42 203q0 105 -42 202q-49 112 -146 192l74 76q109 -86 165.5 -208t56.5 -262z" />
    <glyph glyph-name="asterisk" unicode="*" horiz-adv-x="484" 
d="M424 566l-138 -43l137 -45l-51 -96l-108 98l27 -140h-99l28 140l-109 -98l-51 96l137 43l-138 45l51 92l109 -95l-27 137h99l-28 -135l110 93z" />
    <glyph glyph-name="plus" unicode="+" horiz-adv-x="584" 
d="M534 189h-188v-189h-108v189h-188v108h188v189h108v-189h188v-108z" />
    <glyph glyph-name="comma" unicode="," horiz-adv-x="278" 
d="M218 128l-101 -302h-101l58 302h144z" />
    <glyph glyph-name="hyphen" unicode="-" horiz-adv-x="335" 
d="M283 198h-231v102h231v-102z" />
    <glyph glyph-name="period" unicode="." horiz-adv-x="231" 
d="M198 79q0 -32 -22 -57.5t-61 -25.5q-38 0 -60.5 25.5t-22.5 57.5t22 57.5t61 25.5q38 0 62 -27q21 -24 21 -56z" />
    <glyph glyph-name="slash" unicode="/" horiz-adv-x="422" 
d="M456 712l-311 -724h-108l311 724h108z" />
    <glyph glyph-name="zero" unicode="0" horiz-adv-x="558" 
d="M518 225q0 -106 -66.5 -171.5t-172.5 -65.5q-105 0 -172 65t-67 172v247q0 109 66.5 174.5t172.5 65.5t172.5 -65.5t66.5 -174.5v-247zM374 230v242q0 47 -27.5 73.5t-67.5 26.5q-39 0 -67 -27t-28 -73v-242q0 -47 27.5 -74.5t67.5 -27.5q39 0 67 28t28 74z" />
    <glyph glyph-name="one" unicode="1" horiz-adv-x="565" 
d="M389 0h-144v566h-108v134h252v-700z" />
    <glyph glyph-name="two" unicode="2" horiz-adv-x="556" 
d="M518 0h-383q-54 0 -80.5 21.5t-26.5 65.5q0 42 39 85q8 9 59 59l145 144q39 39 55 63q22 33 22 62q0 31 -22.5 51.5t-56.5 20.5q-36 0 -60.5 -20t-24.5 -59q0 -32 16 -53t43 -30l-102 -102q-49 31 -75 78.5t-26 102.5q0 99 66 161t162 62q98 0 162 -62t64 -165
q0 -55 -24 -98.5t-82 -97.5l-162 -151h292v-138z" />
    <glyph glyph-name="three" unicode="3" horiz-adv-x="532" 
d="M492 206q0 -34 -9 -65t-29 -57q-37 -50 -97 -70q-43 -14 -108 -14h-213v134h205q41 0 64 12q39 20 39 71q0 37 -18 60q-26 33 -85 33h-129v90l204 166h-268v134h281q41 0 59 -5q34 -9 53 -39q17 -24 17 -59q0 -28 -11 -53t-39 -48l-98 -79q45 -5 79 -23q48 -26 77 -79
q26 -48 26 -109z" />
    <glyph glyph-name="four" unicode="4" horiz-adv-x="556" 
d="M523 148h-67v-148h-144v148h-200q-47 0 -73.5 28.5t-26.5 67.5q0 28 13 60q9 22 25 48l208 348h145l-249 -418h158v196l130 222h14v-418h67v-134z" />
    <glyph glyph-name="five" unicode="5" horiz-adv-x="536" 
d="M496 227q0 -75 -37 -131q-27 -40 -71 -66q-51 -30 -108 -30h-240v138h209q46 0 72.5 26.5t26.5 64.5q0 40 -26 64q-29 27 -79 27h-188v380h392v-134h-248v-112h82q66 0 117 -33q38 -25 63 -63q18 -28 26.5 -60.5t8.5 -70.5z" />
    <glyph glyph-name="six" unicode="6" horiz-adv-x="569" 
d="M533 234q0 -110 -69 -178t-177 -68t-179.5 67.5t-71.5 174.5q0 39 15 81q12 35 42 89l164 300h170l-209 -374q-20 -35 -27 -59t-7 -41q0 -47 32 -74q28 -24 69 -24q43 0 71.5 27.5t28.5 71.5q0 48 -29.5 79.5t-75.5 31.5l71 132q84 -22 133 -85.5t49 -150.5z" />
    <glyph glyph-name="seven" unicode="7" horiz-adv-x="476" 
d="M456 610q0 -19 -7.5 -48.5t-14.5 -50.5l-170 -511h-160l201 560h-285v140h322q57 0 85.5 -24t28.5 -66z" />
    <glyph glyph-name="eight" unicode="8" horiz-adv-x="566" 
d="M528 213q0 -71 -33 -124q-29 -47 -75 -72q-29 -16 -61.5 -22.5t-71.5 -6.5q-40 0 -73 6.5t-63 22.5q-49 26 -77 70q-34 53 -34 125q0 41 15 77q11 26 30 47q26 29 64 46q-40 20 -61.5 55.5t-21.5 80.5q0 77 50 131q58 63 165 63q111 0 170 -64q49 -53 49 -130
q0 -43 -21.5 -79.5t-61.5 -56.5q37 -16 64 -45q21 -22 32 -48q15 -36 15 -76zM354 501q0 31 -20 51t-51 20q-30 0 -50.5 -20.5t-20.5 -50.5q0 -29 20 -49t50 -20q31 0 51.5 19.5t20.5 49.5zM380 226q0 37 -28.5 64.5t-69.5 27.5q-38 0 -66 -27t-28 -65q0 -39 28.5 -68.5
t65.5 -29.5q40 0 69 29t29 69z" />
    <glyph glyph-name="nine" unicode="9" horiz-adv-x="569" 
d="M533 470q0 -42 -12.5 -77.5t-44.5 -92.5l-164 -300h-170l209 374q20 35 27 59t7 41q0 47 -30 72.5t-71 25.5q-43 0 -71.5 -27.5t-28.5 -71.5q0 -48 30.5 -79.5t74.5 -31.5l-71 -132q-84 22 -133 85.5t-49 150.5q0 108 69 177t177 69t179.5 -67.5t71.5 -174.5z" />
    <glyph glyph-name="colon" unicode=":" horiz-adv-x="278" 
d="M222 381q0 -32 -22 -57.5t-61 -25.5q-38 0 -60.5 25.5t-22.5 57.5t22 57.5t61 25.5q38 0 62 -27q21 -24 21 -56zM222 79q0 -32 -22 -57.5t-61 -25.5q-38 0 -60.5 25.5t-22.5 57.5t22 57.5t61 25.5q38 0 62 -27q21 -24 21 -56z" />
    <glyph glyph-name="semicolon" unicode=";" horiz-adv-x="278" 
d="M222 381q0 -32 -22 -57.5t-61 -25.5q-38 0 -60.5 25.5t-22.5 57.5t22 57.5t61 25.5q38 0 62 -27q21 -24 21 -56zM218 128l-101 -302h-101l58 302h144z" />
    <glyph glyph-name="less" unicode="&#x3c;" horiz-adv-x="600" 
d="M542 -1l-484 202v84l484 202v-102l-349 -142l349 -142v-102z" />
    <glyph glyph-name="equal" unicode="=" horiz-adv-x="584" 
d="M534 294h-484v108h484v-108zM534 84h-484v108h484v-108z" />
    <glyph glyph-name="greater" unicode="&#x3e;" horiz-adv-x="600" 
d="M542 201l-484 -202v102l349 142l-349 142v102l484 -202v-84z" />
    <glyph glyph-name="question" unicode="?" horiz-adv-x="531" 
d="M475 490q0 -74 -38 -126q-43 -59 -123 -71v-100h-138v209h29q69 0 95.5 21.5t26.5 66.5q0 43 -24.5 63.5t-60.5 20.5q-32 0 -56.5 -21t-32.5 -53l-136 34q23 87 87 132.5t148 45.5q100 0 161.5 -59.5t61.5 -162.5zM323 71q0 -32 -22 -57.5t-61 -25.5q-38 0 -60.5 25.5
t-22.5 57.5t22 57.5t61 25.5q38 0 62 -27q21 -24 21 -56z" />
    <glyph glyph-name="at" unicode="@" horiz-adv-x="769" 
d="M723 422q0 -96 -51 -163t-126 -67q-53 0 -73 36q-12 22 -12 55v55q0 54 -27 79q-21 19 -51 19q-36 0 -59 -23t-23 -61q0 -32 18 -54q22 -27 67 -27q18 0 30 3.5t19 10.5v-81q-12 -5 -26.5 -8.5t-31.5 -3.5q-71 0 -113.5 45.5t-42.5 109.5q0 69 40 115q45 52 120 52
q77 0 121 -50q39 -45 39 -113v-46q0 -18 4.5 -28t23.5 -10q29 0 50.5 41.5t21.5 98.5q0 97 -64 158q-68 65 -182 65q-133 0 -211 -88q-70 -79 -70 -195q0 -125 79 -201t205 -76q47 0 86 11q57 16 106 57v-90q-42 -31 -85.5 -45.5t-100.5 -14.5q-153 0 -261 101
q-111 104 -111 260q0 154 107.5 258.5t263.5 104.5q143 0 233 -86q87 -83 87 -204z" />
    <glyph glyph-name="A" unicode="A" horiz-adv-x="596" 
d="M542 0h-148v250h-152v140h152v68q0 54 -25 84t-71 30t-71 -30t-25 -84v-458h-148v449q0 124 72 196q67 67 172 67q103 0 171 -67q73 -72 73 -196v-449z" />
    <glyph glyph-name="B" unicode="B" horiz-adv-x="579" 
d="M533 204q0 -29 -6 -55.5t-20 -51.5q-31 -57 -84 -80q-39 -17 -95 -17h-86v140h61q29 0 42 5q21 8 33 34q7 17 7 39q0 15 -2.5 25.5t-9.5 21.5q-15 23 -33.5 28.5t-54.5 5.5h-43v122h22q37 0 56 9q38 18 38 64q0 39 -21.5 58.5t-52.5 19.5q-36 0 -57 -21q-25 -25 -25 -70
v-481h-148v480q0 109 62.5 170.5t163.5 61.5q110 0 172 -65q54 -57 54 -142q0 -52 -28 -91q-16 -23 -42 -40q49 -25 73 -70t24 -100z" />
    <glyph glyph-name="C" unicode="C" horiz-adv-x="498" 
d="M474 0h-74q-123 0 -214 63q-63 44 -103 111q-47 80 -47 176q0 45 12 91t35 85q40 67 103 111q91 63 214 63h74v-140h-74q-92 0 -154 -60t-62 -150t62 -150t154 -60h74v-140z" />
    <glyph glyph-name="D" unicode="D" horiz-adv-x="664" 
d="M628 344q0 -105 -52 -188q-60 -96 -162 -133q-63 -23 -142 -23h-30v140h30q56 0 96 20q57 28 90 96q22 44 22 89q0 36 -7.5 66t-25.5 57q-38 57 -101 78q-42 14 -104 14h-40v-560h-148v700h183q105 0 166 -20q103 -34 167 -130q29 -45 43.5 -97t14.5 -109z" />
    <glyph glyph-name="E" unicode="E" horiz-adv-x="485" 
d="M457 0h-45q-112 0 -184 30q-111 46 -163 169q-14 33 -21.5 72.5t-7.5 78.5q0 43 6 78t23 73q52 123 163 169q71 30 184 30h45v-140h-22q-74 0 -100 -4q-52 -8 -89 -38q-21 -17 -34 -38q-18 -28 -24 -65h269v-130h-269q4 -38 24 -70q17 -27 42 -44q37 -24 101 -29
q26 -2 62 -2h40v-140z" />
    <glyph glyph-name="F" unicode="F" horiz-adv-x="453" 
d="M417 262h-215v-262h-148v480q0 59 8 91q13 54 54 87q34 28 87 37q30 5 92 5h122v-140h-107q-58 0 -76 -12q-32 -22 -32 -100v-46h215v-140z" />
    <glyph glyph-name="G" unicode="G" horiz-adv-x="776" 
d="M740 357q0 -174 -110 -277q-99 -92 -237 -92q-152 0 -254.5 106.5t-102.5 255.5q0 151 102 256.5t258 105.5q70 0 131 -20q81 -27 145 -89l-94 -108q-34 34 -80.5 53.5t-97.5 19.5q-96 0 -156 -63t-60 -155q0 -94 59 -156t150 -62q72 0 123.5 43t67.5 110h-194v130h350
v-58z" />
    <glyph glyph-name="H" unicode="H" horiz-adv-x="594" 
d="M540 0h-148v308h-190v-308h-148v700h148v-252h190v252h148v-700z" />
    <glyph glyph-name="I" unicode="I" horiz-adv-x="256" 
d="M202 0h-148v700h148v-700z" />
    <glyph glyph-name="J" unicode="J" horiz-adv-x="323" 
d="M269 268v-24q0 -62 -9 -99q-14 -58 -54 -93q-32 -28 -85 -40t-103 -12h-20v144h22q33 0 47 3.5t26 12.5q19 15 25 44q3 15 3 52v444h148v-432z" />
    <glyph glyph-name="K" unicode="K" horiz-adv-x="574" 
d="M538 700l-81 -214q-15 -38 -27 -56q-18 -26 -47 -43q50 -11 83 -43q56 -54 56 -159v-185h-148v174q0 80 -40 108q-27 19 -84 19h-48v-301h-148v700h148v-273h19q39 0 65 30q20 23 39 73l63 170h150z" />
    <glyph glyph-name="L" unicode="L" horiz-adv-x="387" 
d="M389 0h-134q-125 0 -171 74q-30 49 -30 145v481h148v-474q0 -56 30 -73q16 -9 63 -9h94v-144z" />
    <glyph glyph-name="M" unicode="M" horiz-adv-x="800" 
d="M796 0h-155l-54 542l-121 -498q-7 -29 -16 -38q-14 -15 -50 -15q-30 0 -41 8q-16 11 -25 47l-121 496l-54 -542h-155l69 564q8 66 28 98q31 50 97 50q62 0 96 -40q23 -27 32 -68l74 -327l73 322q11 47 32 72q34 41 96 41q64 0 94 -44q23 -34 32 -104z" />
    <glyph glyph-name="N" unicode="N" horiz-adv-x="660" 
d="M606 121q0 -62 -9 -86q-18 -47 -74 -47t-92 53q-14 21 -35 64l-194 395v-500h-148v588q0 49 13 76q23 48 86 48q52 0 85 -33q20 -20 49 -78l171 -350v449h148v-579z" />
    <glyph glyph-name="O" unicode="O" horiz-adv-x="796" 
d="M760 350q0 -151 -105.5 -256.5t-256.5 -105.5t-256.5 105.5t-105.5 256.5t105.5 256.5t256.5 105.5t256.5 -105.5t105.5 -256.5zM612 350q0 90 -62 154t-152 64t-152 -63t-62 -155q0 -90 62 -154t152 -64t152 63t62 155z" />
    <glyph glyph-name="P" unicode="P" 
d="M550 463q0 -103 -63.5 -163.5t-160.5 -60.5h-84v130h59q47 0 74 27t27 72q0 50 -30 77t-71 27q-43 0 -71 -31t-28 -91v-450h-148v469q0 104 60 171q65 72 180 72q122 0 192 -75q64 -69 64 -174z" />
    <glyph glyph-name="Q" unicode="Q" horiz-adv-x="796" 
d="M760 350q0 -130 -80 -228t-209 -128v-96h-128v344h128v-96q68 24 107 86q34 55 34 118q0 90 -62 154t-152 64t-152 -63t-62 -155q0 -63 33 -118.5t86 -75.5v-156q-125 35 -198 136q-69 95 -69 214q0 151 105.5 256.5t256.5 105.5t256.5 -105.5t105.5 -256.5z" />
    <glyph glyph-name="R" unicode="R" horiz-adv-x="572" 
d="M526 0h-148v177q0 29 -1.5 42.5t-10.5 26.5q-12 17 -29 22t-42 5h-53v130h29q46 0 71.5 22.5t25.5 59.5t-23 60t-60 23q-34 0 -56 -21q-27 -26 -27 -81v-466h-148v467q0 117 65 181t172 64t168 -63q57 -59 57 -150q0 -65 -35 -106q-21 -25 -52 -39q62 -17 84 -71
q13 -32 13 -91v-192z" />
    <glyph glyph-name="S" unicode="S" horiz-adv-x="504" 
d="M470 191q0 -58 -25 -100q-34 -58 -97 -78q-40 -13 -112 -13h-201v140h190q42 0 60 6q33 11 33 44q0 22 -17 41q-11 12 -77 55q-70 46 -102 71q-44 35 -63 67q-25 41 -25 96q0 58 29 102q33 51 88 67q37 11 109 11h181v-140h-192q-30 0 -42 -5q-21 -9 -21 -34
q0 -19 14 -36q11 -14 27 -27q12 -9 58 -38q74 -45 108.5 -72.5t51.5 -55.5q13 -20 19 -47t6 -54z" />
    <glyph glyph-name="T" unicode="T" horiz-adv-x="444" 
d="M448 560h-152v-560h-148v560h-152v140h452v-140z" />
    <glyph glyph-name="U" unicode="U" horiz-adv-x="596" 
d="M542 273q0 -113 -31 -169q-27 -48 -86 -82t-127 -34t-127 33q-74 42 -100 113q-17 46 -17 127v439h148v-453q0 -56 29 -87q26 -28 67 -28q47 0 71.5 32.5t24.5 82.5v453h148v-427z" />
    <glyph glyph-name="V" unicode="V" horiz-adv-x="556" 
d="M566 700l-142 -561q-18 -73 -39 -102q-35 -49 -107 -49q-70 0 -106 48q-22 29 -39 99l-143 565h158l130 -538l130 538h158z" />
    <glyph glyph-name="W" unicode="W" horiz-adv-x="876" 
d="M822 237q0 -96 -30 -148q-26 -44 -78 -74q-47 -27 -108 -27q-44 0 -84 16q-48 19 -84 61q-34 -38 -78 -57.5t-93 -19.5q-57 0 -105 27q-65 37 -90 102q-18 47 -18 120v463h148v-441q0 -47 5 -67q9 -35 36 -51q9 -6 18.5 -7.5t18.5 -1.5q23 0 41 10q22 13 32.5 37t10.5 80
v441h148v-441q0 -48 5 -67q9 -33 38 -50q16 -10 38 -10q16 0 22.5 1.5t17.5 7.5q26 15 35 50q6 24 6 68v441h148v-463z" />
    <glyph glyph-name="X" unicode="X" horiz-adv-x="500" 
d="M482 0h-6q-71 0 -132.5 44t-92.5 115q-31 -70 -94 -114.5t-133 -44.5h-6v140h5q39 0 77.5 31t57.5 74q9 21 13.5 47t4.5 55q0 33 -3.5 58.5t-14.5 49.5q-18 42 -56.5 73.5t-78.5 31.5h-5v140h6q71 0 133 -44t94 -115q30 70 92.5 114.5t132.5 44.5h6v-140h-5
q-39 0 -77.5 -31t-57.5 -74q-9 -21 -13.5 -50t-4.5 -58q0 -32 3.5 -54.5t14.5 -47.5q18 -42 56.5 -73.5t78.5 -31.5h5v-140z" />
    <glyph glyph-name="Y" unicode="Y" horiz-adv-x="556" 
d="M506 483v-21q0 -47 -9 -76q-14 -44 -50 -78q-19 -18 -42 -31t-53 -21v-256h-148v256q-29 8 -52 21t-43 31q-41 38 -53 88q-6 26 -6 87v217h148v-211q0 -56 31 -82q21 -17 49 -17t49 17q31 26 31 82v211h148v-217z" />
    <glyph glyph-name="Z" unicode="Z" horiz-adv-x="511" 
d="M489 0h-364q-37 0 -61 12q-42 21 -42 75q0 24 10 49q6 15 22 40l237 384h-235v140h300q50 0 76 -12q43 -20 43 -75q0 -21 -5 -34t-34 -62l-229 -377h282v-140z" />
    <glyph glyph-name="bracketleft" unicode="[" horiz-adv-x="333" 
d="M274 -216h-198v916h198v-68h-96v-780h96v-68z" />
    <glyph glyph-name="backslash" unicode="\" horiz-adv-x="422" 
d="M385 -12h-108l-311 724h108z" />
    <glyph glyph-name="bracketright" unicode="]" horiz-adv-x="333" 
d="M257 -216h-198v68h96v780h-96v68h198v-916z" />
    <glyph glyph-name="asciicircum" unicode="^" horiz-adv-x="600" 
d="M530 325h-110l-120 265l-120 -265h-110l180 375h100z" />
    <glyph glyph-name="underscore" unicode="_" horiz-adv-x="604" 
d="M552 -177h-500v102h500v-102z" />
    <glyph glyph-name="grave" unicode="`" horiz-adv-x="221" 
d="M197 556h-73l-148 144h128z" />
    <glyph glyph-name="a" unicode="a" 
d="M540 0h-128v205q0 70 -20 109q-30 60 -105 60q-55 0 -91 -37t-36 -97q0 -49 28 -84q35 -44 107 -44q31 0 48 6t29 17v-128q-21 -9 -43.5 -14t-49.5 -5q-98 0 -169 64q-78 70 -78 182q0 103 66 179q74 85 192 85q94 0 159 -52q91 -73 91 -232v-214z" />
    <glyph glyph-name="b" unicode="b" horiz-adv-x="583" 
d="M551 243q0 -106 -74.5 -180.5t-180.5 -74.5q-66 0 -125 34q-74 43 -103 118q-22 56 -22 142v418h128v-436q0 -84 43 -123q32 -29 79 -29q54 0 90.5 37.5t36.5 93.5q0 60 -41.5 95.5t-97.5 35.5q-31 0 -70 -18v128q39 14 82 14q107 0 181 -74t74 -181z" />
    <glyph glyph-name="c" unicode="c" horiz-adv-x="389" 
d="M359 0h-72q-70 0 -118 18q-69 26 -107 91q-16 27 -24 63t-8 71q0 38 7.5 71.5t24.5 62.5q38 65 108 91q48 18 119 18h70v-124h-70q-42 0 -63 -8q-33 -12 -50.5 -44t-17.5 -67q0 -36 16 -65q20 -34 52 -46q22 -8 63 -8h70v-124z" />
    <glyph glyph-name="d" unicode="d" horiz-adv-x="583" 
d="M537 282q0 -87 -21 -141q-29 -75 -104 -119q-59 -34 -125 -34q-107 0 -181 74t-74 181t74 181t181 74q43 0 82 -14v-128q-18 8 -36.5 13t-38.5 5q-52 0 -90 -32q-44 -37 -44 -99q0 -55 36 -93t91 -38q32 0 61 17q41 25 54 67q7 23 7 75v429h128v-418z" />
    <glyph glyph-name="e" unicode="e" horiz-adv-x="572" 
d="M542 206q-16 -102 -94 -163q-71 -55 -163 -55q-108 0 -181.5 73.5t-73.5 181.5t73.5 181.5t181.5 73.5q77 0 137.5 -37.5t93.5 -106.5l-247 -185l-62 81l127 98q-11 13 -28 19.5t-35 6.5q-47 0 -80 -37.5t-33 -92.5q0 -61 44 -99q39 -33 88 -33q45 0 79.5 29.5t43.5 78.5
z" />
    <glyph glyph-name="f" unicode="f" horiz-adv-x="283" 
d="M274 362h-100v-362h-128v477q0 68 6 98q11 55 45 86q28 26 61.5 32.5t86.5 6.5h29v-124h-35q-33 0 -45 -8q-20 -13 -20 -57v-25h100v-124z" />
    <glyph glyph-name="g" unicode="g" horiz-adv-x="580" 
d="M534 55q0 -76 -10 -114q-17 -65 -71 -108q-39 -31 -97 -44q-40 -9 -87 -9q-56 0 -106 10q-30 6 -59 16v124q51 -14 89 -20t65 -6q32 0 52 4q33 7 58 28.5t33 56.5q5 22 5 66v153q0 43 -3 60q-6 34 -27 60q-34 42 -91 42q-50 0 -87.5 -34.5t-37.5 -92.5q0 -38 17.5 -67
t44.5 -42.5t59 -13.5q30 0 50 9.5t35 27.5v-128q-23 -18 -47.5 -25.5t-47.5 -7.5q-61 0 -114 29q-58 32 -91.5 88t-33.5 128q0 98 63 170q72 83 193 83q63 0 114 -25q39 -19 67 -50q40 -44 55 -107q10 -43 10 -112v-149z" />
    <glyph glyph-name="h" unicode="h" horiz-adv-x="494" 
d="M448 0h-128v287q0 46 -25 69q-20 18 -48 18q-29 0 -49 -19q-24 -23 -24 -68v-287h-128v700h128v-251q24 26 51.5 37.5t60.5 11.5q71 0 114 -47q48 -52 48 -147v-304z" />
    <glyph glyph-name="i" unicode="i" horiz-adv-x="254" 
d="M208 631q0 -34 -23.5 -57.5t-57.5 -23.5t-57.5 23.5t-23.5 57.5t23.5 57.5t57.5 23.5t57.5 -23.5t23.5 -57.5zM191 0h-128v486h128v-486z" />
    <glyph glyph-name="j" unicode="j" horiz-adv-x="240" 
d="M194 631q0 -34 -23.5 -57.5t-57.5 -23.5t-57.5 23.5t-23.5 57.5t23.5 57.5t57.5 23.5t57.5 -23.5t23.5 -57.5zM175 -2v-21t1 -22q0 -41 -6 -71.5t-26 -55.5q-28 -36 -74 -48q-30 -8 -86 -8h-34v124h34q44 0 57 26q6 12 6 52v512h128v-488z" />
    <glyph glyph-name="k" unicode="k" horiz-adv-x="496" 
d="M462 486l-51 -113q-20 -43 -31 -59q-18 -26 -48 -35q72 0 101 -57q19 -37 19 -98v-124h-128v94q0 48 -10 69q-17 35 -67 35h-73v-198h-128v700h128v-378h27q21 0 32 6q21 11 36 45l50 113h143z" />
    <glyph glyph-name="l" unicode="l" horiz-adv-x="220" 
d="M174 0h-128v700h128v-700z" />
    <glyph glyph-name="m" unicode="m" horiz-adv-x="762" 
d="M716 0h-128v293q0 42 -25 64q-19 17 -46 17q-26 0 -44 -15q-28 -23 -28 -77v-282h-128v282q0 53 -28 76q-19 16 -44 16q-26 0 -45 -17q-26 -23 -26 -64v-293h-128v295q0 60 12 93q20 54 77 86q44 24 94 24q43 0 81.5 -17t70.5 -58q30 39 69.5 57t82.5 18q52 0 94 -24
q58 -32 77 -85q12 -33 12 -94v-295z" />
    <glyph glyph-name="n" unicode="n" horiz-adv-x="494" 
d="M448 0h-128v276q0 38 -11 61q-18 37 -62 37q-43 0 -61 -36q-12 -25 -12 -62v-276h-128v258q0 78 12 115q20 63 84 99q24 13 49.5 19.5t55.5 6.5q59 0 105 -26q63 -36 83 -98q13 -40 13 -116v-258z" />
    <glyph glyph-name="o" unicode="o" horiz-adv-x="574" 
d="M542 243q0 -107 -74 -181t-181 -74t-181 74t-74 181t74 181t181 74t181 -74t74 -181zM414 243q0 55 -37 93t-90 38q-54 0 -90.5 -37.5t-36.5 -93.5q0 -55 37 -93t90 -38q54 0 90.5 37.5t36.5 93.5z" />
    <glyph glyph-name="p" unicode="p" 
d="M554 237q0 -115 -80 -186q-71 -63 -166 -63q-46 0 -94 30v129q18 -17 37.5 -26t45.5 -9q55 0 89 30q40 35 40 99q0 60 -35.5 96.5t-92.5 36.5q-73 0 -103 -60q-21 -42 -21 -107v-423h-128v433q0 142 77 217q66 64 171 64q121 0 194 -83q66 -75 66 -178z" />
    <glyph glyph-name="q" unicode="q" 
d="M540 -216h-128v423q0 66 -20 106q-31 61 -104 61q-58 0 -93 -36t-35 -97q0 -64 39 -98q35 -31 90 -31q25 0 44.5 9t38.5 26v-129q-48 -30 -94 -30q-95 0 -166 63q-80 71 -80 186q0 102 66 177q74 84 194 84q104 0 171 -64q77 -74 77 -217v-433z" />
    <glyph glyph-name="r" unicode="r" horiz-adv-x="325" 
d="M311 357h-18q-73 0 -101 -51q-18 -33 -18 -92v-214h-128v486h115v-92q17 60 66 84q29 14 68 14h16v-135z" />
    <glyph glyph-name="s" unicode="s" horiz-adv-x="390" 
d="M364 144q0 -53 -29 -87q-48 -57 -162 -57h-147v124h152q23 0 32 3q18 6 18 24q0 25 -41 47q-3 2 -39 19q-77 35 -97.5 62.5t-20.5 68.5q0 60 35 96q41 42 120 42h158v-124h-146h-13q-12 0 -19 -3.5t-7 -14.5q0 -14 20 -26q6 -4 39 -19q76 -36 101 -56q46 -38 46 -99z" />
    <glyph glyph-name="t" unicode="t" horiz-adv-x="286" 
d="M267 0h-34h-15q-39 0 -57 3q-33 6 -58 23q-39 28 -51 78q-6 25 -6 85v427h128v-130h93v-124h-93v-173q0 -31 7 -43q13 -22 52 -22h34v-124z" />
    <glyph glyph-name="u" unicode="u" horiz-adv-x="494" 
d="M448 221q0 -75 -13 -112q-21 -60 -84 -95q-46 -26 -104 -26q-28 0 -54 6t-50 20q-62 35 -83 94q-14 40 -14 114v264h128v-280q0 -31 6.5 -50t30.5 -34q16 -10 36 -10t36 10q23 14 30 35t7 49v280h128v-265z" />
    <glyph glyph-name="v" unicode="v" horiz-adv-x="439" 
d="M442 486l-113 -382q-15 -54 -28 -73q-28 -43 -82 -43q-53 0 -81 43q-13 20 -29 73l-113 382h140l83 -322l83 322h140z" />
    <glyph glyph-name="w" unicode="w" horiz-adv-x="762" 
d="M716 200q0 -68 -12 -102q-19 -54 -77 -86q-42 -24 -94 -24q-43 0 -82.5 18t-69.5 57q-30 -39 -70 -57t-82 -18q-50 0 -94 24q-58 33 -77 85q-12 34 -12 103v286h128v-294q0 -40 25 -62q21 -18 46 -18q28 0 50 22t22 58v294h128v-294q0 -36 22 -58t50 -22q25 0 45 17
q26 22 26 63v294h128v-286z" />
    <glyph glyph-name="x" unicode="x" horiz-adv-x="388" 
d="M382 0h-18q-54 0 -87 13q-55 22 -83 84q-27 -60 -83 -83q-35 -14 -87 -14h-18v124h8q34 0 54 8q31 12 48 45q7 13 10.5 30.5t3.5 35.5q0 26 -3 39t-11 27q-17 32 -43 42.5t-59 10.5h-8v124h21q51 0 84 -13q56 -22 83 -84q27 60 83 83q34 14 84 14h21v-124h-8
q-34 0 -54 -8q-30 -12 -48 -45q-7 -13 -10.5 -30.5t-3.5 -35.5q0 -36 15.5 -66.5t46.5 -43.5q22 -9 54 -9h8v-124z" />
    <glyph glyph-name="y" unicode="y" horiz-adv-x="498" 
d="M452 205q0 -75 -21 -121q-33 -72 -118 -88v-202h-128v202q-83 16 -117 88q-22 48 -22 121v281h128v-277q0 -49 24 -73q20 -20 51 -20q32 0 51 19q24 24 24 74v277h128v-281z" />
    <glyph glyph-name="z" unicode="z" horiz-adv-x="449" 
d="M427 410q0 -32 -17 -61q-9 -16 -33 -42l-166 -183h215v-124h-302q-42 0 -64 10q-38 17 -38 66q0 27 16 50q6 9 39 45l177 191h-200v124h270q43 0 64 -9q39 -17 39 -67z" />
    <glyph glyph-name="braceleft" unicode="{" horiz-adv-x="444" 
d="M434 -206h-78q-70 0 -105 35q-38 38 -38 110v194q0 34 -29 52t-67 18v88q35 0 59 13q37 20 37 63v188q0 71 37 108t106 37h78v-82h-55q-32 0 -48 -19t-16 -49v-202q0 -55 -38 -82q-27 -19 -58 -19q31 0 57 -18q39 -27 39 -83v-202q0 -30 12 -46q16 -22 52 -22h55v-82z
" />
    <glyph glyph-name="bar" unicode="|" horiz-adv-x="222" 
d="M165 0h-108v700h108v-700z" />
    <glyph glyph-name="braceright" unicode="}" horiz-adv-x="444" 
d="M327 203q-36 0 -66 -18.5t-30 -51.5v-194q0 -71 -37 -108t-106 -37h-78v82h55q32 0 48 19t16 49v202q0 55 38 82q27 19 58 19q-31 0 -57 18q-39 27 -39 83v202q0 30 -16 49t-48 19h-55v82h78q70 0 106.5 -36.5t36.5 -108.5v-194q0 -33 32 -53q28 -17 64 -17v-88z" />
    <glyph glyph-name="asciitilde" unicode="~" horiz-adv-x="600" 
d="M531 243q-27 -43 -57 -64.5t-68 -21.5q-27 0 -52 9q-8 3 -50.5 24t-67.5 28t-43 7q-32 0 -53.5 -19.5t-34.5 -52.5l-36 90q18 37 45 59q33 27 78 27q31 0 70 -14q21 -8 64 -28q21 -10 44 -18t35 -8q30 0 57 26q18 17 33 46z" />
    <glyph glyph-name="c128" horiz-adv-x="703" 
d="M649 236q0 -72 -21 -123q-15 -37 -42 -61q-31 -28 -84.5 -40t-103.5 -12h-20v144h22q33 0 47 3.5t23.5 11t15.5 16.5q15 24 15 62v35q0 61 -32 91q-26 24 -64 24q-42 0 -67 -27q-29 -32 -29 -93v-267h-148v576h-159v124h523v-124h-216v-63q21 9 44.5 13.5t51.5 4.5
q110 0 177 -70t67 -188v-37z" />
    <glyph glyph-name="c129" horiz-adv-x="557" 
d="M464 898l-148 -144h-73l93 144h128zM469 560h-150q-34 0 -56 -4t-37.5 -20.5t-19.5 -40.5t-4 -58v-14v-423h-148v462q0 56 7 88q13 60 52 97q35 33 92 45q38 8 97 8h35h132v-140z" />
    <glyph glyph-name="quotesinglbase" unicode="&#x201a;" horiz-adv-x="222" 
d="M185 128l-57 -228h-99l27 228h129z" />
    <glyph glyph-name="florin" unicode="&#x192;" horiz-adv-x="429" 
d="M402 700l-148 -144h-73l93 144h128zM362 362h-111q-32 0 -45.5 -2.5t-27.5 -20.5q-9 -11 -11.5 -27.5t-2.5 -39.5v-272h-128v278q0 54 6 81q10 43 41 76q35 36 84 46q24 5 86 5h109v-124z" />
    <glyph glyph-name="quotedblbase" unicode="&#x201e;" horiz-adv-x="414" 
d="M381 128l-57 -228h-99l27 228h129zM196 128l-57 -228h-99l27 228h129z" />
    <glyph glyph-name="ellipsis" unicode="&#x2026;" horiz-adv-x="1000" 
d="M916 79q0 -32 -22 -57.5t-61 -25.5q-38 0 -60.5 25.5t-22.5 57.5t22 57.5t61 25.5q38 0 62 -27q21 -24 21 -56zM583 79q0 -32 -22 -57.5t-61 -25.5q-38 0 -60.5 25.5t-22.5 57.5t22 57.5t61 25.5q38 0 62 -27q21 -24 21 -56zM250 79q0 -32 -22 -57.5t-61 -25.5
q-38 0 -60.5 25.5t-22.5 57.5t22 57.5t61 25.5q38 0 62 -27q21 -24 21 -56z" />
    <glyph glyph-name="dagger" unicode="&#x2020;" horiz-adv-x="452" 
d="M419 414l-172 44l45 -164l-45 -398h-42l-45 398l45 164l-172 -44v130l172 -44l-45 200h132l-45 -200l172 44v-130z" />
    <glyph glyph-name="daggerdbl" unicode="&#x2021;" horiz-adv-x="500" 
d="M443 44l-172 44l45 -200h-132l45 200l-172 -44v130l172 -44l-45 164l45 164l-172 -44v130l172 -44l-45 200h132l-45 -200l172 44v-130l-172 44l45 -164l-45 -164l172 44v-130z" />
    <glyph glyph-name="circumflex" unicode="&#x2c6;" horiz-adv-x="304" 
d="M328 556h-113l-63 82l-63 -82h-113l114 144h124z" />
    <glyph glyph-name="perthousand" unicode="&#x2030;" horiz-adv-x="1000" 
d="M993 167q0 -63 -44 -107t-107 -44t-107 44t-44 107t44 107t107 44t107 -44t44 -107zM308 527q0 -63 -44 -107t-107 -44t-107 44t-44 107t44 107t107 44t107 -44t44 -107zM593 700l-471 -700h-73l471 700h73zM631 167q0 -63 -44 -107t-107 -44t-107 44t-44 107t44 107
t107 44t107 -44t44 -107zM901 167q0 27 -16 43t-43 16t-43 -16t-16 -43t16 -43t43 -16t43 16t16 43zM216 527q0 27 -16 43t-43 16t-43 -16t-16 -43t16 -43t43 -16t43 16t16 43zM539 167q0 27 -16 43t-43 16t-43 -16t-16 -43t16 -43t43 -16t43 16t16 43z" />
    <glyph glyph-name="Scaron" unicode="&#x160;" horiz-adv-x="957" 
d="M921 252q0 -107 -63 -180q-73 -84 -206 -84q-118 0 -184 71t-66 187v314h-30q-83 0 -122.5 -44.5t-39.5 -140.5v-375h-220v140h76v243q0 71 16 121q23 72 81 124q48 43 107 60q43 12 101 12h179v-440q0 -39 5.5 -60.5t27.5 -42.5q31 -29 77 -29q45 0 77 28q36 31 36 85
q0 39 -15.5 64t-42.5 38t-48 13t-39.5 -4t-37.5 -15v141q18 8 38.5 13t48.5 5q98 0 168 -64q76 -70 76 -180z" />
    <glyph glyph-name="guilsinglleft" unicode="&#x2039;" horiz-adv-x="268" 
d="M247 89h-100l-125 154l125 154h100l-125 -154z" />
    <glyph glyph-name="OE" unicode="&#x152;" horiz-adv-x="947" 
d="M911 252q0 -107 -63 -180q-73 -84 -206 -84q-118 0 -184 71t-66 187v62h-190v-308h-148v700h148v-252h190v252h148v-440q0 -39 5.5 -60.5t27.5 -42.5q31 -29 77 -29q45 0 77 28q36 31 36 85q0 39 -15.5 64t-42.5 38t-48 13t-39.5 -4t-37.5 -15v141q18 8 38.5 13t48.5 5
q98 0 168 -64q76 -70 76 -180z" />
    <glyph glyph-name="c141" horiz-adv-x="574" 
d="M471 898l-148 -144h-73l93 144h128zM538 700l-81 -214q-15 -38 -27 -56q-18 -26 -47 -43q50 -11 83 -43q56 -54 56 -159v-185h-148v174q0 80 -40 108q-27 19 -84 19h-48v-301h-148v700h148v-273h19q39 0 65 30q20 23 39 73l63 170h150z" />
    <glyph glyph-name="c142" horiz-adv-x="703" 
d="M649 0h-148v272q0 50 -23 81q-26 34 -73 34q-36 0 -60 -21q-36 -31 -36 -101v-265h-148v576h-159v124h523v-124h-216v-63q21 8 43.5 13t52.5 5q68 0 127 -33q73 -42 99 -115q18 -50 18 -137v-246z" />
    <glyph glyph-name="c143" horiz-adv-x="596" 
d="M542 0h-170v-256h-148v256h-170v700h148v-560h192v560h148v-700z" />
    <glyph glyph-name="c144" horiz-adv-x="566" 
d="M520 0h-128v287q0 46 -25 69q-20 18 -48 18q-29 0 -49 -19q-24 -23 -24 -68v-287h-128v577h-81v86h81v37h128v-37h196v-86h-196v-128q24 26 51.5 37.5t60.5 11.5q71 0 114 -47q48 -52 48 -147v-304z" />
    <glyph glyph-name="quoteleft" unicode="&#x2018;" horiz-adv-x="279" 
d="M193 472h-99l-57 228h129z" />
    <glyph glyph-name="quoteright" unicode="&#x2019;" horiz-adv-x="222" 
d="M185 700l-57 -228h-99l27 228h129z" />
    <glyph glyph-name="quotedblleft" unicode="&#x201c;" horiz-adv-x="414" 
d="M371 472h-99l-57 228h129zM186 472h-99l-57 228h129z" />
    <glyph glyph-name="quotedblright" unicode="&#x201d;" horiz-adv-x="414" 
d="M384 700l-57 -228h-99l27 228h129zM199 700l-57 -228h-99l27 228h129z" />
    <glyph glyph-name="bullet" unicode="&#x2022;" horiz-adv-x="500" 
d="M425 351q0 -74 -50 -125t-124 -51t-125 51t-51 125t51 124t125 50t124 -50t50 -124z" />
    <glyph glyph-name="endash" unicode="&#x2013;" horiz-adv-x="604" 
d="M552 198h-500v102h500v-102z" />
    <glyph glyph-name="emdash" unicode="&#x2014;" horiz-adv-x="1104" 
d="M1052 198h-1000v102h1000v-102z" />
    <glyph glyph-name="tilde" unicode="&#x2dc;" horiz-adv-x="318" 
d="M342 690q-7 -48 -30 -80q-31 -42 -82 -42q-18 0 -35.5 5t-40 13.5t-41 13t-29.5 4.5q-20 0 -30.5 -13t-13.5 -29h-64q5 56 38 90t77 34q21 0 44 -7q14 -4 42 -16q11 -5 25.5 -10t25.5 -5q41 0 49 42h65z" />
    <glyph glyph-name="trademark" unicode="&#x2122;" horiz-adv-x="1113" 
d="M1109 214h-139l-30 314l-3 19l-1 3l-4 -9l-14 -45l-76 -229q-12 -37 -26 -51t-35 -14q-25 0 -40 20q-9 13 -20 45l-78 229l-14 45q-2 8 -3 9q-1 -1 -1 -2l-3 -23l-31 -311h-139l62 411q5 32 17 51q23 36 71 36q66 0 89 -66l63 -190q5 -16 10 -30t14 -45l3 -7l4 8l11 33
l13 41l61 190q21 66 89 66q47 0 71 -36q13 -20 18 -51zM444 576h-140v-362h-128v362h-140v124h408v-124z" />
    <glyph glyph-name="scaron" unicode="&#x161;" horiz-adv-x="776" 
d="M746 191q0 -84 -52 -140q-58 -63 -161 -63q-42 0 -73 10q-42 13 -75 47q-29 30 -43 69.5t-14 121.5v126h-19q-27 0 -44 -2.5t-34 -11.5q-27 -15 -41.5 -46.5t-14.5 -95.5v-206h-185v124h63v111q0 69 17 112q25 63 89 101q37 22 80.5 30t94.5 8h122v-283q0 -41 22 -66
t61 -25t59 20.5t20 49.5q0 30 -21 53t-57 23q-14 0 -28 -4q-3 -1 -16 -6v115q12 4 27.5 6.5t32.5 2.5q77 0 131 -46q59 -50 59 -135z" />
    <glyph glyph-name="guilsinglright" unicode="&#x203a;" horiz-adv-x="268" 
d="M246 243l-125 -154h-100l125 154l-125 154h100z" />
    <glyph glyph-name="oe" unicode="&#x153;" horiz-adv-x="779" 
d="M749 191q0 -84 -52 -140q-58 -63 -161 -63q-42 0 -73 10q-42 13 -75 47q-25 26 -41 64.5t-16 77.5v23h-166v-210h-128v486h128v-172h166v172h128v-283q0 -41 22 -66t61 -25t59 20.5t20 49.5q0 30 -21 53t-57 23q-14 0 -28 -4q-3 -1 -16 -6v115q12 4 27.5 6.5t32.5 2.5
q77 0 131 -46q59 -50 59 -135z" />
    <glyph glyph-name="c157" horiz-adv-x="489" 
d="M408 700l-148 -144h-73l93 144h128zM453 486l-59 -129l-22 -47q-15 -25 -41 -42q66 -7 94 -71q17 -40 17 -90v-107h-128v103q0 58 -28 80q-19 15 -61 15h-61v-198h-128v486h128v-181h29q33 0 48 14t36 67l39 100h137z" />
    <glyph glyph-name="c158" horiz-adv-x="494" 
d="M448 0h-128v287q0 46 -25 69q-20 18 -48 18q-29 0 -49 -19q-24 -23 -24 -68v-287h-128v700h128v-251q24 26 51.5 37.5t60.5 11.5q71 0 114 -47q48 -52 48 -147v-304z" />
    <glyph glyph-name="Ydieresis" unicode="&#x178;" horiz-adv-x="498" 
d="M452 0h-139v-206h-128v206h-139v486h128v-366h150v366h128v-486z" />
    <glyph glyph-name="nonbreakingspace" unicode="&#xa0;" horiz-adv-x="500" 
 />
    <glyph glyph-name="exclamdown" unicode="&#xa1;" horiz-adv-x="621" 
d="M474 884q-6 -71 -53 -107.5t-115 -36.5t-113 35q-49 38 -55 109h67q8 -34 35.5 -51.5t66.5 -17.5q40 0 67 16.5t35 52.5h65zM379 257h-63q-74 0 -113 9q-73 17 -111 69q-23 31 -30.5 68t-7.5 85v212h148v-206q0 -52 16 -73q26 -34 108 -34h53v-130zM567 269
q0 -74 -7 -106q-14 -64 -60 -106q-38 -35 -97 -48q-41 -9 -106 -9h-192v140h168q38 0 66.5 4t49 18.5t25.5 35t5 56.5v446h148v-431z" />
    <glyph glyph-name="cent" unicode="&#xa2;" horiz-adv-x="516" 
d="M426 700q-6 -71 -53 -107.5t-115 -36.5t-113 35q-49 38 -55 109h67q8 -34 35.5 -51.5t66.5 -17.5q40 0 67 16.5t35 52.5h65zM470 27v-25q0 -60 -10 -93q-16 -52 -60 -89q-34 -28 -79 -41t-93 -13q-39 0 -90.5 10t-90.5 23l6 127q90 -36 171 -36q80 0 109 42q18 26 18 74
v37q-29 -33 -67 -46q-26 -9 -56 -9q-36 0 -69 12q-70 27 -96 98q-17 47 -17 122v266h128v-265q0 -58 28 -87q22 -22 52 -22q33 0 56 21q32 29 32 88v265h128v-459z" />
    <glyph glyph-name="sterling" unicode="&#xa3;" horiz-adv-x="323" 
d="M269 268v-24q0 -62 -9 -99q-14 -58 -54 -93q-32 -28 -85 -40t-103 -12h-20v144h22q33 0 47 3.5t26 12.5q19 15 25 44q3 15 3 52v444h148v-432z" />
    <glyph glyph-name="currency" unicode="&#xa4;" horiz-adv-x="556" 
d="M537 151l-58 -58l-57 58q-35 -29 -79 -41q-29 -8 -65 -8q-48 0 -81.5 12t-62.5 35l-56 -57l-59 59l58 58q-25 30 -36 66t-11 75q0 54 17 94q12 28 30 47l-58 58l61 61l56 -57q31 23 66 34t76 11q48 0 89 -16q27 -10 49 -27l58 57l63 -64l-54 -56q25 -34 36 -79
q7 -30 7 -63q0 -36 -10 -74t-35 -69zM414 350q0 66 -44 107q-40 37 -92 37q-53 0 -92 -36q-44 -41 -44 -108q0 -66 44 -107q40 -37 92 -37q53 0 92 36q44 41 44 108z" />
    <glyph glyph-name="yen" unicode="&#xa5;" horiz-adv-x="479" 
d="M469 560h-169q-28 0 -46 -7t-29 -18q-15 -16 -19 -40t-4 -58v-14v-423h-148v463q0 56 7 88q13 59 50.5 94.5t96.5 47.5q34 7 85 7h62v72h114v-212z" />
    <glyph glyph-name="brokenbar" unicode="&#xa6;" horiz-adv-x="196" 
d="M152 425h-108v275h108v-275zM152 0h-108v275h108v-275z" />
    <glyph glyph-name="section" unicode="&#xa7;" horiz-adv-x="480" 
d="M454 284q0 -54 -28.5 -92t-78.5 -48q27 -23 40.5 -50t13.5 -54q0 -50 -30 -85q-48 -56 -161 -56h-147v124h152q24 0 33 3q17 6 17 24q0 23 -41 58l-97 81q-39 35 -60 71q-28 47 -28 97t31 86t79 41q-21 21 -35.5 48.5t-14.5 56.5q0 48 31 80q41 42 127 42h154v-124h-146
q-22 0 -32 -3.5t-10 -20.5q0 -24 42 -55l75 -52q55 -43 78 -72q36 -46 36 -100zM347 284q0 20 -20 43l-20 21l-38 35l-21 16q-11 7 -19.5 9.5t-21.5 3.5t-14 1q-18 0 -29.5 -11t-14.5 -25.5t-3 -19.5q0 -7 2 -18t10 -24q12 -21 37.5 -46t45.5 -37q26 -16 51 -16q9 0 13 1
q18 4 27.5 14.5t12 19.5t2.5 18.5v14.5z" />
    <glyph glyph-name="dieresis" unicode="&#xa8;" horiz-adv-x="528" 
d="M496 812q0 -29 -20.5 -49.5t-49.5 -20.5q-30 0 -50 20t-20 50q0 29 20.5 49.5t49.5 20.5q30 0 50 -20t20 -50zM300 812q0 -29 -20.5 -49.5t-49.5 -20.5q-30 0 -50 20t-20 50q0 29 20.5 49.5t49.5 20.5q30 0 50 -20t20 -50zM496 0h-192q-67 0 -106 9q-57 13 -97 51
q-32 31 -43.5 65.5t-11.5 74.5q0 62 27 105.5t81 64.5q-38 26 -58.5 65.5t-20.5 87.5q0 70 37 114q31 39 81 53q35 10 92 10h211v-140h-189q-45 0 -66.5 -15t-21.5 -47q0 -39 31 -54q20 -10 57 -10h189v-130h-173q-50 0 -77 -10q-52 -19 -52 -73q0 -50 46 -69q28 -12 78 -12
h178v-140z" />
    <glyph glyph-name="copyright" unicode="&#xa9;" horiz-adv-x="804" 
d="M774 350q0 -160 -108 -261t-266 -101q-157 0 -264 100q-110 103 -110 262q0 160 108 261t266 101q157 0 265.5 -101.5t108.5 -260.5zM662 350q0 117 -73.5 196.5t-188.5 79.5q-114 0 -188 -79t-74 -197q0 -117 73.5 -196.5t188.5 -79.5q114 0 188 79t74 197zM491 145h-61
q-60 0 -100 15q-57 22 -90 77q-14 24 -20.5 52t-6.5 61q0 31 6.5 60t20.5 54q33 55 91 76q41 15 101 15h59v-104h-59q-33 0 -56.5 -8.5t-39 -36.5t-15.5 -56t15.5 -55.5t41.5 -37.5q19 -7 54 -7h59v-105z" />
    <glyph glyph-name="ordfeminine" unicode="&#xaa;" horiz-adv-x="485" 
d="M449 0h-83q-160 0 -253 107q-85 98 -85 243q0 146 84 243q93 107 254 107h83v-140h-74q-73 0 -127 -38t-68 -107h269v-130h-269q19 -93 93 -126q43 -19 118 -19h58v-140z" />
    <glyph glyph-name="guillemotleft" unicode="&#xab;" horiz-adv-x="499" 
d="M452 89h-100l-125 154l125 154h100l-125 -154zM272 89h-100l-125 154l125 154h100l-125 -154z" />
    <glyph glyph-name="logicalnot" unicode="&#xac;" horiz-adv-x="584" 
d="M534 84h-108v216h-376v102h484v-318z" />
    <glyph glyph-name="minus" unicode="&#xad;" horiz-adv-x="335" 
d="M283 198h-231v102h231v-102z" />
    <glyph glyph-name="registered" unicode="&#xae;" horiz-adv-x="820" 
d="M774 350q0 -160 -108 -261t-266 -101q-157 0 -264 100q-110 103 -110 262q0 160 108 261t266 101q157 0 265.5 -101.5t108.5 -260.5zM662 350q0 117 -73.5 196.5t-188.5 79.5q-114 0 -188 -79t-74 -197q0 -117 73.5 -196.5t188.5 -79.5q114 0 188 79t74 197zM536 155h-86
v99v15q0 13 -7.5 24.5t-14.5 14.5t-24 3h-30v72h16q28 0 41.5 13.5t13.5 32.5q0 21 -13 34t-34 13q-17 0 -28 -9q-18 -15 -18 -49v-263h-86v264q0 70 36.5 105t99.5 35q61 0 94.5 -34.5t33.5 -87.5q0 -62 -51 -81q39 -9 51 -43q6 -17 6 -51v-107z" />
    <glyph glyph-name="macron" unicode="&#xaf;" horiz-adv-x="262" 
d="M302 873q0 -29 -20.5 -49.5t-49.5 -20.5q-30 0 -50 20t-20 50q0 29 20.5 49.5t49.5 20.5q30 0 50 -20t20 -50zM106 873q0 -29 -20.5 -49.5t-49.5 -20.5q-30 0 -50 20t-20 50q0 29 20.5 49.5t49.5 20.5q30 0 50 -20t20 -50zM208 0h-148v700h148v-700z" />
    <glyph glyph-name="degree" unicode="&#xb0;" horiz-adv-x="364" 
d="M357 569q0 -62 -42.5 -102.5t-107.5 -40.5q-66 0 -108 40t-42 103t42 103t108 40q65 0 107.5 -39.5t42.5 -103.5zM274 569q0 31 -21 49t-46 18q-24 0 -45.5 -18.5t-21.5 -48.5q0 -31 20.5 -49t46.5 -18q25 0 46 18t21 49z" />
    <glyph glyph-name="plusminus" unicode="&#xb1;" horiz-adv-x="600" 
d="M542 258h-188v-121h-108v121h-188v108h188v120h108v-120h188v-108zM542 0h-484v108h484v-108z" />
    <glyph glyph-name="twosuperior" unicode="&#xb2;" horiz-adv-x="256" 
d="M202 0h-148v700h148v-700z" />
    <glyph glyph-name="threesuperior" unicode="&#xb3;" horiz-adv-x="232" 
d="M197 631q0 -34 -23.5 -57.5t-57.5 -23.5t-57.5 23.5t-23.5 57.5t23.5 57.5t57.5 23.5t57.5 -23.5t23.5 -57.5zM180 0h-128v486h128v-486z" />
    <glyph glyph-name="acute" unicode="&#xb4;" horiz-adv-x="376" 
d="M362 362h-120q-36 0 -51 -10q-27 -18 -27 -75v-277h-128v262q0 90 26 138q46 86 172 86v110h128v-234z" />
    <glyph glyph-name="mu" unicode="&#xb5;" horiz-adv-x="497" 
d="M451 0h-128v32q-20 -44 -71 -44q-27 0 -45 11.5t-30 32.5v-204h-128v658h128v-280q0 -31 6.5 -50t30.5 -34q16 -10 36 -10t36 10q23 14 30 35t7 49v280h128v-486z" />
    <glyph glyph-name="paragraph" unicode="&#xb6;" horiz-adv-x="607" 
d="M554 -190h-108v806h-105v-806h-108v534h-16q-56 0 -91 14q-51 21 -82 74q-24 41 -24 93q0 47 21 86q30 54 87 75q38 14 96 14h330v-890z" />
    <glyph glyph-name="periodcentered" unicode="&#x2219;" horiz-adv-x="230" 
d="M198 243q0 -32 -22 -57.5t-61 -25.5q-38 0 -60.5 25.5t-22.5 57.5t22 57.5t61 25.5q38 0 62 -27q21 -24 21 -56z" />
    <glyph glyph-name="cedilla" unicode="&#xb8;" horiz-adv-x="582" 
d="M467 630q0 -23 -18.5 -44.5t-47.5 -21.5q-28 0 -47 19t-19 47q0 29 18.5 47.5t47.5 18.5q30 0 48 -20t18 -46zM248 630q0 -24 -18 -45t-48 -21q-31 0 -48.5 21t-17.5 45t18 45t48 21t48 -20t18 -46zM550 155q-35 -78 -102.5 -122.5t-151.5 -44.5q-116 0 -190 75t-74 186
q0 102 69 173q74 76 192 76q85 0 148.5 -43t95.5 -117l-286 -174l-43 73l182 116q-20 21 -47.5 29.5t-49.5 8.5q-44 0 -77 -22q-26 -18 -41 -47.5t-15 -71.5q0 -34 17 -68t51.5 -57t81.5 -23q52 0 94.5 33.5t62.5 87.5z" />
    <glyph glyph-name="onesuperior" unicode="&#xb9;" horiz-adv-x="1011" 
d="M957 557q0 -59 -42 -101t-101 -42t-101 42t-42 101t42 101t101 42t101 -42t42 -101zM957 268h-286v86h286v-86zM606 106q0 -66 -22 -92t-68 -26q-38 0 -59 20.5t-52 81.5l-203 410v-500h-148v597q0 54 25.5 84.5t76.5 30.5t81 -30q20 -20 50 -81l171 -350v449h148v-594z
M885 557q0 23 -9 41q-17 34 -62 34q-35 0 -53 -21t-18 -54q0 -23 9 -41q17 -34 62 -34q35 0 53 21t18 54z" />
    <glyph glyph-name="ordmasculine" unicode="&#xba;" horiz-adv-x="406" 
d="M376 0h-70q-58 0 -96 9q-61 15 -106 56q-33 31 -52 74q-22 49 -22 106q0 70 28.5 125t82.5 84q36 20 76 26t82 6h77v-124h-81q-37 0 -55.5 -1.5t-36.5 -12.5t-26.5 -26t-8.5 -32h208v-90h-208q0 -18 8 -31.5t21 -23.5t37 -15.5t78 -5.5h64v-124z" />
    <glyph glyph-name="guillemotright" unicode="&#xbb;" horiz-adv-x="501" 
d="M452 243l-125 -154h-100l125 154l-125 154h100zM272 243l-125 -154h-100l125 154l-125 154h100z" />
    <glyph glyph-name="onequarter" unicode="&#xbc;" horiz-adv-x="227" 
d="M192 631q0 -34 -23.5 -57.5t-57.5 -23.5t-57.5 23.5t-23.5 57.5t23.5 57.5t57.5 23.5t57.5 -23.5t23.5 -57.5zM173 25q0 -178 -57 -227q-31 -26 -134 -26h-34v123h34q43 0 56 25q7 14 7 53v513h128v-461z" />
    <glyph glyph-name="onehalf" unicode="&#xbd;" horiz-adv-x="504" 
d="M470 192q0 -59 -25 -101q-34 -58 -97 -78q-40 -13 -112 -13h-201v140h190q41 0 59 6q34 11 34 45q0 23 -17 42q-9 9 -78 54.5t-101 70.5q-44 35 -63 67q-25 41 -25 96q0 58 29 102q33 50 88 66q37 11 109 11h181v-140h-198q-26 0 -36 -4q-21 -8 -21 -34q0 -19 14 -36
q11 -14 27 -27q12 -9 58 -38q74 -45 108.5 -72.5t51.5 -55.5q13 -20 19 -47t6 -54z" />
    <glyph glyph-name="threequarters" unicode="&#xbe;" horiz-adv-x="404" 
d="M373 144q0 -53 -29 -87q-48 -57 -162 -57h-152v124h152q23 0 36 3t13 20q0 23 -25 41q-12 9 -54 28q-63 29 -87 53q-30 31 -30 84q0 66 45.5 99.5t132.5 33.5h134v-124h-141h-13q-12 0 -19 -3.5t-7 -14.5q0 -14 20 -26q8 -5 39 -20q80 -38 101 -55q46 -38 46 -99z" />
    <glyph glyph-name="questiondown" unicode="&#xbf;" horiz-adv-x="250" 
d="M250 622q0 -29 -20.5 -49.5t-49.5 -20.5q-30 0 -50 20t-20 50q0 29 20.5 49.5t49.5 20.5q30 0 50 -20t20 -50zM54 622q0 -29 -20.5 -49.5t-49.5 -20.5q-30 0 -50 20t-20 50q0 29 20.5 49.5t49.5 20.5q30 0 50 -20t20 -50zM157 0h-128v500h128v-500z" />
    <glyph glyph-name="Agrave" unicode="&#xc0;" horiz-adv-x="596" 
d="M542 0h-148v250h-152v140h152v68q0 54 -25 84t-71 30t-71 -30t-25 -84v-458h-148v449q0 124 72 196q67 67 172 67q103 0 171 -67q73 -72 73 -196v-449z" />
    <glyph glyph-name="Aacute" unicode="&#xc1;" horiz-adv-x="612" 
d="M566 233q0 -61 -24 -111q-20 -41 -55 -71.5t-82.5 -46.5t-100.5 -16q-33 0 -57 4.5t-53 16.5q-83 34 -115 97q-25 50 -25 138v456h440v-140h-292v-304q0 -42 7 -63q11 -34 47 -53q23 -12 54 -12q46 0 77 26q13 11 22 28.5t9 41.5q0 25 -7 40t-21.5 28t-34.5 20.5t-41 7.5
q-34 0 -72 -18v131q45 17 93 17q80 0 138 -37q51 -33 74 -85q19 -44 19 -95z" />
    <glyph glyph-name="Acircumflex" unicode="&#xc2;" horiz-adv-x="579" 
d="M533 204q0 -29 -6 -55.5t-20 -51.5q-31 -57 -84 -80q-39 -17 -95 -17h-86v140h61q29 0 42 5q21 8 33 34q7 17 7 39q0 15 -2.5 25.5t-9.5 21.5q-15 23 -33.5 28.5t-54.5 5.5h-43v122h22q37 0 56 9q38 18 38 64q0 39 -21.5 58.5t-52.5 19.5q-36 0 -57 -21q-25 -25 -25 -70
v-481h-148v480q0 109 62.5 170.5t163.5 61.5q110 0 172 -65q54 -57 54 -142q0 -52 -28 -91q-16 -23 -42 -40q49 -25 73 -70t24 -100z" />
    <glyph glyph-name="Atilde" unicode="&#xc3;" horiz-adv-x="479" 
d="M469 560h-150q-34 0 -56 -4t-37.5 -20.5t-19.5 -40.5t-4 -58v-14v-423h-148v462q0 56 7 88q13 60 52 97q35 33 92 45q38 8 97 8h35h132v-140z" />
    <glyph glyph-name="Adieresis" unicode="&#xc4;" horiz-adv-x="690" 
d="M680 -146h-140v146h-390v-146h-140v286h430v420h-9q-53 0 -78 -6q-42 -10 -68 -41q-22 -25 -28.5 -56.5t-6.5 -73.5v-203h-148v203q0 95 26 156q21 50 65 89q51 45 125 61q51 11 140 11h130v-560h92v-286z" />
    <glyph glyph-name="Aring" unicode="&#xc5;" horiz-adv-x="528" 
d="M496 0h-172q-84 0 -116 6q-63 12 -107 55q-29 28 -42 63t-13 76q0 72 36 118q28 35 72 52q-38 26 -58.5 65.5t-20.5 87.5q0 70 37 114q31 39 81 53q35 10 92 10h211v-140h-175q-58 0 -80 -14t-22 -48q0 -31 21.5 -47.5t71.5 -16.5h184v-130h-178q-51 0 -77 -11
q-47 -20 -47 -72q0 -45 41 -67q17 -9 36.5 -11.5t50.5 -2.5h174v-140z" />
    <glyph glyph-name="AE" unicode="&#xc6;" horiz-adv-x="916" 
d="M870 700l-81 -214q-15 -40 -23 -53q-17 -27 -51 -47q85 -16 118 -92q21 -48 21 -120v-174h-148v169q0 58 -14 86q-25 50 -95 50h-65v-305h-148v305h-59q-73 0 -99 -47q-16 -29 -16 -89v-169h-148v174q0 72 19 117q33 78 120 95q-28 16 -44.5 40.5t-29.5 59.5l-81 214h150
l64 -170q23 -63 46.5 -83t56.5 -20h21v273h148v-273h21q39 0 66 32q20 24 37 71l64 170h150z" />
    <glyph glyph-name="Ccedilla" unicode="&#xc7;" horiz-adv-x="528" 
d="M482 200q0 -54 -13.5 -85t-40.5 -56q-41 -39 -108 -52q-37 -7 -107 -7h-181v140h178q48 0 77 12q47 20 47 69q0 35 -23 56q-30 27 -94 27h-185v130h172h15q40 0 59 9q31 15 31 55q0 42 -36 55q-19 7 -60 7h-181v140h215q67 0 99.5 -12t58.5 -38q22 -23 35 -53.5t13 -69.5
q0 -48 -19 -88t-60 -69q64 -24 90 -81q18 -39 18 -89z" />
    <glyph glyph-name="Egrave" unicode="&#xc8;" horiz-adv-x="648" 
d="M594 0h-148v459q0 7 -0.5 10.5t-1.5 6.5l-3 -8l-31 -65l-150 -316q-24 -49 -47 -71q-30 -28 -68 -28q-57 0 -78 47q-13 29 -13 81v584h148v-462l2 -16l9 20q10 22 15 32l167 338q29 59 51 79.5t59 20.5q56 0 77 -43q12 -25 12 -65v-604z" />
    <glyph glyph-name="Eacute" unicode="&#xc9;" horiz-adv-x="648" 
d="M491 876q-12 -58 -55 -91.5t-109 -33.5q-67 0 -110.5 33.5t-55.5 91.5h92q6 -21 24 -36.5t50 -15.5q33 0 53 19q13 13 19 33h92zM594 0h-148v459q0 7 -0.5 10.5t-1.5 6.5l-3 -8l-31 -65l-150 -316q-26 -53 -52.5 -76t-62.5 -23q-56 0 -78 48q-13 29 -13 80v584h148v-462
l2 -16l9 20q10 22 15 32l167 338q29 57 52 78.5t58 21.5q44 0 66.5 -26.5t22.5 -82.5v-603z" />
    <glyph glyph-name="Ecircumflex" unicode="&#xca;" horiz-adv-x="574" 
d="M538 700l-81 -214q-15 -38 -27 -56q-18 -26 -47 -43q70 -15 104.5 -67.5t34.5 -138.5v-181h-148v181q0 79 -47 106q-25 14 -76 14h-49v-301h-148v700h148v-273h21q37 0 63 30q21 24 39 73l63 170h150z" />
    <glyph glyph-name="Edieresis" unicode="&#xcb;" horiz-adv-x="604" 
d="M550 0h-148v560h-30q-83 0 -122.5 -44.5t-39.5 -140.5v-375h-220v140h76v243q0 71 16 121q23 72 81 124q48 43 107 60q43 12 101 12h179v-700z" />
    <glyph glyph-name="Igrave" unicode="&#xcc;" horiz-adv-x="800" 
d="M796 0h-155l-54 542l-123 -502q-6 -25 -20.5 -37t-43.5 -12q-24 0 -34 5q-22 11 -30 44l-121 502l-56 -542h-155l69 562q11 85 36 115q30 35 87 35q63 0 96 -39q21 -25 32 -71l76 -333l76 333q11 46 31 70q34 40 97 40q72 0 101 -57q14 -27 22 -93z" />
    <glyph glyph-name="Iacute" unicode="&#xcd;" horiz-adv-x="624" 
d="M570 0h-148v302h-220v-302h-148v700h148v-272h220v272h148v-700z" />
    <glyph glyph-name="Icircumflex" unicode="&#xce;" horiz-adv-x="778" 
d="M746 350q0 -149 -102.5 -255.5t-254.5 -106.5q-153 0 -255 106t-102 256q0 149 102.5 255.5t254.5 106.5q153 0 255 -106t102 -256zM598 350q0 95 -57.5 156.5t-151.5 61.5q-92 0 -150.5 -61.5t-58.5 -156.5t57.5 -156.5t151.5 -61.5q92 0 150.5 61.5t58.5 156.5z" />
    <glyph glyph-name="Idieresis" unicode="&#xcf;" horiz-adv-x="623" 
d="M569 0h-148v560h-219v-560h-148v700h515v-700z" />
    <glyph glyph-name="Eth" unicode="&#xd0;" 
d="M550 463q0 -103 -63.5 -163.5t-160.5 -60.5h-84v130h59q47 0 74 27t27 72q0 50 -30 77t-71 27q-43 0 -71 -31t-28 -91v-450h-148v469q0 104 60 171q65 72 180 72q122 0 192 -75q64 -69 64 -174z" />
    <glyph glyph-name="Ntilde" unicode="&#xd1;" horiz-adv-x="498" 
d="M474 0h-74q-123 0 -214 63q-63 44 -103 111q-47 80 -47 176q0 45 12 91t35 85q40 67 103 111q91 63 214 63h74v-140h-74q-92 0 -154 -60t-62 -150t62 -150t154 -60h74v-140z" />
    <glyph glyph-name="Ograve" unicode="&#xd2;" horiz-adv-x="444" 
d="M448 560h-152v-560h-148v560h-152v140h452v-140z" />
    <glyph glyph-name="Oacute" unicode="&#xd3;" horiz-adv-x="621" 
d="M379 257h-63q-74 0 -113 9q-73 17 -111 69q-23 31 -30.5 68t-7.5 85v212h148v-206q0 -52 16 -73q26 -34 108 -34h53v-130zM567 269q0 -74 -7 -106q-14 -64 -60 -106q-38 -35 -97 -48q-41 -9 -106 -9h-192v140h168q38 0 66.5 4t49 18.5t25.5 35t5 56.5v446h148v-431z" />
    <glyph glyph-name="Ocircumflex" unicode="&#xd4;" horiz-adv-x="896" 
d="M860 365q0 -128 -83 -222t-215 -106v148q70 9 112 65q38 51 38 115q0 78 -53.5 130.5t-136.5 52.5v-603h-148v92h-8q-136 0 -233 96t-97 234q0 128 83 222t215 107v-148q-69 -9 -112 -65q-38 -51 -38 -115q0 -76 54.5 -129.5t135.5 -53.5v600h148v-89h9q135 0 232 -97
t97 -234z" />
    <glyph glyph-name="Otilde" unicode="&#xd5;" horiz-adv-x="498" 
d="M480 0q-79 0 -141.5 45.5t-91.5 122.5q-25 -77 -86.5 -122.5t-142.5 -45.5v140q77 18 117 74.5t40 138.5t-40 137.5t-117 69.5v140q82 0 144 -45q57 -42 87 -114q29 71 87 113q63 46 144 46v-140q-77 -14 -117 -70t-40 -137q0 -82 40 -138.5t117 -74.5v-140z" />
    <glyph glyph-name="Odieresis" unicode="&#xd6;" horiz-adv-x="663" 
d="M563 180h-148v520h148v-520zM653 -147h-140v147h-207q-54 0 -90 9q-52 13 -90 46q-42 36 -59 89q-13 40 -13 94v462h148v-438q0 -40 6.5 -61t21 -34.5t39 -20t63.5 -6.5h321v-287z" />
    <glyph glyph-name="multiply" unicode="&#xd7;" horiz-adv-x="600" 
d="M546 0h-148v257h-76q-176 0 -241 71q-45 49 -45 156v216h148v-203q0 -69 34 -91q30 -19 95 -19h85v313h148v-700z" />
    <glyph glyph-name="Oslash" unicode="&#xd8;" horiz-adv-x="876" 
d="M512 180h-148v520h148v-520zM822 0h-516q-48 0 -81 7q-58 12 -100.5 47t-58.5 86q-12 38 -12 99v461h148v-432q0 -44 6.5 -65t23.5 -38t45.5 -21t64.5 -4h332v560h148v-700z" />
    <glyph glyph-name="Ugrave" unicode="&#xd9;" horiz-adv-x="922" 
d="M822 180h-148v520h148v-520zM512 180h-148v520h148v-520zM912 -147h-140v147h-466q-123 0 -187.5 60.5t-64.5 171.5v468h148v-433q0 -87 43 -112q25 -15 98 -15h569v-287z" />
    <glyph glyph-name="Uacute" unicode="&#xda;" horiz-adv-x="700" 
d="M664 252q0 -107 -63 -180q-73 -84 -206 -84q-118 0 -184 71t-66 187v314h-155v140h303v-440q0 -39 5.5 -60.5t27.5 -42.5q31 -29 77 -29q45 0 77 28q36 31 36 85q0 36 -13.5 60t-35.5 38q-26 17 -57 17q-21 0 -39.5 -4t-37.5 -15v141q18 8 38.5 13t48.5 5q98 0 168 -64
q76 -70 76 -180z" />
    <glyph glyph-name="Ucircumflex" unicode="&#xdb;" horiz-adv-x="817" 
d="M781 0h-148v700h148v-700zM573 252q0 -107 -63 -180q-73 -84 -206 -84q-118 0 -184 71t-66 187v454h148v-440q0 -39 5.5 -60.5t27.5 -42.5q31 -29 77 -29q45 0 77 28q36 31 36 85q0 39 -15.5 64t-42.5 38t-48 13t-39.5 -4t-37.5 -15v141q18 8 38.5 13t48.5 5
q98 0 168 -64q76 -70 76 -180z" />
    <glyph glyph-name="Udieresis" unicode="&#xdc;" horiz-adv-x="609" 
d="M573 252q0 -107 -63 -180q-73 -84 -206 -84q-118 0 -184 71t-66 187v454h148v-440q0 -39 5.5 -60.5t27.5 -42.5q31 -29 77 -29q45 0 77 28q36 31 36 85q0 39 -15.5 64t-42.5 38t-48 13t-39.5 -4t-37.5 -15v141q18 8 38.5 13t48.5 5q98 0 168 -64q76 -70 76 -180z" />
    <glyph glyph-name="Yacute" unicode="&#xdd;" horiz-adv-x="485" 
d="M449 350q0 -146 -84 -243q-93 -107 -254 -107h-83v140h58q76 0 117 18q75 33 94 127h-269v130h269q-14 69 -67.5 107t-127.5 38h-74v140h83q160 0 253 -107q85 -98 85 -243z" />
    <glyph glyph-name="Thorn" unicode="&#xde;" horiz-adv-x="1037" 
d="M1001 350q0 -149 -104.5 -255.5t-256.5 -106.5q-120 0 -216 67q-116 81 -141 230h-81v-285h-148v700h148v-285h235q-10 -32 -10 -56q0 -94 61.5 -160.5t152.5 -66.5q85 0 148.5 61.5t63.5 156.5q0 90 -63 154t-150 64q-56 0 -106.5 -29.5t-80.5 -83.5h-161
q36 119 137 190q95 67 211 67q147 0 252 -101q109 -105 109 -261z" />
    <glyph glyph-name="germandbls" unicode="&#xdf;" horiz-adv-x="596" 
d="M542 0h-148v444q0 58 -13 84q-22 44 -85 44q-49 0 -74.5 -26.5t-25.5 -62.5q0 -38 31 -63.5t97 -25.5h30v-130h-37q-79 0 -105 -46q-16 -28 -16 -88v-130h-148v121q0 80 11 110q21 59 95 87q-47 23 -75 65q-31 47 -31 107q0 92 66 155q70 67 182 67q65 0 114 -21
q38 -16 68 -46q37 -37 52 -87q12 -40 12 -93v-465z" />
    <glyph glyph-name="agrave" unicode="&#xe0;" 
d="M540 0h-128v205q0 70 -20 109q-30 60 -105 60q-55 0 -91 -37t-36 -97q0 -49 28 -84q35 -44 107 -44q31 0 48 6t29 17v-128q-21 -9 -43.5 -14t-49.5 -5q-98 0 -169 64q-78 70 -78 182q0 103 66 179q74 85 192 85q94 0 159 -52q91 -73 91 -232v-214z" />
    <glyph glyph-name="aacute" unicode="&#xe1;" horiz-adv-x="571" 
d="M539 236q0 -101 -61 -171q-67 -77 -182 -77q-56 0 -97 16t-73 47q-48 46 -66 109q-14 48 -14 120v87q0 91 21 152q30 85 104 134q48 31 116 41q41 6 118 6h104v-124h-106q-65 0 -83 -2q-50 -6 -82 -28q-40 -28 -55 -76q-9 -30 -9 -73v-109q0 -79 18 -117q28 -59 106 -59
q52 0 82.5 31.5t30.5 83.5q0 54 -37 85q-33 27 -81 27q-44 0 -79 -30v124q24 15 48.5 22.5t59.5 7.5q65 0 112.5 -28.5t76 -80t28.5 -118.5z" />
    <glyph glyph-name="acircumflex" unicode="&#xe2;" horiz-adv-x="509" 
d="M471 134q0 -33 -15 -60q-27 -47 -84 -64q-34 -10 -89 -10h-77v124h51h12q28 0 45 4t25 18q4 7 4 15q0 12 -5 20q-10 15 -31.5 20t-57.5 5h-43v90h44q23 0 36 5q22 8 22 30q0 10 -5.5 19.5t-14.5 14.5t-20.5 7t-21.5 2q-25 0 -45 -12t-27.5 -35t-7.5 -46v-281h-128v264
q0 70 16 112q25 66 92 100q23 11 49.5 16.5t55.5 5.5q57 0 103 -19t70 -56q19 -30 19 -65q0 -34 -20 -62t-57 -40q33 -5 57 -23q17 -13 32.5 -39t15.5 -60z" />
    <glyph glyph-name="atilde" unicode="&#xe3;" horiz-adv-x="382" 
d="M372 362h-111q-32 0 -45.5 -2.5t-27.5 -20.5q-9 -11 -11.5 -27.5t-2.5 -39.5v-272h-128v278q0 54 6 81q10 43 41 76q35 36 84 46q24 5 86 5h109v-124z" />
    <glyph glyph-name="adieresis" unicode="&#xe4;" horiz-adv-x="580" 
d="M534 55q0 -76 -10 -114q-17 -65 -71 -108q-39 -31 -97 -44q-40 -9 -87 -9q-56 0 -106 10q-30 6 -59 16v124q51 -14 89 -20t65 -6q32 0 52 4q33 7 58 28.5t33 56.5q5 22 5 66v153q0 43 -3 60q-6 34 -27 60q-34 42 -91 42q-50 0 -87.5 -34.5t-37.5 -92.5q0 -38 17.5 -67
t44.5 -42.5t59 -13.5q30 0 50 9.5t35 27.5v-128q-23 -18 -47.5 -25.5t-47.5 -7.5q-61 0 -114 29q-58 32 -91.5 88t-33.5 128q0 98 63 170q72 83 193 83q63 0 114 -25q39 -19 67 -50q40 -44 55 -107q10 -43 10 -112v-149z" />
    <glyph glyph-name="aring" unicode="&#xe5;" horiz-adv-x="582" 
d="M550 155q-35 -78 -102.5 -122.5t-151.5 -44.5q-116 0 -190 75t-74 186q0 102 69 173q74 76 192 76q85 0 148.5 -43t95.5 -117l-286 -174l-43 73l182 116q-20 21 -47.5 29.5t-49.5 8.5q-44 0 -77 -22q-26 -18 -41 -47.5t-15 -71.5q0 -34 17 -68t51.5 -57t81.5 -23
q52 0 94.5 33.5t62.5 87.5z" />
    <glyph glyph-name="ae" unicode="&#xe6;" horiz-adv-x="714" 
d="M680 486l-57 -123q-20 -41 -25 -50q-18 -28 -48 -45q28 -6 52.5 -21t41 -39t22.5 -62q3 -20 3 -63v-83h-128v100q0 42 -12 63q-20 35 -73 35h-34v-198h-128v198h-36q-54 0 -73 -40q-10 -21 -10 -58v-100h-128v83q0 42 4 71t21 53t41 39t53 22q-31 17 -48 44q-4 6 -25 51
l-57 123h134l39 -100q12 -30 25 -48q24 -33 49 -33h11v181h128v-181h11q20 0 39.5 19t35.5 62l38 100h134z" />
    <glyph glyph-name="ccedilla" unicode="&#xe7;" horiz-adv-x="425" 
d="M389 139q0 -23 -5 -42.5t-18 -37.5q-26 -36 -72 -50q-30 -9 -75 -9h-183v124h150h12q31 0 42 5q21 9 21 36t-23 36q-13 5 -43 5h-118v90h99q30 0 43 4q23 7 23 29t-19.5 27.5t-48.5 5.5h-137v124h189q39 0 61 -6q38 -10 60.5 -39.5t22.5 -69.5q0 -27 -9 -47t-24.5 -36
t-40.5 -27q31 -6 51 -24q16 -14 29 -41t13 -57z" />
    <glyph glyph-name="egrave" unicode="&#xe8;" horiz-adv-x="520" 
d="M474 0h-128v299q0 14 -1 17q-1 0 -2 1q-2 -2 -3 -5l-5 -8l-10 -19l-124 -224q-22 -38 -30 -48q-22 -25 -54 -25q-45 0 -61 40q-10 25 -10 69v389h128v-303v-13l3 1l5 8l10 18l127 230q23 42 29 49q20 22 54 22q47 0 63 -38q9 -21 9 -62v-398z" />
    <glyph glyph-name="eacute" unicode="&#xe9;" horiz-adv-x="520" 
d="M425 700q-9 -48 -38 -82q-23 -27 -54 -40q-15 -7 -34 -10t-38 -3q-24 0 -40 2.5t-34 10.5q-29 12 -53 40q-30 35 -39 82h92q4 -18 13 -31t23.5 -22t36.5 -9q24 0 37 9t22.5 22t13.5 31h92zM474 0h-128v299q0 14 -1 17q-1 0 -2 1q-2 -2 -3 -5l-5 -8l-10 -19l-124 -224
q-22 -38 -30 -48q-22 -25 -54 -25q-45 0 -61 40q-10 25 -10 69v389h128v-303v-13l3 1l5 8l10 18l127 230q23 42 29 49q20 22 54 22q47 0 63 -38q9 -21 9 -62v-398z" />
    <glyph glyph-name="ecircumflex" unicode="&#xea;" horiz-adv-x="497" 
d="M463 486l-59 -129l-22 -47q-15 -25 -41 -42q66 -7 94 -71q17 -40 17 -90v-107h-128v103q0 58 -28 80q-19 15 -61 15h-61v-198h-128v486h128v-181h29q33 0 48 14t36 67l39 100h137z" />
    <glyph glyph-name="edieresis" unicode="&#xeb;" horiz-adv-x="502" 
d="M456 0h-128v362h-19q-27 0 -44 -2.5t-34 -11.5q-27 -15 -41.5 -46.5t-14.5 -95.5v-206h-185v124h63v111q0 69 17 112q25 63 89 101q39 23 85.5 30.5t94.5 7.5h117v-486z" />
    <glyph glyph-name="igrave" unicode="&#xec;" horiz-adv-x="665" 
d="M661 0h-139l-30 314l-3 19l-1 3l-4 -9l-14 -45l-76 -229q-12 -37 -26 -51t-35 -14q-25 0 -40 20q-9 13 -20 45l-78 229l-14 45q-2 8 -3 9q-1 -1 -1 -2l-3 -23l-31 -311h-139l62 411q5 32 17 51q23 36 71 36q66 0 89 -66l63 -190q5 -16 10 -30t14 -45l3 -7l4 8l11 33
l13 41l61 190q21 66 89 66q47 0 71 -36q13 -20 18 -51z" />
    <glyph glyph-name="iacute" unicode="&#xed;" horiz-adv-x="514" 
d="M468 0h-128v198h-166v-198h-128v486h128v-181h166v181h128v-486z" />
    <glyph glyph-name="icircumflex" unicode="&#xee;" horiz-adv-x="574" 
d="M542 243q0 -107 -74 -181t-181 -74t-181 74t-74 181t74 181t181 74t181 -74t74 -181zM414 243q0 55 -37 93t-90 38q-54 0 -90.5 -37.5t-36.5 -93.5q0 -55 37 -93t90 -38q54 0 90.5 37.5t36.5 93.5z" />
    <glyph glyph-name="idieresis" unicode="&#xef;" horiz-adv-x="507" 
d="M461 0h-128v258q0 52 -13 72q-21 32 -87 32h-59v-362h-128v486h203q50 0 83 -8q49 -12 80 -44q25 -25 37 -60.5t12 -113.5v-260z" />
    <glyph glyph-name="eth" unicode="&#xf0;" 
d="M554 236q0 -115 -79 -185q-71 -63 -164 -63q-50 0 -97 30v129q18 -17 37.5 -26t45.5 -9q55 0 89 30q40 35 40 99q0 60 -35.5 96.5t-92.5 36.5q-73 0 -103 -60q-21 -42 -21 -107v-423h-128v433q0 142 77 217q66 64 171 64q121 0 194 -83q66 -75 66 -179z" />
    <glyph glyph-name="ntilde" unicode="&#xf1;" horiz-adv-x="389" 
d="M359 0h-72q-70 0 -118 18q-69 26 -107 91q-16 27 -24 63t-8 71q0 38 7.5 71.5t24.5 62.5q38 65 108 91q48 18 119 18h70v-124h-70q-42 0 -63 -8q-33 -12 -50.5 -44t-17.5 -67q0 -36 16 -65q20 -34 52 -46q22 -8 63 -8h70v-124z" />
    <glyph glyph-name="ograve" unicode="&#xf2;" horiz-adv-x="416" 
d="M412 362h-140v-362h-128v362h-140v124h408v-124z" />
    <glyph glyph-name="oacute" unicode="&#xf3;" horiz-adv-x="516" 
d="M470 27v-25q0 -60 -10 -93q-16 -52 -60 -89q-34 -28 -79 -41t-93 -13q-39 0 -90.5 10t-90.5 23l6 127q90 -36 171 -36q80 0 109 42q18 26 18 74v37q-29 -33 -67 -46q-26 -9 -56 -9q-36 0 -69 12q-70 27 -96 98q-17 47 -17 122v266h128v-265q0 -58 28 -87q22 -22 52 -22
q33 0 56 21q32 29 32 88v265h128v-459z" />
    <glyph glyph-name="ocircumflex" unicode="&#xf4;" horiz-adv-x="738" 
d="M706 244q0 -94 -61 -165q-68 -79 -172 -79v124q49 6 77 41.5t28 78.5q0 50 -32 83q-38 39 -113 39v-582h-128v216q-128 0 -204 75q-69 68 -69 171q0 96 63 168q68 77 170 77v-125q-49 -6 -77 -41.5t-28 -78.5q0 -55 38.5 -88.5t106.5 -33.5v576h128v-210h14
q112 0 185.5 -71.5t73.5 -174.5z" />
    <glyph glyph-name="otilde" unicode="&#xf5;" horiz-adv-x="388" 
d="M382 0h-14q-54 0 -90 14q-58 23 -84 83q-26 -60 -83 -83q-35 -14 -89 -14h-16v124h8q34 0 54 8q31 12 48 45q7 13 10.5 30.5t3.5 35.5q0 26 -3 39t-11 27q-17 32 -43 42.5t-59 10.5h-8v124h14q57 0 91 -13q59 -22 83 -85q23 59 77 82q38 16 95 16h16v-124h-8
q-34 0 -54 -8q-30 -12 -48 -45q-7 -13 -10.5 -29.5t-3.5 -34.5q0 -26 3 -39t11 -27q17 -33 48 -46q22 -9 54 -9h8v-124z" />
    <glyph glyph-name="odieresis" unicode="&#xf6;" horiz-adv-x="552" 
d="M462 164h-128v322h128v-322zM542 -132h-124v132h-164q-55 0 -96 12q-27 8 -46 20q-42 28 -57 79q-9 32 -9 84v291h128v-273q0 -24 6.5 -43t27.5 -32.5t79 -13.5h255v-256z" />
    <glyph glyph-name="divide" unicode="&#xf7;" horiz-adv-x="486" 
d="M440 0h-128v146h-51q-50 0 -82.5 4t-63.5 20q-53 28 -69 76q-10 30 -10 104v136h128v-115q0 -43 2 -52q6 -25 30 -39q10 -6 25.5 -8t48.5 -2h42v216h128v-486z" />
    <glyph glyph-name="oslash" unicode="&#xf8;" horiz-adv-x="754" 
d="M441 164h-128v322h128v-322zM708 0h-454q-43 0 -71 5q-42 8 -71 28q-43 30 -57 80q-9 32 -9 100v273h128v-259q0 -44 7 -61t27 -29q12 -7 30.5 -10t55.5 -3h286v362h128v-486z" />
    <glyph glyph-name="ugrave" unicode="&#xf9;" horiz-adv-x="798" 
d="M708 164h-128v322h128v-322zM441 164h-128v322h128v-322zM788 -132h-124v132h-397h-20q-48 0 -69 4q-35 7 -65 29q-44 32 -58 85q-9 33 -9 95v273h128v-254q0 -37 6.5 -59.5t30.5 -36.5q14 -9 32 -10.5t48 -1.5h497v-256z" />
    <glyph glyph-name="uacute" unicode="&#xfa;" horiz-adv-x="559" 
d="M529 193q0 -85 -53 -142q-59 -63 -158 -63q-40 0 -73 10q-44 14 -77 47q-37 38 -49 92q-8 36 -8 107v118h-121v124h249v-282q0 -41 21.5 -66.5t61.5 -25.5q38 0 58.5 20.5t20.5 49.5q0 26 -11 42.5t-28 25t-41 8.5q-10 0 -20 -2.5t-22 -7.5v115q12 4 27.5 6.5t32.5 2.5
q41 0 75 -12.5t59 -36t40.5 -55.5t15.5 -75z" />
    <glyph glyph-name="ucircumflex" unicode="&#xfb;" horiz-adv-x="686" 
d="M640 0h-128v486h128v-486zM464 191q0 -84 -52 -140q-58 -63 -161 -63q-42 0 -73 10q-42 13 -75 47q-29 30 -43 69.5t-14 121.5v250h128v-283q0 -41 22 -66t61 -25t59 20.5t20 49.5q0 30 -21 53t-57 23q-14 0 -28 -4q-3 -1 -16 -6v115q12 4 27.5 6.5t32.5 2.5
q77 0 131 -46q59 -50 59 -135z" />
    <glyph glyph-name="udieresis" unicode="&#xfc;" horiz-adv-x="494" 
d="M464 191q0 -84 -52 -140q-58 -63 -161 -63q-42 0 -73 10q-42 13 -75 47q-29 30 -43 69.5t-14 121.5v250h128v-283q0 -41 22 -66t61 -25t59 20.5t20 49.5q0 30 -21 53t-57 23q-14 0 -28 -4q-3 -1 -16 -6v115q12 4 27.5 6.5t32.5 2.5q77 0 131 -46q59 -50 59 -135z" />
    <glyph glyph-name="yacute" unicode="&#xfd;" horiz-adv-x="406" 
d="M376 245q0 -57 -20.5 -103t-53.5 -77q-43 -40 -106 -55q-41 -10 -96 -10h-70v124h64h14q34 0 56.5 4t43 16.5t29.5 26t11 29.5h-218v90h218q-2 17 -9 28q-11 18 -32.5 28.5t-39 13t-44.5 2.5h-12h-81v124h77q42 0 82 -6t76 -26q53 -29 82 -84t29 -125z" />
    <glyph glyph-name="thorn" unicode="&#xfe;" horiz-adv-x="737" 
d="M705 244q0 -108 -72 -182t-181 -74q-85 0 -152 54q-74 60 -86 160h-40v-202h-128v486h128v-194h154q-4 -19 -4 -41q0 -73 44 -110q34 -29 81 -29q52 0 90 37t38 93q0 61 -42 99q-37 33 -86 33q-57 0 -97 -42h-127q28 78 97 124q64 42 136 42q105 0 176 -74t71 -180z" />
    <glyph glyph-name="ydieresis" unicode="&#xff;" horiz-adv-x="504" 
d="M458 0h-128v257v13q0 34 -6 53q-10 30 -38 43q-8 4 -19.5 6t-23.5 2q-20 0 -34.5 -4t-25.5 -14q-19 -15 -19 -41q0 -16 6.5 -25.5t19.5 -15.5t28.5 -8t29.5 -2h42v-100h-29q-20 0 -35 -2.5t-26.5 -11.5t-15.5 -23.5t-4 -34.5v-92h-128v85q0 44 11 69q18 41 66 56
q-18 4 -32 12q-24 14 -40 38q-21 32 -21 71q0 26 8.5 50.5t25.5 45.5q24 30 60 48q47 23 109 23q54 0 95 -15q32 -12 58 -34q41 -36 56 -90q10 -36 10 -95v-264z" />
    </font>
</defs>
</svg>
