<?xml version="1.0" standalone="no"?>
<!DOCTYPE svg PUBLIC "-//W3C//DTD SVG 1.1//EN" "http://www.w3.org/Graphics/SVG/1.1/DTD/svg11.dtd" >
<svg>
<metadata>
Created by FontForge 20090622 at Thu Feb  8 01:25:38 2018
 By deploy user
&#194;&#169; 2000, 2004 Adobe Systems Incorporated. All Rights Reserved. U.S. Patent D454,582.
</metadata>
<defs>
<font id="MyriadPro-Black" horiz-adv-x="300" >
  <font-face 
    font-family="Myriad Pro Black"
    font-weight="900"
    font-stretch="normal"
    units-per-em="1000"
    panose-1="2 11 8 3 3 4 3 2 2 4"
    ascent="750"
    descent="-250"
    x-height="492"
    cap-height="674"
    bbox="-166 -251 1313 1005"
    underline-thickness="50"
    underline-position="-50"
    unicode-range="U+0020-U+FB04"
  />
<missing-glyph horiz-adv-x="500" 
d="M0 0v700h500v-700h-500zM250 395l170 255h-340zM280 350l170 -255v510zM80 50h340l-170 255zM50 605v-510l170 255z" />
    <glyph glyph-name="f_f_j" unicode="ffj" horiz-adv-x="920" 
d="M815 697l-35 -135q-45 18 -101 18q-103 0 -103 -74v-14h305v-426q0 -155 -74 -221q-71 -62 -206 -62l-17 140q64 7 87 31q29 26 29 150v256h-122v-360h-181v360h-139v-360h-181v360h-63v132h63v5q0 98 65 156q59 54 156 54q47 0 85 -14l-38 -129q-16 7 -35 7
q-23 0 -37 -14q-17 -16 -17 -52v-13h141v18q0 101 76 156t199 55q90 0 143 -24z" />
    <glyph glyph-name="f_j" unicode="fj" horiz-adv-x="613" 
d="M258 0h-181v360h-63v132h63v18q0 101 76 156t199 55q100 0 153 -29l-31 -136q-50 24 -115 24q-103 0 -103 -74v-14h305v-426q0 -155 -74 -221q-71 -62 -206 -62l-17 140q64 7 87 31q29 26 29 150v256h-122v-360z" />
    <glyph glyph-name="f_f" unicode="ff" horiz-adv-x="679" 
d="M574 0h-180v360h-136v-360h-181v360h-63v132h63v4q0 96 57 154q57 57 162 57q31 0 63 -10l-22 -132q-20 5 -34 5q-47 0 -47 -65v-13h138v17q0 44 16 88.5t47 72.5q55 51 144 51q49 0 83 -9l-4 -138q-20 6 -46 6q-29 0 -45 -18t-16 -46v-24h89v-132h-88v-360z" />
    <glyph glyph-name="f_i" unicode="fi" horiz-adv-x="616" 
d="M258 0h-181v360h-63v132h63v18q0 101 76 156t199 55q100 0 153 -29l-31 -136q-50 24 -115 24q-103 0 -103 -74v-14h305v-492h-181v360h-122v-360z" />
    <glyph glyph-name="f_l" unicode="fl" horiz-adv-x="616" 
d="M258 0h-181v360h-63v132h63v21q0 39 21 81t56 70q74 57 199 57t208 -45v-676h-181v580q-13 8 -51 8q-36 0 -54.5 -21.5t-18.5 -57.5v-17h78v-132h-76v-360z" />
    <glyph glyph-name="f_f_i" unicode="ffi" horiz-adv-x="936" 
d="M815 697l-35 -135q-45 18 -101 18q-103 0 -103 -74v-14h305v-492h-181v360h-122v-360h-181v360h-139v-360h-181v360h-63v132h63v5q0 98 65 156q59 54 156 54q47 0 85 -14l-38 -129q-16 7 -35 7q-23 0 -37 -14q-17 -16 -17 -52v-13h141v18q0 101 76 156t199 55
q90 0 143 -24z" />
    <glyph glyph-name="f_f_l" unicode="ffl" horiz-adv-x="936" 
d="M386 696l-35 -132q-17 6 -39 6q-26 0 -38 -14q-18 -15 -18 -51v-13h141v21q0 39 21 81t56 70q74 57 199 57t208 -45v-676h-181v580q-13 8 -51 8q-36 0 -54.5 -21.5t-18.5 -57.5v-17h78v-132h-76v-360h-181v360h-139v-360h-181v360h-63v132h63v5q0 96 64 152q64 58 171 58
q37 0 74 -11z" />
    <glyph glyph-name=".notdef" horiz-adv-x="500" 
d="M0 0v700h500v-700h-500zM250 395l170 255h-340zM280 350l170 -255v510zM80 50h340l-170 255zM50 605v-510l170 255z" />
    <glyph glyph-name=".null" horiz-adv-x="0" 
 />
    <glyph glyph-name="nonmarkingreturn" horiz-adv-x="333" 
 />
    <glyph glyph-name="space" unicode=" " horiz-adv-x="198" 
 />
    <glyph glyph-name="exclam" unicode="!" horiz-adv-x="284" 
d="M209 232h-134l-26 442h186zM142 -11h-1q-45 0 -73.5 29t-28.5 74q0 46 28.5 75t74.5 29q45 0 73 -29t29 -75q0 -45 -28 -74t-74 -29z" />
    <glyph glyph-name="quotedbl" unicode="&#x22;" horiz-adv-x="423" 
d="M29 692h155l-25 -284h-105zM239 692h156l-26 -284h-104z" />
    <glyph glyph-name="numbersign" unicode="#" horiz-adv-x="573" 
d="M238 278h86l14 98h-85zM195 0h-103l26 171h-81v107h99l15 98h-83v107h100l25 167h101l-25 -167h86l25 167h102l-25 -167h79v-107h-96l-14 -98h81v-107h-100l-24 -171h-103l25 171h-85z" />
    <glyph glyph-name="dollar" unicode="$" horiz-adv-x="573" 
d="M342 -88h-114v93q-107 6 -177 43l32 138q90 -44 176 -44q87 0 87 46q0 23 -23.5 39t-80.5 34q-90 29 -138 72.5t-48 114.5q0 69 46.5 119t130.5 67v93h113v-85q86 -2 152 -32l-32 -133q-83 34 -151 34q-77 0 -77 -43q0 -18 26.5 -34.5t91.5 -38.5q93 -31 132.5 -76
t39.5 -114q0 -71 -49 -123t-137 -68v-102z" />
    <glyph glyph-name="percent" unicode="%" horiz-adv-x="919" 
d="M218 661h1q87 0 136 -55.5t49 -137.5q0 -97 -56 -152.5t-135 -55.5q-81 0 -134 54.5t-53 142.5q0 85 52 144.5t140 59.5zM216 565h-1q-57 0 -57 -105q0 -48 15 -76t44 -28q55 0 55 104q0 105 -56 105zM320 -11h-93l370 671h92zM706 391h1q87 0 136 -55t49 -138
q0 -97 -56 -152.5t-135 -55.5q-81 0 -134 54.5t-53 142.5q0 86 52 145t140 59zM704 295h-1q-57 0 -57 -105q0 -104 59 -104q55 0 55 104q0 105 -56 105z" />
    <glyph glyph-name="ampersand" unicode="&#x26;" horiz-adv-x="710" 
d="M702 0h-208q-29 31 -36 41q-73 -52 -180 -52q-123 0 -185 57t-62 135q0 127 127 192v3q-50 52 -50 126q0 72 57.5 127.5t159.5 55.5q85 0 141 -45t56 -119q0 -105 -127 -171l-1 -4l29 -32.5l34 -38t27 -28.5q39 61 54 150h160q-29 -161 -118 -259q67 -80 122 -138z
M302 119h1q45 0 72 22q-31 29 -136 145q-38 -31 -38 -75q0 -38 27.5 -65t73.5 -27zM320 575h-1q-23 0 -36.5 -17t-13.5 -39q0 -42 44 -87q57 44 57 85q0 22 -13.5 40t-36.5 18z" />
    <glyph glyph-name="quotesingle" unicode="'" horiz-adv-x="213" 
d="M29 692h155l-25 -284h-105z" />
    <glyph glyph-name="parenleft" unicode="(" horiz-adv-x="328" 
d="M164 690h123q-91 -167 -91 -403q0 -233 91 -402h-123q-106 164 -106 402q1 243 106 403z" />
    <glyph glyph-name="parenright" unicode=")" horiz-adv-x="328" 
d="M163 -115h-122q90 165 90 403q0 237 -90 402h122q107 -164 107 -402q-1 -237 -107 -403z" />
    <glyph glyph-name="asterisk" unicode="*" horiz-adv-x="471" 
d="M291 685l99 -57l-112 -128v-3l163 38v-116l-165 31v-2l114 -125l-100 -58l-56 160l-2 -1l-54 -159l-99 58l113 127l-1 1l-161 -32v116l159 -38l1 3l-111 128l101 57l53 -159h2z" />
    <glyph glyph-name="plus" unicode="+" horiz-adv-x="596" 
d="M242 532h112v-211h202v-108h-202v-213h-112v213h-202v108h202v211z" />
    <glyph glyph-name="comma" unicode="," horiz-adv-x="283" 
d="M114 -108l-119 -10q55 156 79 304l179 10q-58 -171 -139 -304z" />
    <glyph glyph-name="hyphen" unicode="-" horiz-adv-x="328" 
d="M30 318h268v-117h-268v117z" />
    <glyph glyph-name="period" unicode="." horiz-adv-x="283" 
d="M152 -11h-1q-45 0 -73.5 29.5t-28.5 75.5t29 75.5t74 29.5t73.5 -29t29.5 -76q0 -46 -28.5 -75.5t-74.5 -29.5z" />
    <glyph glyph-name="slash" unicode="/" horiz-adv-x="326" 
d="M139 -40h-115l186 725h115z" />
    <glyph glyph-name="zero" unicode="0" horiz-adv-x="573" 
d="M288 661q68 0 119 -28.5t79.5 -77.5t42 -106t13.5 -123q0 -151 -65 -244t-191 -93q-67 0 -118 28t-80 76.5t-43 106t-14 124.5q0 68 14.5 127t44.5 107t80.5 75.5t117.5 27.5zM288 525q-77 0 -77 -200q-1 -201 77 -201q74 0 74 201q0 200 -74 200z" />
    <glyph glyph-name="one" unicode="1" horiz-adv-x="573" 
d="M236 0v491h-2l-128 -57l-29 134l185 82h148v-650h-174z" />
    <glyph glyph-name="two" unicode="2" horiz-adv-x="573" 
d="M523 0h-482v109l90 79q109 95 154 148.5t46 100.5q0 37 -24.5 58.5t-72.5 21.5q-64 0 -139 -52l-49 129q93 67 225 67q112 0 176 -56.5t64 -153.5q0 -128 -151 -250l-64 -51v-2h227v-148z" />
    <glyph glyph-name="three" unicode="3" horiz-adv-x="573" 
d="M37 35l34 135q75 -39 154 -39q49 0 77.5 17.5t28.5 51.5q0 38 -33.5 58t-81.5 20h-67v128h64q40 0 71 14t31 45q0 25 -23 40t-65 15q-69 0 -138 -37l-34 129q33 21 91 35t123 14q105 0 166.5 -46.5t61.5 -118.5q0 -109 -118 -150v-2q60 -10 99.5 -52t39.5 -103
q0 -90 -76 -145t-202 -55q-129 0 -203 46z" />
    <glyph glyph-name="four" unicode="4" horiz-adv-x="573" 
d="M479 0h-170v146h-282v116l226 388h226v-371h72v-133h-72v-146zM191 279h118v112q0 15 5 130h-4q-58 -122 -63 -131l-55 -109z" />
    <glyph glyph-name="five" unicode="5" horiz-adv-x="573" 
d="M495 650v-147h-255l-9 -71q14 2 38 2q116 0 185 -52q72 -54 72 -162q0 -95 -79.5 -163t-215.5 -68q-115 0 -189 36l30 134q69 -30 149 -30q49 0 84.5 19.5t35.5 61.5q0 92 -181 92q-41 0 -86 -5l42 353h379z" />
    <glyph glyph-name="six" unicode="6" horiz-adv-x="573" 
d="M475 658v-137q-15 2 -56 0q-172 -8 -207 -123h4q48 41 129 41q85 0 144.5 -56.5t59.5 -156.5t-71.5 -168.5t-178.5 -68.5q-133 0 -201.5 83t-68.5 204q0 182 117 288q104 92 269 95q23 2 60 -1zM296 120h1q31 0 50 27.5t19 69.5q0 39 -20 67.5t-60 28.5q-54 0 -74 -48
q-5 -10 -5 -38q3 -44 25 -75.5t64 -31.5z" />
    <glyph glyph-name="seven" unicode="7" horiz-adv-x="573" 
d="M45 650h481v-112l-261 -538h-192l262 500v2h-290v148z" />
    <glyph glyph-name="eight" unicode="8" horiz-adv-x="573" 
d="M140 331v2q-89 48 -89 141q0 84 68 135.5t172 51.5q113 0 170 -51.5t57 -118.5q0 -43 -23 -80t-66 -60v-2q48 -18 81.5 -58.5t33.5 -100.5q0 -91 -71 -146t-192 -55q-124 0 -187.5 55.5t-63.5 127.5q0 110 110 159zM289 111q31 0 51 19t20 48q0 34 -23.5 58t-61.5 33
q-29 -8 -45.5 -29t-16.5 -51q0 -31 21.5 -54.5t54.5 -23.5zM284 541q-31 0 -47.5 -18t-16.5 -44q0 -25 21.5 -44.5t56.5 -30.5q20 5 36 24.5t16 42.5q0 29 -17 49.5t-49 20.5z" />
    <glyph glyph-name="nine" unicode="9" horiz-adv-x="573" 
d="M87 -8v138q23 -2 64 -1q73 2 124 31q63 35 81 97l-3 2q-40 -37 -120 -37q-85 0 -146 54.5t-61 149.5q0 98 72.5 166.5t182.5 68.5q128 0 193.5 -81.5t65.5 -200.5q0 -193 -115 -297q-99 -88 -274 -93q-40 0 -64 3zM277 531h-1q-31 0 -51.5 -26t-19.5 -68
q0 -37 19.5 -63.5t57.5 -26.5q46 0 67 32q6 11 6 40q1 45 -18 78.5t-60 33.5z" />
    <glyph glyph-name="colon" unicode=":" horiz-adv-x="283" 
d="M152 299h-1q-45 0 -73 29.5t-28 74.5q0 46 28.5 75t73.5 29t73 -28.5t29 -75.5q0 -45 -28.5 -74.5t-73.5 -29.5zM152 -11h-1q-45 0 -73 29.5t-28 74.5t28.5 74.5t73.5 29.5t73 -28.5t29 -75.5q0 -45 -28.5 -74.5t-73.5 -29.5z" />
    <glyph glyph-name="semicolon" unicode=";" horiz-adv-x="283" 
d="M113 -108l-118 -10q55 156 79 304l178 10q-58 -171 -139 -304zM156 299h-1q-45 0 -73 29.5t-28 74.5q0 46 28.5 75t73.5 29q46 0 73.5 -28.5t28.5 -75.5q0 -46 -28 -75t-74 -29z" />
    <glyph glyph-name="less" unicode="&#x3c;" horiz-adv-x="596" 
d="M54 216v100l488 216v-122l-352 -143v-2l352 -143v-122z" />
    <glyph glyph-name="equal" unicode="=" horiz-adv-x="596" 
d="M556 319h-516v108h516v-108zM556 108h-516v107h516v-107z" />
    <glyph glyph-name="greater" unicode="&#x3e;" horiz-adv-x="596" 
d="M542 320v-108l-488 -212v122l362 143v2l-362 144v121z" />
    <glyph glyph-name="question" unicode="?" horiz-adv-x="463" 
d="M293 231h-156l-1 25q-2 80 57 150l27.5 33t17 27t9.5 31q0 45 -63 48q-56 0 -99 -29l-38 129q78 41 178 41q99 0 151 -45.5t52 -113.5q0 -37 -17 -73.5t-29 -50.5t-40 -43q-48 -51 -48 -115zM211 -11h-1q-45 0 -73 29t-28 74q0 46 28.5 74.5t73.5 29.5q45 0 73.5 -29
t29.5 -75q0 -45 -28.5 -74t-74.5 -29z" />
    <glyph glyph-name="at" unicode="@" horiz-adv-x="784" 
d="M440 248l12 87q-10 3 -23 3q-41 0 -70 -37t-29 -88q0 -56 42 -56q22 0 42.5 25.5t25.5 65.5zM537 -6l18 -64q-81 -34 -185 -34q-130 0 -223 87t-93 229q0 157 106 268.5t272 111.5q133 0 220 -81.5t87 -207.5q0 -108 -54.5 -173.5t-140.5 -65.5q-78 0 -90 73h-3
q-45 -73 -123 -73q-52 0 -83 35.5t-31 97.5q0 96 63.5 163t169.5 67q81 0 124 -25l-28 -187q-12 -75 23 -76q34 -2 62.5 40.5t28.5 121.5q0 97 -62 160t-174 63q-117 0 -199.5 -83t-82.5 -218q0 -123 70 -190.5t185 -67.5q82 0 143 29z" />
    <glyph glyph-name="A" unicode="A" horiz-adv-x="675" 
d="M413 156h-174l-38 -156h-187l196 674h240l201 -674h-195zM263 290h125l-31 121q-6 22 -18.5 73.5l-14.5 59.5h-2q-5 -19 -15 -66.5t-15 -67.5z" />
    <glyph glyph-name="B" unicode="B" horiz-adv-x="631" 
d="M62 4v661q82 14 213 14q141 0 206 -33q41 -19 66 -55t25 -83q0 -100 -110 -142v-2q62 -17 97 -60.5t35 -103.5q0 -90 -75 -147q-82 -61 -279 -61q-104 0 -178 12zM241 546v-131h36q114 0 114 70q0 65 -91 65q-35 0 -59 -4zM241 287v-160q13 -2 52 -2q49 0 80 20.5
t31 62.5q0 79 -120 79h-43z" />
    <glyph glyph-name="C" unicode="C" horiz-adv-x="602" 
d="M542 159l25 -142q-61 -28 -170 -28q-91 0 -162.5 27t-114 74.5t-64.5 107t-22 128.5q0 115 52.5 198t136 122t186.5 39q113 0 169 -30l-35 -142q-60 24 -125 24q-84 0 -139 -50.5t-55 -148.5q0 -93 52 -146t145 -53q70 0 121 20z" />
    <glyph glyph-name="D" unicode="D" horiz-adv-x="710" 
d="M62 4v661q90 14 215 14q179 0 277 -67q122 -84 122 -259q0 -186 -118 -277q-107 -84 -316 -84q-110 0 -180 12zM243 537v-402q9 -2 38 -2q92 -2 147.5 52t55.5 163q0 95 -51 144t-135 49q-37 0 -55 -4z" />
    <glyph glyph-name="E" unicode="E" horiz-adv-x="552" 
d="M485 418v-146h-242v-124h271v-148h-452v674h438v-147h-257v-109h242z" />
    <glyph glyph-name="F" unicode="F" horiz-adv-x="545" 
d="M62 0v674h433v-147h-252v-125h237v-146h-237v-256h-181z" />
    <glyph glyph-name="G" unicode="G" horiz-adv-x="697" 
d="M646 400v-368q-115 -39 -232 -39q-188 0 -284 91t-96 244q1 169 111.5 261t282.5 92q127 0 195 -33l-36 -144q-67 28 -160 28q-89 0 -146 -48.5t-57 -146.5q0 -93 53.5 -146t138.5 -53q40 0 56 6v116h-90v140h264z" />
    <glyph glyph-name="H" unicode="H" horiz-adv-x="705" 
d="M62 674h181v-249h219v249h180v-674h-180v267h-219v-267h-181v674z" />
    <glyph glyph-name="I" unicode="I" horiz-adv-x="305" 
d="M62 674h181v-674h-181v674z" />
    <glyph glyph-name="J" unicode="J" horiz-adv-x="429" 
d="M191 258v416h181v-416q0 -142 -65 -205.5t-191 -63.5q-71 0 -120 16l20 145q40 -11 79 -11q47 0 71.5 26.5t24.5 92.5z" />
    <glyph glyph-name="K" unicode="K" horiz-adv-x="646" 
d="M62 0v674h179v-286h2q19 35 44 74l129 212h222l-214 -287l222 -387h-209l-142 273l-54 -69v-204h-179z" />
    <glyph glyph-name="L" unicode="L" horiz-adv-x="528" 
d="M62 0v674h181v-523h259v-151h-440z" />
    <glyph glyph-name="M" unicode="M" horiz-adv-x="865" 
d="M640 0l-8 241q-4 157 -3 272h-3q-29 -122 -71 -264l-67 -235h-141l-57 234q-33 140 -53 265h-2l-11 -272l-10 -241h-166l41 674h243l45 -181q34 -142 52 -247h4q41 177 61 248l50 180h238l34 -674h-176z" />
    <glyph glyph-name="N" unicode="N" horiz-adv-x="705" 
d="M227 0h-165v674h213l107 -207q52 -95 106 -236h3q-14 125 -14 284v159h165v-674h-190l-114 224q-72 137 -114 244h-3q6 -137 6 -302v-166z" />
    <glyph glyph-name="O" unicode="O" horiz-adv-x="730" 
d="M369 685q155 0 241 -98.5t86 -242.5q0 -163 -91 -259t-247 -96q-151 0 -237.5 98.5t-86.5 245.5q0 151 92 251.5t243 100.5zM366 542q-64 0 -102.5 -56.5t-38.5 -149.5q0 -94 38.5 -149t103.5 -55q64 0 101 57t37 149q0 89 -37.5 146.5t-101.5 57.5z" />
    <glyph glyph-name="P" unicode="P" horiz-adv-x="602" 
d="M62 0v665q86 14 223 14q144 0 213 -53q35 -26 56 -69t21 -94q0 -107 -65 -166q-79 -70 -225 -70q-22 0 -44 2v-229h-179zM241 539v-172q20 -2 41 -2q53 0 84 25t31 69q0 39 -26 61.5t-76 22.5q-36 0 -54 -4z" />
    <glyph glyph-name="Q" unicode="Q" horiz-adv-x="730" 
d="M698 14l-51 -137q-109 32 -270 101q-14 7 -49 11q-57 4 -109 27.5t-94 64.5t-66.5 106t-24.5 145q0 152 91.5 252.5t245.5 100.5q103 0 178.5 -48.5t111 -124t35.5 -167.5q0 -104 -41.5 -181.5t-103.5 -108.5v-5q45 -14 147 -36zM366 132h1q64 0 101 56.5t37 149.5
q0 90 -37.5 147t-101.5 57t-102.5 -57.5t-38.5 -147.5q0 -92 38 -148.5t103 -56.5z" />
    <glyph glyph-name="R" unicode="R" horiz-adv-x="617" 
d="M62 0v665q89 14 218 14q158 0 228 -52q67 -51 67 -147q0 -58 -35.5 -102.5t-80.5 -60.5v-4q58 -24 86 -120q8 -26 20 -72l21 -78t15 -43h-185q-19 37 -47 155q-13 59 -34 78.5t-65 19.5h-29v-253h-179zM241 542v-160h47q50 0 78.5 23t28.5 61q0 78 -93 80q-43 0 -61 -4z
" />
    <glyph glyph-name="S" unicode="S" horiz-adv-x="561" 
d="M40 31l34 149q82 -42 175 -42q92 0 92 55q0 24 -23.5 41t-82.5 37q-189 66 -189 203q0 92 73 151.5t197 59.5q104 0 183 -35l-38 -144q-71 32 -147 32q-41 0 -63 -13.5t-22 -36.5q0 -24 24.5 -38.5t96.5 -41.5q176 -64 176 -203q0 -93 -73.5 -154.5t-214.5 -61.5
q-57 0 -111.5 12.5t-86.5 29.5z" />
    <glyph glyph-name="T" unicode="T" horiz-adv-x="570" 
d="M193 0v523h-172v151h528v-151h-175v-523h-181z" />
    <glyph glyph-name="U" unicode="U" horiz-adv-x="697" 
d="M61 674h181v-382q0 -160 106 -160q107 0 107 160v382h181v-372q0 -155 -75 -234t-218 -79q-282 0 -282 318v367z" />
    <glyph glyph-name="V" unicode="V" horiz-adv-x="671" 
d="M439 0h-213l-214 674h198l71 -265q34 -115 56 -236h2q24 120 56 233l73 268h192z" />
    <glyph glyph-name="W" unicode="W" horiz-adv-x="906" 
d="M370 0h-200l-155 674h194l39 -250l17 -117.5t18 -119.5h2q12 92 39 239l43 248h193l42 -260q15 -99 30 -222h2q11 83 34 234l40 248h183l-166 -674h-197l-45 264q-16 93 -28 202h-2q-19 -138 -32 -203z" />
    <glyph glyph-name="X" unicode="X" horiz-adv-x="631" 
d="M619 0h-209l-50 110l-52 117h-2q-5 -16 -43 -116l-45 -111h-205l189 341l-183 333h208l45 -107q23 -50 45 -111h3q24 70 39 110l42 108h206l-184 -329z" />
    <glyph glyph-name="Y" unicode="Y" horiz-adv-x="629" 
d="M400 0h-180v272l-213 402h207l57 -152q20 -50 46 -124h2q1 4 43 124l56 152h203l-221 -395v-279z" />
    <glyph glyph-name="Z" unicode="Z" horiz-adv-x="588" 
d="M21 0v96l298 425v4h-270v149h504v-103l-289 -418v-4h294v-149h-537z" />
    <glyph glyph-name="bracketleft" unicode="[" horiz-adv-x="328" 
d="M276 -112h-213v798h213v-96h-86v-606h86v-96z" />
    <glyph glyph-name="backslash" unicode="\" horiz-adv-x="326" 
d="M302 -40h-115l-171 725h115z" />
    <glyph glyph-name="bracketright" unicode="]" horiz-adv-x="328" 
d="M52 686h213v-798h-213v96h86v606h-86v96z" />
    <glyph glyph-name="asciicircum" unicode="^" horiz-adv-x="596" 
d="M562 172h-126l-137 343h-3l-138 -343h-123l211 478h105z" />
    <glyph glyph-name="underscore" unicode="_" horiz-adv-x="500" 
d="M0 -75h500v-50h-500v50z" />
    <glyph glyph-name="grave" unicode="`" 
d="M-4 706h160l85 -156h-122z" />
    <glyph glyph-name="a" unicode="a" horiz-adv-x="548" 
d="M493 286v-166q0 -87 8 -120h-162l-10 43h-3q-48 -54 -137 -54q-73 0 -117.5 45.5t-44.5 109.5q0 95 77 142.5t208 48.5v4q0 42 -80 42q-77 0 -139 -37l-32 115q88 44 204 44q120 0 174 -58.5t54 -158.5zM318 185v40q-115 0 -115 -64q0 -23 14 -35t37 -12q20 0 38 12.5
t24 32.5q2 8 2 26z" />
    <glyph glyph-name="b" unicode="b" horiz-adv-x="610" 
d="M56 156v554h180v-268h2q46 61 140 61q89 0 145.5 -67.5t55.5 -179.5q0 -126 -67 -196.5t-159 -70.5q-96 0 -140 74h-2l-7 -63h-152q4 64 4 156zM236 280v-66q0 -11 2 -25q5 -24 25 -41.5t46 -17.5q41 0 64 30.5t23 87.5q0 53 -22 85t-65 32q-26 0 -46 -17.5t-25 -43.5
q-2 -16 -2 -24z" />
    <glyph glyph-name="c" unicode="c" horiz-adv-x="452" 
d="M413 142l20 -132q-48 -21 -136 -21q-123 0 -194.5 68t-71.5 185q0 111 75 186t213 75q64 0 114 -17l-26 -133q-32 13 -77 13q-51 0 -83 -32t-32 -86q0 -57 34 -87.5t85 -30.5q50 0 79 12z" />
    <glyph glyph-name="d" unicode="d" horiz-adv-x="610" 
d="M374 710h180v-554q0 -90 4 -156h-160l-7 67h-2q-46 -78 -149 -78q-88 0 -148.5 70.5t-60.5 183.5q-1 119 63.5 189.5t156.5 70.5q88 0 121 -47h2v254zM374 224v56q0 15 -1 23q-5 27 -25 45t-47 18q-43 0 -65 -33.5t-22 -85.5q0 -55 24 -85t63 -30q27 0 46 17t24 42
q3 15 3 33z" />
    <glyph glyph-name="e" unicode="e" horiz-adv-x="539" 
d="M506 183h-304q4 -28 40.5 -44.5t85.5 -16.5q75 0 135 19l23 -120q-79 -32 -184 -32q-129 0 -200 67t-71 185q0 45 15 89.5t44 84t80 64t116 24.5q113 0 170 -71.5t57 -180.5q0 -40 -7 -68zM200 305h147q0 29 -16 54.5t-54 25.5q-36 0 -55 -25.5t-22 -54.5z" />
    <glyph glyph-name="f" unicode="f" horiz-adv-x="363" 
d="M258 0h-181v360h-63v132h63v17q0 44 16 88.5t48 72.5q55 51 143 51q48 0 83 -9l-4 -138q-19 6 -46 6q-28 0 -44.5 -18t-16.5 -46v-24h90v-132h-88v-360z" />
    <glyph glyph-name="g" unicode="g" horiz-adv-x="596" 
d="M540 340v-268q0 -153 -76 -220q-72 -61 -208 -61q-111 0 -183 36l34 136q66 -35 142 -35q51 0 82.5 28t31.5 83v22h-2q-43 -55 -123 -55q-91 0 -149 66.5t-58 172.5q0 114 64.5 186t158.5 72q86 0 127 -63h2l6 52h156q-5 -50 -5 -152zM360 223v66q0 9 -2 23
q-13 56 -64 56q-34 0 -57 -32t-23 -88q0 -49 21.5 -80t58.5 -31q24 0 41 14t22 35q3 10 3 37z" />
    <glyph glyph-name="h" unicode="h" horiz-adv-x="599" 
d="M56 0v710h180v-270h2q27 32 58 46q34 17 75 17q83 0 127.5 -56.5t44.5 -161.5v-285h-180v265q0 93 -64 93q-42 0 -58 -39q-5 -10 -5 -29v-290h-180z" />
    <glyph glyph-name="i" unicode="i" horiz-adv-x="292" 
d="M236 0h-180v492h180v-492zM146 713q41 0 66 -24t26 -61q0 -37 -25.5 -61.5t-67.5 -24.5q-41 0 -66 24.5t-25 61.5t25.5 61t66.5 24z" />
    <glyph glyph-name="j" unicode="j" horiz-adv-x="312" 
d="M-20 -217l-17 140q64 7 87 31q29 28 29 150v388h180v-426q0 -154 -73 -221q-71 -62 -206 -62zM169 713q41 0 66 -24t25 -61q1 -37 -24.5 -61.5t-68.5 -24.5q-40 0 -65 24.5t-25 61.5t25.5 61t66.5 24z" />
    <glyph glyph-name="k" unicode="k" horiz-adv-x="575" 
d="M236 710v-418h2q21 42 32 60l81 140h215l-170 -198l195 -294h-222l-97 188l-36 -48v-140h-180v710h180z" />
    <glyph glyph-name="l" unicode="l" horiz-adv-x="292" 
d="M56 0v710h180v-710h-180z" />
    <glyph glyph-name="m" unicode="m" horiz-adv-x="871" 
d="M56 0v325q0 77 -4 167h151l7 -61h4q54 72 145 72q47 0 82 -20.5t51 -57.5h2q32 40 68 58q38 20 87 20q80 0 123.5 -55.5t43.5 -157.5v-290h-175v263q0 96 -58 96q-40 0 -55 -42q-5 -13 -5 -36v-281h-175v268q0 91 -57 91q-38 0 -55 -41q-5 -11 -5 -36v-282h-175z" />
    <glyph glyph-name="n" unicode="n" horiz-adv-x="599" 
d="M56 0v325q0 77 -4 167h155l8 -63h4q19 28 56 51t91 23q86 0 131.5 -55.5t45.5 -157.5v-290h-180v268q0 90 -63 90q-41 0 -59 -43q-5 -11 -5 -36v-279h-180z" />
    <glyph glyph-name="o" unicode="o" horiz-adv-x="589" 
d="M302 503q115 0 185.5 -70t70.5 -182q0 -127 -77 -194.5t-189 -67.5q-113 0 -187 68.5t-74 185.5q0 118 73 189t198 71zM296 376q-41 0 -60 -37.5t-19 -92.5q0 -58 20 -94t60 -36q36 0 55.5 35t19.5 95q0 56 -19 93t-57 37z" />
    <glyph glyph-name="p" unicode="p" horiz-adv-x="610" 
d="M56 -198v523q0 75 -4 167h155l8 -62h2q56 73 159 73q82 0 142.5 -68t60.5 -183q0 -126 -67.5 -194.5t-156.5 -68.5q-40 0 -71.5 13.5t-45.5 33.5h-2v-234h-180zM236 276v-61q0 -17 3 -30q5 -25 24.5 -42t45.5 -17q40 0 63.5 32t23.5 86t-22 86.5t-63 32.5
q-27 0 -47.5 -18.5t-25.5 -45.5q-2 -7 -2 -23z" />
    <glyph glyph-name="q" unicode="q" horiz-adv-x="610" 
d="M374 -198v254h-2q-47 -67 -139 -67q-82 0 -142 68.5t-60 182.5q0 123 64.5 193t150.5 70q89 0 131 -61l2 -1l4 51h175q-4 -102 -4 -153v-537h-180zM374 217v65q0 14 -2 20q-5 26 -24 43.5t-47 17.5q-43 0 -65 -32t-22 -85q0 -55 24 -85.5t62 -30.5q27 0 46.5 17t24.5 41
q3 9 3 29z" />
    <glyph glyph-name="r" unicode="r" horiz-adv-x="403" 
d="M56 0v326q0 84 -4 166h154l6 -89h4q18 51 55.5 75.5t75.5 24.5q23 0 36 -3v-169q-22 5 -46 5q-84 0 -98 -62q-3 -14 -3 -31v-243h-180z" />
    <glyph glyph-name="s" unicode="s" horiz-adv-x="451" 
d="M30 24l30 127q22 -14 63.5 -25.5t73.5 -11.5q53 0 53 27q0 14 -12.5 22t-51.5 21q-146 46 -144 150q0 74 58 121.5t154 47.5q87 0 147 -28l-29 -122q-56 27 -109 27q-49 0 -49 -28q0 -12 15.5 -21.5t58.5 -23.5q71 -23 102.5 -60.5t32.5 -92.5q0 -74 -57.5 -119.5
t-167.5 -45.5q-100 0 -168 35z" />
    <glyph glyph-name="t" unicode="t" horiz-adv-x="383" 
d="M77 585l176 47v-140h102v-132h-102v-141q0 -45 12.5 -64t44.5 -19q28 0 43 4v-137q-42 -14 -107 -14q-78 0 -123 45q-46 46 -46 154v172h-61v132h61v93z" />
    <glyph glyph-name="u" unicode="u" horiz-adv-x="598" 
d="M541 492v-324q0 -84 4 -168h-155l-8 65h-4q-51 -76 -149 -76q-84 0 -129 54t-45 159v290h180v-261q0 -97 63 -97q43 0 58 42q5 9 5 26v290h180z" />
    <glyph glyph-name="v" unicode="v" horiz-adv-x="551" 
d="M8 492h196l53 -209q13 -50 23 -116h3q10 67 22 116l49 209h189l-179 -492h-181z" />
    <glyph glyph-name="w" unicode="w" horiz-adv-x="769" 
d="M8 492h183l29 -181q10 -60 24 -163h2q4 25 33 162l39 182h141l37 -175q23 -108 33 -169h2q6 61 24 171l30 173h176l-147 -492h-170l-34 146q-12 54 -27 150h-2q-9 -85 -26 -148l-36 -148h-170z" />
    <glyph glyph-name="x" unicode="x" horiz-adv-x="544" 
d="M3 492h201l39 -72l36 -71h3l32 74l33 69h195l-159 -233l160 -259h-204l-39 79q-20 39 -32 70h-3q-2 -6 -14 -31.5t-17 -38.5l-36 -79h-197l163 251z" />
    <glyph glyph-name="y" unicode="y" horiz-adv-x="545" 
d="M5 492h200l59 -221q4 -15 11.5 -46.5t9.5 -40.5h4q3 13 9 44t9 43l45 221h192l-105 -312q-53 -147 -92.5 -219t-83.5 -110q-69 -62 -163 -72l-37 152q30 5 61 19q37 14 58 45q10 12 10 22q0 9 -7 27z" />
    <glyph glyph-name="z" unicode="z" horiz-adv-x="486" 
d="M24 0v103l126 153q39 46 83 91v3h-193v142h414v-107l-118 -144q-58 -68 -88 -96v-2h215v-143h-439z" />
    <glyph glyph-name="braceleft" unicode="{" horiz-adv-x="328" 
d="M31 244v87q32 2 49.5 13.5t21 23.5t3.5 29q0 11 -5 76q-4 52 -4 77q0 136 155 136h41v-97h-18q-53 -1 -53 -65q0 -12 4 -50t4 -66q1 -57 -21 -83t-70 -36v-2q48 -10 70 -36t21 -84q0 -29 -4 -67t-4 -49q0 -65 53 -66h18v-97h-42q-154 0 -154 136q0 25 4 77q5 68 5 77
q0 12 -2 21t-9 20t-23 17.5t-40 7.5z" />
    <glyph glyph-name="bar" unicode="|" horiz-adv-x="302" 
d="M89 750h124v-1000h-124v1000z" />
    <glyph glyph-name="braceright" unicode="}" horiz-adv-x="328" 
d="M296 331v-87q-45 -3 -59 -21t-14 -45q0 -32 5 -77q4 -52 4 -77q0 -136 -154 -136h-42v97h17q54 1 54 66q0 11 -4 49t-4 67q-1 58 20.5 84t70.5 36v2q-49 10 -70.5 36t-20.5 83q0 28 4 66t4 50q0 64 -53 65h-18v97h41q155 0 155 -136q0 -25 -4 -77q-5 -43 -5 -76
q0 -17 3.5 -29t21 -23.5t48.5 -13.5z" />
    <glyph glyph-name="asciitilde" unicode="~" horiz-adv-x="596" 
d="M151 184h-111q0 203 149 203q36 0 65.5 -11.5t72.5 -37.5q66 -39 83 -39q31 0 35 81h111q8 -205 -141 -205q-59 0 -138 49q-65 41 -84 41q-36 0 -42 -81z" />
    <glyph glyph-name="uni00A0" unicode="&#xa0;" horiz-adv-x="198" 
 />
    <glyph glyph-name="exclamdown" unicode="&#xa1;" horiz-adv-x="284" 
d="M235 -189h-185l26 441h134zM142 497h1q45 0 73.5 -29t28.5 -75q-1 -45 -29 -74t-73 -29q-46 0 -74.5 29t-28.5 74q0 46 28.5 75t73.5 29z" />
    <glyph glyph-name="cent" unicode="&#xa2;" horiz-adv-x="573" 
d="M398 -10h-114v96q-94 15 -150 79q-55 64 -55 163q0 91 54 161t152 90v93h113v-87q51 -4 89 -17l-25 -132q-33 15 -83 15q-53 0 -84 -31t-31 -85q0 -58 33.5 -87.5t84.5 -29.5q53 0 92 15l20 -130q-36 -17 -96 -20v-93z" />
    <glyph glyph-name="sterling" unicode="&#xa3;" horiz-adv-x="573" 
d="M522 0h-473v95q41 15 76 52.5t35 82.5q0 18 -2 26h-96v121h74q-6 34 -6 70q0 96 66 155t175 59q77 0 121 -24l-26 -136q-34 18 -83 18q-47 0 -66.5 -23.5t-19.5 -57.5q0 -26 8 -61h135v-121h-119q-1 -24 -11 -52q-15 -31 -41 -56v-2h253v-146z" />
    <glyph glyph-name="currency" unicode="&#xa4;" horiz-adv-x="573" 
d="M287 557h1q67 0 116 -33l79 87l76 -78l-91 -81q31 -55 31 -116q0 -70 -35 -119l89 -85l-75 -75l-75 92q-48 -39 -117 -39q-71 0 -117 38l-74 -91l-75 75l87 83q-35 54 -35 119q0 59 33 118l-91 80l76 80l81 -90q46 35 116 35zM286 439h-1q-33 0 -56.5 -28t-23.5 -76
q0 -49 24.5 -77.5t56.5 -28.5q33 0 57 28t24 79q0 45 -24 74t-57 29z" />
    <glyph glyph-name="yen" unicode="&#xa5;" horiz-adv-x="573" 
d="M367 0h-169v153h-156v81h156v60h-156v80h115l-162 276h194l56 -140q7 -17 42 -117h2q6 15 20 55t23 62l56 140h189l-167 -276h115v-80h-158v-60h158v-81h-158v-153z" />
    <glyph glyph-name="brokenbar" unicode="&#xa6;" horiz-adv-x="302" 
d="M89 174h124v-350h-124v350zM89 674h124v-350h-124v350z" />
    <glyph glyph-name="section" unicode="&#xa7;" horiz-adv-x="579" 
d="M177 339v-1q0 -43 79 -69q16 -6 61.5 -20.5t57.5 -20.5q27 14 27 42q0 39 -61 62q-21 8 -69.5 25t-62.5 23q-13 -4 -22.5 -15.5t-9.5 -25.5zM484 656l-24 -107q-64 26 -138 26q-82 0 -82 -36q0 -31 98 -59q101 -30 152 -69.5t51 -113.5q0 -76 -77 -122q47 -35 47 -94
q0 -46 -23 -80t-60.5 -51.5t-75.5 -25.5t-77 -8q-124 0 -200 45l32 108q75 -42 159 -42q82 0 82 38q0 19 -22.5 32.5t-76.5 29.5q-47 13 -79.5 26.5t-65 34.5t-49 50.5t-16.5 67.5q0 36 23 71t64 53q-17 14 -29 40t-12 54q0 77 65.5 119t167.5 42q97 0 166 -29z" />
    <glyph glyph-name="dieresis" unicode="&#xa8;" 
d="M41 551h-1q-34 0 -57 23.5t-23 55.5q0 34 23 56.5t58 22.5q32 0 54 -22.5t22 -56.5q0 -33 -22 -56t-54 -23zM262 551h-2q-33 0 -55.5 23t-22.5 56q0 34 22.5 56.5t57.5 22.5q33 0 55 -22.5t22 -56.5q0 -33 -22 -56t-55 -23z" />
    <glyph glyph-name="copyright" unicode="&#xa9;" horiz-adv-x="677" 
d="M340 648h1q127 0 216.5 -90t89.5 -218q0 -129 -89.5 -219.5t-217.5 -90.5q-129 0 -219.5 90.5t-90.5 219.5q0 128 90.5 218t219.5 90zM339 585h-1q-97 0 -166 -72.5t-69 -173.5q0 -102 69 -173.5t167 -71.5q98 -1 167 71t69 174q0 101 -69.5 173.5t-166.5 72.5zM474 492
l-16 -60q-38 22 -94 22q-54 0 -86 -30t-32 -87q0 -52 33 -85t84 -33q61 0 99 24l16 -58q-49 -32 -124 -32q-87 0 -136.5 51t-49.5 130q0 83 57.5 134.5t138.5 51.5q35 0 68 -8.5t42 -19.5z" />
    <glyph glyph-name="ordfeminine" unicode="&#xaa;" horiz-adv-x="392" 
d="M357 266h-109l-7 30h-2q-41 -36 -98 -35q-49 0 -79 28t-30 71q0 57 53 86.5t144 30.5v6q0 2 -1 5t-4.5 7.5t-9 7.5t-16 5.5t-24.5 2.5q-50 0 -96 -25l-22 73q59 32 140 32q80 0 118 -39t38 -100v-108q0 -57 5 -78zM233 385v26q-37 0 -59.5 -10.5t-22.5 -29.5
q0 -14 11 -23.5t27 -9.5q13 0 25.5 7.5t16.5 19.5q2 6 2 20z" />
    <glyph glyph-name="guillemotleft" unicode="&#xab;" horiz-adv-x="484" 
d="M255 446l-113 -194l113 -193h-121l-108 193l108 194h121zM462 446l-113 -194l113 -193h-121l-108 193l108 194h121z" />
    <glyph glyph-name="logicalnot" unicode="&#xac;" horiz-adv-x="596" 
d="M40 433h516v-333h-112v225h-404v108z" />
    <glyph glyph-name="uni00AD" unicode="&#xad;" horiz-adv-x="291" 
d="M30 318h268v-117h-268v117z" />
    <glyph glyph-name="registered" unicode="&#xae;" horiz-adv-x="476" 
d="M219 484v-53h-55v156q60 6 74 6q48 0 67 -13q17 -12 17 -34q0 -11 -10.5 -21t-27.5 -14v-2q27 -8 34 -41q5 -21 11 -37h-61q-5 6 -11 31q-3 22 -24 22h-14zM221 554v-34h12q26 0 26 18q0 17 -24 17q-3 0 -7.5 -0.5t-6.5 -0.5zM239 686h1q75 0 127.5 -51.5t52.5 -123.5
q0 -74 -52.5 -125.5t-128.5 -51.5t-129.5 52t-53.5 125q0 72 53.5 123.5t129.5 51.5zM238 639h-1q-52 0 -87.5 -37.5t-35.5 -91.5t35.5 -91.5t88.5 -37.5q54 -1 89.5 37t35.5 93q0 54 -35.5 91t-89.5 37z" />
    <glyph glyph-name="macron" unicode="&#xaf;" 
d="M20 675h261v-95h-261v95z" />
    <glyph glyph-name="degree" unicode="&#xb0;" horiz-adv-x="373" 
d="M187 685h1q68 0 113.5 -44.5t45.5 -107.5q0 -66 -47.5 -110t-113.5 -44q-69 0 -114.5 44t-45.5 108q-1 64 46.5 109t114.5 45zM186 606h-1q-28 0 -47.5 -22t-19.5 -53t19.5 -52t49.5 -21q29 0 48.5 21t19.5 52t-19 53t-50 22z" />
    <glyph glyph-name="plusminus" unicode="&#xb1;" horiz-adv-x="596" 
d="M242 582h112v-164h202v-107h-202v-166h-112v166h-202v107h202v164zM40 108h516v-108h-516v108z" />
    <glyph glyph-name="two.superior" unicode="&#xb2;" horiz-adv-x="369" 
d="M16 443v65l61 54q11 10 29 25l26 22t20 18.5t17 18l11 15t8 16.5t2 16q0 18 -14 28.5t-38 10.5q-50 0 -87 -26l-34 89q63 43 156 43q75 0 118 -34t43 -90q0 -20 -7.5 -39.5t-14.5 -31.5t-26.5 -31t-26.5 -25t-32 -26l-21 -15v-3h135v-100h-325z" />
    <glyph glyph-name="three.superior" unicode="&#xb3;" horiz-adv-x="366" 
d="M48 722l-24 84q55 32 151 32q73 0 113.5 -28t40.5 -72q0 -64 -85 -89v-2q43 -4 71 -28t28 -61q0 -55 -52 -87.5t-138 -32.5q-93 0 -143 29l24 89q54 -26 101 -26q27 0 45.5 9.5t18.5 26.5q0 19 -23 30t-56 11h-31v78h28q72 0 72 32q0 29 -48 29q-49 0 -93 -24z" />
    <glyph glyph-name="acute" unicode="&#xb4;" 
d="M150 706h159l-122 -156h-123z" />
    <glyph glyph-name="mu" unicode="&#xb5;" horiz-adv-x="598" 
d="M386 64h-3q-12 -29 -41.5 -49.5t-71.5 -20.5q-29 0 -53 19v-35q0 -125 11 -176h-159q-13 32 -13 176v514h180v-268q0 -92 59 -92q21 0 38.5 13.5t23.5 29.5q5 9 5 27v290h180v-321q0 -26 9.5 -36.5t30.5 -11.5l-10 -122q-20 -12 -65 -12q-90 0 -121 75z" />
    <glyph glyph-name="paragraph" unicode="&#xb6;" horiz-adv-x="556" 
d="M306 -46h-111v310h-6q-20 0 -45 11.5t-51 33t-43.5 59t-18.5 82.5q-1 34 6.5 64.5t28 61.5t53.5 53t88.5 36t127.5 14q109 0 154 -12v-713h-111v616h-72v-616z" />
    <glyph glyph-name="periodcentered" unicode="&#xb7;" horiz-adv-x="283" 
d="M142 153h-1q-45 0 -73.5 29.5t-28.5 75.5t29 75.5t74 29.5t73.5 -29t29.5 -76q0 -47 -28.5 -76t-74.5 -29z" />
    <glyph glyph-name="cedilla" unicode="&#xb8;" 
d="M115 5h94l-25 -46q30 -4 51.5 -24.5t21.5 -49.5q0 -47 -36 -68.5t-92 -21.5q-54 0 -86 21l22 62q31 -17 55 -17q32 0 32 23q0 29 -78 34z" />
    <glyph glyph-name="one.superior" unicode="&#xb9;" horiz-adv-x="324" 
d="M260 443h-138v280h-1l-83 -35l-17 96l120 49h119v-390z" />
    <glyph glyph-name="ordmasculine" unicode="&#xba;" horiz-adv-x="399" 
d="M201 591h1q77 0 123.5 -45.5t46.5 -115.5q0 -81 -50.5 -125t-124.5 -44q-73 0 -122 45t-49 118q0 74 48 120.5t127 46.5zM199 506h-1q-24 0 -35.5 -25t-11.5 -56q0 -33 12.5 -56t35.5 -23q48 0 48 81q0 31 -13.5 55t-34.5 24z" />
    <glyph glyph-name="guillemotright" unicode="&#xbb;" horiz-adv-x="484" 
d="M136 252l-113 194h119l110 -194l-110 -193h-119zM340 252l-113 194h119l110 -194l-110 -193h-119z" />
    <glyph glyph-name="onequarter" unicode="&#xbc;" horiz-adv-x="863" 
d="M271 266h-137v280h-2l-82 -35l-18 96l120 49h119v-390zM283 -11h-94l363 672h94zM777 0h-126v85h-194v73l161 236h159v-224h50v-85h-50v-85zM651 170v55q0 15 2 42t2 37h-2q-28 -57 -37 -70l-39 -63l3 -1h71z" />
    <glyph glyph-name="onehalf" unicode="&#xbd;" horiz-adv-x="863" 
d="M260 266h-138v280h-1l-82 -35l-18 96l120 49h119v-390zM257 -11h-94l363 672h94zM504 0v65l61 54l28.5 25l26 22.5l20 18t17 17.5t10.5 15t8 17t2 16q0 39 -51 39q-50 0 -87 -26l-34 89q63 43 155 43q75 0 118 -34t43 -90q0 -33 -18 -63t-35.5 -46t-52.5 -44l-21 -15v-3
h135v-100h-325z" />
    <glyph glyph-name="threequarters" unicode="&#xbe;" horiz-adv-x="863" 
d="M63 545l-24 84q57 32 152 32q73 0 113.5 -28t40.5 -72q0 -64 -85 -89v-2q43 -4 71 -28t28 -61q0 -55 -52 -87.5t-138 -32.5q-93 0 -143 29l24 89q54 -26 100 -26q27 0 46 9.5t19 26.5q0 19 -23.5 30t-55.5 11h-31v78h28q72 0 72 32q0 29 -48 29t-94 -24zM312 -11h-94
l364 672h94zM786 0h-126v85h-194v73l161 236h159v-224h50v-85h-50v-85zM660 170v55q0 11 5 79h-3q-28 -57 -37 -70l-38 -63l3 -1h70z" />
    <glyph glyph-name="questiondown" unicode="&#xbf;" horiz-adv-x="463" 
d="M252 497h1q45 0 73.5 -29t28.5 -75q0 -45 -28.5 -74t-73.5 -29t-73.5 29t-29.5 74q0 46 28.5 75t73.5 29zM170 256h157l1 -25q2 -80 -58 -151q-2 -3 -8.5 -10.5l-9 -10.5l-8 -10t-7.5 -10.5l-6 -10t-6 -10.5t-4 -9.5t-3 -10t-1 -9.5q0 -45 63 -48q56 0 99 29l37 -129
q-76 -41 -177 -41q-99 0 -151 45.5t-52 113.5q0 12 1.5 23.5t3.5 21t7 20.5l8 18t10.5 18t10.5 15t12 15t11 13t11.5 12.5t10.5 11.5q48 51 48 115v14z" />
    <glyph glyph-name="Agrave" unicode="&#xc0;" horiz-adv-x="675" 
d="M413 156h-174l-38 -156h-187l196 674h240l201 -674h-195zM263 290h125l-31 121q-6 22 -18.5 73.5l-14.5 59.5h-2q-5 -19 -15 -66.5t-15 -67.5zM149 836h184l80 -124h-143z" />
    <glyph glyph-name="Aacute" unicode="&#xc1;" horiz-adv-x="675" 
d="M413 156h-174l-38 -156h-187l196 674h240l201 -674h-195zM263 290h125l-31 121q-6 22 -18.5 73.5l-14.5 59.5h-2q-5 -19 -15 -66.5t-15 -67.5zM334 836h183l-120 -126h-144z" />
    <glyph glyph-name="Acircumflex" unicode="&#xc2;" horiz-adv-x="675" 
d="M413 156h-174l-38 -156h-187l196 674h240l201 -674h-195zM263 290h125l-31 121q-6 22 -18.5 73.5l-14.5 59.5h-2q-5 -19 -15 -66.5t-15 -67.5zM269 836h135l99 -126h-121l-45 59h-2l-44 -59h-121z" />
    <glyph glyph-name="Atilde" unicode="&#xc3;" horiz-adv-x="675" 
d="M413 156h-174l-38 -156h-187l196 674h240l201 -674h-195zM263 290h125l-31 121q-6 22 -18.5 73.5l-14.5 59.5h-2q-5 -19 -15 -66.5t-15 -67.5zM273 714h-79q-2 69 19.5 104t61.5 35q29 0 65 -19q31 -20 43 -20q13 0 18.5 9t8.5 35h78q4 -137 -84 -137q-31 0 -67 18
q-31 18 -41 18q-20 0 -23 -43z" />
    <glyph glyph-name="Adieresis" unicode="&#xc4;" horiz-adv-x="675" 
d="M413 156h-174l-38 -156h-187l196 674h240l201 -674h-195zM263 290h125l-31 121q-6 22 -18.5 73.5l-14.5 59.5h-2q-5 -19 -15 -66.5t-15 -67.5zM233 709h-1q-32 0 -54.5 22.5t-22.5 54.5t22.5 54t55.5 22q31 0 52.5 -22t21.5 -54t-21.5 -54.5t-52.5 -22.5zM450 709h-1
q-33 0 -54.5 22.5t-21.5 54.5t22 54t55 22q32 0 53.5 -22t21.5 -54t-22 -54.5t-53 -22.5z" />
    <glyph glyph-name="Aring" unicode="&#xc5;" horiz-adv-x="675" 
d="M413 156h-174l-38 -156h-187l196 674h240l201 -674h-195zM263 290h125l-31 121q-6 22 -18.5 73.5l-14.5 59.5h-2q-5 -19 -15 -66.5t-15 -67.5zM333 906h1q58 0 89 -28.5t31 -73.5q0 -44 -32 -72.5t-89 -28.5t-89.5 28.5t-32.5 71.5q0 44 32 73.5t90 29.5zM331 848h-1
q-19 0 -30 -13.5t-11 -31.5t11.5 -30.5t30.5 -12.5q20 0 32 12t12 31q0 18 -12 31.5t-32 13.5z" />
    <glyph glyph-name="AE" unicode="&#xc6;" horiz-adv-x="902" 
d="M190 0h-186l278 674h553v-147h-272l14 -113h256v-146h-233l17 -120h259v-148h-414l-21 161h-193zM301 305h119l-19 150l-12 93h-3l-17 -54.5t-13 -41.5z" />
    <glyph glyph-name="Ccedilla" unicode="&#xc7;" horiz-adv-x="602" 
d="M542 159l25 -142q-53 -24 -152 -27l-15 -32q74 -19 74 -84q0 -51 -37.5 -74.5t-89.5 -23.5q-56 0 -92 20l22 69q26 -14 57 -14q33 0 33 23q0 27 -79 35l38 86q-145 19 -218.5 110t-73.5 221q0 115 52.5 198t136 122t186.5 39q113 0 169 -30l-35 -142q-60 24 -125 24
q-84 0 -139 -50.5t-55 -148.5q0 -93 52 -146t145 -53q70 0 121 20z" />
    <glyph glyph-name="Egrave" unicode="&#xc8;" horiz-adv-x="552" 
d="M485 418v-146h-242v-124h271v-148h-452v674h438v-147h-257v-109h242zM107 836h184l80 -124h-143z" />
    <glyph glyph-name="Eacute" unicode="&#xc9;" horiz-adv-x="552" 
d="M485 418v-146h-242v-124h271v-148h-452v674h438v-147h-257v-109h242zM284 836h183l-120 -126h-144z" />
    <glyph glyph-name="Ecircumflex" unicode="&#xca;" horiz-adv-x="552" 
d="M485 418v-146h-242v-124h271v-148h-452v674h438v-147h-257v-109h242zM221 836h135l99 -126h-121l-45 59h-2l-44 -59h-121z" />
    <glyph glyph-name="Edieresis" unicode="&#xcb;" horiz-adv-x="552" 
d="M485 418v-146h-242v-124h271v-148h-452v674h438v-147h-257v-109h242zM171 709h-1q-32 0 -54.5 22.5t-22.5 54.5t22.5 54t55.5 22q31 0 52.5 -22t21.5 -54t-21.5 -54.5t-52.5 -22.5zM388 709h-1q-33 0 -54.5 22.5t-21.5 54.5t22 54t55 22q32 0 53.5 -22t21.5 -54
t-22 -54.5t-53 -22.5z" />
    <glyph glyph-name="Igrave" unicode="&#xcc;" horiz-adv-x="305" 
d="M62 674h181v-674h-181v674zM-29 836h184l80 -124h-143z" />
    <glyph glyph-name="Iacute" unicode="&#xcd;" horiz-adv-x="305" 
d="M62 674h181v-674h-181v674zM150 836h183l-120 -126h-144z" />
    <glyph glyph-name="Icircumflex" unicode="&#xce;" horiz-adv-x="305" 
d="M62 674h181v-674h-181v674zM85 836h135l99 -126h-121l-45 59h-2l-44 -59h-121z" />
    <glyph glyph-name="Idieresis" unicode="&#xcf;" horiz-adv-x="305" 
d="M62 674h181v-674h-181v674zM45 709h-1q-32 0 -54.5 22.5t-22.5 54.5t22.5 54t55.5 22q31 0 52.5 -22t21.5 -54t-21.5 -54.5t-52.5 -22.5zM262 709h-1q-33 0 -54.5 22.5t-21.5 54.5t22 54t55 22q32 0 53.5 -22t21.5 -54t-22 -54.5t-53 -22.5z" />
    <glyph glyph-name="Eth" unicode="&#xd0;" horiz-adv-x="719" 
d="M5 274v140h66v253q97 15 215 15q98 0 162.5 -15t114.5 -50q122 -84 122 -263q0 -188 -118 -281q-107 -84 -316 -84q-110 0 -180 12v273h-66zM365 414v-140h-113v-142q9 -2 38 -2q94 0 148.5 53t54.5 165q0 101 -50 148.5t-136 47.5q-33 0 -55 -5v-125h113z" />
    <glyph glyph-name="Ntilde" unicode="&#xd1;" horiz-adv-x="705" 
d="M227 0h-165v674h213l107 -207q52 -95 106 -236h3q-14 125 -14 284v159h165v-674h-190l-114 224q-72 137 -114 244h-3q6 -137 6 -302v-166zM286 714h-79q-2 69 19.5 104t61.5 35q29 0 65 -19q31 -20 43 -20q13 0 18.5 9t8.5 35h78q4 -137 -84 -137q-31 0 -67 18
q-31 18 -41 18q-20 0 -23 -43z" />
    <glyph glyph-name="Ograve" unicode="&#xd2;" horiz-adv-x="730" 
d="M369 685q155 0 241 -98.5t86 -242.5q0 -163 -91 -259t-247 -96q-151 0 -237.5 98.5t-86.5 245.5q0 151 92 251.5t243 100.5zM366 542q-64 0 -102.5 -56.5t-38.5 -149.5q0 -94 38.5 -149t103.5 -55q64 0 101 57t37 149q0 89 -37.5 146.5t-101.5 57.5zM183 836h184l80 -124
h-143z" />
    <glyph glyph-name="Oacute" unicode="&#xd3;" horiz-adv-x="730" 
d="M369 685q155 0 241 -98.5t86 -242.5q0 -163 -91 -259t-247 -96q-151 0 -237.5 98.5t-86.5 245.5q0 151 92 251.5t243 100.5zM366 542q-64 0 -102.5 -56.5t-38.5 -149.5q0 -94 38.5 -149t103.5 -55q64 0 101 57t37 149q0 89 -37.5 146.5t-101.5 57.5zM369 836h183
l-120 -126h-144z" />
    <glyph glyph-name="Ocircumflex" unicode="&#xd4;" horiz-adv-x="730" 
d="M369 685q155 0 241 -98.5t86 -242.5q0 -163 -91 -259t-247 -96q-151 0 -237.5 98.5t-86.5 245.5q0 151 92 251.5t243 100.5zM366 542q-64 0 -102.5 -56.5t-38.5 -149.5q0 -94 38.5 -149t103.5 -55q64 0 101 57t37 149q0 89 -37.5 146.5t-101.5 57.5zM298 836h135l99 -126
h-121l-45 59h-2l-44 -59h-121z" />
    <glyph glyph-name="Otilde" unicode="&#xd5;" horiz-adv-x="730" 
d="M369 685q155 0 241 -98.5t86 -242.5q0 -163 -91 -259t-247 -96q-151 0 -237.5 98.5t-86.5 245.5q0 151 92 251.5t243 100.5zM366 542q-64 0 -102.5 -56.5t-38.5 -149.5q0 -94 38.5 -149t103.5 -55q64 0 101 57t37 149q0 89 -37.5 146.5t-101.5 57.5zM298 712h-79
q-2 69 19.5 104t61.5 35q29 0 65 -19q31 -20 43 -20q13 0 18.5 9t8.5 35h78q4 -137 -84 -137q-31 0 -67 18q-31 18 -41 18q-20 0 -23 -43z" />
    <glyph glyph-name="Odieresis" unicode="&#xd6;" horiz-adv-x="730" 
d="M369 685q155 0 241 -98.5t86 -242.5q0 -163 -91 -259t-247 -96q-151 0 -237.5 98.5t-86.5 245.5q0 151 92 251.5t243 100.5zM366 542q-64 0 -102.5 -56.5t-38.5 -149.5q0 -94 38.5 -149t103.5 -55q64 0 101 57t37 149q0 89 -37.5 146.5t-101.5 57.5zM258 709h-1
q-32 0 -54.5 22.5t-22.5 54.5t22.5 54t55.5 22q31 0 52.5 -22t21.5 -54t-21.5 -54.5t-52.5 -22.5zM475 709h-1q-33 0 -54.5 22.5t-21.5 54.5t22 54t55 22q32 0 53.5 -22t21.5 -54t-22 -54.5t-53 -22.5z" />
    <glyph glyph-name="multiply" unicode="&#xd7;" horiz-adv-x="596" 
d="M40 450l75 76l183 -187l184 187l74 -76l-183 -187l183 -186l-75 -77l-183 187l-183 -187l-75 77l183 186z" />
    <glyph glyph-name="Oslash" unicode="&#xd8;" horiz-adv-x="730" 
d="M172 -77l-97 76l55 84q-96 98 -96 255q0 147 91.5 247t240.5 100q78 0 140 -27l54 81l101 -68l-54 -83q89 -95 89 -247q0 -160 -91 -256t-240 -96q-71 0 -133 25zM232 238l192 292q-26 15 -58 15q-69 0 -110 -56t-41 -152q0 -52 16 -99h1zM502 427l-187 -285
q19 -13 51 -13q69 0 109 56t40 153q0 47 -11 88z" />
    <glyph glyph-name="Ugrave" unicode="&#xd9;" horiz-adv-x="697" 
d="M61 674h181v-382q0 -160 106 -160q107 0 107 160v382h181v-372q0 -155 -75 -234t-218 -79q-282 0 -282 318v367zM169 836h184l80 -124h-143z" />
    <glyph glyph-name="Uacute" unicode="&#xda;" horiz-adv-x="697" 
d="M61 674h181v-382q0 -160 106 -160q107 0 107 160v382h181v-372q0 -155 -75 -234t-218 -79q-282 0 -282 318v367zM341 836h183l-120 -126h-144z" />
    <glyph glyph-name="Ucircumflex" unicode="&#xdb;" horiz-adv-x="697" 
d="M61 674h181v-382q0 -160 106 -160q107 0 107 160v382h181v-372q0 -155 -75 -234t-218 -79q-282 0 -282 318v367zM294 836h135l99 -126h-121l-45 59h-2l-44 -59h-121z" />
    <glyph glyph-name="Udieresis" unicode="&#xdc;" horiz-adv-x="697" 
d="M61 674h181v-382q0 -160 106 -160q107 0 107 160v382h181v-372q0 -155 -75 -234t-218 -79q-282 0 -282 318v367zM249 709h-1q-32 0 -54.5 22.5t-22.5 54.5t22.5 54t55.5 22q31 0 52.5 -22t21.5 -54t-21.5 -54.5t-52.5 -22.5zM466 709h-1q-33 0 -54.5 22.5t-21.5 54.5
t22 54t55 22q32 0 53.5 -22t21.5 -54t-22 -54.5t-53 -22.5z" />
    <glyph glyph-name="Yacute" unicode="&#xdd;" horiz-adv-x="629" 
d="M400 0h-180v272l-213 402h207l57 -152q20 -50 46 -124h2q1 4 43 124l56 152h203l-221 -395v-279zM320 836h183l-120 -126h-144z" />
    <glyph glyph-name="Thorn" unicode="&#xde;" horiz-adv-x="601" 
d="M62 0v674h178v-117q45 3 77 3q123 0 188 -54q69 -56 69 -152q0 -123 -75 -180t-193 -57q-11 0 -66 5v-122h-178zM240 420v-158q24 -6 57 -6q50 0 74.5 23.5t24.5 61.5q0 39 -25 61t-74 22q-37 0 -57 -4z" />
    <glyph glyph-name="germandbls" unicode="&#xdf;" horiz-adv-x="622" 
d="M236 0h-180v422q0 158 79 231q73 68 195 68q100 0 165.5 -53.5t65.5 -138.5q0 -52 -24 -82q-52 -27 -52 -64q0 -29 28 -58l36 -41t26.5 -47.5t15.5 -69.5q0 -81 -55.5 -129.5t-155.5 -48.5q-70 0 -108 14l21 132q22 -11 63 -11q24 0 38.5 10t14.5 27q0 22 -28 53
q-48 51 -62 81q-15 31 -15 64q0 39 20 72t57 54q7 14 7 31q0 28 -18.5 48.5t-48.5 20.5q-85 0 -85 -146v-439z" />
    <glyph glyph-name="agrave" unicode="&#xe0;" horiz-adv-x="548" 
d="M103 706h160l85 -156h-122zM493 286v-166q0 -87 8 -120h-162l-10 43h-3q-48 -54 -137 -54q-73 0 -117.5 45.5t-44.5 109.5q0 95 77 142.5t208 48.5v4q0 42 -80 42q-77 0 -139 -37l-32 115q88 44 204 44q120 0 174 -58.5t54 -158.5zM318 185v40q-115 0 -115 -64
q0 -23 14 -35t37 -12q20 0 38 12.5t24 32.5q2 8 2 26z" />
    <glyph glyph-name="aacute" unicode="&#xe1;" horiz-adv-x="548" 
d="M284 706h159l-122 -156h-123zM493 286v-166q0 -87 8 -120h-162l-10 43h-3q-48 -54 -137 -54q-73 0 -117.5 45.5t-44.5 109.5q0 95 77 142.5t208 48.5v4q0 42 -80 42q-77 0 -139 -37l-32 115q88 44 204 44q120 0 174 -58.5t54 -158.5zM318 185v40q-115 0 -115 -64
q0 -23 14 -35t37 -12q20 0 38 12.5t24 32.5q2 8 2 26z" />
    <glyph glyph-name="acircumflex" unicode="&#xe2;" horiz-adv-x="548" 
d="M211 706h120l101 -156h-113l-47 84h-2l-47 -84h-114zM493 286v-166q0 -87 8 -120h-162l-10 43h-3q-48 -54 -137 -54q-73 0 -117.5 45.5t-44.5 109.5q0 95 77 142.5t208 48.5v4q0 42 -80 42q-77 0 -139 -37l-32 115q88 44 204 44q120 0 174 -58.5t54 -158.5zM318 185v40
q-115 0 -115 -64q0 -23 14 -35t37 -12q20 0 38 12.5t24 32.5q2 8 2 26z" />
    <glyph glyph-name="atilde" unicode="&#xe3;" horiz-adv-x="548" 
d="M195 554h-83q-2 68 22 105.5t66 37.5q31 0 67 -20q32 -20 42 -20q13 0 18.5 9t7.5 36h80q4 -140 -88 -140q-31 0 -73 22q-27 16 -36 16q-22 0 -23 -46zM493 286v-166q0 -87 8 -120h-162l-10 43h-3q-48 -54 -137 -54q-73 0 -117.5 45.5t-44.5 109.5q0 95 77 142.5
t208 48.5v4q0 42 -80 42q-77 0 -139 -37l-32 115q88 44 204 44q120 0 174 -58.5t54 -158.5zM318 185v40q-115 0 -115 -64q0 -23 14 -35t37 -12q20 0 38 12.5t24 32.5q2 8 2 26z" />
    <glyph glyph-name="adieresis" unicode="&#xe4;" horiz-adv-x="548" 
d="M165 551h-1q-34 0 -57 23.5t-23 55.5q0 34 23 56.5t58 22.5q32 0 54 -22.5t22 -56.5q0 -33 -22 -56t-54 -23zM386 551h-2q-33 0 -55.5 23t-22.5 56q0 34 22.5 56.5t57.5 22.5q33 0 55 -22.5t22 -56.5q0 -33 -22 -56t-55 -23zM493 286v-166q0 -87 8 -120h-162l-10 43h-3
q-48 -54 -137 -54q-73 0 -117.5 45.5t-44.5 109.5q0 95 77 142.5t208 48.5v4q0 42 -80 42q-77 0 -139 -37l-32 115q88 44 204 44q120 0 174 -58.5t54 -158.5zM318 185v40q-115 0 -115 -64q0 -23 14 -35t37 -12q20 0 38 12.5t24 32.5q2 8 2 26z" />
    <glyph glyph-name="aring" unicode="&#xe5;" horiz-adv-x="548" 
d="M277 540q-56 0 -89 28t-33 71q0 45 32 73.5t91 28.5q57 0 87.5 -28t30.5 -73q0 -44 -32 -72t-87 -28zM276 595q21 0 32.5 13t11.5 32t-12 32.5t-33 13.5q-20 0 -31 -14t-11 -33q0 -17 11.5 -30.5t31.5 -13.5zM493 286v-166q0 -87 8 -120h-162l-10 43h-3q-48 -54 -137 -54
q-73 0 -117.5 45.5t-44.5 109.5q0 95 77 142.5t208 48.5v4q0 42 -80 42q-77 0 -139 -37l-32 115q88 44 204 44q120 0 174 -58.5t54 -158.5zM318 185v40q-115 0 -115 -64q0 -23 14 -35t37 -12q20 0 38 12.5t24 32.5q2 8 2 26z" />
    <glyph glyph-name="ae" unicode="&#xe6;" horiz-adv-x="816" 
d="M785 190h-303q4 -30 37.5 -49.5t85.5 -19.5q72 0 138 26l23 -120q-75 -38 -188 -38q-62 0 -111.5 20.5t-76.5 58.5h-4q-70 -79 -183 -79q-80 0 -128 45.5t-48 114.5q0 89 78.5 135.5t208.5 46.5v12q0 6 -6 13.5t-27 15.5t-52 8q-66 0 -133 -37l-34 113q91 47 182 47
q115 0 164 -69h2q64 69 166 69q103 0 158 -72t55 -180q0 -9 -4 -61zM320 180v43q-117 0 -117 -61q0 -23 15 -35.5t38 -12.5q38 0 59 38q5 9 5 28zM481 310h144q0 16 -4 31t-21 30.5t-45 15.5q-36 0 -55 -25.5t-19 -51.5z" />
    <glyph glyph-name="ccedilla" unicode="&#xe7;" horiz-adv-x="452" 
d="M413 142l20 -132q-37 -17 -107 -20l-15 -32q74 -19 74 -84q0 -51 -37.5 -74.5t-89.5 -23.5q-56 0 -92 20l22 69q26 -14 57 -14q33 0 33 23q0 27 -79 35l38 86q-97 16 -151.5 81t-54.5 166q0 111 75 186t213 75q64 0 114 -17l-26 -133q-32 13 -77 13q-51 0 -83 -32
t-32 -86q0 -57 34 -87.5t85 -30.5q50 0 79 12z" />
    <glyph glyph-name="egrave" unicode="&#xe8;" horiz-adv-x="539" 
d="M113 706h160l85 -156h-122zM506 183h-304q4 -28 40.5 -44.5t85.5 -16.5q75 0 135 19l23 -120q-79 -32 -184 -32q-129 0 -200 67t-71 185q0 45 15 89.5t44 84t80 64t116 24.5q113 0 170 -71.5t57 -180.5q0 -40 -7 -68zM200 305h147q0 29 -16 54.5t-54 25.5
q-36 0 -55 -25.5t-22 -54.5z" />
    <glyph glyph-name="eacute" unicode="&#xe9;" horiz-adv-x="539" 
d="M299 706h159l-122 -156h-123zM506 183h-304q4 -28 40.5 -44.5t85.5 -16.5q75 0 135 19l23 -120q-79 -32 -184 -32q-129 0 -200 67t-71 185q0 45 15 89.5t44 84t80 64t116 24.5q113 0 170 -71.5t57 -180.5q0 -40 -7 -68zM200 305h147q0 29 -16 54.5t-54 25.5
q-36 0 -55 -25.5t-22 -54.5z" />
    <glyph glyph-name="ecircumflex" unicode="&#xea;" horiz-adv-x="539" 
d="M221 706h120l101 -156h-113l-47 84h-2l-47 -84h-114zM506 183h-304q4 -28 40.5 -44.5t85.5 -16.5q75 0 135 19l23 -120q-79 -32 -184 -32q-129 0 -200 67t-71 185q0 45 15 89.5t44 84t80 64t116 24.5q113 0 170 -71.5t57 -180.5q0 -40 -7 -68zM200 305h147q0 29 -16 54.5
t-54 25.5q-36 0 -55 -25.5t-22 -54.5z" />
    <glyph glyph-name="edieresis" unicode="&#xeb;" horiz-adv-x="539" 
d="M177 551h-1q-34 0 -57 23.5t-23 55.5q0 34 23 56.5t58 22.5q32 0 54 -22.5t22 -56.5q0 -33 -22 -56t-54 -23zM398 551h-2q-33 0 -55.5 23t-22.5 56q0 34 22.5 56.5t57.5 22.5q33 0 55 -22.5t22 -56.5q0 -33 -22 -56t-55 -23zM506 183h-304q4 -28 40.5 -44.5t85.5 -16.5
q75 0 135 19l23 -120q-79 -32 -184 -32q-129 0 -200 67t-71 185q0 45 15 89.5t44 84t80 64t116 24.5q113 0 170 -71.5t57 -180.5q0 -40 -7 -68zM200 305h147q0 29 -16 54.5t-54 25.5q-36 0 -55 -25.5t-22 -54.5z" />
    <glyph glyph-name="igrave" unicode="&#xec;" horiz-adv-x="292" 
d="M-31 706h160l85 -156h-122zM236 0h-180v492h180v-492z" />
    <glyph glyph-name="iacute" unicode="&#xed;" horiz-adv-x="292" 
d="M161 706h159l-122 -156h-123zM236 0h-180v492h180v-492z" />
    <glyph glyph-name="icircumflex" unicode="&#xee;" horiz-adv-x="292" 
d="M86 706h120l101 -156h-113l-47 84h-2l-47 -84h-114zM236 0h-180v492h180v-492z" />
    <glyph glyph-name="idieresis" unicode="&#xef;" horiz-adv-x="292" 
d="M36 551h-1q-33 0 -56.5 23.5t-23.5 55.5q0 34 23 56.5t58 22.5q32 0 54 -22.5t22 -56.5q0 -33 -22 -56t-54 -23zM257 551h-2q-33 0 -55.5 23t-22.5 56q0 34 22.5 56.5t57.5 22.5q33 0 55 -22.5t22 -56.5q0 -33 -22 -56t-55 -23zM236 0h-180v492h180v-492z" />
    <glyph glyph-name="eth" unicode="&#xf0;" horiz-adv-x="589" 
d="M296 116h1q37 0 56 33.5t19 91.5q0 69 -19 94q-21 27 -56 27q-42 0 -61 -37.5t-19 -85.5q0 -53 19.5 -88t59.5 -35zM104 465l-31 68l100 43q-34 20 -89 43l78 98q82 -27 164 -79l143 59l34 -65l-105 -43q76 -61 120 -147q40 -77 40 -183q0 -131 -77 -200.5t-186 -69.5
q-114 0 -189 68t-75 181q0 101 67.5 164.5t168.5 65.5q29 2 53 -9l2 3q-37 42 -74 64z" />
    <glyph glyph-name="ntilde" unicode="&#xf1;" horiz-adv-x="599" 
d="M233 554h-83q-2 68 22 105.5t66 37.5q31 0 67 -20q32 -20 42 -20q13 0 18.5 9t7.5 36h80q4 -140 -88 -140q-31 0 -73 22q-27 16 -36 16q-22 0 -23 -46zM56 0v325q0 77 -4 167h155l8 -63h4q19 28 56 51t91 23q86 0 131.5 -55.5t45.5 -157.5v-290h-180v268q0 90 -63 90
q-41 0 -59 -43q-5 -11 -5 -36v-279h-180z" />
    <glyph glyph-name="ograve" unicode="&#xf2;" horiz-adv-x="589" 
d="M127 706h160l85 -156h-122zM302 503q115 0 185.5 -70t70.5 -182q0 -127 -77 -194.5t-189 -67.5q-113 0 -187 68.5t-74 185.5q0 118 73 189t198 71zM296 376q-41 0 -60 -37.5t-19 -92.5q0 -58 20 -94t60 -36q36 0 55.5 35t19.5 95q0 56 -19 93t-57 37z" />
    <glyph glyph-name="oacute" unicode="&#xf3;" horiz-adv-x="589" 
d="M307 706h159l-122 -156h-123zM302 503q115 0 185.5 -70t70.5 -182q0 -127 -77 -194.5t-189 -67.5q-113 0 -187 68.5t-74 185.5q0 118 73 189t198 71zM296 376q-41 0 -60 -37.5t-19 -92.5q0 -58 20 -94t60 -36q36 0 55.5 35t19.5 95q0 56 -19 93t-57 37z" />
    <glyph glyph-name="ocircumflex" unicode="&#xf4;" horiz-adv-x="589" 
d="M235 706h120l101 -156h-113l-47 84h-2l-47 -84h-114zM302 503q115 0 185.5 -70t70.5 -182q0 -127 -77 -194.5t-189 -67.5q-113 0 -187 68.5t-74 185.5q0 118 73 189t198 71zM296 376q-41 0 -60 -37.5t-19 -92.5q0 -58 20 -94t60 -36q36 0 55.5 35t19.5 95q0 56 -19 93
t-57 37z" />
    <glyph glyph-name="otilde" unicode="&#xf5;" horiz-adv-x="589" 
d="M226 554h-83q-2 68 22 105.5t66 37.5q31 0 67 -20q32 -20 42 -20q13 0 18.5 9t7.5 36h80q4 -140 -88 -140q-31 0 -73 22q-27 16 -36 16q-22 0 -23 -46zM302 503q115 0 185.5 -70t70.5 -182q0 -127 -77 -194.5t-189 -67.5q-113 0 -187 68.5t-74 185.5q0 118 73 189t198 71
zM296 376q-41 0 -60 -37.5t-19 -92.5q0 -58 20 -94t60 -36q36 0 55.5 35t19.5 95q0 56 -19 93t-57 37z" />
    <glyph glyph-name="odieresis" unicode="&#xf6;" horiz-adv-x="589" 
d="M185 551h-1q-34 0 -57 23.5t-23 55.5q0 34 23 56.5t58 22.5q32 0 54 -22.5t22 -56.5q0 -33 -22 -56t-54 -23zM406 551h-2q-33 0 -55.5 23t-22.5 56q0 34 22.5 56.5t57.5 22.5q33 0 55 -22.5t22 -56.5q0 -33 -22 -56t-55 -23zM302 503q115 0 185.5 -70t70.5 -182
q0 -127 -77 -194.5t-189 -67.5q-113 0 -187 68.5t-74 185.5q0 118 73 189t198 71zM296 376q-41 0 -60 -37.5t-19 -92.5q0 -58 20 -94t60 -36q36 0 55.5 35t19.5 95q0 56 -19 93t-57 37z" />
    <glyph glyph-name="divide" unicode="&#xf7;" horiz-adv-x="596" 
d="M298 361h-1q-36 0 -58 22.5t-22 59.5t22.5 59.5t58.5 22.5q37 0 59 -22.5t23 -59.5q0 -37 -22.5 -59.5t-59.5 -22.5zM556 213h-516v108h516v-108zM298 9h-1q-36 0 -58 22.5t-22 59.5t22.5 59.5t58.5 22.5q37 0 59 -22.5t23 -59.5q0 -37 -22.5 -59.5t-59.5 -22.5z" />
    <glyph glyph-name="oslash" unicode="&#xf8;" horiz-adv-x="589" 
d="M294 503h1q67 0 116 -23l49 73l59 -41l-47 -70q86 -69 86 -195q0 -123 -77 -190.5t-185 -67.5q-68 0 -113 22l-51 -75l-57 44l45 68q-89 68 -89 198q0 114 72 185.5t191 71.5zM216 186l118 177q-18 13 -40 13q-46 0 -68 -39t-22 -91q0 -37 9 -59zM375 301l-118 -171
q14 -14 39 -14q42 0 65.5 34t23.5 92q0 34 -7 58z" />
    <glyph glyph-name="ugrave" unicode="&#xf9;" horiz-adv-x="598" 
d="M128 706h160l85 -156h-122zM541 492v-324q0 -84 4 -168h-155l-8 65h-4q-51 -76 -149 -76q-84 0 -129 54t-45 159v290h180v-261q0 -97 63 -97q43 0 58 42q5 9 5 26v290h180z" />
    <glyph glyph-name="uacute" unicode="&#xfa;" horiz-adv-x="598" 
d="M314 706h159l-122 -156h-123zM541 492v-324q0 -84 4 -168h-155l-8 65h-4q-51 -76 -149 -76q-84 0 -129 54t-45 159v290h180v-261q0 -97 63 -97q43 0 58 42q5 9 5 26v290h180z" />
    <glyph glyph-name="ucircumflex" unicode="&#xfb;" horiz-adv-x="598" 
d="M240 706h120l101 -156h-113l-47 84h-2l-47 -84h-114zM541 492v-324q0 -84 4 -168h-155l-8 65h-4q-51 -76 -149 -76q-84 0 -129 54t-45 159v290h180v-261q0 -97 63 -97q43 0 58 42q5 9 5 26v290h180z" />
    <glyph glyph-name="udieresis" unicode="&#xfc;" horiz-adv-x="598" 
d="M193 551h-1q-34 0 -57 23.5t-23 55.5q0 34 23 56.5t58 22.5q32 0 54 -22.5t22 -56.5q0 -33 -22 -56t-54 -23zM414 551h-2q-33 0 -55.5 23t-22.5 56q0 34 22.5 56.5t57.5 22.5q33 0 55 -22.5t22 -56.5q0 -33 -22 -56t-55 -23zM541 492v-324q0 -84 4 -168h-155l-8 65h-4
q-51 -76 -149 -76q-84 0 -129 54t-45 159v290h180v-261q0 -97 63 -97q43 0 58 42q5 9 5 26v290h180z" />
    <glyph glyph-name="yacute" unicode="&#xfd;" horiz-adv-x="545" 
d="M303 706h159l-122 -156h-123zM5 492h200l59 -221q4 -15 11.5 -46.5t9.5 -40.5h4q3 13 9 44t9 43l45 221h192l-105 -312q-53 -147 -92.5 -219t-83.5 -110q-69 -62 -163 -72l-37 152q30 5 61 19q37 14 58 45q10 12 10 22q0 9 -7 27z" />
    <glyph glyph-name="thorn" unicode="&#xfe;" horiz-adv-x="610" 
d="M56 680h180v-241h2q45 64 138 64q81 2 142 -66.5t61 -187.5q0 -65 -20.5 -117t-53.5 -82t-70.5 -45.5t-75.5 -15.5q-81 0 -121 49h-2v-236h-180v878zM236 285v-81q0 -29 16 -48q25 -30 57 -30q40 0 63.5 32.5t23.5 88.5q0 51 -22 83.5t-60 32.5q-46 0 -68 -39
q-10 -20 -10 -39z" />
    <glyph glyph-name="ydieresis" unicode="&#xff;" horiz-adv-x="545" 
d="M175 551h-1q-34 0 -57 23.5t-23 55.5q0 34 23 56.5t58 22.5q32 0 54 -22.5t22 -56.5q0 -33 -22 -56t-54 -23zM396 551h-2q-33 0 -55.5 23t-22.5 56q0 34 22.5 56.5t57.5 22.5q33 0 55 -22.5t22 -56.5q0 -33 -22 -56t-55 -23zM5 492h200l59 -221q4 -15 11.5 -46.5
t9.5 -40.5h4q3 13 9 44t9 43l45 221h192l-105 -312q-53 -147 -92.5 -219t-83.5 -110q-69 -62 -163 -72l-37 152q30 5 61 19q37 14 58 45q10 12 10 22q0 9 -7 27z" />
    <glyph glyph-name="Amacron" unicode="&#x100;" horiz-adv-x="675" 
d="M413 156h-174l-38 -156h-187l196 674h240l201 -674h-195zM263 290h125l-31 121q-6 22 -18.5 73.5l-14.5 59.5h-2q-5 -19 -15 -66.5t-15 -67.5zM199 827h267v-92h-267v92z" />
    <glyph glyph-name="amacron" unicode="&#x101;" horiz-adv-x="548" 
d="M144 675h261v-95h-261v95zM493 286v-166q0 -87 8 -120h-162l-10 43h-3q-48 -54 -137 -54q-73 0 -117.5 45.5t-44.5 109.5q0 95 77 142.5t208 48.5v4q0 42 -80 42q-77 0 -139 -37l-32 115q88 44 204 44q120 0 174 -58.5t54 -158.5zM318 185v40q-115 0 -115 -64
q0 -23 14 -35t37 -12q20 0 38 12.5t24 32.5q2 8 2 26z" />
    <glyph glyph-name="Abreve" unicode="&#x102;" horiz-adv-x="675" 
d="M413 156h-174l-38 -156h-187l196 674h240l201 -674h-195zM263 290h125l-31 121q-6 22 -18.5 73.5l-14.5 59.5h-2q-5 -19 -15 -66.5t-15 -67.5zM188 841h93q4 -45 53 -45q50 0 59 45h89q-1 -62 -38 -98.5t-109 -36.5q-75 0 -110.5 36t-36.5 99z" />
    <glyph glyph-name="abreve" unicode="&#x103;" horiz-adv-x="548" 
d="M129 697h91q7 -58 53 -58q52 0 56 58h90q-1 -68 -38 -109t-108 -41q-69 0 -106 41t-38 109zM493 286v-166q0 -87 8 -120h-162l-10 43h-3q-48 -54 -137 -54q-73 0 -117.5 45.5t-44.5 109.5q0 95 77 142.5t208 48.5v4q0 42 -80 42q-77 0 -139 -37l-32 115q88 44 204 44
q120 0 174 -58.5t54 -158.5zM318 185v40q-115 0 -115 -64q0 -23 14 -35t37 -12q20 0 38 12.5t24 32.5q2 8 2 26z" />
    <glyph glyph-name="Aogonek" unicode="&#x104;" horiz-adv-x="675" 
d="M450 674l201 -674h-100q-13 -30 -13 -57q0 -25 16 -41.5t40 -16.5q22 0 43 7l25 -82q-47 -35 -112 -35q-57 0 -89 29t-32 86q0 16 3.5 35t7.5 31t9.5 27t6.5 17l-43 156h-174l-38 -156h-187l196 674h240zM263 290h125l-31 121q-6 22 -18.5 73.5l-14.5 59.5h-2
q-5 -19 -15 -66.5t-15 -67.5z" />
    <glyph glyph-name="aogonek" unicode="&#x105;" horiz-adv-x="548" 
d="M493 286v-166q0 -87 8 -120h-67q-13 -29 -13 -60q0 -25 13 -39t34 -14t44 10l25 -83q-51 -39 -116 -39q-49 0 -79 28.5t-30 81.5q0 42 27 115l-10 43h-3q-48 -54 -137 -54q-73 0 -117.5 45.5t-44.5 109.5q0 95 77 142.5t208 48.5v4q0 42 -80 42q-77 0 -139 -37l-32 115
q88 44 204 44q120 0 174 -58.5t54 -158.5zM318 185v40q-115 0 -115 -64q0 -23 14 -35t37 -12q20 0 38 12.5t24 32.5q2 8 2 26z" />
    <glyph glyph-name="Cacute" unicode="&#x106;" horiz-adv-x="602" 
d="M542 159l25 -142q-61 -28 -170 -28q-91 0 -162.5 27t-114 74.5t-64.5 107t-22 128.5q0 115 52.5 198t136 122t186.5 39q113 0 169 -30l-35 -142q-60 24 -125 24q-84 0 -139 -50.5t-55 -148.5q0 -93 52 -146t145 -53q70 0 121 20zM368 836h183l-120 -126h-144z" />
    <glyph glyph-name="cacute" unicode="&#x107;" horiz-adv-x="452" 
d="M287 706h159l-122 -156h-123zM413 142l20 -132q-48 -21 -136 -21q-123 0 -194.5 68t-71.5 185q0 111 75 186t213 75q64 0 114 -17l-26 -133q-32 13 -77 13q-51 0 -83 -32t-32 -86q0 -57 34 -87.5t85 -30.5q50 0 79 12z" />
    <glyph glyph-name="Ccircumflex" unicode="&#x108;" horiz-adv-x="602" 
d="M542 159l25 -142q-61 -28 -170 -28q-91 0 -162.5 27t-114 74.5t-64.5 107t-22 128.5q0 115 52.5 198t136 122t186.5 39q113 0 169 -30l-35 -142q-60 24 -125 24q-84 0 -139 -50.5t-55 -148.5q0 -93 52 -146t145 -53q70 0 121 20zM296 840h135l99 -126h-121l-45 59h-2
l-44 -59h-121z" />
    <glyph glyph-name="ccircumflex" unicode="&#x109;" horiz-adv-x="452" 
d="M208 706h120l101 -156h-113l-47 84h-2l-47 -84h-114zM413 142l20 -132q-48 -21 -136 -21q-123 0 -194.5 68t-71.5 185q0 111 75 186t213 75q64 0 114 -17l-26 -133q-32 13 -77 13q-51 0 -83 -32t-32 -86q0 -57 34 -87.5t85 -30.5q50 0 79 12z" />
    <glyph glyph-name="Cdotaccent" unicode="&#x10a;" horiz-adv-x="602" 
d="M542 159l25 -142q-61 -28 -170 -28q-91 0 -162.5 27t-114 74.5t-64.5 107t-22 128.5q0 115 52.5 198t136 122t186.5 39q113 0 169 -30l-35 -142q-60 24 -125 24q-84 0 -139 -50.5t-55 -148.5q0 -93 52 -146t145 -53q70 0 121 20zM365 709h-1q-32 0 -55 23t-23 54
q0 33 23 54.5t56 21.5q32 0 53.5 -21.5t21.5 -54.5q0 -31 -22 -54t-53 -23z" />
    <glyph glyph-name="cdotaccent" unicode="&#x10b;" horiz-adv-x="452" 
d="M284 551h-1q-33 0 -56.5 23.5t-23.5 55.5q0 34 23 56.5t58 22.5q32 0 54 -22.5t22 -56.5q0 -33 -22 -56t-54 -23zM413 142l20 -132q-48 -21 -136 -21q-123 0 -194.5 68t-71.5 185q0 111 75 186t213 75q64 0 114 -17l-26 -133q-32 13 -77 13q-51 0 -83 -32t-32 -86
q0 -57 34 -87.5t85 -30.5q50 0 79 12z" />
    <glyph glyph-name="Ccaron" unicode="&#x10c;" horiz-adv-x="602" 
d="M542 159l25 -142q-61 -28 -170 -28q-91 0 -162.5 27t-114 74.5t-64.5 107t-22 128.5q0 115 52.5 198t136 122t186.5 39q113 0 169 -30l-35 -142q-60 24 -125 24q-84 0 -139 -50.5t-55 -148.5q0 -93 52 -146t145 -53q70 0 121 20zM433 710h-134l-100 126h122l44 -59h2
l44 59h121z" />
    <glyph glyph-name="ccaron" unicode="&#x10d;" horiz-adv-x="452" 
d="M332 550h-120l-101 156h113l47 -84h2l47 84h114zM413 142l20 -132q-48 -21 -136 -21q-123 0 -194.5 68t-71.5 185q0 111 75 186t213 75q64 0 114 -17l-26 -133q-32 13 -77 13q-51 0 -83 -32t-32 -86q0 -57 34 -87.5t85 -30.5q50 0 79 12z" />
    <glyph glyph-name="Dcaron" unicode="&#x10e;" horiz-adv-x="710" 
d="M62 4v661q90 14 215 14q179 0 277 -67q122 -84 122 -259q0 -186 -118 -277q-107 -84 -316 -84q-110 0 -180 12zM243 537v-402q9 -2 38 -2q92 -2 147.5 52t55.5 163q0 95 -51 144t-135 49q-37 0 -55 -4zM395 710h-134l-100 126h122l44 -59h2l44 59h121z" />
    <glyph glyph-name="dcaron" unicode="&#x10f;" horiz-adv-x="620" 
d="M374 710h180v-554q0 -90 4 -156h-160l-7 67h-2q-46 -78 -149 -78q-88 0 -148.5 70.5t-60.5 183.5q-1 119 63.5 189.5t156.5 70.5q88 0 121 -47h2v254zM374 224v56q0 15 -1 23q-5 27 -25 45t-47 18q-43 0 -65 -33.5t-22 -85.5q0 -55 24 -85t63 -30q27 0 46 17t24 42
q3 15 3 33zM669 484l-77 46q25 48 25 106q0 34 -16 70l110 17q12 -9 21 -31t9 -45q0 -99 -72 -163z" />
    <glyph glyph-name="Dcroat" unicode="&#x110;" horiz-adv-x="719" 
d="M5 274v140h66v253q97 15 215 15q98 0 162.5 -15t114.5 -50q122 -84 122 -263q0 -188 -118 -281q-107 -84 -316 -84q-110 0 -180 12v273h-66zM365 414v-140h-113v-142q9 -2 38 -2q94 0 148.5 53t54.5 165q0 101 -50 148.5t-136 47.5q-33 0 -55 -5v-125h113z" />
    <glyph glyph-name="dcroat" unicode="&#x111;" horiz-adv-x="610" 
d="M636 535h-82v-379q0 -90 4 -156h-160l-7 67h-2q-46 -78 -149 -78q-88 0 -148.5 70.5t-60.5 183.5q-1 119 63.5 189.5t156.5 70.5q88 0 121 -47h2v79h-174v95h174v80h180v-80h82v-95zM374 224v56q0 15 -1 23q-5 27 -25 45t-47 18q-43 0 -65 -33.5t-22 -85.5q0 -55 24 -85
t63 -30q27 0 46 17t24 42q3 15 3 33z" />
    <glyph glyph-name="Emacron" unicode="&#x112;" horiz-adv-x="552" 
d="M485 418v-146h-242v-124h271v-148h-452v674h438v-147h-257v-109h242zM143 827h267v-92h-267v92z" />
    <glyph glyph-name="emacron" unicode="&#x113;" horiz-adv-x="539" 
d="M143 675h261v-95h-261v95zM506 183h-304q4 -28 40.5 -44.5t85.5 -16.5q75 0 135 19l23 -120q-79 -32 -184 -32q-129 0 -200 67t-71 185q0 45 15 89.5t44 84t80 64t116 24.5q113 0 170 -71.5t57 -180.5q0 -40 -7 -68zM200 305h147q0 29 -16 54.5t-54 25.5q-36 0 -55 -25.5
t-22 -54.5z" />
    <glyph glyph-name="Ebreve" unicode="&#x114;" horiz-adv-x="552" 
d="M485 418v-146h-242v-124h271v-148h-452v674h438v-147h-257v-109h242zM139 842h93q4 -45 53 -45q50 0 59 45h89q-1 -62 -38 -98.5t-109 -36.5q-75 0 -110.5 36t-36.5 99z" />
    <glyph glyph-name="ebreve" unicode="&#x115;" horiz-adv-x="539" 
d="M130 697h91q7 -58 53 -58q52 0 56 58h90q-1 -68 -38 -109t-108 -41q-69 0 -106 41t-38 109zM506 183h-304q4 -28 40.5 -44.5t85.5 -16.5q75 0 135 19l23 -120q-79 -32 -184 -32q-129 0 -200 67t-71 185q0 45 15 89.5t44 84t80 64t116 24.5q113 0 170 -71.5t57 -180.5
q0 -40 -7 -68zM200 305h147q0 29 -16 54.5t-54 25.5q-36 0 -55 -25.5t-22 -54.5z" />
    <glyph glyph-name="Edotaccent" unicode="&#x116;" horiz-adv-x="552" 
d="M485 418v-146h-242v-124h271v-148h-452v674h438v-147h-257v-109h242zM278 709h-1q-32 0 -55 23t-23 54q0 33 23 54.5t56 21.5q32 0 53.5 -21.5t21.5 -54.5q0 -31 -22 -54t-53 -23z" />
    <glyph glyph-name="edotaccent" unicode="&#x117;" horiz-adv-x="539" 
d="M278 551h-1q-33 0 -56.5 23.5t-23.5 55.5q0 34 23 56.5t58 22.5q32 0 54 -22.5t22 -56.5q0 -33 -22 -56t-54 -23zM506 183h-304q4 -28 40.5 -44.5t85.5 -16.5q75 0 135 19l23 -120q-79 -32 -184 -32q-129 0 -200 67t-71 185q0 45 15 89.5t44 84t80 64t116 24.5
q113 0 170 -71.5t57 -180.5q0 -40 -7 -68zM200 305h147q0 29 -16 54.5t-54 25.5q-36 0 -55 -25.5t-22 -54.5z" />
    <glyph glyph-name="Eogonek" unicode="&#x118;" horiz-adv-x="552" 
d="M498 -107l24 -82q-49 -36 -119 -36q-51 0 -80 26t-29 72q0 74 66 127h-298v674h438v-147h-257v-109h242v-146h-242v-124h271v-148h-30q-25 -17 -43.5 -41t-18.5 -45q0 -13 9.5 -21t24.5 -8q20 0 42 8z" />
    <glyph glyph-name="eogonek" unicode="&#x119;" horiz-adv-x="539" 
d="M437 -105l26 -81q-47 -39 -117 -39q-51 0 -79.5 24t-28.5 65q0 66 65 124v1h-8q-125 1 -194.5 68t-69.5 184q0 45 15 89.5t44 84t80 64t116 24.5q113 0 170 -71.5t57 -180.5q0 -40 -7 -68h-304q4 -28 40.5 -44.5t85.5 -16.5q75 0 135 19l23 -120q-17 -7 -42 -15
q-29 -15 -55.5 -42.5t-26.5 -49.5q0 -29 31 -29q19 0 44 10zM200 305h147q0 29 -16 54.5t-54 25.5q-36 0 -55 -25.5t-22 -54.5z" />
    <glyph glyph-name="Ecaron" unicode="&#x11a;" horiz-adv-x="552" 
d="M485 418v-146h-242v-124h271v-148h-452v674h438v-147h-257v-109h242zM344 710h-134l-100 126h122l44 -59h2l44 59h121z" />
    <glyph glyph-name="ecaron" unicode="&#x11b;" horiz-adv-x="539" 
d="M333 550h-120l-101 156h113l47 -84h2l47 84h114zM506 183h-304q4 -28 40.5 -44.5t85.5 -16.5q75 0 135 19l23 -120q-79 -32 -184 -32q-129 0 -200 67t-71 185q0 45 15 89.5t44 84t80 64t116 24.5q113 0 170 -71.5t57 -180.5q0 -40 -7 -68zM200 305h147q0 29 -16 54.5
t-54 25.5q-36 0 -55 -25.5t-22 -54.5z" />
    <glyph glyph-name="Gcircumflex" unicode="&#x11c;" horiz-adv-x="697" 
d="M646 400v-368q-115 -39 -232 -39q-188 0 -284 91t-96 244q1 169 111.5 261t282.5 92q127 0 195 -33l-36 -144q-67 28 -160 28q-89 0 -146 -48.5t-57 -146.5q0 -93 53.5 -146t138.5 -53q40 0 56 6v116h-90v140h264zM312 840h135l99 -126h-121l-45 59h-2l-44 -59h-121z" />
    <glyph glyph-name="gcircumflex" unicode="&#x11d;" horiz-adv-x="596" 
d="M241 706h120l101 -156h-113l-47 84h-2l-47 -84h-114zM540 340v-268q0 -153 -76 -220q-72 -61 -208 -61q-111 0 -183 36l34 136q66 -35 142 -35q51 0 82.5 28t31.5 83v22h-2q-43 -55 -123 -55q-91 0 -149 66.5t-58 172.5q0 114 64.5 186t158.5 72q86 0 127 -63h2l6 52h156
q-5 -50 -5 -152zM360 223v66q0 9 -2 23q-13 56 -64 56q-34 0 -57 -32t-23 -88q0 -49 21.5 -80t58.5 -31q24 0 41 14t22 35q3 10 3 37z" />
    <glyph glyph-name="Gbreve" unicode="&#x11e;" horiz-adv-x="697" 
d="M646 400v-368q-115 -39 -232 -39q-188 0 -284 91t-96 244q1 169 111.5 261t282.5 92q127 0 195 -33l-36 -144q-67 28 -160 28q-89 0 -146 -48.5t-57 -146.5q0 -93 53.5 -146t138.5 -53q40 0 56 6v116h-90v140h264zM241 847h93q4 -45 53 -45q50 0 59 45h89
q-1 -62 -38 -98.5t-109 -36.5q-75 0 -110.5 36t-36.5 99z" />
    <glyph glyph-name="gbreve" unicode="&#x11f;" horiz-adv-x="596" 
d="M156 697h91q7 -58 53 -58q52 0 56 58h90q-1 -68 -38 -109t-108 -41q-69 0 -106 41t-38 109zM540 340v-268q0 -153 -76 -220q-72 -61 -208 -61q-111 0 -183 36l34 136q66 -35 142 -35q51 0 82.5 28t31.5 83v22h-2q-43 -55 -123 -55q-91 0 -149 66.5t-58 172.5
q0 114 64.5 186t158.5 72q86 0 127 -63h2l6 52h156q-5 -50 -5 -152zM360 223v66q0 9 -2 23q-13 56 -64 56q-34 0 -57 -32t-23 -88q0 -49 21.5 -80t58.5 -31q24 0 41 14t22 35q3 10 3 37z" />
    <glyph glyph-name="Gdotaccent" unicode="&#x120;" horiz-adv-x="697" 
d="M646 400v-368q-115 -39 -232 -39q-188 0 -284 91t-96 244q1 169 111.5 261t282.5 92q127 0 195 -33l-36 -144q-67 28 -160 28q-89 0 -146 -48.5t-57 -146.5q0 -93 53.5 -146t138.5 -53q40 0 56 6v116h-90v140h264zM382 709h-1q-32 0 -55 23t-23 54q0 33 23 54.5t56 21.5
q32 0 53.5 -21.5t21.5 -54.5q0 -31 -22 -54t-53 -23z" />
    <glyph glyph-name="gdotaccent" unicode="&#x121;" horiz-adv-x="596" 
d="M296 551h-1q-33 0 -56.5 23.5t-23.5 55.5q0 34 23 56.5t58 22.5q32 0 54 -22.5t22 -56.5q0 -33 -22 -56t-54 -23zM540 340v-268q0 -153 -76 -220q-72 -61 -208 -61q-111 0 -183 36l34 136q66 -35 142 -35q51 0 82.5 28t31.5 83v22h-2q-43 -55 -123 -55q-91 0 -149 66.5
t-58 172.5q0 114 64.5 186t158.5 72q86 0 127 -63h2l6 52h156q-5 -50 -5 -152zM360 223v66q0 9 -2 23q-13 56 -64 56q-34 0 -57 -32t-23 -88q0 -49 21.5 -80t58.5 -31q24 0 41 14t22 35q3 10 3 37z" />
    <glyph glyph-name="Gcommaaccent" unicode="&#x122;" horiz-adv-x="697" 
d="M646 400v-368q-115 -39 -232 -39q-188 0 -284 91t-96 244q1 169 111.5 261t282.5 92q127 0 195 -33l-36 -144q-67 28 -160 28q-89 0 -146 -48.5t-57 -146.5q0 -93 53.5 -146t138.5 -53q40 0 56 6v116h-90v140h264zM283 -250l-25 74q25 6 43.5 22t18.5 37q0 23 -27 60
l123 19q39 -31 39 -82q0 -63 -47 -95.5t-125 -34.5z" />
    <glyph glyph-name="gcommaaccent" unicode="&#x123;" horiz-adv-x="596" 
d="M540 340v-268q0 -153 -76 -220q-72 -61 -208 -61q-111 0 -183 36l34 136q66 -35 142 -35q51 0 82.5 28t31.5 83v22h-2q-43 -55 -123 -55q-91 0 -149 66.5t-58 172.5q0 114 64.5 186t158.5 72q86 0 127 -63h2l6 52h156q-5 -50 -5 -152zM360 223v66q0 9 -2 23
q-13 56 -64 56q-34 0 -57 -32t-23 -88q0 -49 21.5 -80t58.5 -31q24 0 41 14t22 35q3 10 3 37zM378 731l25 -62q-70 -11 -70 -57q0 -24 28 -54l-116 -17q-38 27 -38 73q0 57 46.5 86t124.5 31z" />
    <glyph glyph-name="Hcircumflex" unicode="&#x124;" horiz-adv-x="705" 
d="M62 674h181v-249h219v249h180v-674h-180v267h-219v-267h-181v674zM285 836h135l99 -126h-121l-45 59h-2l-44 -59h-121z" />
    <glyph glyph-name="hcircumflex" unicode="&#x125;" horiz-adv-x="599" 
d="M56 0v710h180v-270h2q27 32 58 46q34 17 75 17q83 0 127.5 -56.5t44.5 -161.5v-285h-180v265q0 93 -64 93q-42 0 -58 -39q-5 -10 -5 -29v-290h-180zM84 863h135l99 -126h-121l-45 59h-2l-44 -59h-121z" />
    <glyph glyph-name="Hbar" unicode="&#x126;" horiz-adv-x="720" 
d="M717 468h-67v-468h-181v236h-219v-236h-180v468h-68v104h68v102h180v-102h219v102h181v-102h67v-104zM469 394v74h-219v-74h219z" />
    <glyph glyph-name="hbar" unicode="&#x127;" horiz-adv-x="599" 
d="M543 0h-180v265q0 93 -64 93q-42 0 -58 -39q-5 -10 -5 -29v-290h-180v535h-80v95h80v80h180v-80h178v-95h-178v-95h2q25 30 58 46q37 17 75 17q83 0 127.5 -56.5t44.5 -161.5v-285z" />
    <glyph glyph-name="Itilde" unicode="&#x128;" horiz-adv-x="305" 
d="M62 674h181v-674h-181v674zM85 714h-79q-2 69 19.5 104t61.5 35q29 0 65 -19q31 -20 43 -20q13 0 18.5 9t8.5 35h78q4 -137 -84 -137q-31 0 -67 18q-31 18 -41 18q-20 0 -23 -43z" />
    <glyph glyph-name="itilde" unicode="&#x129;" horiz-adv-x="292" 
d="M77 554h-83q-2 68 22 105.5t66 37.5q31 0 67 -20q32 -20 42 -20q13 0 18.5 9t7.5 36h80q4 -140 -88 -140q-31 0 -73 22q-27 16 -36 16q-22 0 -23 -46zM236 0h-180v492h180v-492z" />
    <glyph glyph-name="Imacron" unicode="&#x12a;" horiz-adv-x="305" 
d="M62 674h181v-674h-181v674zM19 827h267v-92h-267v92z" />
    <glyph glyph-name="imacron" unicode="&#x12b;" horiz-adv-x="292" 
d="M15 675h261v-95h-261v95zM236 0h-180v492h180v-492z" />
    <glyph glyph-name="Ibreve" unicode="&#x12c;" horiz-adv-x="305" 
d="M62 674h181v-674h-181v674zM5 846h93q4 -45 53 -45q50 0 59 45h89q-1 -62 -38 -98.5t-109 -36.5q-75 0 -110.5 36t-36.5 99z" />
    <glyph glyph-name="ibreve" unicode="&#x12d;" horiz-adv-x="292" 
d="M0 697h91q7 -58 53 -58q52 0 56 58h90q-1 -68 -38 -109t-108 -41q-69 0 -106 41t-38 109zM236 0h-180v492h180v-492z" />
    <glyph glyph-name="Iogonek" unicode="&#x12e;" horiz-adv-x="305" 
d="M243 674v-674h-86q-13 -30 -13 -56t16 -42.5t40 -16.5q22 0 43 7l25 -82q-47 -35 -111 -35q-57 0 -89.5 29t-32.5 85q0 16 3.5 35t7.5 31.5t9.5 27.5t6.5 17v674h181z" />
    <glyph glyph-name="iogonek" unicode="&#x12f;" horiz-adv-x="292" 
d="M146 542h-1q-43 0 -69 25.5t-26 63.5q0 39 26.5 64t69.5 25t69 -25t26 -64q1 -38 -25.5 -63.5t-69.5 -25.5zM236 492v-492h-85q-13 -26 -13 -57q0 -25 15.5 -41.5t39.5 -16.5q22 0 43 7l25 -82q-46 -35 -111 -35q-57 0 -89 29t-32 86q0 38 27 110v492h180z" />
    <glyph glyph-name="Idotaccent" unicode="&#x130;" horiz-adv-x="305" 
d="M62 674h181v-674h-181v674zM154 709h-1q-32 0 -55 23t-23 54q0 33 23 54.5t56 21.5q32 0 53.5 -21.5t21.5 -54.5q0 -31 -22 -54t-53 -23z" />
    <glyph glyph-name="dotlessi" unicode="&#x131;" horiz-adv-x="292" 
d="M236 0h-180v492h180v-492z" />
    <glyph glyph-name="IJ" unicode="&#x132;" horiz-adv-x="734" 
d="M62 674h181v-674h-181v674zM496 258v416h181v-416q0 -142 -65 -205.5t-191 -63.5q-71 0 -120 16l20 145q40 -11 79 -11q47 0 71.5 26.5t24.5 92.5z" />
    <glyph glyph-name="ij" unicode="&#x133;" horiz-adv-x="604" 
d="M236 0h-180v492h180v-492zM146 713q41 0 66 -24t26 -61q0 -37 -25.5 -61.5t-67.5 -24.5q-41 0 -66 24.5t-25 61.5t25.5 61t66.5 24zM272 -217l-17 140q64 7 87 31q29 28 29 150v388h180v-426q0 -154 -73 -221q-71 -62 -206 -62zM461 713q41 0 66 -24t25 -61
q1 -37 -24.5 -61.5t-68.5 -24.5q-40 0 -65 24.5t-25 61.5t25.5 61t66.5 24z" />
    <glyph glyph-name="Jcircumflex" unicode="&#x134;" horiz-adv-x="429" 
d="M191 258v416h181v-416q0 -142 -65 -205.5t-191 -63.5q-71 0 -120 16l20 145q40 -11 79 -11q47 0 71.5 26.5t24.5 92.5zM213 836h135l99 -126h-121l-45 59h-2l-44 -59h-121z" />
    <glyph glyph-name="jcircumflex" unicode="&#x135;" horiz-adv-x="312" 
d="M-20 -217l-17 140q64 7 87 31q29 28 29 150v388h180v-426q0 -154 -73 -221q-71 -62 -206 -62zM101 706h120l101 -156h-113l-47 84h-2l-47 -84h-114z" />
    <glyph glyph-name="Kcommaaccent" unicode="&#x136;" horiz-adv-x="646" 
d="M62 0v674h179v-286h2q19 35 44 74l129 212h222l-214 -287l222 -387h-209l-142 273l-54 -69v-204h-179zM251 -250l-25 74q25 6 43.5 22t18.5 37q0 23 -27 60l123 19q39 -31 39 -82q0 -63 -47 -95.5t-125 -34.5z" />
    <glyph glyph-name="kcommaaccent" unicode="&#x137;" horiz-adv-x="575" 
d="M236 710v-418h2q21 42 32 60l81 140h215l-170 -198l195 -294h-222l-97 188l-36 -48v-140h-180v710h180zM213 -251l-25 75q25 6 43.5 21.5t18.5 37.5q0 23 -27 60l123 19q39 -31 39 -82q0 -63 -47 -96t-125 -35z" />
    <glyph glyph-name="kgreenlandic" unicode="&#x138;" horiz-adv-x="575" 
d="M236 492v-200h2q21 42 32 60l81 140h215l-170 -198l195 -294h-222l-97 188l-36 -48v-140h-180v492h180z" />
    <glyph glyph-name="Lacute" unicode="&#x139;" horiz-adv-x="528" 
d="M62 0v674h181v-523h259v-151h-440zM160 836h183l-120 -126h-144z" />
    <glyph glyph-name="lacute" unicode="&#x13a;" horiz-adv-x="292" 
d="M56 0v710h180v-710h-180zM141 866h183l-120 -126h-144z" />
    <glyph glyph-name="Lcommaaccent" unicode="&#x13b;" horiz-adv-x="528" 
d="M62 0v674h181v-523h259v-151h-440zM190 -250l-25 74q25 6 43.5 22t18.5 37q0 23 -27 60l123 19q39 -31 39 -82q0 -63 -47 -95.5t-125 -34.5z" />
    <glyph glyph-name="lcommaaccent" unicode="&#x13c;" horiz-adv-x="292" 
d="M56 0v710h180v-710h-180zM61 -251l-25 75q25 6 43.5 21.5t18.5 37.5q0 23 -27 60l123 19q39 -31 39 -82q0 -63 -47 -96t-125 -35z" />
    <glyph glyph-name="Lcaron" unicode="&#x13d;" horiz-adv-x="528" 
d="M62 0v674h181v-523h259v-151h-440zM308 477l-25 74q25 6 43.5 22t18.5 37q0 23 -27 60l123 19q39 -31 39 -82q0 -63 -47 -95.5t-125 -34.5z" />
    <glyph glyph-name="lcaron" unicode="&#x13e;" horiz-adv-x="302" 
d="M56 0v710h180v-710h-180zM356 484l-85 46q24 53 24 106q0 36 -15 70l110 17q30 -24 30 -82q0 -13 -1.5 -25.5t-3.5 -23t-6 -21l-7 -18.5t-8 -17t-8.5 -14l-9 -12.5t-7.5 -10t-7 -9.5z" />
    <glyph glyph-name="Ldot" unicode="&#x13f;" horiz-adv-x="528" 
d="M62 0v674h181v-523h259v-151h-440zM402 305h-1q-32 0 -55 23t-23 54q0 33 23 54.5t56 21.5q32 0 53.5 -21.5t21.5 -54.5q0 -31 -22 -54t-53 -23z" />
    <glyph glyph-name="ldot" unicode="&#x140;" horiz-adv-x="389" 
d="M56 0v710h180v-710h-180zM344 324h-1q-30 0 -51.5 22.5t-21.5 53.5q0 33 21 54.5t53 21.5q29 0 48.5 -21.5t19.5 -54.5q0 -31 -19.5 -53.5t-48.5 -22.5z" />
    <glyph glyph-name="Lslash" unicode="&#x141;" horiz-adv-x="535" 
d="M510 0h-440v221l-72 -48v122l72 48v331h180v-212l123 80v-123l-123 -80v-188h260v-151z" />
    <glyph glyph-name="lslash" unicode="&#x142;" horiz-adv-x="307" 
d="M244 0h-181v204l-63 -49v126l63 49v380h181v-248l70 55v-126l-70 -55v-336z" />
    <glyph glyph-name="Nacute" unicode="&#x143;" horiz-adv-x="705" 
d="M227 0h-165v674h213l107 -207q52 -95 106 -236h3q-14 125 -14 284v159h165v-674h-190l-114 224q-72 137 -114 244h-3q6 -137 6 -302v-166zM345 836h183l-120 -126h-144z" />
    <glyph glyph-name="nacute" unicode="&#x144;" horiz-adv-x="599" 
d="M299 706h159l-122 -156h-123zM56 0v325q0 77 -4 167h155l8 -63h4q19 28 56 51t91 23q86 0 131.5 -55.5t45.5 -157.5v-290h-180v268q0 90 -63 90q-41 0 -59 -43q-5 -11 -5 -36v-279h-180z" />
    <glyph glyph-name="Ncommaaccent" unicode="&#x145;" horiz-adv-x="705" 
d="M227 0h-165v674h213l107 -207q52 -95 106 -236h3q-14 125 -14 284v159h165v-674h-190l-114 224q-72 137 -114 244h-3q6 -137 6 -302v-166zM279 -247l-25 74q25 6 43.5 22t18.5 37q0 23 -27 60l123 19q39 -31 39 -82q0 -63 -47 -95.5t-125 -34.5z" />
    <glyph glyph-name="ncommaaccent" unicode="&#x146;" horiz-adv-x="599" 
d="M56 0v325q0 77 -4 167h155l8 -63h4q19 28 56 51t91 23q86 0 131.5 -55.5t45.5 -157.5v-290h-180v268q0 90 -63 90q-41 0 -59 -43q-5 -11 -5 -36v-279h-180zM225 -251l-25 75q25 6 43.5 21.5t18.5 37.5q0 23 -27 60l123 19q39 -31 39 -82q0 -63 -47 -96t-125 -35z" />
    <glyph glyph-name="Ncaron" unicode="&#x147;" horiz-adv-x="705" 
d="M227 0h-165v674h213l107 -207q52 -95 106 -236h3q-14 125 -14 284v159h165v-674h-190l-114 224q-72 137 -114 244h-3q6 -137 6 -302v-166zM424 710h-134l-100 126h122l44 -59h2l44 59h121z" />
    <glyph glyph-name="ncaron" unicode="&#x148;" horiz-adv-x="599" 
d="M358 550h-120l-101 156h113l47 -84h2l47 84h114zM56 0v325q0 77 -4 167h155l8 -63h4q19 28 56 51t91 23q86 0 131.5 -55.5t45.5 -157.5v-290h-180v268q0 90 -63 90q-41 0 -59 -43q-5 -11 -5 -36v-279h-180z" />
    <glyph glyph-name="napostrophe" unicode="&#x149;" horiz-adv-x="599" 
d="M56 0v325q0 77 -4 167h155l8 -63h4q19 28 56 51t91 23q86 0 131.5 -55.5t45.5 -157.5v-290h-180v268q0 90 -63 90q-41 0 -59 -43q-5 -11 -5 -36v-279h-180zM84 519l-80 47q28 49 28 88q0 28 -16 54l113 28q30 -21 30 -77q0 -76 -75 -140z" />
    <glyph glyph-name="Eng" unicode="&#x14a;" horiz-adv-x="705" 
d="M227 0h-165v674h213l107 -207q52 -95 106 -236h3q-14 125 -14 284v159h165v-621q0 -132 -65 -198.5t-177 -77.5l-41 136q92 24 105 68l-126 243q-72 137 -114 244h-3q6 -137 6 -302v-166z" />
    <glyph glyph-name="eng" unicode="&#x14b;" horiz-adv-x="599" 
d="M56 0v325q0 77 -4 167h155l8 -63h4q19 28 56 51t91 23q86 0 131.5 -55.5t45.5 -157.5v-231q0 -239 -214 -261l-36 138q38 7 54 27t16 65v240q0 90 -63 90q-41 0 -59 -43q-5 -11 -5 -36v-279h-180z" />
    <glyph glyph-name="Omacron" unicode="&#x14c;" horiz-adv-x="730" 
d="M369 685q155 0 241 -98.5t86 -242.5q0 -163 -91 -259t-247 -96q-151 0 -237.5 98.5t-86.5 245.5q0 151 92 251.5t243 100.5zM366 542q-64 0 -102.5 -56.5t-38.5 -149.5q0 -94 38.5 -149t103.5 -55q64 0 101 57t37 149q0 89 -37.5 146.5t-101.5 57.5zM232 827h267v-92
h-267v92z" />
    <glyph glyph-name="omacron" unicode="&#x14d;" horiz-adv-x="589" 
d="M164 675h261v-95h-261v95zM302 503q115 0 185.5 -70t70.5 -182q0 -127 -77 -194.5t-189 -67.5q-113 0 -187 68.5t-74 185.5q0 118 73 189t198 71zM296 376q-41 0 -60 -37.5t-19 -92.5q0 -58 20 -94t60 -36q36 0 55.5 35t19.5 95q0 56 -19 93t-57 37z" />
    <glyph glyph-name="Obreve" unicode="&#x14e;" horiz-adv-x="730" 
d="M369 685q155 0 241 -98.5t86 -242.5q0 -163 -91 -259t-247 -96q-151 0 -237.5 98.5t-86.5 245.5q0 151 92 251.5t243 100.5zM366 542q-64 0 -102.5 -56.5t-38.5 -149.5q0 -94 38.5 -149t103.5 -55q64 0 101 57t37 149q0 89 -37.5 146.5t-101.5 57.5zM218 849h93
q4 -45 53 -45q50 0 59 45h89q-1 -62 -38 -98.5t-109 -36.5q-75 0 -110.5 36t-36.5 99z" />
    <glyph glyph-name="obreve" unicode="&#x14f;" horiz-adv-x="589" 
d="M149 697h91q7 -58 53 -58q52 0 56 58h90q-1 -68 -38 -109t-108 -41q-69 0 -106 41t-38 109zM302 503q115 0 185.5 -70t70.5 -182q0 -127 -77 -194.5t-189 -67.5q-113 0 -187 68.5t-74 185.5q0 118 73 189t198 71zM296 376q-41 0 -60 -37.5t-19 -92.5q0 -58 20 -94t60 -36
q36 0 55.5 35t19.5 95q0 56 -19 93t-57 37z" />
    <glyph glyph-name="Ohungarumlaut" unicode="&#x150;" horiz-adv-x="730" 
d="M369 685q155 0 241 -98.5t86 -242.5q0 -163 -91 -259t-247 -96q-151 0 -237.5 98.5t-86.5 245.5q0 151 92 251.5t243 100.5zM366 542q-64 0 -102.5 -56.5t-38.5 -149.5q0 -94 38.5 -149t103.5 -55q64 0 101 57t37 149q0 89 -37.5 146.5t-101.5 57.5zM267 838h161
l-98 -118h-122zM463 838h161l-97 -118h-123z" />
    <glyph glyph-name="ohungarumlaut" unicode="&#x151;" horiz-adv-x="589" 
d="M183 705h135l-92 -155h-99zM369 705h135l-92 -155h-99zM302 503q115 0 185.5 -70t70.5 -182q0 -127 -77 -194.5t-189 -67.5q-113 0 -187 68.5t-74 185.5q0 118 73 189t198 71zM296 376q-41 0 -60 -37.5t-19 -92.5q0 -58 20 -94t60 -36q36 0 55.5 35t19.5 95q0 56 -19 93
t-57 37z" />
    <glyph glyph-name="OE" unicode="&#x152;" horiz-adv-x="954" 
d="M915 148v-148h-396q-14 0 -60 -6q-55 -5 -82 -5q-87 0 -154.5 28t-107.5 76.5t-60.5 109t-20.5 128.5q0 160 94.5 257t250.5 97q31 0 91 -5q52 -6 62 -6h369v-147h-257v-109h243v-146h-243v-124h271zM464 143v386q-26 13 -67 13q-70 0 -121 -53t-51 -152
q0 -92 48.5 -148.5t134.5 -56.5q32 0 56 11z" />
    <glyph glyph-name="oe" unicode="&#x153;" horiz-adv-x="871" 
d="M840 187h-301q4 -28 39.5 -46.5t82.5 -18.5q72 0 138 25l23 -120q-69 -38 -186 -38q-116 0 -177 74h-2q-65 -74 -181 -74q-104 0 -174.5 69.5t-70.5 187.5q0 114 71.5 185.5t184.5 71.5q51 0 96.5 -19t70.5 -56h2q62 75 168 75q111 0 166 -71t55 -181q0 -14 -5 -64z
M298 376h-1q-43 0 -61.5 -37.5t-18.5 -92.5q0 -57 19.5 -93.5t58.5 -36.5q38 0 57.5 35t19.5 96q0 56 -19 92.5t-55 36.5zM536 306h143q0 79 -70 79q-35 0 -54 -26t-19 -53z" />
    <glyph glyph-name="Racute" unicode="&#x154;" horiz-adv-x="617" 
d="M62 0v665q89 14 218 14q158 0 228 -52q67 -51 67 -147q0 -58 -35.5 -102.5t-80.5 -60.5v-4q58 -24 86 -120q8 -26 20 -72l21 -78t15 -43h-185q-19 37 -47 155q-13 59 -34 78.5t-65 19.5h-29v-253h-179zM241 542v-160h47q50 0 78.5 23t28.5 61q0 78 -93 80q-43 0 -61 -4z
M294 836h183l-120 -126h-144z" />
    <glyph glyph-name="racute" unicode="&#x155;" horiz-adv-x="403" 
d="M210 706h159l-122 -156h-123zM56 0v326q0 84 -4 166h154l6 -89h4q18 51 55.5 75.5t75.5 24.5q23 0 36 -3v-169q-22 5 -46 5q-84 0 -98 -62q-3 -14 -3 -31v-243h-180z" />
    <glyph glyph-name="Rcommaaccent" unicode="&#x156;" horiz-adv-x="617" 
d="M62 0v665q89 14 218 14q158 0 228 -52q67 -51 67 -147q0 -58 -35.5 -102.5t-80.5 -60.5v-4q58 -24 86 -120q8 -26 20 -72l21 -78t15 -43h-185q-19 37 -47 155q-13 59 -34 78.5t-65 19.5h-29v-253h-179zM241 542v-160h47q50 0 78.5 23t28.5 61q0 78 -93 80q-43 0 -61 -4z
M234 -250l-25 74q25 6 43.5 22t18.5 37q0 23 -27 60l123 19q39 -31 39 -82q0 -63 -47 -95.5t-125 -34.5z" />
    <glyph glyph-name="rcommaaccent" unicode="&#x157;" horiz-adv-x="403" 
d="M56 0v326q0 84 -4 166h154l6 -89h4q18 51 55.5 75.5t75.5 24.5q23 0 36 -3v-169q-22 5 -46 5q-84 0 -98 -62q-3 -14 -3 -31v-243h-180zM68 -251l-25 75q25 6 43.5 21.5t18.5 37.5q0 23 -27 60l123 19q39 -31 39 -82q0 -63 -47 -96t-125 -35z" />
    <glyph glyph-name="Rcaron" unicode="&#x158;" horiz-adv-x="617" 
d="M62 0v665q89 14 218 14q158 0 228 -52q67 -51 67 -147q0 -58 -35.5 -102.5t-80.5 -60.5v-4q58 -24 86 -120q8 -26 20 -72l21 -78t15 -43h-185q-19 37 -47 155q-13 59 -34 78.5t-65 19.5h-29v-253h-179zM241 542v-160h47q50 0 78.5 23t28.5 61q0 78 -93 80q-43 0 -61 -4z
M370 710h-134l-100 126h122l44 -59h2l44 59h121z" />
    <glyph glyph-name="rcaron" unicode="&#x159;" horiz-adv-x="403" 
d="M268 550h-120l-101 156h113l47 -84h2l47 84h114zM56 0v326q0 84 -4 166h154l6 -89h4q18 51 55.5 75.5t75.5 24.5q23 0 36 -3v-169q-22 5 -46 5q-84 0 -98 -62q-3 -14 -3 -31v-243h-180z" />
    <glyph glyph-name="Sacute" unicode="&#x15a;" horiz-adv-x="561" 
d="M40 31l34 149q82 -42 175 -42q92 0 92 55q0 24 -23.5 41t-82.5 37q-189 66 -189 203q0 92 73 151.5t197 59.5q104 0 183 -35l-38 -144q-71 32 -147 32q-41 0 -63 -13.5t-22 -36.5q0 -24 24.5 -38.5t96.5 -41.5q176 -64 176 -203q0 -93 -73.5 -154.5t-214.5 -61.5
q-57 0 -111.5 12.5t-86.5 29.5zM291 836h183l-120 -126h-144z" />
    <glyph glyph-name="sacute" unicode="&#x15b;" horiz-adv-x="451" 
d="M243 706h159l-122 -156h-123zM30 24l30 127q22 -14 63.5 -25.5t73.5 -11.5q53 0 53 27q0 14 -12.5 22t-51.5 21q-146 46 -144 150q0 74 58 121.5t154 47.5q87 0 147 -28l-29 -122q-56 27 -109 27q-49 0 -49 -28q0 -12 15.5 -21.5t58.5 -23.5q71 -23 102.5 -60.5
t32.5 -92.5q0 -74 -57.5 -119.5t-167.5 -45.5q-100 0 -168 35z" />
    <glyph glyph-name="Scircumflex" unicode="&#x15c;" horiz-adv-x="561" 
d="M40 31l34 149q82 -42 175 -42q92 0 92 55q0 24 -23.5 41t-82.5 37q-189 66 -189 203q0 92 73 151.5t197 59.5q104 0 183 -35l-38 -144q-71 32 -147 32q-41 0 -63 -13.5t-22 -36.5q0 -24 24.5 -38.5t96.5 -41.5q176 -64 176 -203q0 -93 -73.5 -154.5t-214.5 -61.5
q-57 0 -111.5 12.5t-86.5 29.5zM215 836h135l99 -126h-121l-45 59h-2l-44 -59h-121z" />
    <glyph glyph-name="scircumflex" unicode="&#x15d;" horiz-adv-x="451" 
d="M169 706h120l101 -156h-113l-47 84h-2l-47 -84h-114zM30 24l30 127q22 -14 63.5 -25.5t73.5 -11.5q53 0 53 27q0 14 -12.5 22t-51.5 21q-146 46 -144 150q0 74 58 121.5t154 47.5q87 0 147 -28l-29 -122q-56 27 -109 27q-49 0 -49 -28q0 -12 15.5 -21.5t58.5 -23.5
q71 -23 102.5 -60.5t32.5 -92.5q0 -74 -57.5 -119.5t-167.5 -45.5q-100 0 -168 35z" />
    <glyph glyph-name="Scedilla" unicode="&#x15e;" horiz-adv-x="561" 
d="M40 31l34 149q82 -42 175 -42q92 0 92 55q0 24 -23.5 41t-82.5 37q-189 66 -189 203q0 92 73 151.5t197 59.5q104 0 183 -35l-38 -144q-71 32 -147 32q-41 0 -63 -13.5t-22 -36.5q0 -24 24.5 -38.5t96.5 -41.5q176 -64 176 -203q0 -76 -51 -132.5t-149 -75.5l-20 -38
q30 -4 51.5 -24t21.5 -47q0 -48 -37 -70.5t-92 -22.5q-52 0 -86 21l23 62q29 -17 54 -17q33 0 33 23q0 29 -78 34l34 71h-1q-44 0 -99 12t-90 30z" />
    <glyph glyph-name="scedilla" unicode="&#x15f;" horiz-adv-x="451" 
d="M30 24l30 127q22 -14 63.5 -25.5t73.5 -11.5q53 0 53 27q0 14 -12.5 22t-51.5 21q-144 45 -144 150q0 74 58 121.5t154 47.5q87 0 147 -28l-29 -122q-56 27 -109 27q-49 0 -49 -28q0 -12 15.5 -21.5t58.5 -23.5q71 -23 103 -60.5t32 -92.5q0 -61 -39.5 -103t-116.5 -56
l-19 -36q30 -4 51.5 -24.5t21.5 -49.5q0 -47 -36.5 -68.5t-92.5 -21.5q-52 0 -86 21l23 62q29 -17 54 -17q33 0 33 23q0 29 -78 34l34 72h-1q-72 0 -141 34z" />
    <glyph glyph-name="Scaron" unicode="&#x160;" horiz-adv-x="561" 
d="M40 31l34 149q82 -42 175 -42q92 0 92 55q0 24 -23.5 41t-82.5 37q-189 66 -189 203q0 92 73 151.5t197 59.5q104 0 183 -35l-38 -144q-71 32 -147 32q-41 0 -63 -13.5t-22 -36.5q0 -24 24.5 -38.5t96.5 -41.5q176 -64 176 -203q0 -93 -73.5 -154.5t-214.5 -61.5
q-57 0 -111.5 12.5t-86.5 29.5zM356 710h-134l-100 126h122l44 -59h2l44 59h121z" />
    <glyph glyph-name="scaron" unicode="&#x161;" horiz-adv-x="451" 
d="M287 550h-120l-101 156h113l47 -84h2l47 84h114zM30 24l30 127q22 -14 63.5 -25.5t73.5 -11.5q53 0 53 27q0 14 -12.5 22t-51.5 21q-146 46 -144 150q0 74 58 121.5t154 47.5q87 0 147 -28l-29 -122q-56 27 -109 27q-49 0 -49 -28q0 -12 15.5 -21.5t58.5 -23.5
q71 -23 102.5 -60.5t32.5 -92.5q0 -74 -57.5 -119.5t-167.5 -45.5q-100 0 -168 35z" />
    <glyph glyph-name="Tcommaaccent" unicode="&#x162;" horiz-adv-x="570" 
d="M193 0v523h-172v151h528v-151h-175v-523h-181zM197 -250l-25 74q25 6 43.5 22t18.5 37q0 23 -27 60l123 19q39 -31 39 -82q0 -63 -47 -95.5t-125 -34.5z" />
    <glyph glyph-name="tcommaaccent" unicode="&#x163;" horiz-adv-x="383" 
d="M77 585l176 47v-140h102v-132h-102v-141q0 -45 12.5 -64t44.5 -19q28 0 43 4v-137q-42 -14 -107 -14q-78 0 -123 45q-46 46 -46 154v172h-61v132h61v93zM127 -251l-25 75q25 6 43.5 21.5t18.5 37.5q0 23 -27 60l123 19q39 -31 39 -82q0 -63 -47 -96t-125 -35z" />
    <glyph glyph-name="Tcaron" unicode="&#x164;" horiz-adv-x="570" 
d="M193 0v523h-172v151h528v-151h-175v-523h-181zM352 710h-134l-100 126h122l44 -59h2l44 59h121z" />
    <glyph glyph-name="tcaron" unicode="&#x165;" horiz-adv-x="385" 
d="M77 585l176 47v-140h102v-132h-102v-141q0 -45 12.5 -64t44.5 -19q28 0 43 4v-137q-42 -14 -107 -14q-78 0 -123 45q-46 46 -46 154v172h-61v132h61v93zM351 536l-42 64q14 9 22.5 28t8.5 37q0 27 -13 53l112 17q12 -10 21 -29.5t9 -39.5q0 -53 -37.5 -87t-80.5 -43z" />
    <glyph glyph-name="Tbar" unicode="&#x166;" horiz-adv-x="570" 
d="M549 523h-175v-142h110v-104h-110v-277h-181v277h-112v104h112v142h-172v151h528v-151z" />
    <glyph glyph-name="tbar" unicode="&#x167;" horiz-adv-x="383" 
d="M355 360h-102v-51h77v-91h-77v-13q0 -69 57 -69q28 0 43 4v-137q-42 -14 -107 -14q-78 0 -123 45q-46 46 -46 154v30h-61v91h61v51h-61v132h61v93l176 47v-140h102v-132z" />
    <glyph glyph-name="Utilde" unicode="&#x168;" horiz-adv-x="697" 
d="M61 674h181v-382q0 -160 106 -160q107 0 107 160v382h181v-372q0 -155 -75 -234t-218 -79q-282 0 -282 318v367zM281 714h-79q-2 69 19.5 104t61.5 35q29 0 65 -19q31 -20 43 -20q13 0 18.5 9t8.5 35h78q4 -137 -84 -137q-31 0 -67 18q-31 18 -41 18q-20 0 -23 -43z" />
    <glyph glyph-name="utilde" unicode="&#x169;" horiz-adv-x="598" 
d="M231 554h-83q-2 68 22 105.5t66 37.5q31 0 67 -20q32 -20 42 -20q13 0 18.5 9t7.5 36h80q4 -140 -88 -140q-31 0 -73 22q-27 16 -36 16q-22 0 -23 -46zM541 492v-324q0 -84 4 -168h-155l-8 65h-4q-51 -76 -149 -76q-84 0 -129 54t-45 159v290h180v-261q0 -97 63 -97
q43 0 58 42q5 9 5 26v290h180z" />
    <glyph glyph-name="Umacron" unicode="&#x16a;" horiz-adv-x="697" 
d="M61 674h181v-382q0 -160 106 -160q107 0 107 160v382h181v-372q0 -155 -75 -234t-218 -79q-282 0 -282 318v367zM215 827h267v-92h-267v92z" />
    <glyph glyph-name="umacron" unicode="&#x16b;" horiz-adv-x="598" 
d="M169 675h261v-95h-261v95zM541 492v-324q0 -84 4 -168h-155l-8 65h-4q-51 -76 -149 -76q-84 0 -129 54t-45 159v290h180v-261q0 -97 63 -97q43 0 58 42q5 9 5 26v290h180z" />
    <glyph glyph-name="Ubreve" unicode="&#x16c;" horiz-adv-x="697" 
d="M61 674h181v-382q0 -160 106 -160q107 0 107 160v382h181v-372q0 -155 -75 -234t-218 -79q-282 0 -282 318v367zM201 840h93q4 -45 53 -45q50 0 59 45h89q-1 -62 -38 -98.5t-109 -36.5q-75 0 -110.5 36t-36.5 99z" />
    <glyph glyph-name="ubreve" unicode="&#x16d;" horiz-adv-x="598" 
d="M154 697h91q7 -58 53 -58q52 0 56 58h90q-1 -68 -38 -109t-108 -41q-69 0 -106 41t-38 109zM541 492v-324q0 -84 4 -168h-155l-8 65h-4q-51 -76 -149 -76q-84 0 -129 54t-45 159v290h180v-261q0 -97 63 -97q43 0 58 42q5 9 5 26v290h180z" />
    <glyph glyph-name="Uring" unicode="&#x16e;" horiz-adv-x="697" 
d="M61 674h181v-382q0 -160 106 -160q107 0 107 160v382h181v-372q0 -155 -75 -234t-218 -79q-282 0 -282 318v367zM349 892h1q58 0 89 -28.5t31 -73.5q0 -44 -32 -72.5t-89 -28.5t-89.5 28.5t-32.5 71.5q0 44 32 73.5t90 29.5zM347 834h-1q-19 0 -30 -13.5t-11 -31.5
t11.5 -30.5t30.5 -12.5q20 0 32 12t12 31q0 18 -12 31.5t-32 13.5z" />
    <glyph glyph-name="uring" unicode="&#x16f;" horiz-adv-x="598" 
d="M299 540q-56 0 -89 28t-33 71q0 45 32 73.5t91 28.5q57 0 87.5 -28t30.5 -73q0 -44 -32 -72t-87 -28zM298 595q21 0 32.5 13t11.5 32t-12 32.5t-33 13.5q-20 0 -31 -14t-11 -33q0 -17 11.5 -30.5t31.5 -13.5zM541 492v-324q0 -84 4 -168h-155l-8 65h-4q-51 -76 -149 -76
q-84 0 -129 54t-45 159v290h180v-261q0 -97 63 -97q43 0 58 42q5 9 5 26v290h180z" />
    <glyph glyph-name="Uhungarumlaut" unicode="&#x170;" horiz-adv-x="697" 
d="M61 674h181v-382q0 -160 106 -160q107 0 107 160v382h181v-372q0 -155 -75 -234t-218 -79q-282 0 -282 318v367zM247 838h161l-98 -118h-122zM443 838h161l-97 -118h-123z" />
    <glyph glyph-name="uhungarumlaut" unicode="&#x171;" horiz-adv-x="598" 
d="M208 705h135l-92 -155h-99zM394 705h135l-92 -155h-99zM541 492v-324q0 -84 4 -168h-155l-8 65h-4q-51 -76 -149 -76q-84 0 -129 54t-45 159v290h180v-261q0 -97 63 -97q43 0 58 42q5 9 5 26v290h180z" />
    <glyph glyph-name="Uogonek" unicode="&#x172;" horiz-adv-x="697" 
d="M469 -106l25 -82q-53 -37 -120 -37q-53 0 -81 25t-28 68q0 59 58 122h-6q-256 11 -256 317v367h181v-382q0 -160 106 -160q107 0 107 160v382h181v-372q0 -255 -197 -301q-50 -48 -50 -82q0 -16 11 -25t27 -9q21 0 42 9z" />
    <glyph glyph-name="uogonek" unicode="&#x173;" horiz-adv-x="598" 
d="M541 492v-324q0 -84 4 -168h-60q-13 -26 -13 -57q0 -25 15.5 -41.5t39.5 -16.5q22 0 43 7l25 -82q-46 -35 -111 -35q-57 0 -89 29t-32 86q0 38 27 110l-8 65h-4q-51 -76 -149 -76q-84 0 -129 54t-45 159v290h180v-261q0 -97 63 -97q43 0 58 42q5 9 5 26v290h180z" />
    <glyph glyph-name="Wcircumflex" unicode="&#x174;" horiz-adv-x="906" 
d="M370 0h-200l-155 674h194l39 -250l17 -117.5t18 -119.5h2q12 92 39 239l43 248h193l42 -260q15 -99 30 -222h2q11 83 34 234l40 248h183l-166 -674h-197l-45 264q-16 93 -28 202h-2q-19 -138 -32 -203zM393 836h135l99 -126h-121l-45 59h-2l-44 -59h-121z" />
    <glyph glyph-name="wcircumflex" unicode="&#x175;" horiz-adv-x="769" 
d="M325 706h120l101 -156h-113l-47 84h-2l-47 -84h-114zM8 492h183l29 -181q10 -60 24 -163h2q4 25 33 162l39 182h141l37 -175q23 -108 33 -169h2q6 61 24 171l30 173h176l-147 -492h-170l-34 146q-12 54 -27 150h-2q-9 -85 -26 -148l-36 -148h-170z" />
    <glyph glyph-name="Ycircumflex" unicode="&#x176;" horiz-adv-x="629" 
d="M400 0h-180v272l-213 402h207l57 -152q20 -50 46 -124h2q1 4 43 124l56 152h203l-221 -395v-279zM248 836h135l99 -126h-121l-45 59h-2l-44 -59h-121z" />
    <glyph glyph-name="ycircumflex" unicode="&#x177;" horiz-adv-x="545" 
d="M221 706h120l101 -156h-113l-47 84h-2l-47 -84h-114zM5 492h200l59 -221q4 -15 11.5 -46.5t9.5 -40.5h4q3 13 9 44t9 43l45 221h192l-105 -312q-53 -147 -92.5 -219t-83.5 -110q-69 -62 -163 -72l-37 152q30 5 61 19q37 14 58 45q10 12 10 22q0 9 -7 27z" />
    <glyph glyph-name="Ydieresis" unicode="&#x178;" horiz-adv-x="629" 
d="M400 0h-180v272l-213 402h207l57 -152q20 -50 46 -124h2q1 4 43 124l56 152h203l-221 -395v-279zM216 709h-1q-32 0 -54.5 22.5t-22.5 54.5t22.5 54t55.5 22q31 0 52.5 -22t21.5 -54t-21.5 -54.5t-52.5 -22.5zM433 709h-1q-33 0 -54.5 22.5t-21.5 54.5t22 54t55 22
q32 0 53.5 -22t21.5 -54t-22 -54.5t-53 -22.5z" />
    <glyph glyph-name="Zacute" unicode="&#x179;" horiz-adv-x="588" 
d="M21 0v96l298 425v4h-270v149h504v-103l-289 -418v-4h294v-149h-537zM287 836h183l-120 -126h-144z" />
    <glyph glyph-name="zacute" unicode="&#x17a;" horiz-adv-x="486" 
d="M258 706h159l-122 -156h-123zM24 0v103l126 153q39 46 83 91v3h-193v142h414v-107l-118 -144q-58 -68 -88 -96v-2h215v-143h-439z" />
    <glyph glyph-name="Zdotaccent" unicode="&#x17b;" horiz-adv-x="588" 
d="M21 0v96l298 425v4h-270v149h504v-103l-289 -418v-4h294v-149h-537zM298 709h-1q-32 0 -55 23t-23 54q0 33 23 54.5t56 21.5q32 0 53.5 -21.5t21.5 -54.5q0 -31 -22 -54t-53 -23z" />
    <glyph glyph-name="zdotaccent" unicode="&#x17c;" horiz-adv-x="486" 
d="M249 551h-1q-34 0 -57 23.5t-23 55.5q0 34 23 56.5t58 22.5q32 0 54 -22.5t22 -56.5q0 -33 -22 -56t-54 -23zM24 0v103l126 153q39 46 83 91v3h-193v142h414v-107l-118 -144q-58 -68 -88 -96v-2h215v-143h-439z" />
    <glyph glyph-name="Zcaron" unicode="&#x17d;" horiz-adv-x="588" 
d="M21 0v96l298 425v4h-270v149h504v-103l-289 -418v-4h294v-149h-537zM366 710h-134l-100 126h122l44 -59h2l44 59h121z" />
    <glyph glyph-name="zcaron" unicode="&#x17e;" horiz-adv-x="486" 
d="M305 550h-120l-101 156h113l47 -84h2l47 84h114zM24 0v103l126 153q39 46 83 91v3h-193v142h414v-107l-118 -144q-58 -68 -88 -96v-2h215v-143h-439z" />
    <glyph glyph-name="florin" unicode="&#x192;" horiz-adv-x="573" 
d="M115 293v123h87l3 27q2 22 7.5 44t21.5 55.5t39 58t64.5 42.5t95.5 18q55 0 89 -16l-27 -127q-22 8 -45 8q-60 0 -69 -69l-6 -41h94v-123h-108l-22 -168q-6 -49 -18 -85t-34.5 -68.5t-61.5 -49t-94 -16.5q-68 2 -97 17l24 125q17 -5 43 -7q34 1 48 25t25 111l14 116h-73z
" />
    <glyph glyph-name="Ohorn" unicode="&#x1a0;" horiz-adv-x="730" 
d="M367 132q64 0 101 57t37 149q0 89 -37.5 146.5t-101.5 57.5t-102.5 -58t-38.5 -147q0 -91 38.5 -148t103.5 -57zM603 744l126 22q27 -54 27 -111q0 -49 -27 -81.5t-80 -37.5q47 -84 47 -192q0 -163 -91 -259t-247 -96q-151 0 -237.5 98.5t-86.5 245.5q0 151 92 251.5
t243 100.5q64 0 131 -21q13 -4 33 -13.5t35 -15.5t26 -6q34 0 34 39q0 37 -25 76z" />
    <glyph glyph-name="ohorn" unicode="&#x1a1;" horiz-adv-x="604" 
d="M296 376q-41 0 -60 -37.5t-19 -92.5q0 -58 20 -94t60 -36q36 0 55.5 35t19.5 95q0 56 -19 93t-57 37zM481 571l124 21q25 -50 25 -104q0 -48 -26 -77t-73 -37q27 -57 27 -123q0 -127 -77 -194.5t-189 -67.5q-113 0 -187 68.5t-74 185.5q0 118 73 189t198 71q49 0 91 -13
q9 -3 39 -15.5t41 -12.5q32 0 32 34q0 37 -24 75z" />
    <glyph glyph-name="Uhorn" unicode="&#x1af;" horiz-adv-x="750" 
d="M620 784l124 20q24 -48 24 -102q0 -105 -115 -118l-17 -2v-280q0 -155 -75 -234t-218 -79q-282 0 -282 318v367h181v-382q0 -160 106 -160q107 0 107 160v382h132q32 0 43.5 9.5t11.5 29.5q0 33 -22 71z" />
    <glyph glyph-name="uhorn" unicode="&#x1b0;" horiz-adv-x="598" 
d="M494 603l124 21q25 -50 25 -100q0 -46 -26.5 -74.5t-68.5 -34.5l-7 -1v-246q0 -84 4 -168h-155l-8 65h-4q-51 -76 -149 -76q-84 0 -129 54t-45 159v290h180v-261q0 -97 63 -97q43 0 58 42q5 9 5 26v290h102q55 0 55 41q0 33 -24 70z" />
    <glyph glyph-name="uni01FA" unicode="&#x1fa;" horiz-adv-x="675" 
d="M337 694q-53 0 -84 26.5t-31 66.5t30.5 67.5t85.5 27.5q54 0 83 -26.5t29 -67.5q0 -42 -30 -68t-83 -26zM336 750q20 0 31.5 10.5t11.5 27.5q0 16 -12 27.5t-32 11.5t-30.5 -11t-10.5 -28q0 -16 11.5 -27t30.5 -11zM363 994h189l-150 -95h-147zM413 156h-174l-38 -156
h-187l196 674h240l201 -674h-195zM263 290h125l-31 121q-6 22 -18.5 73.5l-14.5 59.5h-2q-5 -19 -15 -66.5t-15 -67.5z" />
    <glyph glyph-name="uni01FB" unicode="&#x1fb;" horiz-adv-x="548" 
d="M318 873h160l-150 -121h-122zM493 286v-166q0 -87 8 -120h-162l-10 43h-3q-48 -54 -137 -54q-73 0 -117.5 45.5t-44.5 109.5q0 95 77 142.5t208 48.5v4q0 42 -80 42q-77 0 -139 -37l-32 115q88 44 204 44q120 0 174 -58.5t54 -158.5zM318 185v40q-115 0 -115 -64
q0 -23 14 -35t37 -12q20 0 38 12.5t24 32.5q2 8 2 26zM275 527q-56 0 -89 28t-33 71q0 45 32 73.5t91 28.5q57 0 87.5 -28t30.5 -73q0 -44 -32 -72t-87 -28zM274 582q21 0 32.5 13t11.5 32t-12 32.5t-33 13.5q-20 0 -31 -14t-11 -33q0 -17 11.5 -30.5t31.5 -13.5z" />
    <glyph glyph-name="AEacute" unicode="&#x1fc;" horiz-adv-x="902" 
d="M190 0h-186l278 674h553v-147h-272l14 -113h256v-146h-233l17 -120h259v-148h-414l-21 161h-193zM301 305h119l-19 150l-12 93h-3l-17 -54.5t-13 -41.5zM478 836h183l-120 -126h-144z" />
    <glyph glyph-name="aeacute" unicode="&#x1fd;" horiz-adv-x="816" 
d="M408 706h159l-122 -156h-123zM785 190h-303q4 -30 37.5 -49.5t85.5 -19.5q72 0 138 26l23 -120q-75 -38 -188 -38q-62 0 -111.5 20.5t-76.5 58.5h-4q-70 -79 -183 -79q-80 0 -128 45.5t-48 114.5q0 89 78.5 135.5t208.5 46.5v12q0 6 -6 13.5t-27 15.5t-52 8
q-66 0 -133 -37l-34 113q91 47 182 47q115 0 164 -69h2q64 69 166 69q103 0 158 -72t55 -180q0 -9 -4 -61zM320 180v43q-117 0 -117 -61q0 -23 15 -35.5t38 -12.5q38 0 59 38q5 9 5 28zM481 310h144q0 16 -4 31t-21 30.5t-45 15.5q-36 0 -55 -25.5t-19 -51.5z" />
    <glyph glyph-name="Oslashacute" unicode="&#x1fe;" horiz-adv-x="730" 
d="M172 -77l-97 76l55 84q-96 98 -96 255q0 147 91.5 247t240.5 100q78 0 140 -27l54 81l101 -68l-54 -83q89 -95 89 -247q0 -160 -91 -256t-240 -96q-71 0 -133 25zM232 238l192 292q-26 15 -58 15q-69 0 -110 -56t-41 -152q0 -52 16 -99h1zM502 427l-187 -285
q19 -13 51 -13q69 0 109 56t40 153q0 47 -11 88zM358 840h183l-120 -126h-144z" />
    <glyph glyph-name="oslashacute" unicode="&#x1ff;" horiz-adv-x="589" 
d="M299 706h159l-122 -156h-123zM294 503h1q67 0 116 -23l49 73l59 -41l-47 -70q86 -69 86 -195q0 -123 -77 -190.5t-185 -67.5q-68 0 -113 22l-51 -75l-57 44l45 68q-89 68 -89 198q0 114 72 185.5t191 71.5zM216 186l118 177q-18 13 -40 13q-46 0 -68 -39t-22 -91
q0 -37 9 -59zM375 301l-118 -171q14 -14 39 -14q42 0 65.5 34t23.5 92q0 34 -7 58z" />
    <glyph glyph-name="Scommaaccent" unicode="&#x218;" horiz-adv-x="561" 
d="M40 31l34 149q82 -42 175 -42q92 0 92 55q0 24 -23.5 41t-82.5 37q-189 66 -189 203q0 92 73 151.5t197 59.5q104 0 183 -35l-38 -144q-71 32 -147 32q-41 0 -63 -13.5t-22 -36.5q0 -24 24.5 -38.5t96.5 -41.5q176 -64 176 -203q0 -93 -73.5 -154.5t-214.5 -61.5
q-57 0 -111.5 12.5t-86.5 29.5zM204 -250l-25 74q25 6 43.5 22t18.5 37q0 23 -27 60l123 19q39 -31 39 -82q0 -63 -47 -95.5t-125 -34.5z" />
    <glyph glyph-name="scommaaccent" unicode="&#x219;" horiz-adv-x="451" 
d="M30 24l30 127q22 -14 63.5 -25.5t73.5 -11.5q53 0 53 27q0 14 -12.5 22t-51.5 21q-146 46 -144 150q0 74 58 121.5t154 47.5q87 0 147 -28l-29 -122q-56 27 -109 27q-49 0 -49 -28q0 -12 15.5 -21.5t58.5 -23.5q71 -23 102.5 -60.5t32.5 -92.5q0 -74 -57.5 -119.5
t-167.5 -45.5q-100 0 -168 35zM149 -251l-25 75q25 6 43.5 21.5t18.5 37.5q0 23 -27 60l123 19q39 -31 39 -82q0 -63 -47 -96t-125 -35z" />
    <glyph glyph-name="uni021A" unicode="&#x21a;" horiz-adv-x="570" 
d="M193 0v523h-172v151h528v-151h-175v-523h-181zM197 -250l-25 74q25 6 43.5 22t18.5 37q0 23 -27 60l123 19q39 -31 39 -82q0 -63 -47 -95.5t-125 -34.5z" />
    <glyph glyph-name="uni021B" unicode="&#x21b;" horiz-adv-x="383" 
d="M77 585l176 47v-140h102v-132h-102v-141q0 -45 12.5 -64t44.5 -19q28 0 43 4v-137q-42 -14 -107 -14q-78 0 -123 45q-46 46 -46 154v172h-61v132h61v93zM127 -251l-25 75q25 6 43.5 21.5t18.5 37.5q0 23 -27 60l123 19q39 -31 39 -82q0 -63 -47 -96t-125 -35z" />
    <glyph glyph-name="uni021C" unicode="&#x21c;" horiz-adv-x="562" 
d="M80 -130l-19 137q30 1 73 13t88.5 32t77 52.5t31.5 68.5q0 32 -25.5 56.5t-79.5 24.5q-53 0 -104 -17l-19 120q72 12 128 47.5t56 84.5q0 26 -22.5 42.5t-58.5 16.5q-61 0 -133 -34l-33 117q94 54 208 54q95 0 156.5 -43.5t61.5 -115.5q0 -52 -31.5 -94t-86.5 -66v-2
q76 -13 125.5 -59.5t49.5 -121.5q0 -87 -62.5 -159.5t-163.5 -112.5t-217 -41z" />
    <glyph glyph-name="uni021D" unicode="&#x21d;" horiz-adv-x="495" 
d="M54 -209l-21 137q31 0 67 5t78.5 17.5t70.5 39t28 63.5q0 66 -88 66q-33 0 -85 -16l-24 121q164 29 164 95q0 47 -75 47q-51 0 -119 -33l-32 117q78 53 199 53q94 0 147.5 -39t53.5 -108q0 -82 -102 -126v-2q70 -12 109.5 -53.5t39.5 -104.5q0 -66 -36.5 -120.5
t-96.5 -88.5t-132 -52t-146 -18z" />
    <glyph glyph-name="uni0232" unicode="&#x232;" horiz-adv-x="629" 
d="M400 0h-180v272l-213 402h207l57 -152q20 -50 46 -124h2q1 4 43 124l56 152h203l-221 -395v-279zM182 827h267v-92h-267v92z" />
    <glyph glyph-name="uni0233" unicode="&#x233;" horiz-adv-x="545" 
d="M143 675h261v-95h-261v95zM5 492h200l59 -221q4 -15 11.5 -46.5t9.5 -40.5h4q3 13 9 44t9 43l45 221h192l-105 -312q-53 -147 -92.5 -219t-83.5 -110q-69 -62 -163 -72l-37 152q30 5 61 19q37 14 58 45q10 12 10 22q0 9 -7 27z" />
    <glyph glyph-name="circumflex" unicode="&#x2c6;" 
d="M91 706h120l101 -156h-113l-47 84h-2l-47 -84h-114z" />
    <glyph glyph-name="caron" unicode="&#x2c7;" 
d="M209 550h-120l-101 156h113l47 -84h2l47 84h114z" />
    <glyph glyph-name="uni02C9" unicode="&#x2c9;" 
d="M20 675h261v-95h-261v95z" />
    <glyph glyph-name="breve" unicode="&#x2d8;" 
d="M5 697h91q7 -58 53 -58q52 0 56 58h90q-1 -68 -38 -109t-108 -41q-69 0 -106 41t-38 109z" />
    <glyph glyph-name="dotaccent" unicode="&#x2d9;" 
d="M115 551h-1q-34 0 -57 23.5t-23 55.5q0 34 23 56.5t58 22.5q32 0 54 -22.5t22 -56.5q0 -33 -22 -56t-54 -23z" />
    <glyph glyph-name="ring" unicode="&#x2da;" 
d="M142 540q-56 0 -89 28t-33 71q0 45 32 73.5t91 28.5q57 0 87.5 -28t30.5 -73q0 -44 -32 -72t-87 -28zM141 595q21 0 32.5 13t11.5 32t-12 32.5t-33 13.5q-20 0 -31 -14t-11 -33q0 -17 11.5 -30.5t31.5 -13.5z" />
    <glyph glyph-name="ogonek" unicode="&#x2db;" 
d="M64 1h92q-13 -30 -13 -61q0 -23 14.5 -39t39.5 -16q21 0 45 8l24 -83q-46 -35 -111 -35q-57 0 -89 29t-32 86q0 30 10.5 62.5t19.5 48.5z" />
    <glyph glyph-name="tilde" unicode="&#x2dc;" 
d="M82 554h-83q-2 68 22 105.5t66 37.5q31 0 67 -20q32 -20 42 -20q13 0 18.5 9t7.5 36h80q4 -140 -88 -140q-31 0 -73 22q-27 16 -36 16q-22 0 -23 -46z" />
    <glyph glyph-name="hungarumlaut" unicode="&#x2dd;" 
d="M34 705h135l-92 -155h-99zM220 705h135l-92 -155h-99z" />
    <glyph glyph-name="uni037E" unicode="&#x37e;" horiz-adv-x="303" 
d="M138 -108l-118 -10q46 181 55 297l178 4q-41 -147 -115 -291zM159 269h-1q-48 0 -77.5 31.5t-29.5 79.5t30 78.5t78 30.5t78 -30t30 -79t-30 -80t-78 -31z" />
    <glyph glyph-name="tonos" unicode="&#x384;" horiz-adv-x="304" 
d="M127 706h153l-80 -156h-116z" />
    <glyph glyph-name="dieresistonos" unicode="&#x385;" horiz-adv-x="474" 
d="M192 738h128l-58 -183h-91zM77 560h-1q-28 0 -48.5 20t-20.5 49q0 30 20 49.5t50 19.5q29 0 48 -19.5t19 -49.5q0 -29 -19.5 -49t-47.5 -20zM396 560h-1q-29 0 -49 20t-20 49q0 30 20 49.5t50 19.5q29 0 48.5 -19.5t19.5 -49.5q0 -29 -19.5 -49t-48.5 -20z" />
    <glyph glyph-name="Alphatonos" unicode="&#x386;" horiz-adv-x="685" 
d="M423 156h-174l-38 -156h-187l195 674h241l201 -674h-195zM273 290h125l-31 121q-4 14 -16 62.5t-18 70.5h-2q-5 -22 -15 -69.5t-14 -64.5zM0 674h140l-38 -182h-102v182z" />
    <glyph glyph-name="anoteleia" unicode="&#x387;" horiz-adv-x="303" 
d="M152 198h-1q-49 0 -81 32.5t-32 82.5q0 51 32 83.5t82 32.5t81 -32t32 -84q0 -51 -31 -83t-82 -32z" />
    <glyph glyph-name="Epsilontonos" unicode="&#x388;" horiz-adv-x="677" 
d="M610 418v-146h-242v-124h271v-148h-452v674h438v-147h-257v-109h242zM0 674h140l-38 -182h-102v182z" />
    <glyph glyph-name="Etatonos" unicode="&#x389;" horiz-adv-x="829" 
d="M187 674h180v-249h219v249h181v-674h-181v267h-219v-267h-180v674zM0 674h140l-38 -182h-102v182z" />
    <glyph glyph-name="Iotatonos" unicode="&#x38a;" horiz-adv-x="430" 
d="M187 674h181v-674h-181v674zM0 674h140l-38 -182h-102v182z" />
    <glyph glyph-name="Omicrontonos" unicode="&#x38c;" horiz-adv-x="820" 
d="M448 -11h-1q-151 0 -237 98.5t-86 245.5q0 151 91.5 251.5t243.5 100.5q155 0 241 -99t86 -242q0 -163 -91.5 -259t-246.5 -96zM455 132h1q65 0 102 57t37 149q0 89 -37.5 146.5t-102.5 57.5q-64 0 -102.5 -58t-37.5 -147q-1 -91 37 -148t103 -57zM0 674h140l-38 -182
h-102v182z" />
    <glyph glyph-name="Upsilontonos" unicode="&#x38e;" horiz-adv-x="810" 
d="M173 531l27 149q53 0 110 -21.5t99 -68.5q69 -72 80 -203h8q15 115 86 196q41 44 94 70.5t95 26.5l27 -154q-75 -19 -132 -91.5t-78 -161.5q-17 -71 -17 -138v-135h-180v135q0 71 -10 131q-38 235 -209 265zM0 674h140l-38 -182h-102v182z" />
    <glyph glyph-name="Omegatonos" unicode="&#x38f;" horiz-adv-x="846" 
d="M683 139v-3h130v-136h-316v104q56 44 87 101t31 145q0 83 -41 137.5t-106 54.5q-66 0 -108.5 -54.5t-42.5 -138.5q0 -83 33.5 -148.5t85.5 -96.5v-104h-318v136h127v3q-47 37 -81 97t-34 138q0 129 95.5 220t246.5 91q152 0 240.5 -90t88.5 -209q0 -142 -118 -247zM0 674
h140l-38 -182h-102v182z" />
    <glyph glyph-name="iotadieresistonos" unicode="&#x390;" horiz-adv-x="299" 
d="M236 492v-324q0 -48 45 -43l-8 -124q-23 -12 -75 -12q-72 0 -107 36t-35 126v341h180zM112 728h127l-58 -180h-90zM-2 551h-1q-28 0 -48.5 20t-20.5 48q0 30 20 49.5t50 19.5q29 0 48 -19.5t19 -49.5q0 -28 -19.5 -48t-47.5 -20zM313 551h-1q-28 0 -48 20t-20 48
q0 30 20 49.5t49 19.5t49 -19.5t20 -49.5q0 -28 -20 -48t-49 -20z" />
    <glyph glyph-name="Alpha" unicode="&#x391;" horiz-adv-x="675" 
d="M413 156h-174l-38 -156h-187l196 674h240l201 -674h-195zM263 290h125l-31 121q-6 22 -18.5 73.5l-14.5 59.5h-2q-5 -19 -15 -66.5t-15 -67.5z" />
    <glyph glyph-name="Beta" unicode="&#x392;" horiz-adv-x="631" 
d="M62 4v661q82 14 213 14q141 0 206 -33q41 -19 66 -55t25 -83q0 -100 -110 -142v-2q62 -17 97 -60.5t35 -103.5q0 -90 -75 -147q-82 -61 -279 -61q-104 0 -178 12zM241 546v-131h36q114 0 114 70q0 65 -91 65q-35 0 -59 -4zM241 287v-160q13 -2 52 -2q49 0 80 20.5
t31 62.5q0 79 -120 79h-43z" />
    <glyph glyph-name="Gamma" unicode="&#x393;" horiz-adv-x="495" 
d="M62 674h430v-151h-249v-523h-181v674z" />
    <glyph glyph-name="uni0394" unicode="&#x394;" horiz-adv-x="661" 
d="M12 0v88l208 586h223l202 -585v-89h-633zM208 148h229l-77 243q-20 65 -37 142h-4q-32 -126 -34 -135z" />
    <glyph glyph-name="Epsilon" unicode="&#x395;" horiz-adv-x="552" 
d="M485 418v-146h-242v-124h271v-148h-452v674h438v-147h-257v-109h242z" />
    <glyph glyph-name="Zeta" unicode="&#x396;" horiz-adv-x="588" 
d="M21 0v96l298 425v4h-270v149h504v-103l-289 -418v-4h294v-149h-537z" />
    <glyph glyph-name="Eta" unicode="&#x397;" horiz-adv-x="705" 
d="M62 674h181v-249h219v249h180v-674h-180v267h-219v-267h-181v674z" />
    <glyph glyph-name="Theta" unicode="&#x398;" horiz-adv-x="733" 
d="M360 -11h-1q-151 0 -238 98.5t-87 245.5q0 151 92 251.5t244 100.5q105 0 181 -48.5t112 -124.5t36 -168q0 -163 -91.5 -259t-247.5 -96zM367 132h1q66 0 103 56.5t37 149.5q0 90 -38 147.5t-103 57.5t-104 -58t-39 -148q0 -92 39 -148.5t104 -56.5zM274 414h183v-144
h-183v144z" />
    <glyph glyph-name="Iota" unicode="&#x399;" horiz-adv-x="305" 
d="M62 674h181v-674h-181v674z" />
    <glyph glyph-name="Kappa" unicode="&#x39a;" horiz-adv-x="646" 
d="M62 0v674h179v-286h2q19 35 44 74l129 212h222l-214 -287l222 -387h-209l-142 273l-54 -69v-204h-179z" />
    <glyph glyph-name="Lambda" unicode="&#x39b;" horiz-adv-x="665" 
d="M652 0h-197l-98 378l-35 151h-2q-5 -23 -14.5 -75t-14.5 -77l-88 -377h-189l196 674h237z" />
    <glyph glyph-name="Mu" unicode="&#x39c;" horiz-adv-x="865" 
d="M640 0l-8 241q-4 157 -3 272h-3q-29 -122 -71 -264l-67 -235h-141l-57 234q-33 140 -53 265h-2l-11 -272l-10 -241h-166l41 674h243l45 -181q34 -142 52 -247h4q41 177 61 248l50 180h238l34 -674h-176z" />
    <glyph glyph-name="Nu" unicode="&#x39d;" horiz-adv-x="705" 
d="M227 0h-165v674h213l107 -207q52 -95 106 -236h3q-14 125 -14 284v159h165v-674h-190l-114 224q-72 137 -114 244h-3q6 -137 6 -302v-166z" />
    <glyph glyph-name="Xi" unicode="&#x39e;" horiz-adv-x="589" 
d="M58 674h478v-146h-478v146zM88 417h417v-146h-417v146zM42 148h510v-148h-510v148z" />
    <glyph glyph-name="Omicron" unicode="&#x39f;" horiz-adv-x="730" 
d="M359 -11h-1q-151 0 -237.5 98.5t-86.5 245.5q0 151 92 251.5t243 100.5q155 0 241 -98.5t86 -242.5q0 -163 -91 -259t-246 -96zM366 132h1q64 0 101 57t37 149q0 89 -37.5 146.5t-101.5 57.5t-102.5 -58t-38.5 -147q0 -91 38.5 -148t102.5 -57z" />
    <glyph glyph-name="Pi" unicode="&#x3a0;" horiz-adv-x="681" 
d="M619 674v-674h-180v523h-196v-523h-181v674h557z" />
    <glyph glyph-name="Rho" unicode="&#x3a1;" horiz-adv-x="602" 
d="M62 0v665q86 14 223 14q144 0 213 -53q35 -26 56 -69t21 -94q0 -107 -65 -166q-79 -70 -225 -70q-22 0 -44 2v-229h-179zM241 539v-172q20 -2 41 -2q53 0 84 25t31 69q0 39 -26 61.5t-76 22.5q-36 0 -54 -4z" />
    <glyph glyph-name="Sigma" unicode="&#x3a3;" horiz-adv-x="590" 
d="M261 152v-4h293v-148h-522v101l185 233l-175 223v117h489v-147h-260v-4l139 -182z" />
    <glyph glyph-name="Tau" unicode="&#x3a4;" horiz-adv-x="570" 
d="M193 0v523h-172v151h528v-151h-175v-523h-181z" />
    <glyph glyph-name="Upsilon" unicode="&#x3a5;" horiz-adv-x="642" 
d="M8 531l27 149q53 0 109.5 -21.5t98.5 -68.5q70 -73 81 -203h8q15 115 86 196q41 44 93.5 70.5t95.5 26.5l27 -154q-75 -19 -132.5 -91.5t-78.5 -161.5q-16 -73 -16 -138v-135h-181v135q0 69 -9 131q-38 235 -209 265z" />
    <glyph glyph-name="Phi" unicode="&#x3a6;" horiz-adv-x="815" 
d="M490 27v-56h-168v56q-78 11 -141 45.5t-105.5 102.5t-42.5 159q0 71 26.5 130t70 96t93 59.5t101.5 30.5v53h168v-53q56 -7 106 -29.5t92 -59.5t66.5 -94t24.5 -126q0 -132 -83.5 -213t-207.5 -101zM323 153v373q-44 -12 -76.5 -60.5t-32.5 -131.5q0 -74 34 -122.5
t75 -58.5zM491 526v-373q43 11 76 55t33 127q0 85 -32.5 132.5t-76.5 58.5z" />
    <glyph glyph-name="Chi" unicode="&#x3a7;" horiz-adv-x="631" 
d="M619 0h-209l-50 110l-52 117h-2q-5 -16 -43 -116l-45 -111h-205l189 341l-183 333h208l45 -107q23 -50 45 -111h3q24 70 39 110l42 108h206l-184 -329z" />
    <glyph glyph-name="Psi" unicode="&#x3a8;" horiz-adv-x="767" 
d="M729 674v-195q0 -149 -73 -222.5t-189 -81.5v-175h-165v175q-116 8 -189 73.5t-73 194.5v231h173v-204q0 -86 23.5 -121t65.5 -38v363h164v-364q43 4 66.5 46.5t23.5 149.5v168h173z" />
    <glyph glyph-name="uni03A9" unicode="&#x3a9;" horiz-adv-x="761" 
d="M598 139v-3h130v-136h-316v104q118 94 118 246q0 83 -41 137.5t-106 54.5q-66 0 -108.5 -54.5t-42.5 -138.5q0 -75 34.5 -145t84.5 -100v-104h-318v136h127v3q-47 37 -81 97t-34 138q0 129 95.5 220t246.5 91q152 0 240.5 -90t88.5 -209q0 -142 -118 -247z" />
    <glyph glyph-name="Iotadieresis" unicode="&#x3aa;" horiz-adv-x="305" 
d="M47 715h-1q-32 0 -54.5 22t-22.5 54q0 33 22.5 54.5t55.5 21.5q31 0 52 -21.5t21 -54.5q0 -32 -21 -54t-52 -22zM260 715h-1q-32 0 -53.5 22t-21.5 54q0 33 21.5 54.5t54.5 21.5q32 0 53.5 -21.5t21.5 -54.5q0 -32 -21 -54t-54 -22zM62 674h181v-674h-181v674z" />
    <glyph glyph-name="Upsilondieresis" unicode="&#x3ab;" horiz-adv-x="642" 
d="M219 698h-1q-32 0 -54.5 22.5t-22.5 53.5q0 33 22.5 54.5t55.5 21.5q31 0 52 -21.5t21 -54.5q0 -31 -21 -53.5t-52 -22.5zM432 698h-1q-32 0 -53.5 22.5t-21.5 53.5q0 33 21.5 54.5t54.5 21.5q32 0 53.5 -21t21.5 -55q0 -31 -21.5 -53.5t-53.5 -22.5zM8 531l27 149
q53 0 109.5 -21.5t98.5 -68.5q70 -73 81 -203h8q15 115 86 196q41 44 93.5 70.5t95.5 26.5l27 -154q-75 -19 -132.5 -91.5t-78.5 -161.5q-16 -73 -16 -138v-135h-181v135q0 69 -9 131q-38 235 -209 265z" />
    <glyph glyph-name="alphatonos" unicode="&#x3ac;" horiz-adv-x="597" 
d="M287 706h154l-80 -156h-116zM400 492h151q-14 -176 -14 -309q0 -66 44 -60l-9 -124q-18 -10 -63 -10q-90 0 -116 84h-2q-50 -84 -154 -84q-87 0 -146.5 68t-59.5 178q0 120 68.5 194t156.5 74q86 0 127 -66h4q4 25 13 55zM214 245v-1q0 -49 21.5 -81t52.5 -32
q27 0 46.5 22.5t24.5 55.5q3 21 3 40q0 25 -2 35q-5 39 -24 60.5t-44 21.5q-36 0 -57 -35.5t-21 -85.5z" />
    <glyph glyph-name="epsilontonos" unicode="&#x3ad;" horiz-adv-x="481" 
d="M241 706h153l-79 -156h-117zM133 258v5q-80 29 -80 101q0 57 57 98t165 41q102 0 171 -37l-30 -113q-50 27 -112 27q-70 0 -70 -36q0 -31 103 -32h43v-115h-42q-55 -1 -83.5 -8t-28.5 -26q0 -41 83 -41q68 0 127 27l23 -115q-74 -45 -199 -45q-60 0 -109 13.5t-84.5 49.5
t-35.5 90q0 43 30 74.5t72 41.5z" />
    <glyph glyph-name="etatonos" unicode="&#x3ae;" horiz-adv-x="599" 
d="M283 706h154l-80 -156h-116zM215 429h4q19 28 56 51t91 23q86 0 131.5 -55.5t45.5 -157.5v-320q0 -131 10 -168h-171q-19 28 -19 171v295q0 90 -63 90q-41 0 -59 -43q-5 -11 -5 -36v-279h-180v325q0 115 -17 167h159q16 -28 17 -63z" />
    <glyph glyph-name="iotatonos" unicode="&#x3af;" horiz-adv-x="299" 
d="M129 707h156l-80 -156h-119zM236 492v-324q0 -48 45 -43l-9 -124q-21 -12 -75 -12q-71 0 -106 36t-35 126v341h180z" />
    <glyph glyph-name="upsilondieresistonos" unicode="&#x3b0;" horiz-adv-x="573" 
d="M333 492h167q38 -78 38 -186q0 -62 -14 -116t-43 -100.5t-82 -73.5t-124 -27q-101 0 -164.5 56t-63.5 162v122q0 125 -12 163h176q17 -18 17 -97v-178q0 -38 17 -60.5t45 -22.5q71 0 71 162q0 115 -28 196zM238 727h127l-58 -181h-90zM124 549h-1q-29 0 -49.5 20.5
t-20.5 48.5q0 30 20.5 49.5t50.5 19.5q28 0 47.5 -19.5t19.5 -49.5q0 -29 -19.5 -49t-47.5 -20zM441 549h-1q-29 0 -48.5 20t-19.5 49q0 30 20 49.5t49 19.5t48.5 -19.5t19.5 -49.5q0 -29 -19.5 -49t-48.5 -20z" />
    <glyph glyph-name="alpha" unicode="&#x3b1;" horiz-adv-x="596" 
d="M400 492h151q-14 -176 -14 -309q0 -66 44 -60l-9 -124q-18 -10 -63 -10q-90 0 -116 84h-2q-50 -84 -154 -84q-87 0 -146.5 68t-59.5 178q0 120 68.5 194t156.5 74q86 0 127 -66h4q4 25 13 55zM214 245v-1q0 -49 21.5 -81t52.5 -32q27 0 46.5 22.5t24.5 55.5q3 21 3 40
q0 25 -2 35q-5 39 -24 60.5t-44 21.5q-36 0 -57 -35.5t-21 -85.5z" />
    <glyph glyph-name="beta" unicode="&#x3b2;" horiz-adv-x="599" 
d="M229 26h-2v-53q0 -122 12 -171h-167q-20 40 -20 171v432q0 180 81 254q67 62 173 62q101 0 155.5 -54t54.5 -133q0 -41 -19.5 -83.5t-57.5 -62.5v-6q52 -13 90.5 -64t38.5 -116q0 -93 -60 -153t-154 -60q-80 0 -125 37zM226 440v-279q34 -38 79 -38q41 0 61 25.5t20 61.5
q0 41 -25.5 65.5t-62.5 29.5h-20v108q7 0 16 3q28 8 44.5 32t16.5 57q0 34 -15.5 55.5t-42.5 21.5q-71 0 -71 -142z" />
    <glyph glyph-name="gamma" unicode="&#x3b3;" horiz-adv-x="536" 
d="M342 -198h-174q4 174 -16 277q-37 191 -168 413h199q27 -41 57.5 -131.5t46.5 -184.5h5q55 137 55 268q0 15 -0.5 30t-0.5 18h171q2 -10 2 -40q0 -91 -46.5 -206t-126.5 -230q-7 -9 -7 -24q0 -10 3 -190z" />
    <glyph glyph-name="delta" unicode="&#x3b4;" horiz-adv-x="589" 
d="M517 671l-45 -110q-17 11 -53.5 22.5t-69.5 11.5q-42 0 -42 -18q0 -10 50 -50l81 -66q119 -95 119 -218q0 -114 -77 -184t-191 -70q-111 0 -184.5 68t-73.5 174q0 83 46 139t111 87v4l-18 17q-51 54 -51 102q0 56 57.5 98.5t153.5 42.5q61 0 110.5 -15t76.5 -35zM325 337
l-42 37q-67 -46 -67 -140q0 -46 23.5 -82t60.5 -36q34 0 55.5 31.5t21.5 79.5q0 63 -52 110z" />
    <glyph glyph-name="epsilon" unicode="&#x3b5;" horiz-adv-x="481" 
d="M133 258v5q-80 29 -80 101q0 57 57 98t165 41q106 0 171 -37l-30 -113q-50 27 -112 27q-70 0 -70 -36q0 -31 103 -32h43v-115h-42q-55 -1 -83.5 -8t-28.5 -26q0 -41 83 -41q68 0 127 27l23 -115q-74 -45 -199 -45q-60 0 -109 13.5t-84.5 49.5t-35.5 90q0 43 30 74.5
t72 41.5z" />
    <glyph glyph-name="zeta" unicode="&#x3b6;" horiz-adv-x="456" 
d="M369 -157l-110 36q20 41 24 94q-64 11 -109 29q-141 60 -141 219q0 93 48.5 185.5t135.5 169.5v5h-37q-73 0 -109 14l16 113q32 -3 147 -3h194l25 -116q-92 -38 -163.5 -136t-71.5 -198q0 -91 68 -127q40 -24 151 -41q11 -2 11 -15q0 -54 -23 -121.5t-56 -107.5z" />
    <glyph glyph-name="eta" unicode="&#x3b7;" horiz-adv-x="599" 
d="M215 429h4q19 28 56 51t91 23q86 0 131.5 -55.5t45.5 -157.5v-320q0 -131 10 -168h-171q-19 28 -19 171v295q0 90 -63 90q-41 0 -59 -43q-5 -11 -5 -36v-279h-180v325q0 115 -17 167h159q16 -28 17 -63z" />
    <glyph glyph-name="theta" unicode="&#x3b8;" horiz-adv-x="586" 
d="M292 -11h-1q-124 0 -192 96t-68 275q0 160 69.5 260.5t199.5 100.5q127 0 191 -97.5t64 -263.5q0 -173 -66 -272t-197 -99zM209 424h167q0 77 -21.5 125t-59.5 48q-42 0 -64 -47.5t-22 -125.5zM379 296h-169q0 -85 21 -134t64 -49q84 0 84 183z" />
    <glyph glyph-name="iota" unicode="&#x3b9;" horiz-adv-x="299" 
d="M236 492v-324q0 -48 45 -43l-9 -124q-21 -12 -75 -12q-71 0 -106 36t-35 126v341h180z" />
    <glyph glyph-name="kappa" unicode="&#x3ba;" horiz-adv-x="571" 
d="M386 270v-5q31 -9 54.5 -39t51.5 -86l75 -140h-207l-45 96q-24 50 -39 72.5t-34 24.5h-6v-193h-180v359q0 106 -15 133h177q18 -18 18 -90v-109h2q46 69 120 199h202v-6z" />
    <glyph glyph-name="lambda" unicode="&#x3bb;" horiz-adv-x="538" 
d="M345 0l-54 198q-11 38 -26 103h-5q-9 -57 -21 -101l-49 -200h-188l170 450q5 13 5 26q0 9 -6 25q-12 33 -38.5 53t-53.5 20h-24l16 136q19 7 57 7q83 0 135 -58.5t90 -162.5l184 -496h-192z" />
    <glyph glyph-name="uni03BC" unicode="&#x3bc;" horiz-adv-x="598" 
d="M386 64h-3q-12 -29 -41.5 -49.5t-71.5 -20.5q-29 0 -53 19v-35q0 -125 11 -176h-159q-13 32 -13 176v514h180v-268q0 -92 59 -92q21 0 38.5 13.5t23.5 29.5q5 9 5 27v290h180v-321q0 -26 9.5 -36.5t30.5 -11.5l-10 -122q-20 -12 -65 -12q-90 0 -121 75z" />
    <glyph glyph-name="nu" unicode="&#x3bd;" horiz-adv-x="529" 
d="M-3 492h194l53 -209q6 -22 14.5 -62.5t12.5 -55.5h4q65 147 65 290q0 24 -1 37h170q2 -13 2 -39q0 -171 -172 -453h-175z" />
    <glyph glyph-name="xi" unicode="&#x3be;" horiz-adv-x="489" 
d="M411 436v-119h-28q-77 0 -118.5 -26t-41.5 -75q0 -74 122 -105q53 -14 125 -25q12 -2 12 -13q0 -49 -24 -119.5t-55 -109.5l-110 35q18 44 20 93q-42 7 -73.5 14t-73.5 24t-69 39.5t-46.5 60t-19.5 85.5q0 70 41 123t109 73v6q-49 19 -75.5 57t-26.5 86q0 77 64 129
t178 52q81 0 145 -26l-27 -116q-40 17 -85 17t-69.5 -22t-24.5 -56q0 -69 124 -81q4 0 13 -0.5t14 -0.5z" />
    <glyph glyph-name="omicron" unicode="&#x3bf;" horiz-adv-x="589" 
d="M293 -11h-1q-113 0 -187 68.5t-74 185.5q0 118 73 189t198 71q115 0 185.5 -70t70.5 -182q0 -127 -77 -194.5t-188 -67.5zM296 116h1q36 0 55.5 35t19.5 95q0 56 -19 93t-57 37q-41 0 -60 -37.5t-19 -92.5q0 -58 20 -94t59 -36z" />
    <glyph glyph-name="pi" unicode="&#x3c0;" horiz-adv-x="620" 
d="M591 356h-57v-198q0 -98 11 -158h-172q-17 24 -17 146v210h-83q0 -86 -14 -194.5t-35 -161.5h-173q21 77 35.5 182.5t11.5 173.5q-57 0 -82 -6l-18 105q34 37 191 37h417z" />
    <glyph glyph-name="rho" unicode="&#x3c1;" horiz-adv-x="604" 
d="M234 27h-2v-57q0 -131 7 -168h-175q-12 33 -12 171v221q0 178 104 256q68 53 166 53q113 0 182 -71t69 -186q0 -121 -70 -189t-160 -68q-74 0 -109 38zM232 233v-35q0 -14 3 -27q6 -16 25.5 -30.5t44.5 -14.5q40 0 62.5 32.5t22.5 85.5q0 52 -21 81.5t-57 29.5
q-37 0 -58.5 -32.5t-21.5 -89.5z" />
    <glyph glyph-name="uni03C2" unicode="&#x3c2;" horiz-adv-x="475" 
d="M459 478l-33 -126q-45 17 -87 17q-53 0 -87.5 -36t-34.5 -95q0 -85 89 -115q42 -14 144 -34q9 -1 9 -14q0 -57 -23.5 -128t-54.5 -105l-111 37q15 32 23 93q-53 12 -67 17q-195 55 -195 238q0 112 80 194t218 82q77 0 130 -25z" />
    <glyph glyph-name="sigma" unicode="&#x3c3;" horiz-adv-x="612" 
d="M498 381l-2 -5q26 -26 39.5 -64t13.5 -71q0 -124 -73 -188t-183 -64q-114 0 -188 67t-74 184q0 119 74.5 191t205.5 72h94h85h113l-7 -129q-42 0 -98 7zM296 116h1q36 0 55.5 35t19.5 95q0 56 -18 93t-55 37q-43 0 -62.5 -37.5t-19.5 -92.5q0 -58 20 -94t59 -36z" />
    <glyph glyph-name="tau" unicode="&#x3c4;" horiz-adv-x="469" 
d="M383 127l-7 -125q-24 -13 -79 -13q-89 0 -124.5 44.5t-35.5 138.5v184h-36q-57 0 -90 -6l-22 106q49 36 190 36h280l-16 -136h-126v-170q0 -59 47 -59h19z" />
    <glyph glyph-name="upsilon" unicode="&#x3c5;" horiz-adv-x="573" 
d="M333 492h167q38 -78 38 -186q0 -62 -14 -116t-43 -100.5t-82 -73.5t-124 -27q-101 0 -164.5 56t-63.5 162v122q0 125 -12 163h176q17 -18 17 -97v-178q0 -38 17 -60.5t45 -22.5q71 0 71 162q0 115 -28 196z" />
    <glyph glyph-name="phi" unicode="&#x3c6;" horiz-adv-x="741" 
d="M215 505l68 -96q-31 -23 -52 -63t-21 -92q0 -56 23.5 -94.5t62.5 -49.5v206q0 96 53 143t127 44q96 -3 164.5 -71.5t68.5 -175.5q0 -115 -77.5 -186t-178.5 -81v-187h-157v187q-52 5 -98 22.5t-84.5 48t-60.5 79.5t-22 111q0 96 59 165.5t125 89.5zM453 355v-247
q38 10 62.5 47t24.5 97q0 55 -21.5 92.5t-46.5 37.5q-19 0 -19 -27z" />
    <glyph glyph-name="chi" unicode="&#x3c7;" horiz-adv-x="524" 
d="M-1 492h193l83 -204h4l28 77l49 127h170l-168 -335l167 -350l-171 -38l-103 237h-5q-33 -87 -34 -89l-64 -148l-153 39l173 349z" />
    <glyph glyph-name="psi" unicode="&#x3c8;" horiz-adv-x="758" 
d="M304 -198v187q-253 18 -253 275v98q0 88 -7 130h164q15 -18 15 -97v-118q0 -155 82 -164v507h158v-507q46 1 68 53t22 124q0 66 -10 122t-20 80h159q41 -78 41 -192q0 -80 -23.5 -145t-84 -112.5t-152.5 -53.5v-187h-159z" />
    <glyph glyph-name="omega" unicode="&#x3c9;" horiz-adv-x="750" 
d="M458 379l-4 -173q0 -66 35 -66q26 0 40.5 34.5t14.5 98.5q0 139 -64 216v3h162q30 -30 53.5 -92.5t23.5 -135.5q0 -126 -60 -200.5t-153 -74.5q-43 0 -79 20t-53 54h-5q-49 -74 -133 -74q-85 0 -145 69.5t-60 191.5q0 145 80 242h161v-3q-67 -92 -67 -226q0 -59 15.5 -91
t37.5 -32q36 0 34 66l-3 173h169z" />
    <glyph glyph-name="iotadieresis" unicode="&#x3ca;" horiz-adv-x="299" 
d="M45 543h-1q-33 0 -55.5 22.5t-22.5 54.5q0 34 22.5 55.5t56.5 21.5q32 0 53 -21.5t21 -55.5q0 -32 -21.5 -54.5t-52.5 -22.5zM258 543h-1q-32 0 -54 22.5t-22 54.5q0 34 22 55.5t55 21.5t54.5 -21.5t21.5 -55.5q0 -32 -21.5 -54.5t-54.5 -22.5zM236 492v-324
q0 -48 45 -43l-8 -124q-23 -12 -75 -12q-72 0 -107 36t-35 126v341h180z" />
    <glyph glyph-name="upsilondieresis" unicode="&#x3cb;" horiz-adv-x="573" 
d="M172 543h-1q-33 0 -55 22.5t-22 54.5q0 33 22.5 55t55.5 22q32 0 53 -21.5t21 -55.5q0 -32 -21.5 -54.5t-52.5 -22.5zM386 543h-1q-33 0 -54.5 22.5t-21.5 54.5q0 34 21.5 55.5t55.5 21.5q32 0 53.5 -21.5t21.5 -55.5q0 -32 -21.5 -54.5t-53.5 -22.5zM333 492h167
q38 -78 38 -186q0 -62 -14 -116t-43 -100.5t-82 -73.5t-124 -27q-101 0 -164.5 56t-63.5 162v122q0 125 -12 163h176q17 -18 17 -97v-178q0 -38 17 -60.5t45 -22.5q71 0 71 162q0 115 -28 196z" />
    <glyph glyph-name="omicrontonos" unicode="&#x3cc;" horiz-adv-x="589" 
d="M280 706h153l-80 -156h-116zM293 -11h-1q-113 0 -187 68.5t-74 185.5q0 118 73 189t198 71q115 0 185.5 -70t70.5 -182q0 -127 -77 -194.5t-188 -67.5zM296 116h1q36 0 55.5 35t19.5 95q0 56 -19 93t-57 37q-41 0 -60 -37.5t-19 -92.5q0 -58 20 -94t59 -36z" />
    <glyph glyph-name="upsilontonos" unicode="&#x3cd;" horiz-adv-x="573" 
d="M264 707h156l-80 -156h-119zM333 492h167q38 -78 38 -186q0 -62 -14 -116t-43 -100.5t-82 -73.5t-124 -27q-101 0 -164.5 56t-63.5 162v122q0 125 -12 163h176q17 -18 17 -97v-178q0 -38 17 -60.5t45 -22.5q71 0 71 162q0 115 -28 196z" />
    <glyph glyph-name="omegatonos" unicode="&#x3ce;" horiz-adv-x="750" 
d="M360 706h154l-80 -156h-116zM458 379l-3 -173q0 -66 34 -66q26 0 41 34.5t15 98.5q0 138 -65 216v3h162q30 -30 54 -92.5t24 -135.5q0 -126 -60 -200.5t-154 -74.5q-42 0 -78.5 20t-53.5 54h-4q-51 -74 -134 -74q-85 0 -145 69.5t-60 191.5q0 145 80 242h161v-3
q-67 -92 -67 -226q0 -59 15.5 -91t38.5 -32q35 0 33 66l-2 173h168z" />
    <glyph glyph-name="afii10023" unicode="&#x401;" horiz-adv-x="552" 
d="M485 418v-146h-242v-124h271v-148h-452v674h438v-147h-257v-109h242zM171 709h-1q-32 0 -54.5 22.5t-22.5 54.5t22.5 54t55.5 22q31 0 52.5 -22t21.5 -54t-21.5 -54.5t-52.5 -22.5zM388 709h-1q-33 0 -54.5 22.5t-21.5 54.5t22 54t55 22q32 0 53.5 -22t21.5 -54
t-22 -54.5t-53 -22.5z" />
    <glyph glyph-name="afii10051" unicode="&#x402;" horiz-adv-x="747" 
d="M21 674h580v-148h-230v-97h5q46 23 110 23q102 0 166 -79q62 -76 62 -203q0 -102 -42.5 -176.5t-122.5 -109.5q-57 -36 -117 -41l-26 149q55 14 79 39q39 39 39 128q0 80 -28 116q-28 32 -69 32q-31 0 -56 -17v-290h-180v526h-170v148z" />
    <glyph glyph-name="afii10052" unicode="&#x403;" horiz-adv-x="514" 
d="M62 674h430v-147h-249v-527h-181v674zM270 836h183l-120 -126h-144z" />
    <glyph glyph-name="afii10053" unicode="&#x404;" horiz-adv-x="603" 
d="M577 651l-35 -138q-60 27 -134 27q-76 0 -121.5 -36.5t-58.5 -94.5h289v-140h-287q9 -62 60 -97t132 -35q68 0 121 21l25 -136q-66 -33 -172 -33q-173 0 -267.5 93t-94.5 252q0 68 22 129.5t65.5 112t115.5 80t163 29.5q107 0 177 -34z" />
    <glyph glyph-name="afii10054" unicode="&#x405;" horiz-adv-x="561" 
d="M40 31l34 149q82 -42 175 -42q92 0 92 55q0 24 -23.5 41t-82.5 37q-189 66 -189 203q0 92 73 151.5t197 59.5q104 0 183 -35l-38 -144q-71 32 -147 32q-41 0 -63 -13.5t-22 -36.5q0 -24 24.5 -38.5t96.5 -41.5q176 -64 176 -203q0 -93 -73.5 -154.5t-214.5 -61.5
q-57 0 -111.5 12.5t-86.5 29.5z" />
    <glyph glyph-name="afii10055" unicode="&#x406;" horiz-adv-x="305" 
d="M62 674h181v-674h-181v674z" />
    <glyph glyph-name="afii10056" unicode="&#x407;" horiz-adv-x="305" 
d="M62 674h181v-674h-181v674zM45 709h-1q-32 0 -54.5 22.5t-22.5 54.5t22.5 54t55.5 22q31 0 52.5 -22t21.5 -54t-21.5 -54.5t-52.5 -22.5zM262 709h-1q-33 0 -54.5 22.5t-21.5 54.5t22 54t55 22q32 0 53.5 -22t21.5 -54t-22 -54.5t-53 -22.5z" />
    <glyph glyph-name="afii10057" unicode="&#x408;" horiz-adv-x="429" 
d="M191 258v416h181v-416q0 -142 -65 -205.5t-191 -63.5q-71 0 -120 16l20 145q40 -11 79 -11q47 0 71.5 26.5t24.5 92.5z" />
    <glyph glyph-name="afii10058" unicode="&#x409;" horiz-adv-x="972" 
d="M124 674h471v-233q44 4 78 4q112 0 189.5 -56.5t77.5 -162.5q0 -99 -69 -156q-90 -78 -281 -78q-101 0 -175 12v523h-115v-141q0 -149 -28.5 -236t-104.5 -128q-62 -34 -147 -34l-23 145q52 7 80 39q47 51 47 203v299zM594 309v-179q17 -3 45 -3q47 0 80 26t33 70
q0 45 -31 67.5t-79 22.5q-16 0 -48 -4z" />
    <glyph glyph-name="afii10059" unicode="&#x40a;" horiz-adv-x="978" 
d="M62 674h181v-243h178v243h179v-233q48 4 79 4q115 0 191 -56t76 -162q0 -98 -69 -157q-91 -78 -281 -78q-103 0 -175 12v276h-178v-280h-181v674zM600 309v-178q23 -4 46 -4q48 0 80 26t32 70q0 45 -30.5 67.5t-79.5 22.5q-18 0 -48 -4z" />
    <glyph glyph-name="afii10060" unicode="&#x40b;" horiz-adv-x="755" 
d="M21 674h571v-148h-220v-110h4q57 37 138 37q88 0 134 -54q50 -56 50 -162v-237h-180v214q0 51 -21 73q-18 21 -54 21q-38 0 -71 -24v-284h-181v526h-170v148z" />
    <glyph glyph-name="afii10061" unicode="&#x40c;" horiz-adv-x="633" 
d="M62 674h178v-272h8l167 272h219l-226 -295q98 -31 138 -157q51 -160 80 -222h-194q-16 32 -48 144q-18 61 -42.5 94t-71.5 33h-30v-271h-178v674zM309 831h183l-120 -126h-144z" />
    <glyph glyph-name="afii10062" unicode="&#x40e;" horiz-adv-x="617" 
d="M3 676h204l82 -223q11 -28 26 -72.5t21 -60.5h4q2 6 13 52.5t21 82.5l59 221h190l-120 -326q-81 -210 -136 -275q-74 -91 -191 -91q-49 0 -86 13l12 145q22 -6 58 -6q59 0 74 39q5 13 -3 27zM154 836h119q0 -61 37 -61q36 0 40 61h118q-10 -130 -160 -130
q-141 0 -154 130z" />
    <glyph glyph-name="afii10145" unicode="&#x40f;" horiz-adv-x="690" 
d="M62 674h181v-526h205v526h181v-674h-201l-8 -188h-148l-8 188h-202v674z" />
    <glyph glyph-name="afii10017" unicode="&#x410;" horiz-adv-x="675" 
d="M413 156h-174l-38 -156h-187l196 674h240l201 -674h-195zM263 290h125l-31 121q-6 22 -18.5 73.5l-14.5 59.5h-2q-5 -19 -15 -66.5t-15 -67.5z" />
    <glyph glyph-name="afii10018" unicode="&#x411;" horiz-adv-x="628" 
d="M62 674h478v-147h-298v-87q40 5 81 5q122 0 197 -59q75 -58 75 -160q0 -97 -68 -155q-93 -79 -289 -79q-102 0 -176 12v670zM241 309v-178q21 -4 53 -4q47 0 80 27q31 26 31 69q0 37 -28 62q-34 28 -89 28q-13 0 -47 -4z" />
    <glyph glyph-name="afii10019" unicode="&#x412;" horiz-adv-x="631" 
d="M62 4v661q82 14 213 14q141 0 206 -33q41 -19 66 -55t25 -83q0 -100 -110 -142v-2q62 -17 97 -60.5t35 -103.5q0 -90 -75 -147q-82 -61 -279 -61q-104 0 -178 12zM241 546v-131h36q114 0 114 70q0 65 -91 65q-35 0 -59 -4zM241 287v-160q13 -2 52 -2q49 0 80 20.5
t31 62.5q0 79 -120 79h-43z" />
    <glyph glyph-name="afii10020" unicode="&#x413;" horiz-adv-x="514" 
d="M62 674h430v-147h-249v-527h-181v674z" />
    <glyph glyph-name="afii10021" unicode="&#x414;" horiz-adv-x="713" 
d="M160 674h468v-532l71 -5l-7 -311h-136l-9 174h-382l-9 -174h-136l-6 311l59 5q39 67 63 150q24 96 24 198v184zM327 527v-73q0 -99 -28 -199q-21 -67 -43 -109h192v381h-121z" />
    <glyph glyph-name="afii10022" unicode="&#x415;" horiz-adv-x="552" 
d="M485 418v-146h-242v-124h271v-148h-452v674h438v-147h-257v-109h242z" />
    <glyph glyph-name="afii10024" unicode="&#x416;" horiz-adv-x="907" 
d="M-2 674h211l149 -271h8v271h174v-271h7l151 271h209l-226 -297q110 -13 156 -160q8 -25 21 -69.5t25 -80.5t25 -67h-182q-17 39 -46 145q-33 126 -119 126h-21v-271h-174v271h-21q-85 0 -120 -126q-26 -105 -45 -145h-182q14 31 25.5 63.5t28 85.5l19.5 63
q44 142 153 165z" />
    <glyph glyph-name="afii10025" unicode="&#x417;" horiz-adv-x="566" 
d="M78 502l-40 128q99 55 224 55q116 0 182.5 -50.5t66.5 -125.5q0 -62 -35.5 -101.5t-96.5 -55.5v-2q63 -9 108.5 -51t45.5 -105q0 -55 -27 -97t-71.5 -64.5t-93 -33t-100.5 -10.5q-129 0 -213 49l36 138q28 -14 76 -27.5t92 -13.5q52 0 81.5 18.5t29.5 53.5q0 72 -123 72
h-75v133h74q47 0 75.5 17t28.5 50q0 26 -24.5 43t-68.5 17q-67 0 -152 -37z" />
    <glyph glyph-name="afii10026" unicode="&#x418;" horiz-adv-x="704" 
d="M62 674h166v-164q0 -133 -8 -313h3q51 118 119 248l114 229h185v-674h-165v161q0 181 12 288h-3q-49 -135 -110 -246l-105 -203h-208v674z" />
    <glyph glyph-name="afii10027" unicode="&#x419;" horiz-adv-x="704" 
d="M62 674h166v-164q0 -133 -8 -313h3q51 118 119 248l114 229h185v-674h-165v161q0 181 12 288h-3q-49 -135 -110 -246l-105 -203h-208v674zM195 834h119q0 -61 37 -61q36 0 40 61h118q-10 -130 -160 -130q-141 0 -154 130z" />
    <glyph glyph-name="afii10028" unicode="&#x41a;" horiz-adv-x="633" 
d="M62 674h178v-272h8l167 272h219l-226 -295q98 -31 138 -157q51 -160 80 -222h-194q-16 32 -48 144q-18 61 -42.5 94t-71.5 33h-30v-271h-178v674z" />
    <glyph glyph-name="afii10029" unicode="&#x41b;" horiz-adv-x="666" 
d="M125 674h479v-674h-180v527h-123v-141q0 -148 -29 -235.5t-105 -128.5q-60 -34 -147 -34l-23 145q50 7 80 37q48 51 48 204v300z" />
    <glyph glyph-name="afii10030" unicode="&#x41c;" horiz-adv-x="865" 
d="M640 0l-8 241q-4 157 -3 272h-3q-29 -122 -71 -264l-67 -235h-141l-57 234q-33 140 -53 265h-2l-11 -272l-10 -241h-166l41 674h243l45 -181q34 -142 52 -247h4q41 177 61 248l50 180h238l34 -674h-176z" />
    <glyph glyph-name="afii10031" unicode="&#x41d;" horiz-adv-x="705" 
d="M62 674h181v-249h219v249h180v-674h-180v267h-219v-267h-181v674z" />
    <glyph glyph-name="afii10032" unicode="&#x41e;" horiz-adv-x="730" 
d="M369 685q155 0 241 -98.5t86 -242.5q0 -163 -91 -259t-247 -96q-151 0 -237.5 98.5t-86.5 245.5q0 151 92 251.5t243 100.5zM366 542q-64 0 -102.5 -56.5t-38.5 -149.5q0 -94 38.5 -149t103.5 -55q64 0 101 57t37 149q0 89 -37.5 146.5t-101.5 57.5z" />
    <glyph glyph-name="afii10033" unicode="&#x41f;" horiz-adv-x="693" 
d="M62 674h569v-674h-180v527h-208v-527h-181v674z" />
    <glyph glyph-name="afii10034" unicode="&#x420;" horiz-adv-x="602" 
d="M62 0v665q86 14 223 14q144 0 213 -53q35 -26 56 -69t21 -94q0 -107 -65 -166q-79 -70 -225 -70q-22 0 -44 2v-229h-179zM241 539v-172q20 -2 41 -2q53 0 84 25t31 69q0 39 -26 61.5t-76 22.5q-36 0 -54 -4z" />
    <glyph glyph-name="afii10035" unicode="&#x421;" horiz-adv-x="602" 
d="M542 159l25 -142q-61 -28 -170 -28q-91 0 -162.5 27t-114 74.5t-64.5 107t-22 128.5q0 115 52.5 198t136 122t186.5 39q113 0 169 -30l-35 -142q-60 24 -125 24q-84 0 -139 -50.5t-55 -148.5q0 -93 52 -146t145 -53q70 0 121 20z" />
    <glyph glyph-name="afii10036" unicode="&#x422;" horiz-adv-x="570" 
d="M193 0v523h-172v151h528v-151h-175v-523h-181z" />
    <glyph glyph-name="afii10037" unicode="&#x423;" horiz-adv-x="617" 
d="M3 676h204l82 -223q11 -28 26 -72.5t21 -60.5h4q2 6 13 52.5t21 82.5l59 221h190l-120 -326q-81 -210 -136 -275q-74 -91 -191 -91q-49 0 -86 13l12 145q22 -6 58 -6q59 0 74 39q5 13 -3 27z" />
    <glyph glyph-name="afii10038" unicode="&#x424;" horiz-adv-x="817" 
d="M325 703h168v-58q57 -5 107 -24.5t92 -54.5t66.5 -93t24.5 -133q0 -74 -24 -132t-65.5 -93.5t-92 -56t-109.5 -26.5v-61h-168v61q-58 5 -108.5 24t-92 54.5t-65.5 92.5t-24 131q0 61 18 112t47 85t67.5 59t78 38t80.5 17v58zM325 157v365q-44 -9 -77 -53.5t-33 -131.5
q0 -82 35 -128.5t75 -51.5zM492 522v-365q42 7 76 50t34 133q0 87 -32.5 130.5t-77.5 51.5z" />
    <glyph glyph-name="afii10039" unicode="&#x425;" horiz-adv-x="631" 
d="M619 0h-209l-50 110l-52 117h-2q-5 -16 -43 -116l-45 -111h-205l189 341l-183 333h208l45 -107q23 -50 45 -111h3q24 70 39 110l42 108h206l-184 -329z" />
    <glyph glyph-name="afii10040" unicode="&#x426;" horiz-adv-x="713" 
d="M62 674h181v-526h204v526h181v-532l71 -5l-8 -311h-136l-9 174h-484v674z" />
    <glyph glyph-name="afii10041" unicode="&#x427;" horiz-adv-x="661" 
d="M55 674h180v-192q0 -102 101 -102q38 0 83 20v274h180v-685h-180v280h-3q-69 -31 -146 -31q-102 0 -158.5 55t-56.5 157v224z" />
    <glyph glyph-name="afii10042" unicode="&#x428;" horiz-adv-x="942" 
d="M62 674h177v-526h144v526h176v-526h144v526h177v-674h-818v674z" />
    <glyph glyph-name="afii10043" unicode="&#x429;" horiz-adv-x="964" 
d="M62 674h177v-526h144v526h176v-526h144v526h177v-532l71 -5l-8 -311h-136l-9 174h-736v674z" />
    <glyph glyph-name="afii10044" unicode="&#x42a;" horiz-adv-x="738" 
d="M18 674h349v-227q38 6 81 6q106 0 181.5 -60t75.5 -163q0 -93 -55 -148q-89 -90 -285 -90q-104 0 -178 12v523h-169v147zM366 312v-181q17 -4 49 -4q44 0 72 26t28 70q0 45 -28.5 68.5t-71.5 23.5q-29 0 -49 -3z" />
    <glyph glyph-name="afii10045" unicode="&#x42b;" horiz-adv-x="898" 
d="M62 674h180v-227q38 6 73 6q112 0 191 -59t79 -167q0 -89 -56 -145q-87 -90 -292 -90q-101 0 -175 12v670zM241 312v-182q15 -3 44 -3q43 0 76.5 26.5t33.5 70.5q0 43 -34 67t-73 24q-22 0 -47 -3zM641 674h180v-674h-180v674z" />
    <glyph glyph-name="afii10046" unicode="&#x42c;" horiz-adv-x="628" 
d="M62 674h180v-227q44 6 81 6q118 0 195 -57.5t77 -165.5q0 -93 -55 -148q-89 -90 -300 -90q-104 0 -178 12v670zM241 312v-182q24 -3 50 -3q50 0 82 24.5t32 70.5q0 47 -30.5 70t-80.5 23q-28 0 -53 -3z" />
    <glyph glyph-name="afii10047" unicode="&#x42d;" horiz-adv-x="595" 
d="M89 271v139h278q-7 58 -50 94.5t-116 36.5q-68 0 -135 -26l-34 132q87 38 184 38q90 0 158 -28t108 -77.5t59.5 -111t19.5 -132.5q0 -167 -101.5 -257t-261.5 -90q-50 0 -99 9.5t-73 21.5l30 138q52 -22 130 -22q73 0 120.5 36.5t58.5 98.5h-276z" />
    <glyph glyph-name="afii10048" unicode="&#x42e;" horiz-adv-x="944" 
d="M62 674h180v-252h72q25 117 104.5 190t194.5 73q94 0 163.5 -48.5t102.5 -124.5t33 -168q0 -163 -84 -259t-225 -96q-123 0 -200 79t-93 203h-68v-271h-180v674zM609 131h1q57 0 88.5 57t31.5 150q0 89 -32.5 147.5t-88.5 58.5t-89.5 -58.5t-33.5 -148.5q0 -92 33 -149
t90 -57z" />
    <glyph glyph-name="afii10049" unicode="&#x42f;" horiz-adv-x="625" 
d="M197 0h-191q19 30 36 82q5 14 18 54.5t20 58t21.5 43t31.5 41.5q21 19 55 34v4q-59 12 -98.5 53t-39.5 111q0 92 73 145q71 53 232 53q119 0 208 -14v-665h-179v253h-25q-35 0 -61 -23q-19 -17 -32 -43.5t-27 -73t-17 -53.5q-13 -37 -25 -60zM384 385v156q-23 5 -53 5
q-45 0 -73 -21t-28 -63q0 -39 31 -59.5t77 -20.5q33 0 46 3z" />
    <glyph glyph-name="afii10065" unicode="&#x430;" horiz-adv-x="548" 
d="M493 286v-166q0 -87 8 -120h-162l-10 43h-3q-48 -54 -137 -54q-73 0 -117.5 45.5t-44.5 109.5q0 95 77 142.5t208 48.5v4q0 42 -80 42q-77 0 -139 -37l-32 115q88 44 204 44q120 0 174 -58.5t54 -158.5zM318 185v40q-115 0 -115 -64q0 -23 14 -35t37 -12q20 0 38 12.5
t24 32.5q2 8 2 26z" />
    <glyph glyph-name="afii10066" unicode="&#x431;" horiz-adv-x="599" 
d="M514 720l-11 -140q-44 -12 -121 -16q-102 -9 -147 -53q-21 -18 -36 -48.5t-17 -55.5h6q23 37 64.5 61t92.5 24q102 0 162.5 -68.5t60.5 -177.5q0 -117 -75.5 -187.5t-188.5 -70.5q-127 0 -197.5 87t-70.5 236q0 211 117 310q80 70 204 80q140 15 157 19zM383 241v1
q0 52 -20.5 89.5t-63.5 37.5q-34 0 -54 -29q-27 -35 -27 -94q0 -51 20.5 -90.5t63.5 -39.5q41 0 61 36.5t20 88.5z" />
    <glyph glyph-name="afii10067" unicode="&#x432;" horiz-adv-x="574" 
d="M56 2v484q82 13 215 13q254 0 254 -126q0 -45 -29.5 -71t-70.5 -34v-3q57 -9 88.5 -39.5t31.5 -78.5q0 -155 -303 -155q-106 0 -186 10zM234 389v-84h28q86 0 86 44q0 43 -70 43q-7 0 -14.5 -0.5t-16 -1.5t-13.5 -1zM233 204v-104q12 -2 43 -2q39 0 62 13.5t23 40.5
q0 52 -94 52h-34z" />
    <glyph glyph-name="afii10068" unicode="&#x433;" horiz-adv-x="430" 
d="M56 492h360v-139h-180v-353h-180v492z" />
    <glyph glyph-name="afii10069" unicode="&#x434;" horiz-adv-x="616" 
d="M126 492h419v-366l56 -3l-7 -284h-135l-5 161h-297l-8 -161h-134l-5 282l48 5q32 46 49 103q19 74 19 145v118zM282 361v-46q0 -41 -14 -104q-12 -47 -32 -81h135v231h-89z" />
    <glyph glyph-name="afii10070" unicode="&#x435;" horiz-adv-x="539" 
d="M506 183h-304q4 -28 40.5 -44.5t85.5 -16.5q75 0 135 19l23 -120q-79 -32 -184 -32q-129 0 -200 67t-71 185q0 45 15 89.5t44 84t80 64t116 24.5q113 0 170 -71.5t57 -180.5q0 -40 -7 -68zM200 305h147q0 29 -16 54.5t-54 25.5q-36 0 -55 -25.5t-22 -54.5z" />
    <glyph glyph-name="afii10072" unicode="&#x436;" horiz-adv-x="767" 
d="M-5 492h198l89 -190h15v190h174v-190h15l89 190h197l-161 -209q33 -7 59.5 -42t40.5 -80q53 -144 61 -161h-181q-12 20 -40 112q-26 75 -70 75h-10v-187h-174v187h-11q-46 0 -71 -75q-36 -100 -43 -112h-177q12 27 62 161q15 46 41 80.5t59 41.5z" />
    <glyph glyph-name="afii10073" unicode="&#x437;" horiz-adv-x="512" 
d="M108 197v108h86q78 0 78 36q0 38 -78 38q-66 0 -126 -34l-34 103q89 53 217 53q39 0 74 -6.5t67 -21t51 -41.5t19 -64q0 -80 -105 -107v-4q51 -7 88 -34.5t37 -77.5q0 -45 -25.5 -77t-67 -48t-81.5 -22.5t-82 -6.5q-120 0 -206 51l36 109q63 -32 146 -34q83 0 83 39
q0 41 -91 41h-86z" />
    <glyph glyph-name="afii10074" unicode="&#x438;" horiz-adv-x="616" 
d="M56 492h169v-127q0 -29 -8 -202h4q11 30 26 75.5t21 60.5l70 193h223v-492h-170v125q0 12 9 217h-4q-24 -85 -39 -123l-81 -219h-220v492z" />
    <glyph glyph-name="afii10075" unicode="&#x439;" horiz-adv-x="616" 
d="M56 492h169v-127q0 -29 -8 -202h4q11 30 26 75.5t21 60.5l70 193h223v-492h-170v125q0 12 9 217h-4q-24 -85 -39 -123l-81 -219h-220v492zM158 696h111q0 -33 10.5 -51t27.5 -18q36 0 41 69h110q-4 -73 -44.5 -111t-108.5 -38q-69 0 -106 38.5t-41 110.5z" />
    <glyph glyph-name="afii10076" unicode="&#x43a;" horiz-adv-x="552" 
d="M56 492h179v-189h15l98 189h208l-166 -208q59 -12 105 -129q2 -4 24.5 -65t37.5 -90h-188q-8 13 -44 112q-25 74 -76 74h-14v-186h-179v492z" />
    <glyph glyph-name="afii10077" unicode="&#x43b;" horiz-adv-x="563" 
d="M82 492h426v-492h-181v355h-80v-75q0 -89 -14.5 -146.5t-50.5 -90.5q-49 -55 -162 -55l-20 139q41 8 58 29q15 19 19.5 48t4.5 87v201z" />
    <glyph glyph-name="afii10078" unicode="&#x43c;" horiz-adv-x="753" 
d="M45 0l33 492h231l38 -160q1 -4 28 -119h3q22 90 30 120l44 159h229l28 -492h-167l-5 181q0 7 -2 71.5l-3 98.5h-3q-9 -32 -19.5 -75t-23.5 -86l-54 -180h-131l-46 174q-7 26 -19 85.5t-17 78.5h-4q-1 -28 -2 -89.5t-2 -80.5l-7 -178h-159z" />
    <glyph glyph-name="afii10079" unicode="&#x43d;" horiz-adv-x="593" 
d="M56 492h180v-170h121v170h181v-492h-181v183h-121v-183h-180v492z" />
    <glyph glyph-name="afii10080" unicode="&#x43e;" horiz-adv-x="589" 
d="M302 503q115 0 185.5 -70t70.5 -182q0 -127 -77 -194.5t-189 -67.5q-113 0 -187 68.5t-74 185.5q0 118 73 189t198 71zM296 376q-41 0 -60 -37.5t-19 -92.5q0 -58 20 -94t60 -36q36 0 55.5 35t19.5 95q0 56 -19 93t-57 37z" />
    <glyph glyph-name="afii10081" unicode="&#x43f;" horiz-adv-x="590" 
d="M56 492h478v-492h-181v355h-117v-355h-180v492z" />
    <glyph glyph-name="afii10082" unicode="&#x440;" horiz-adv-x="610" 
d="M56 -198v523q0 75 -4 167h155l8 -62h2q56 73 159 73q82 0 142.5 -68t60.5 -183q0 -126 -67.5 -194.5t-156.5 -68.5q-40 0 -71.5 13.5t-45.5 33.5h-2v-234h-180zM236 276v-61q0 -17 3 -30q5 -25 24.5 -42t45.5 -17q40 0 63.5 32t23.5 86t-22 86.5t-63 32.5
q-27 0 -47.5 -18.5t-25.5 -45.5q-2 -7 -2 -23z" />
    <glyph glyph-name="afii10083" unicode="&#x441;" horiz-adv-x="452" 
d="M413 142l20 -132q-48 -21 -136 -21q-123 0 -194.5 68t-71.5 185q0 111 75 186t213 75q64 0 114 -17l-26 -133q-32 13 -77 13q-51 0 -83 -32t-32 -86q0 -57 34 -87.5t85 -30.5q50 0 79 12z" />
    <glyph glyph-name="afii10084" unicode="&#x442;" horiz-adv-x="483" 
d="M13 492h457v-137h-138v-355h-181v355h-138v137z" />
    <glyph glyph-name="afii10085" unicode="&#x443;" horiz-adv-x="545" 
d="M5 492h200l59 -221q4 -15 11.5 -46.5t9.5 -40.5h4q3 13 9 44t9 43l45 221h192l-105 -312q-53 -147 -92.5 -219t-83.5 -110q-69 -62 -163 -72l-37 152q30 5 61 19q37 14 58 45q10 12 10 22q0 9 -7 27z" />
    <glyph glyph-name="afii10086" unicode="&#x444;" horiz-adv-x="754" 
d="M292 704h170l-2 -204q112 -13 187.5 -79t75.5 -178t-76.5 -177.5t-186.5 -74.5l2 -189h-170l3 189q-111 9 -187.5 74.5t-76.5 177.5t75.5 178t187.5 79zM295 107v277q-87 -26 -87 -138q0 -111 87 -139zM459 384v-277q87 28 87 139q0 110 -87 138z" />
    <glyph glyph-name="afii10087" unicode="&#x445;" horiz-adv-x="544" 
d="M3 492h201l39 -72l36 -71h3l32 74l33 69h195l-159 -233l160 -259h-204l-39 79q-20 39 -32 70h-3q-2 -6 -14 -31.5t-17 -38.5l-36 -79h-197l163 251z" />
    <glyph glyph-name="afii10088" unicode="&#x446;" horiz-adv-x="606" 
d="M56 492h180v-356h120v356h181v-366l56 -3l-8 -284h-134l-6 161h-389v492z" />
    <glyph glyph-name="afii10089" unicode="&#x447;" horiz-adv-x="577" 
d="M51 492h180v-149q0 -39 14.5 -56.5t46.5 -17.5q28 0 49 16v207h181v-500h-181v179h-2q-46 -28 -119 -28q-83 0 -126 47.5t-43 136.5v165z" />
    <glyph glyph-name="afii10090" unicode="&#x448;" horiz-adv-x="845" 
d="M56 492h178v-356h100v356h178v-356h100v356h178v-492h-734v492z" />
    <glyph glyph-name="afii10091" unicode="&#x449;" horiz-adv-x="860" 
d="M56 492h178v-356h100v356h178v-356h100v356h178v-366l56 -3l-7 -284h-135l-6 161h-642v492z" />
    <glyph glyph-name="afii10092" unicode="&#x44a;" horiz-adv-x="681" 
d="M21 492h317v-136q28 4 79 4q46 0 86 -9.5t74.5 -29.5t54.5 -56t20 -84q0 -86 -74 -133q-84 -54 -242 -54q-97 0 -178 10v352h-137v136zM337 236v-119q36 -3 46 -3q36 0 63 15t27 46q0 65 -97 65q-15 0 -39 -4z" />
    <glyph glyph-name="afii10093" unicode="&#x44b;" horiz-adv-x="826" 
d="M56 492h180v-138q42 6 79 6q59 0 107 -16t82.5 -56.5t34.5 -101.5q0 -91 -74 -138q-84 -54 -232 -54q-96 0 -177 10v488zM235 236v-120q22 -2 39 -2q36 0 61 16t25 50q0 31 -23 45.5t-56 14.5q-22 0 -46 -4zM590 492h181v-492h-181v492z" />
    <glyph glyph-name="afii10094" unicode="&#x44c;" horiz-adv-x="579" 
d="M56 492h180v-138q42 6 75 6q64 0 115 -15t87.5 -55t36.5 -102q0 -93 -74 -140q-84 -54 -243 -54q-96 0 -177 10v488zM235 236v-119q36 -3 44 -3q38 0 65 15t27 49t-28 48t-65 14q-19 0 -43 -4z" />
    <glyph glyph-name="afii10095" unicode="&#x44d;" horiz-adv-x="494" 
d="M79 190v111h201q-17 72 -115 72q-58 0 -107 -20l-31 115q72 35 169 35q112 0 181 -56q86 -74 86 -198q0 -121 -78.5 -190.5t-211.5 -69.5q-87 0 -153 32l25 121q43 -17 108 -17q101 0 123 65h-197z" />
    <glyph glyph-name="afii10096" unicode="&#x44e;" horiz-adv-x="799" 
d="M56 492h179v-173h55q20 86 82.5 135t156.5 49q106 0 173 -70.5t67 -181.5q0 -127 -72.5 -194.5t-175.5 -67.5q-91 0 -155.5 53.5t-79.5 146.5h-51v-189h-179v492zM524 116h1q31 0 47.5 35t16.5 95q0 56 -16 93t-49 37q-36 0 -52 -37t-16 -93q0 -58 17 -94t51 -36z" />
    <glyph glyph-name="afii10097" unicode="&#x44f;" horiz-adv-x="578" 
d="M523 490v-490h-178v175h-16q-41 0 -66 -38q-18 -20 -46 -96q-6 -15 -19 -41h-191q13 16 30 54q39 98 66 130q27 31 64 39v4q-46 5 -85.5 36t-39.5 85q0 86 92 125q63 28 187 28q103 0 202 -11zM345 284v104q-30 3 -42 3q-34 0 -54 -14.5t-20 -39.5t22 -40t55 -15
q19 0 39 2z" />
    <glyph glyph-name="afii10071" unicode="&#x451;" horiz-adv-x="539" 
d="M177 551h-1q-34 0 -57 23.5t-23 55.5q0 34 23 56.5t58 22.5q32 0 54 -22.5t22 -56.5q0 -33 -22 -56t-54 -23zM398 551h-2q-33 0 -55.5 23t-22.5 56q0 34 22.5 56.5t57.5 22.5q33 0 55 -22.5t22 -56.5q0 -33 -22 -56t-55 -23zM506 183h-304q4 -28 40.5 -44.5t85.5 -16.5
q75 0 135 19l23 -120q-79 -32 -184 -32q-129 0 -200 67t-71 185q0 45 15 89.5t44 84t80 64t116 24.5q113 0 170 -71.5t57 -180.5q0 -40 -7 -68zM200 305h147q0 29 -16 54.5t-54 25.5q-36 0 -55 -25.5t-22 -54.5z" />
    <glyph glyph-name="afii10099" unicode="&#x452;" horiz-adv-x="599" 
d="M-1 649h68v61h181v-61h204v-115h-204v-94h2q50 46 119 46q97 0 152 -93q44 -75 44 -192q0 -240 -138 -316q-63 -35 -113 -37l-33 143q37 9 62 34q17 19 29 64.5t12 96.5q0 74 -20 115q-21 40 -56 40q-30 0 -50 -22q-10 -13 -10 -35v-284h-181v534h-68v115z" />
    <glyph glyph-name="afii10100" unicode="&#x453;" horiz-adv-x="430" 
d="M56 492h360v-139h-180v-353h-180v492zM236 706h159l-122 -156h-123z" />
    <glyph glyph-name="afii10101" unicode="&#x454;" horiz-adv-x="478" 
d="M458 479l-30 -123q-36 18 -93 18q-46 0 -77 -19t-40 -54h186v-111h-182q20 -67 121 -67q49 0 92 15l24 -122q-52 -27 -147 -27q-129 0 -205 67t-76 185q0 126 85 194t214 68q82 0 128 -24z" />
    <glyph glyph-name="afii10102" unicode="&#x455;" horiz-adv-x="451" 
d="M30 24l30 127q22 -14 63.5 -25.5t73.5 -11.5q53 0 53 27q0 14 -12.5 22t-51.5 21q-146 46 -144 150q0 74 58 121.5t154 47.5q87 0 147 -28l-29 -122q-56 27 -109 27q-49 0 -49 -28q0 -12 15.5 -21.5t58.5 -23.5q71 -23 102.5 -60.5t32.5 -92.5q0 -74 -57.5 -119.5
t-167.5 -45.5q-100 0 -168 35z" />
    <glyph glyph-name="afii10103" unicode="&#x456;" horiz-adv-x="292" 
d="M236 0h-180v492h180v-492zM146 713q41 0 66 -24t26 -61q0 -37 -25.5 -61.5t-67.5 -24.5q-41 0 -66 24.5t-25 61.5t25.5 61t66.5 24z" />
    <glyph glyph-name="afii10104" unicode="&#x457;" horiz-adv-x="292" 
d="M36 551h-1q-33 0 -56.5 23.5t-23.5 55.5q0 34 23 56.5t58 22.5q32 0 54 -22.5t22 -56.5q0 -33 -22 -56t-54 -23zM257 551h-2q-33 0 -55.5 23t-22.5 56q0 34 22.5 56.5t57.5 22.5q33 0 55 -22.5t22 -56.5q0 -33 -22 -56t-55 -23zM236 0h-180v492h180v-492z" />
    <glyph glyph-name="afii10105" unicode="&#x458;" horiz-adv-x="312" 
d="M-20 -217l-17 140q64 7 87 31q29 28 29 150v388h180v-426q0 -154 -73 -221q-71 -62 -206 -62zM169 713q41 0 66 -24t25 -61q1 -37 -24.5 -61.5t-68.5 -24.5q-40 0 -65 24.5t-25 61.5t25.5 61t66.5 24z" />
    <glyph glyph-name="afii10106" unicode="&#x459;" horiz-adv-x="846" 
d="M82 492h426v-141q42 6 74 6q45 0 85.5 -10t75 -30.5t54.5 -56t20 -81.5q0 -83 -66 -130q-78 -55 -242 -55q-100 0 -181 10v351h-81v-75q0 -179 -65 -236q-49 -56 -162 -56l-20 139q39 8 56 28q16 17 21 48.5t5 87.5v201zM507 234v-118q24 -2 43 -2q36 0 62 14.5t26 47.5
t-25 47.5t-58 14.5q-22 0 -48 -4z" />
    <glyph glyph-name="afii10107" unicode="&#x45a;" horiz-adv-x="864" 
d="M56 492h180v-160h110v160h180v-141q42 6 75 6q98 0 166 -45t68 -135q0 -81 -66 -128q-78 -55 -242 -55q-100 0 -181 10v197h-110v-201h-180v492zM525 234v-117q36 -3 43 -3q36 0 62 15t26 47q0 62 -87 62q-18 0 -44 -4z" />
    <glyph glyph-name="afii10108" unicode="&#x45b;" horiz-adv-x="610" 
d="M-1 649h68v61h181v-61h197v-115h-197v-111h2q24 30 58 46q37 17 74 17q83 0 128 -56.5t45 -159.5v-270h-181v248q0 93 -64 93q-42 0 -58 -39q-4 -11 -4 -29v-273h-181v534h-68v115z" />
    <glyph glyph-name="afii10109" unicode="&#x45c;" horiz-adv-x="552" 
d="M56 492h179v-189h15l98 189h208l-166 -208q59 -12 105 -129q2 -4 24.5 -65t37.5 -90h-188q-8 13 -44 112q-25 74 -76 74h-14v-186h-179v492zM282 706h159l-122 -156h-123z" />
    <glyph glyph-name="afii10110" unicode="&#x45e;" horiz-adv-x="545" 
d="M123 696h111q0 -33 10.5 -51t27.5 -18q36 0 41 69h110q-4 -73 -44.5 -111t-108.5 -38q-69 0 -106 38.5t-41 110.5zM5 492h200l59 -221q4 -15 11.5 -46.5t9.5 -40.5h4q3 13 9 44t9 43l45 221h192l-105 -312q-53 -147 -92.5 -219t-83.5 -110q-69 -62 -163 -72l-37 152
q30 5 61 19q37 14 58 45q10 12 10 22q0 9 -7 27z" />
    <glyph glyph-name="afii10193" unicode="&#x45f;" horiz-adv-x="592" 
d="M56 492h180v-356h120v356h181v-492h-160l-9 -169h-145l-9 169h-158v492z" />
    <glyph glyph-name="afii10050" unicode="&#x490;" horiz-adv-x="511" 
d="M62 674h295l16 133h128l-12 -280h-246v-527h-181v674z" />
    <glyph glyph-name="afii10098" unicode="&#x491;" horiz-adv-x="448" 
d="M56 492h235l16 123h124l-10 -262h-185v-353h-180v492z" />
    <glyph glyph-name="afii10846" unicode="&#x4d9;" horiz-adv-x="328" 
d="M76 349l-23 118q84 36 188 36q127 0 197 -67t70 -185q0 -45 -14.5 -89.5t-43.5 -84t-79.5 -64t-114.5 -24.5q-114 0 -172 71.5t-58 180.5q0 40 7 68h304q-9 62 -121 62q-68 0 -140 -22zM339 187h-147q0 -28 17.5 -54t55.5 -26q37 0 54 24.5t20 55.5z" />
    <glyph glyph-name="Wgrave" unicode="&#x1e80;" horiz-adv-x="906" 
d="M370 0h-200l-155 674h194l39 -250l17 -117.5t18 -119.5h2q12 92 39 239l43 248h193l42 -260q15 -99 30 -222h2q11 83 34 234l40 248h183l-166 -674h-197l-45 264q-16 93 -28 202h-2q-19 -138 -32 -203zM274 836h184l80 -124h-143z" />
    <glyph glyph-name="wgrave" unicode="&#x1e81;" horiz-adv-x="769" 
d="M224 706h160l85 -156h-122zM8 492h183l29 -181q10 -60 24 -163h2q4 25 33 162l39 182h141l37 -175q23 -108 33 -169h2q6 61 24 171l30 173h176l-147 -492h-170l-34 146q-12 54 -27 150h-2q-9 -85 -26 -148l-36 -148h-170z" />
    <glyph glyph-name="Wacute" unicode="&#x1e82;" horiz-adv-x="906" 
d="M370 0h-200l-155 674h194l39 -250l17 -117.5t18 -119.5h2q12 92 39 239l43 248h193l42 -260q15 -99 30 -222h2q11 83 34 234l40 248h183l-166 -674h-197l-45 264q-16 93 -28 202h-2q-19 -138 -32 -203zM466 836h183l-120 -126h-144z" />
    <glyph glyph-name="wacute" unicode="&#x1e83;" horiz-adv-x="769" 
d="M392 706h159l-122 -156h-123zM8 492h183l29 -181q10 -60 24 -163h2q4 25 33 162l39 182h141l37 -175q23 -108 33 -169h2q6 61 24 171l30 173h176l-147 -492h-170l-34 146q-12 54 -27 150h-2q-9 -85 -26 -148l-36 -148h-170z" />
    <glyph glyph-name="Wdieresis" unicode="&#x1e84;" horiz-adv-x="906" 
d="M370 0h-200l-155 674h194l39 -250l17 -117.5t18 -119.5h2q12 92 39 239l43 248h193l42 -260q15 -99 30 -222h2q11 83 34 234l40 248h183l-166 -674h-197l-45 264q-16 93 -28 202h-2q-19 -138 -32 -203zM358 709h-1q-32 0 -54.5 22.5t-22.5 54.5t22.5 54t55.5 22
q31 0 52.5 -22t21.5 -54t-21.5 -54.5t-52.5 -22.5zM575 709h-1q-33 0 -54.5 22.5t-21.5 54.5t22 54t55 22q32 0 53.5 -22t21.5 -54t-22 -54.5t-53 -22.5z" />
    <glyph glyph-name="wdieresis" unicode="&#x1e85;" horiz-adv-x="769" 
d="M275 551h-1q-34 0 -57 23.5t-23 55.5q0 34 23 56.5t58 22.5q32 0 54 -22.5t22 -56.5q0 -33 -22 -56t-54 -23zM496 551h-2q-33 0 -55.5 23t-22.5 56q0 34 22.5 56.5t57.5 22.5q33 0 55 -22.5t22 -56.5q0 -33 -22 -56t-55 -23zM8 492h183l29 -181q10 -60 24 -163h2
q4 25 33 162l39 182h141l37 -175q23 -108 33 -169h2q6 61 24 171l30 173h176l-147 -492h-170l-34 146q-12 54 -27 150h-2q-9 -85 -26 -148l-36 -148h-170z" />
    <glyph glyph-name="uni1EA0" unicode="&#x1ea0;" horiz-adv-x="675" 
d="M413 156h-174l-38 -156h-187l196 674h240l201 -674h-195zM263 290h125l-31 121q-6 22 -18.5 73.5l-14.5 59.5h-2q-5 -19 -15 -66.5t-15 -67.5zM330 -80q33 0 54.5 -22.5t21.5 -56.5q0 -33 -22 -56t-55 -23t-56 23t-23 56q0 34 23 56.5t57 22.5z" />
    <glyph glyph-name="uni1EA1" unicode="&#x1ea1;" horiz-adv-x="548" 
d="M493 286v-166q0 -87 8 -120h-162l-10 43h-3q-48 -54 -137 -54q-73 0 -117.5 45.5t-44.5 109.5q0 95 77 142.5t208 48.5v4q0 42 -80 42q-77 0 -139 -37l-32 115q88 44 204 44q120 0 174 -58.5t54 -158.5zM318 185v40q-115 0 -115 -64q0 -23 14 -35t37 -12q20 0 38 12.5
t24 32.5q2 8 2 26zM276 -80q33 0 54.5 -22.5t21.5 -56.5q0 -33 -22 -56t-55 -23t-56 23t-23 56q0 34 23 56.5t57 22.5z" />
    <glyph glyph-name="uni1EA2" unicode="&#x1ea2;" horiz-adv-x="675" 
d="M413 156h-174l-38 -156h-187l196 674h240l201 -674h-195zM263 290h125l-31 121q-6 22 -18.5 73.5l-14.5 59.5h-2q-5 -19 -15 -66.5t-15 -67.5zM378 704l-80 17q7 23 27 46.5t20 39.5q0 13 -8 21.5t-20 8.5q-24 0 -43 -34l-54 33q43 85 132 85q43 0 73 -27t30 -63
q0 -28 -13 -47t-33.5 -39.5t-30.5 -40.5z" />
    <glyph glyph-name="uni1EA3" unicode="&#x1ea3;" horiz-adv-x="548" 
d="M493 286v-166q0 -87 8 -120h-162l-10 43h-3q-48 -54 -137 -54q-73 0 -117.5 45.5t-44.5 109.5q0 95 77 142.5t208 48.5v4q0 42 -80 42q-77 0 -139 -37l-32 115q88 44 204 44q120 0 174 -58.5t54 -158.5zM318 185v40q-115 0 -115 -64q0 -23 14 -35t37 -12q20 0 38 12.5
t24 32.5q2 8 2 26zM307 526l-84 18q6 24 29.5 52.5t23.5 47.5q0 14 -8.5 22.5t-20.5 8.5q-21 0 -41 -33l-56 35q42 84 131 84q45 0 75.5 -26t30.5 -66q0 -31 -15 -55t-36.5 -46.5t-28.5 -41.5z" />
    <glyph glyph-name="uni1EA4" unicode="&#x1ea4;" horiz-adv-x="675" 
d="M413 156h-174l-38 -156h-187l196 674h240l201 -674h-195zM263 290h125l-31 121q-6 22 -18.5 73.5l-14.5 59.5h-2q-5 -19 -15 -66.5t-15 -67.5zM274 836h124l89 -126h-110l-40 60h-2l-39 -60h-110zM508 921h148l-139 -117h-82z" />
    <glyph glyph-name="uni1EA5" unicode="&#x1ea5;" horiz-adv-x="548" 
d="M493 286v-166q0 -87 8 -120h-162l-10 43h-3q-48 -54 -137 -54q-73 0 -117.5 45.5t-44.5 109.5q0 95 77 142.5t208 48.5v4q0 42 -80 42q-77 0 -139 -37l-32 115q88 44 204 44q120 0 174 -58.5t54 -158.5zM318 185v40q-115 0 -115 -64q0 -23 14 -35t37 -12q20 0 38 12.5
t24 32.5q2 8 2 26zM208 706h124l91 -156h-111l-41 84h-2l-42 -84h-111zM461 808h131l-123 -158h-88z" />
    <glyph glyph-name="uni1EA6" unicode="&#x1ea6;" horiz-adv-x="675" 
d="M413 156h-174l-38 -156h-187l196 674h240l201 -674h-195zM263 290h125l-31 121q-6 22 -18.5 73.5l-14.5 59.5h-2q-5 -19 -15 -66.5t-15 -67.5zM363 910h149l62 -117h-90zM268 836h125l88 -126h-110l-40 60h-2l-39 -60h-110z" />
    <glyph glyph-name="uni1EA7" unicode="&#x1ea7;" horiz-adv-x="548" 
d="M493 286v-166q0 -87 8 -120h-162l-10 43h-3q-48 -54 -137 -54q-73 0 -117.5 45.5t-44.5 109.5q0 95 77 142.5t208 48.5v4q0 42 -80 42q-77 0 -139 -37l-32 115q88 44 204 44q120 0 174 -58.5t54 -158.5zM318 185v40q-115 0 -115 -64q0 -23 14 -35t37 -12q20 0 38 12.5
t24 32.5q2 8 2 26zM314 810h129l71 -160h-88zM211 706h124l91 -156h-111l-41 84h-2l-42 -84h-111z" />
    <glyph glyph-name="uni1EA8" unicode="&#x1ea8;" horiz-adv-x="675" 
d="M413 156h-174l-38 -156h-187l196 674h240l201 -674h-195zM263 290h125l-31 121q-6 22 -18.5 73.5l-14.5 59.5h-2q-5 -19 -15 -66.5t-15 -67.5zM269 836h124l89 -126h-110l-40 60h-2l-39 -60h-110zM532 760l-66 15q6 21 27 44t21 38q0 13 -8.5 21t-20.5 8q-26 0 -44 -36
l-50 31q40 77 119 77q41 0 68 -23.5t27 -58.5q0 -24 -12 -41t-31.5 -36t-29.5 -39z" />
    <glyph glyph-name="uni1EA9" unicode="&#x1ea9;" horiz-adv-x="548" 
d="M493 286v-166q0 -87 8 -120h-162l-10 43h-3q-48 -54 -137 -54q-73 0 -117.5 45.5t-44.5 109.5q0 95 77 142.5t208 48.5v4q0 42 -80 42q-77 0 -139 -37l-32 115q88 44 204 44q120 0 174 -58.5t54 -158.5zM318 185v40q-115 0 -115 -64q0 -23 14 -35t37 -12q20 0 38 12.5
t24 32.5q2 8 2 26zM210 706h124l91 -156h-111l-41 84h-2l-42 -84h-111zM470 633l-72 15q6 20 25 41.5t19 37.5q0 11 -7.5 19t-18.5 8q-20 0 -40 -32l-50 31q40 78 121 78q39 0 67 -25t28 -58q0 -34 -32.5 -67.5t-39.5 -47.5z" />
    <glyph glyph-name="uni1EAA" unicode="&#x1eaa;" horiz-adv-x="675" 
d="M413 156h-174l-38 -156h-187l196 674h240l201 -674h-195zM263 290h125l-31 121q-6 22 -18.5 73.5l-14.5 59.5h-2q-5 -19 -15 -66.5t-15 -67.5zM266 836h134l100 -126h-122l-44 59h-2l-44 -59h-122zM269 854h-82q-1 56 22.5 88.5t65.5 32.5q33 0 65 -19q32 -17 44 -17
t17.5 8t7.5 31h80q6 -123 -88 -123q-24 0 -70 22q-25 13 -38 13q-21 0 -24 -36z" />
    <glyph glyph-name="uni1EAB" unicode="&#x1eab;" horiz-adv-x="548" 
d="M493 286v-166q0 -87 8 -120h-162l-10 43h-3q-48 -54 -137 -54q-73 0 -117.5 45.5t-44.5 109.5q0 95 77 142.5t208 48.5v4q0 42 -80 42q-77 0 -139 -37l-32 115q88 44 204 44q120 0 174 -58.5t54 -158.5zM318 185v40q-115 0 -115 -64q0 -23 14 -35t37 -12q20 0 38 12.5
t24 32.5q2 8 2 26zM212 686h124l96 -136h-111l-46 71h-2l-45 -71h-113zM209 704h-81q-1 57 22 89t65 32q30 0 66 -18q30 -17 43 -17t18.5 7.5t7.5 31.5h79q6 -124 -87 -124q-27 0 -71 23q-28 13 -38 13q-21 0 -24 -37z" />
    <glyph glyph-name="uni1EAC" unicode="&#x1eac;" horiz-adv-x="675" 
d="M413 156h-174l-38 -156h-187l196 674h240l201 -674h-195zM263 290h125l-31 121q-6 22 -18.5 73.5l-14.5 59.5h-2q-5 -19 -15 -66.5t-15 -67.5zM267 836h135l99 -126h-121l-45 59h-2l-44 -59h-121zM326 -233h-1q-32 0 -55 22.5t-23 53.5q0 33 23 55t56 22q32 0 53.5 -22
t21.5 -55q0 -31 -22 -53.5t-53 -22.5z" />
    <glyph glyph-name="uni1EAD" unicode="&#x1ead;" horiz-adv-x="548" 
d="M493 286v-166q0 -87 8 -120h-162l-10 43h-3q-48 -54 -137 -54q-73 0 -117.5 45.5t-44.5 109.5q0 95 77 142.5t208 48.5v4q0 42 -80 42q-77 0 -139 -37l-32 115q88 44 204 44q120 0 174 -58.5t54 -158.5zM318 185v40q-115 0 -115 -64q0 -23 14 -35t37 -12q20 0 38 12.5
t24 32.5q2 8 2 26zM214 706h120l101 -156h-113l-47 84h-2l-47 -84h-114zM276 -80q33 0 54.5 -22.5t21.5 -56.5q0 -33 -22 -56t-55 -23t-56 23t-23 56q0 34 23 56.5t57 22.5z" />
    <glyph glyph-name="uni1EAE" unicode="&#x1eae;" horiz-adv-x="675" 
d="M413 156h-174l-38 -156h-187l196 674h240l201 -674h-195zM263 290h125l-31 121q-6 22 -18.5 73.5l-14.5 59.5h-2q-5 -19 -15 -66.5t-15 -67.5zM182 829h78q14 -46 74 -46t73 46h76q-6 -55 -45.5 -93t-106.5 -38q-68 0 -105.5 36t-43.5 95zM344 936h154l-129 -117h-93z
" />
    <glyph glyph-name="uni1EAF" unicode="&#x1eaf;" horiz-adv-x="548" 
d="M493 286v-166q0 -87 8 -120h-162l-10 43h-3q-48 -54 -137 -54q-73 0 -117.5 45.5t-44.5 109.5q0 95 77 142.5t208 48.5v4q0 42 -80 42q-77 0 -139 -37l-32 115q88 44 204 44q120 0 174 -58.5t54 -158.5zM318 185v40q-115 0 -115 -64q0 -23 14 -35t37 -12q20 0 38 12.5
t24 32.5q2 8 2 26zM295 825h132l-129 -154h-91zM99 678h83q4 -26 25 -41.5t54 -15.5q36 0 57 16t23 41h82q-3 -67 -47 -107.5t-116 -40.5q-71 0 -115 40.5t-46 107.5z" />
    <glyph glyph-name="uni1EB0" unicode="&#x1eb0;" horiz-adv-x="675" 
d="M413 156h-174l-38 -156h-187l196 674h240l201 -674h-195zM263 290h125l-31 121q-6 22 -18.5 73.5l-14.5 59.5h-2q-5 -19 -15 -66.5t-15 -67.5zM177 936h154l68 -117h-92zM189 829h78q14 -46 74 -46t73 46h76q-6 -55 -45.5 -93t-106.5 -38q-68 0 -105.5 36t-43.5 95z" />
    <glyph glyph-name="uni1EB1" unicode="&#x1eb1;" horiz-adv-x="548" 
d="M493 286v-166q0 -87 8 -120h-162l-10 43h-3q-48 -54 -137 -54q-73 0 -117.5 45.5t-44.5 109.5q0 95 77 142.5t208 48.5v4q0 42 -80 42q-77 0 -139 -37l-32 115q88 44 204 44q120 0 174 -58.5t54 -158.5zM318 185v40q-115 0 -115 -64q0 -23 14 -35t37 -12q20 0 38 12.5
t24 32.5q2 8 2 26zM110 825h132l88 -154h-91zM112 678h83q4 -26 25 -41.5t54 -15.5q36 0 57 16t23 41h82q-3 -67 -47 -107.5t-116 -40.5q-71 0 -115 40.5t-46 107.5z" />
    <glyph glyph-name="uni1EB2" unicode="&#x1eb2;" horiz-adv-x="675" 
d="M413 156h-174l-38 -156h-187l196 674h240l201 -674h-195zM263 290h125l-31 121q-6 22 -18.5 73.5l-14.5 59.5h-2q-5 -19 -15 -66.5t-15 -67.5zM367 806l-70 16q6 20 25.5 42t19.5 37q0 12 -7.5 20t-18.5 8q-21 0 -41 -32l-50 30q40 78 122 78q38 0 65.5 -24.5t27.5 -57.5
q0 -26 -12 -44t-31.5 -36.5t-29.5 -36.5zM190 829h79q12 -46 73 -46t74 46h75q-6 -55 -45.5 -93t-106.5 -38q-68 0 -105.5 36t-43.5 95z" />
    <glyph glyph-name="uni1EB3" unicode="&#x1eb3;" horiz-adv-x="548" 
d="M493 286v-166q0 -87 8 -120h-162l-10 43h-3q-48 -54 -137 -54q-73 0 -117.5 45.5t-44.5 109.5q0 95 77 142.5t208 48.5v4q0 42 -80 42q-77 0 -139 -37l-32 115q88 44 204 44q120 0 174 -58.5t54 -158.5zM318 185v40q-115 0 -115 -64q0 -23 14 -35t37 -12q20 0 38 12.5
t24 32.5q2 8 2 26zM299 658l-73 15q6 20 25.5 42t19.5 37q0 11 -7.5 19t-18.5 8q-23 0 -40 -32l-50 31q40 78 121 78q39 0 67 -25t28 -58q0 -34 -32.5 -67.5t-39.5 -47.5zM109 678h83q4 -26 25 -41.5t54 -15.5q36 0 57 16t23 41h82q-3 -67 -47 -107.5t-116 -40.5
q-71 0 -115 40.5t-46 107.5z" />
    <glyph glyph-name="uni1EB4" unicode="&#x1eb4;" horiz-adv-x="675" 
d="M413 156h-174l-38 -156h-187l196 674h240l201 -674h-195zM263 290h125l-31 121q-6 22 -18.5 73.5l-14.5 59.5h-2q-5 -19 -15 -66.5t-15 -67.5zM269 856h-83q-1 52 23 83.5t65 31.5q31 0 65 -18t44 -18q12 0 17.5 8t7.5 32h80q6 -124 -88 -124q-24 0 -70 22q-25 13 -38 13
q-20 0 -23 -30zM183 829h78q14 -46 74 -46t73 46h76q-6 -55 -45.5 -93t-106.5 -38q-68 0 -105.5 36t-43.5 95z" />
    <glyph glyph-name="uni1EB5" unicode="&#x1eb5;" horiz-adv-x="548" 
d="M493 286v-166q0 -87 8 -120h-162l-10 43h-3q-48 -54 -137 -54q-73 0 -117.5 45.5t-44.5 109.5q0 95 77 142.5t208 48.5v4q0 42 -80 42q-77 0 -139 -37l-32 115q88 44 204 44q120 0 174 -58.5t54 -158.5zM318 185v40q-115 0 -115 -64q0 -23 14 -35t37 -12q20 0 38 12.5
t24 32.5q2 8 2 26zM204 718h-82q-2 52 22 83.5t65 31.5q32 0 66 -19q30 -17 43 -17t18 8t7 31h80q6 -123 -88 -123q-28 0 -70 22q-28 13 -38 13q-19 0 -23 -30zM116 678h82q3 -27 22.5 -44t49.5 -17q33 0 53 18t22 43h81q-3 -67 -44 -107t-112 -40q-70 0 -111 40t-43 107z
" />
    <glyph glyph-name="uni1EB6" unicode="&#x1eb6;" horiz-adv-x="675" 
d="M413 156h-174l-38 -156h-187l196 674h240l201 -674h-195zM263 290h125l-31 121q-6 22 -18.5 73.5l-14.5 59.5h-2q-5 -19 -15 -66.5t-15 -67.5zM184 855h93q4 -45 53 -45q50 0 59 45h89q-1 -62 -38 -98.5t-109 -36.5q-75 0 -110.5 36t-36.5 99zM327 -233h-1
q-32 0 -55 22.5t-23 53.5q0 33 23 55t56 22q32 0 53.5 -22t21.5 -55q0 -31 -22 -53.5t-53 -22.5z" />
    <glyph glyph-name="uni1EB7" unicode="&#x1eb7;" horiz-adv-x="548" 
d="M493 286v-166q0 -87 8 -120h-162l-10 43h-3q-48 -54 -137 -54q-73 0 -117.5 45.5t-44.5 109.5q0 95 77 142.5t208 48.5v4q0 42 -80 42q-77 0 -139 -37l-32 115q88 44 204 44q120 0 174 -58.5t54 -158.5zM318 185v40q-115 0 -115 -64q0 -23 14 -35t37 -12q20 0 38 12.5
t24 32.5q2 8 2 26zM129 697h91q7 -58 53 -58q52 0 56 58h90q-1 -68 -38 -109t-108 -41q-69 0 -106 41t-38 109zM276 -80q33 0 54.5 -22.5t21.5 -56.5q0 -33 -22 -56t-55 -23t-56 23t-23 56q0 34 23 56.5t57 22.5z" />
    <glyph glyph-name="uni1EB8" unicode="&#x1eb8;" horiz-adv-x="552" 
d="M485 418v-146h-242v-124h271v-148h-452v674h438v-147h-257v-109h242zM278 -233h-1q-32 0 -55 22.5t-23 53.5q0 33 23 55t56 22q32 0 53.5 -22t21.5 -55q0 -31 -22 -53.5t-53 -22.5z" />
    <glyph glyph-name="uni1EB9" unicode="&#x1eb9;" horiz-adv-x="539" 
d="M506 183h-304q4 -28 40.5 -44.5t85.5 -16.5q75 0 135 19l23 -120q-79 -32 -184 -32q-129 0 -200 67t-71 185q0 45 15 89.5t44 84t80 64t116 24.5q113 0 170 -71.5t57 -180.5q0 -40 -7 -68zM200 305h147q0 29 -16 54.5t-54 25.5q-36 0 -55 -25.5t-22 -54.5zM271 -80
q33 0 54.5 -22.5t21.5 -56.5q0 -33 -22 -56t-55 -23t-56 23t-23 56q0 34 23 56.5t57 22.5z" />
    <glyph glyph-name="uni1EBA" unicode="&#x1eba;" horiz-adv-x="552" 
d="M485 418v-146h-242v-124h271v-148h-452v674h438v-147h-257v-109h242zM331 704l-80 17q7 23 27 46.5t20 39.5q0 13 -8 21.5t-20 8.5q-24 0 -43 -34l-54 33q43 85 132 85q43 0 73 -27t30 -63q0 -28 -13 -47t-33.5 -39.5t-30.5 -40.5z" />
    <glyph glyph-name="uni1EBB" unicode="&#x1ebb;" horiz-adv-x="539" 
d="M506 183h-304q4 -28 40.5 -44.5t85.5 -16.5q75 0 135 19l23 -120q-79 -32 -184 -32q-129 0 -200 67t-71 185q0 45 15 89.5t44 84t80 64t116 24.5q113 0 170 -71.5t57 -180.5q0 -40 -7 -68zM200 305h147q0 29 -16 54.5t-54 25.5q-36 0 -55 -25.5t-22 -54.5zM302 526
l-84 18q6 24 29.5 52.5t23.5 47.5q0 14 -8.5 22.5t-20.5 8.5q-21 0 -41 -33l-56 35q42 84 131 84q45 0 75.5 -26t30.5 -66q0 -31 -15 -55t-36.5 -46.5t-28.5 -41.5z" />
    <glyph glyph-name="uni1EBC" unicode="&#x1ebc;" horiz-adv-x="552" 
d="M485 418v-146h-242v-124h271v-148h-452v674h438v-147h-257v-109h242zM226 714h-79q-2 69 19.5 104t61.5 35q29 0 65 -19q31 -20 43 -20q13 0 18.5 9t8.5 35h78q4 -137 -84 -137q-31 0 -67 18q-31 18 -41 18q-20 0 -23 -43z" />
    <glyph glyph-name="uni1EBD" unicode="&#x1ebd;" horiz-adv-x="539" 
d="M201 554h-83q-2 68 22 105.5t66 37.5q31 0 67 -20q32 -20 42 -20q13 0 18.5 9t7.5 36h80q4 -140 -88 -140q-31 0 -73 22q-27 16 -36 16q-22 0 -23 -46zM506 183h-304q4 -28 40.5 -44.5t85.5 -16.5q75 0 135 19l23 -120q-79 -32 -184 -32q-129 0 -200 67t-71 185
q0 45 15 89.5t44 84t80 64t116 24.5q113 0 170 -71.5t57 -180.5q0 -40 -7 -68zM200 305h147q0 29 -16 54.5t-54 25.5q-36 0 -55 -25.5t-22 -54.5z" />
    <glyph glyph-name="uni1EBE" unicode="&#x1ebe;" horiz-adv-x="552" 
d="M485 418v-146h-242v-124h271v-148h-452v674h438v-147h-257v-109h242zM222 836h124l89 -126h-110l-40 60h-2l-39 -60h-110zM456 921h148l-139 -117h-82z" />
    <glyph glyph-name="uni1EBF" unicode="&#x1ebf;" horiz-adv-x="539" 
d="M506 183h-304q4 -28 40.5 -44.5t85.5 -16.5q75 0 135 19l23 -120q-79 -32 -184 -32q-129 0 -200 67t-71 185q0 45 15 89.5t44 84t80 64t116 24.5q113 0 170 -71.5t57 -180.5q0 -40 -7 -68zM200 305h147q0 29 -16 54.5t-54 25.5q-36 0 -55 -25.5t-22 -54.5zM227 706h124
l91 -156h-111l-41 84h-2l-42 -84h-111zM480 808h131l-123 -158h-88z" />
    <glyph glyph-name="uni1EC0" unicode="&#x1ec0;" horiz-adv-x="552" 
d="M485 418v-146h-242v-124h271v-148h-452v674h438v-147h-257v-109h242zM316 910h149l62 -117h-90zM221 836h125l88 -126h-110l-40 60h-2l-39 -60h-110z" />
    <glyph glyph-name="uni1EC1" unicode="&#x1ec1;" horiz-adv-x="539" 
d="M506 183h-304q4 -28 40.5 -44.5t85.5 -16.5q75 0 135 19l23 -120q-79 -32 -184 -32q-129 0 -200 67t-71 185q0 45 15 89.5t44 84t80 64t116 24.5q113 0 170 -71.5t57 -180.5q0 -40 -7 -68zM200 305h147q0 29 -16 54.5t-54 25.5q-36 0 -55 -25.5t-22 -54.5zM326 810h129
l71 -160h-88zM223 706h124l91 -156h-111l-41 84h-2l-42 -84h-111z" />
    <glyph glyph-name="uni1EC2" unicode="&#x1ec2;" horiz-adv-x="552" 
d="M485 418v-146h-242v-124h271v-148h-452v674h438v-147h-257v-109h242zM225 836h124l89 -126h-110l-40 60h-2l-39 -60h-110zM488 760l-66 15q6 21 27 44t21 38q0 13 -8.5 21t-20.5 8q-26 0 -44 -36l-50 31q40 77 119 77q41 0 68 -23.5t27 -58.5q0 -24 -12 -41t-31.5 -36
t-29.5 -39z" />
    <glyph glyph-name="uni1EC3" unicode="&#x1ec3;" horiz-adv-x="539" 
d="M506 183h-304q4 -28 40.5 -44.5t85.5 -16.5q75 0 135 19l23 -120q-79 -32 -184 -32q-129 0 -200 67t-71 185q0 45 15 89.5t44 84t80 64t116 24.5q113 0 170 -71.5t57 -180.5q0 -40 -7 -68zM200 305h147q0 29 -16 54.5t-54 25.5q-36 0 -55 -25.5t-22 -54.5zM219 706h124
l91 -156h-111l-41 84h-2l-42 -84h-111zM479 633l-72 15q6 20 25 41.5t19 37.5q0 11 -7.5 19t-18.5 8q-20 0 -40 -32l-50 31q40 78 121 78q39 0 67 -25t28 -58q0 -34 -32.5 -67.5t-39.5 -47.5z" />
    <glyph glyph-name="uni1EC4" unicode="&#x1ec4;" horiz-adv-x="552" 
d="M485 418v-146h-242v-124h271v-148h-452v674h438v-147h-257v-109h242zM231 836h134l100 -126h-122l-44 59h-2l-44 -59h-122zM234 854h-82q-1 56 22.5 88.5t65.5 32.5q33 0 65 -19q32 -17 44 -17t17.5 8t7.5 31h80q6 -123 -88 -123q-24 0 -70 22q-25 13 -38 13
q-21 0 -24 -36z" />
    <glyph glyph-name="uni1EC5" unicode="&#x1ec5;" horiz-adv-x="539" 
d="M506 183h-304q4 -28 40.5 -44.5t85.5 -16.5q75 0 135 19l23 -120q-79 -32 -184 -32q-129 0 -200 67t-71 185q0 45 15 89.5t44 84t80 64t116 24.5q113 0 170 -71.5t57 -180.5q0 -40 -7 -68zM200 305h147q0 29 -16 54.5t-54 25.5q-36 0 -55 -25.5t-22 -54.5zM219 686h124
l96 -136h-111l-46 71h-2l-45 -71h-113zM216 704h-81q-1 57 22 89t65 32q30 0 66 -18q30 -17 43 -17t18.5 7.5t7.5 31.5h79q6 -124 -87 -124q-27 0 -71 23q-28 13 -38 13q-21 0 -24 -37z" />
    <glyph glyph-name="uni1EC6" unicode="&#x1ec6;" horiz-adv-x="552" 
d="M485 418v-146h-242v-124h271v-148h-452v674h438v-147h-257v-109h242zM217 836h135l99 -126h-121l-45 59h-2l-44 -59h-121zM285 -233h-1q-32 0 -55 22.5t-23 53.5q0 33 23 55t56 22q32 0 53.5 -22t21.5 -55q0 -31 -22 -53.5t-53 -22.5z" />
    <glyph glyph-name="uni1EC7" unicode="&#x1ec7;" horiz-adv-x="539" 
d="M506 183h-304q4 -28 40.5 -44.5t85.5 -16.5q75 0 135 19l23 -120q-79 -32 -184 -32q-129 0 -200 67t-71 185q0 45 15 89.5t44 84t80 64t116 24.5q113 0 170 -71.5t57 -180.5q0 -40 -7 -68zM200 305h147q0 29 -16 54.5t-54 25.5q-36 0 -55 -25.5t-22 -54.5zM210 706h120
l101 -156h-113l-47 84h-2l-47 -84h-114zM271 -80q33 0 54.5 -22.5t21.5 -56.5q0 -33 -22 -56t-55 -23t-56 23t-23 56q0 34 23 56.5t57 22.5z" />
    <glyph glyph-name="uni1EC8" unicode="&#x1ec8;" horiz-adv-x="305" 
d="M62 674h181v-674h-181v674zM193 704l-80 17q7 23 27 46.5t20 39.5q0 13 -8 21.5t-20 8.5q-24 0 -43 -34l-54 33q43 85 132 85q43 0 73 -27t30 -63q0 -28 -13 -47t-33.5 -39.5t-30.5 -40.5z" />
    <glyph glyph-name="uni1EC9" unicode="&#x1ec9;" horiz-adv-x="292" 
d="M236 0h-180v492h180v-492zM178 526l-84 18q6 24 29.5 52.5t23.5 47.5q0 14 -8.5 22.5t-20.5 8.5q-21 0 -41 -33l-56 35q42 84 131 84q45 0 75.5 -26t30.5 -66q0 -31 -15 -55t-36.5 -46.5t-28.5 -41.5z" />
    <glyph glyph-name="uni1ECA" unicode="&#x1eca;" horiz-adv-x="305" 
d="M62 674h181v-674h-181v674zM154 -233h-1q-32 0 -55 22.5t-23 53.5q0 33 23 55t56 22q32 0 53.5 -22t21.5 -55q0 -31 -22 -53.5t-53 -22.5z" />
    <glyph glyph-name="uni1ECB" unicode="&#x1ecb;" horiz-adv-x="292" 
d="M236 0h-180v492h180v-492zM146 713q41 0 66 -24t26 -61q0 -37 -25.5 -61.5t-67.5 -24.5q-41 0 -66 24.5t-25 61.5t25.5 61t66.5 24zM147 -80q33 0 54.5 -22.5t21.5 -56.5q0 -33 -22 -56t-55 -23t-56 23t-23 56q0 34 23 56.5t57 22.5z" />
    <glyph glyph-name="uni1ECC" unicode="&#x1ecc;" horiz-adv-x="730" 
d="M369 685q155 0 241 -98.5t86 -242.5q0 -163 -91 -259t-247 -96q-151 0 -237.5 98.5t-86.5 245.5q0 151 92 251.5t243 100.5zM366 542q-64 0 -102.5 -56.5t-38.5 -149.5q0 -94 38.5 -149t103.5 -55q64 0 101 57t37 149q0 89 -37.5 146.5t-101.5 57.5zM367 -233h-1
q-32 0 -55 22.5t-23 53.5q0 33 23 55t56 22q32 0 53.5 -22t21.5 -55q0 -31 -22 -53.5t-53 -22.5z" />
    <glyph glyph-name="uni1ECD" unicode="&#x1ecd;" horiz-adv-x="589" 
d="M302 503q115 0 185.5 -70t70.5 -182q0 -127 -77 -194.5t-189 -67.5q-113 0 -187 68.5t-74 185.5q0 118 73 189t198 71zM296 376q-41 0 -60 -37.5t-19 -92.5q0 -58 20 -94t60 -36q36 0 55.5 35t19.5 95q0 56 -19 93t-57 37zM296 -80q33 0 54.5 -22.5t21.5 -56.5
q0 -33 -22 -56t-55 -23t-56 23t-23 56q0 34 23 56.5t57 22.5z" />
    <glyph glyph-name="uni1ECE" unicode="&#x1ece;" horiz-adv-x="730" 
d="M369 685q155 0 241 -98.5t86 -242.5q0 -163 -91 -259t-247 -96q-151 0 -237.5 98.5t-86.5 245.5q0 151 92 251.5t243 100.5zM366 542q-64 0 -102.5 -56.5t-38.5 -149.5q0 -94 38.5 -149t103.5 -55q64 0 101 57t37 149q0 89 -37.5 146.5t-101.5 57.5zM406 704l-80 17
q7 23 27 46.5t20 39.5q0 13 -8 21.5t-20 8.5q-24 0 -43 -34l-54 33q43 85 132 85q43 0 73 -27t30 -63q0 -28 -13 -47t-33.5 -39.5t-30.5 -40.5z" />
    <glyph glyph-name="uni1ECF" unicode="&#x1ecf;" horiz-adv-x="589" 
d="M302 503q115 0 185.5 -70t70.5 -182q0 -127 -77 -194.5t-189 -67.5q-113 0 -187 68.5t-74 185.5q0 118 73 189t198 71zM296 376q-41 0 -60 -37.5t-19 -92.5q0 -58 20 -94t60 -36q36 0 55.5 35t19.5 95q0 56 -19 93t-57 37zM327 526l-84 18q6 24 29.5 52.5t23.5 47.5
q0 14 -8.5 22.5t-20.5 8.5q-21 0 -41 -33l-56 35q42 84 131 84q45 0 75.5 -26t30.5 -66q0 -31 -15 -55t-36.5 -46.5t-28.5 -41.5z" />
    <glyph glyph-name="uni1ED0" unicode="&#x1ed0;" horiz-adv-x="730" 
d="M369 685q155 0 241 -98.5t86 -242.5q0 -163 -91 -259t-247 -96q-151 0 -237.5 98.5t-86.5 245.5q0 151 92 251.5t243 100.5zM366 542q-64 0 -102.5 -56.5t-38.5 -149.5q0 -94 38.5 -149t103.5 -55q64 0 101 57t37 149q0 89 -37.5 146.5t-101.5 57.5zM311 836h124l89 -126
h-110l-40 60h-2l-39 -60h-110zM545 921h148l-139 -117h-82z" />
    <glyph glyph-name="uni1ED1" unicode="&#x1ed1;" horiz-adv-x="589" 
d="M302 503q115 0 185.5 -70t70.5 -182q0 -127 -77 -194.5t-189 -67.5q-113 0 -187 68.5t-74 185.5q0 118 73 189t198 71zM296 376q-41 0 -60 -37.5t-19 -92.5q0 -58 20 -94t60 -36q36 0 55.5 35t19.5 95q0 56 -19 93t-57 37zM238 706h124l91 -156h-111l-41 84h-2l-42 -84
h-111zM491 808h131l-123 -158h-88z" />
    <glyph glyph-name="uni1ED2" unicode="&#x1ed2;" horiz-adv-x="730" 
d="M369 685q155 0 241 -98.5t86 -242.5q0 -163 -91 -259t-247 -96q-151 0 -237.5 98.5t-86.5 245.5q0 151 92 251.5t243 100.5zM366 542q-64 0 -102.5 -56.5t-38.5 -149.5q0 -94 38.5 -149t103.5 -55q64 0 101 57t37 149q0 89 -37.5 146.5t-101.5 57.5zM402 910h149l62 -117
h-90zM307 836h125l88 -126h-110l-40 60h-2l-39 -60h-110z" />
    <glyph glyph-name="uni1ED3" unicode="&#x1ed3;" horiz-adv-x="589" 
d="M302 503q115 0 185.5 -70t70.5 -182q0 -127 -77 -194.5t-189 -67.5q-113 0 -187 68.5t-74 185.5q0 118 73 189t198 71zM296 376q-41 0 -60 -37.5t-19 -92.5q0 -58 20 -94t60 -36q36 0 55.5 35t19.5 95q0 56 -19 93t-57 37zM343 810h129l71 -160h-88zM240 706h124l91 -156
h-111l-41 84h-2l-42 -84h-111z" />
    <glyph glyph-name="uni1ED4" unicode="&#x1ed4;" horiz-adv-x="730" 
d="M369 685q155 0 241 -98.5t86 -242.5q0 -163 -91 -259t-247 -96q-151 0 -237.5 98.5t-86.5 245.5q0 151 92 251.5t243 100.5zM366 542q-64 0 -102.5 -56.5t-38.5 -149.5q0 -94 38.5 -149t103.5 -55q64 0 101 57t37 149q0 89 -37.5 146.5t-101.5 57.5zM317 836h124l89 -126
h-110l-40 60h-2l-39 -60h-110zM580 760l-66 15q6 21 27 44t21 38q0 13 -8.5 21t-20.5 8q-26 0 -44 -36l-50 31q40 77 119 77q41 0 68 -23.5t27 -58.5q0 -24 -12 -41t-31.5 -36t-29.5 -39z" />
    <glyph glyph-name="uni1ED5" unicode="&#x1ed5;" horiz-adv-x="589" 
d="M302 503q115 0 185.5 -70t70.5 -182q0 -127 -77 -194.5t-189 -67.5q-113 0 -187 68.5t-74 185.5q0 118 73 189t198 71zM296 376q-41 0 -60 -37.5t-19 -92.5q0 -58 20 -94t60 -36q36 0 55.5 35t19.5 95q0 56 -19 93t-57 37zM235 706h124l91 -156h-111l-41 84h-2l-42 -84
h-111zM495 633l-72 15q6 20 25 41.5t19 37.5q0 11 -7.5 19t-18.5 8q-20 0 -40 -32l-50 31q40 78 121 78q39 0 67 -25t28 -58q0 -34 -32.5 -67.5t-39.5 -47.5z" />
    <glyph glyph-name="uni1ED6" unicode="&#x1ed6;" horiz-adv-x="730" 
d="M369 685q155 0 241 -98.5t86 -242.5q0 -163 -91 -259t-247 -96q-151 0 -237.5 98.5t-86.5 245.5q0 151 92 251.5t243 100.5zM366 542q-64 0 -102.5 -56.5t-38.5 -149.5q0 -94 38.5 -149t103.5 -55q64 0 101 57t37 149q0 89 -37.5 146.5t-101.5 57.5zM302 836h134
l100 -126h-122l-44 59h-2l-44 -59h-122zM305 854h-82q-1 56 22.5 88.5t65.5 32.5q33 0 65 -19q32 -17 44 -17t17.5 8t7.5 31h80q6 -123 -88 -123q-24 0 -70 22q-25 13 -38 13q-21 0 -24 -36z" />
    <glyph glyph-name="uni1ED7" unicode="&#x1ed7;" horiz-adv-x="589" 
d="M302 503q115 0 185.5 -70t70.5 -182q0 -127 -77 -194.5t-189 -67.5q-113 0 -187 68.5t-74 185.5q0 118 73 189t198 71zM296 376q-41 0 -60 -37.5t-19 -92.5q0 -58 20 -94t60 -36q36 0 55.5 35t19.5 95q0 56 -19 93t-57 37zM232 686h124l96 -136h-111l-46 71h-2l-45 -71
h-113zM229 704h-81q-1 57 22 89t65 32q30 0 66 -18q30 -17 43 -17t18.5 7.5t7.5 31.5h79q6 -124 -87 -124q-27 0 -71 23q-28 13 -38 13q-21 0 -24 -37z" />
    <glyph glyph-name="uni1ED8" unicode="&#x1ed8;" horiz-adv-x="730" 
d="M369 685q155 0 241 -98.5t86 -242.5q0 -163 -91 -259t-247 -96q-151 0 -237.5 98.5t-86.5 245.5q0 151 92 251.5t243 100.5zM366 542q-64 0 -102.5 -56.5t-38.5 -149.5q0 -94 38.5 -149t103.5 -55q64 0 101 57t37 149q0 89 -37.5 146.5t-101.5 57.5zM298 836h135l99 -126
h-121l-45 59h-2l-44 -59h-121zM367 -233h-1q-32 0 -55 22.5t-23 53.5q0 33 23 55t56 22q32 0 53.5 -22t21.5 -55q0 -31 -22 -53.5t-53 -22.5z" />
    <glyph glyph-name="uni1ED9" unicode="&#x1ed9;" horiz-adv-x="589" 
d="M302 503q115 0 185.5 -70t70.5 -182q0 -127 -77 -194.5t-189 -67.5q-113 0 -187 68.5t-74 185.5q0 118 73 189t198 71zM296 376q-41 0 -60 -37.5t-19 -92.5q0 -58 20 -94t60 -36q36 0 55.5 35t19.5 95q0 56 -19 93t-57 37zM234 706h120l101 -156h-113l-47 84h-2l-47 -84
h-114zM296 -80q33 0 54.5 -22.5t21.5 -56.5q0 -33 -22 -56t-55 -23t-56 23t-23 56q0 34 23 56.5t57 22.5z" />
    <glyph glyph-name="uni1EDA" unicode="&#x1eda;" horiz-adv-x="730" 
d="M367 132q64 0 101 57t37 149q0 89 -37.5 146.5t-101.5 57.5t-102.5 -58t-38.5 -147q0 -91 38.5 -148t103.5 -57zM603 744l126 22q27 -54 27 -111q0 -49 -27 -81.5t-80 -37.5q47 -84 47 -192q0 -163 -91 -259t-247 -96q-151 0 -237.5 98.5t-86.5 245.5q0 151 92 251.5
t243 100.5q64 0 131 -21q13 -4 33 -13.5t35 -15.5t26 -6q34 0 34 39q0 37 -25 76zM373 836h183l-120 -126h-144z" />
    <glyph glyph-name="uni1EDB" unicode="&#x1edb;" horiz-adv-x="604" 
d="M296 376q-41 0 -60 -37.5t-19 -92.5q0 -58 20 -94t60 -36q36 0 55.5 35t19.5 95q0 56 -19 93t-57 37zM481 571l124 21q25 -50 25 -104q0 -48 -26 -77t-73 -37q27 -57 27 -123q0 -127 -77 -194.5t-189 -67.5q-113 0 -187 68.5t-74 185.5q0 118 73 189t198 71q49 0 91 -13
q9 -3 39 -15.5t41 -12.5q32 0 32 34q0 37 -24 75zM299 706h159l-122 -156h-123z" />
    <glyph glyph-name="uni1EDC" unicode="&#x1edc;" horiz-adv-x="730" 
d="M367 132q64 0 101 57t37 149q0 89 -37.5 146.5t-101.5 57.5t-102.5 -58t-38.5 -147q0 -91 38.5 -148t103.5 -57zM603 744l126 22q27 -54 27 -111q0 -49 -27 -81.5t-80 -37.5q47 -84 47 -192q0 -163 -91 -259t-247 -96q-151 0 -237.5 98.5t-86.5 245.5q0 151 92 251.5
t243 100.5q64 0 131 -21q13 -4 33 -13.5t35 -15.5t26 -6q34 0 34 39q0 37 -25 76zM190 836h184l80 -124h-143z" />
    <glyph glyph-name="uni1EDD" unicode="&#x1edd;" horiz-adv-x="604" 
d="M296 376q-41 0 -60 -37.5t-19 -92.5q0 -58 20 -94t60 -36q36 0 55.5 35t19.5 95q0 56 -19 93t-57 37zM481 571l124 21q25 -50 25 -104q0 -48 -26 -77t-73 -37q27 -57 27 -123q0 -127 -77 -194.5t-189 -67.5q-113 0 -187 68.5t-74 185.5q0 118 73 189t198 71q49 0 91 -13
q9 -3 39 -15.5t41 -12.5q32 0 32 34q0 37 -24 75zM133 706h160l85 -156h-122z" />
    <glyph glyph-name="uni1EDE" unicode="&#x1ede;" horiz-adv-x="730" 
d="M367 132q64 0 101 57t37 149q0 89 -37.5 146.5t-101.5 57.5t-102.5 -58t-38.5 -147q0 -91 38.5 -148t103.5 -57zM603 744l126 22q27 -54 27 -111q0 -49 -27 -81.5t-80 -37.5q47 -84 47 -192q0 -163 -91 -259t-247 -96q-151 0 -237.5 98.5t-86.5 245.5q0 151 92 251.5
t243 100.5q64 0 131 -21q13 -4 33 -13.5t35 -15.5t26 -6q34 0 34 39q0 37 -25 76zM406 704l-80 17q7 23 27 46.5t20 39.5q0 13 -8 21.5t-20 8.5q-24 0 -43 -34l-54 33q43 85 132 85q43 0 73 -27t30 -63q0 -28 -13 -47t-33.5 -39.5t-30.5 -40.5z" />
    <glyph glyph-name="uni1EDF" unicode="&#x1edf;" horiz-adv-x="604" 
d="M296 376q-41 0 -60 -37.5t-19 -92.5q0 -58 20 -94t60 -36q36 0 55.5 35t19.5 95q0 56 -19 93t-57 37zM481 571l124 21q25 -50 25 -104q0 -48 -26 -77t-73 -37q27 -57 27 -123q0 -127 -77 -194.5t-189 -67.5q-113 0 -187 68.5t-74 185.5q0 118 73 189t198 71q49 0 91 -13
q9 -3 39 -15.5t41 -12.5q32 0 32 34q0 37 -24 75zM326 526l-84 18q6 24 29.5 52.5t23.5 47.5q0 14 -8.5 22.5t-20.5 8.5q-21 0 -41 -33l-56 35q42 84 131 84q45 0 75.5 -26t30.5 -66q0 -31 -15 -55t-36.5 -46.5t-28.5 -41.5z" />
    <glyph glyph-name="uni1EE0" unicode="&#x1ee0;" horiz-adv-x="730" 
d="M367 132q64 0 101 57t37 149q0 89 -37.5 146.5t-101.5 57.5t-102.5 -58t-38.5 -147q0 -91 38.5 -148t103.5 -57zM603 744l126 22q27 -54 27 -111q0 -49 -27 -81.5t-80 -37.5q47 -84 47 -192q0 -163 -91 -259t-247 -96q-151 0 -237.5 98.5t-86.5 245.5q0 151 92 251.5
t243 100.5q64 0 131 -21q13 -4 33 -13.5t35 -15.5t26 -6q34 0 34 39q0 37 -25 76zM305 714h-79q-2 69 19.5 104t61.5 35q29 0 65 -19q31 -20 43 -20q13 0 18.5 9t8.5 35h78q4 -137 -84 -137q-31 0 -67 18q-31 18 -41 18q-20 0 -23 -43z" />
    <glyph glyph-name="uni1EE1" unicode="&#x1ee1;" horiz-adv-x="604" 
d="M296 376q-41 0 -60 -37.5t-19 -92.5q0 -58 20 -94t60 -36q36 0 55.5 35t19.5 95q0 56 -19 93t-57 37zM481 571l124 21q25 -50 25 -104q0 -48 -26 -77t-73 -37q27 -57 27 -123q0 -127 -77 -194.5t-189 -67.5q-113 0 -187 68.5t-74 185.5q0 118 73 189t198 71q49 0 91 -13
q9 -3 39 -15.5t41 -12.5q32 0 32 34q0 37 -24 75zM226 554h-83q-2 68 22 105.5t66 37.5q31 0 67 -20q32 -20 42 -20q13 0 18.5 9t7.5 36h80q4 -140 -88 -140q-31 0 -73 22q-27 16 -36 16q-22 0 -23 -46z" />
    <glyph glyph-name="uni1EE2" unicode="&#x1ee2;" horiz-adv-x="730" 
d="M367 132q64 0 101 57t37 149q0 89 -37.5 146.5t-101.5 57.5t-102.5 -58t-38.5 -147q0 -91 38.5 -148t103.5 -57zM603 744l126 22q27 -54 27 -111q0 -49 -27 -81.5t-80 -37.5q47 -84 47 -192q0 -163 -91 -259t-247 -96q-151 0 -237.5 98.5t-86.5 245.5q0 151 92 251.5
t243 100.5q64 0 131 -21q13 -4 33 -13.5t35 -15.5t26 -6q34 0 34 39q0 37 -25 76zM367 -233h-1q-32 0 -55 22.5t-23 53.5q0 33 23 55t56 22q32 0 53.5 -22t21.5 -55q0 -31 -22 -53.5t-53 -22.5z" />
    <glyph glyph-name="uni1EE3" unicode="&#x1ee3;" horiz-adv-x="604" 
d="M296 376q-41 0 -60 -37.5t-19 -92.5q0 -58 20 -94t60 -36q36 0 55.5 35t19.5 95q0 56 -19 93t-57 37zM481 571l124 21q25 -50 25 -104q0 -48 -26 -77t-73 -37q27 -57 27 -123q0 -127 -77 -194.5t-189 -67.5q-113 0 -187 68.5t-74 185.5q0 118 73 189t198 71q49 0 91 -13
q9 -3 39 -15.5t41 -12.5q32 0 32 34q0 37 -24 75zM300 -80q33 0 54.5 -22.5t21.5 -56.5q0 -33 -22 -56t-55 -23t-56 23t-23 56q0 34 23 56.5t57 22.5z" />
    <glyph glyph-name="uni1EE4" unicode="&#x1ee4;" horiz-adv-x="697" 
d="M61 674h181v-382q0 -160 106 -160q107 0 107 160v382h181v-372q0 -155 -75 -234t-218 -79q-282 0 -282 318v367zM350 -233h-1q-32 0 -55 22.5t-23 53.5q0 33 23 55t56 22q32 0 53.5 -22t21.5 -55q0 -31 -22 -53.5t-53 -22.5z" />
    <glyph glyph-name="uni1EE5" unicode="&#x1ee5;" horiz-adv-x="598" 
d="M541 492v-324q0 -84 4 -168h-155l-8 65h-4q-51 -76 -149 -76q-84 0 -129 54t-45 159v290h180v-261q0 -97 63 -97q43 0 58 42q5 9 5 26v290h180zM301 -80q33 0 54.5 -22.5t21.5 -56.5q0 -33 -22 -56t-55 -23t-56 23t-23 56q0 34 23 56.5t57 22.5z" />
    <glyph glyph-name="uni1EE6" unicode="&#x1ee6;" horiz-adv-x="697" 
d="M61 674h181v-382q0 -160 106 -160q107 0 107 160v382h181v-372q0 -155 -75 -234t-218 -79q-282 0 -282 318v367zM389 704l-80 17q7 23 27 46.5t20 39.5q0 13 -8 21.5t-20 8.5q-24 0 -43 -34l-54 33q43 85 132 85q43 0 73 -27t30 -63q0 -28 -13 -47t-33.5 -39.5
t-30.5 -40.5z" />
    <glyph glyph-name="uni1EE7" unicode="&#x1ee7;" horiz-adv-x="598" 
d="M541 492v-324q0 -84 4 -168h-155l-8 65h-4q-51 -76 -149 -76q-84 0 -129 54t-45 159v290h180v-261q0 -97 63 -97q43 0 58 42q5 9 5 26v290h180zM331 526l-84 18q6 24 29.5 52.5t23.5 47.5q0 14 -8.5 22.5t-20.5 8.5q-21 0 -41 -33l-56 35q42 84 131 84q45 0 75.5 -26
t30.5 -66q0 -31 -15 -55t-36.5 -46.5t-28.5 -41.5z" />
    <glyph glyph-name="uni1EE8" unicode="&#x1ee8;" horiz-adv-x="750" 
d="M620 784l124 20q24 -48 24 -102q0 -105 -115 -118l-17 -2v-280q0 -155 -75 -234t-218 -79q-282 0 -282 318v367h181v-382q0 -160 106 -160q107 0 107 160v382h132q32 0 43.5 9.5t11.5 29.5q0 33 -22 71zM340 836h183l-120 -126h-144z" />
    <glyph glyph-name="uni1EE9" unicode="&#x1ee9;" horiz-adv-x="598" 
d="M494 603l124 21q25 -50 25 -100q0 -46 -26.5 -74.5t-68.5 -34.5l-7 -1v-246q0 -84 4 -168h-155l-8 65h-4q-51 -76 -149 -76q-84 0 -129 54t-45 159v290h180v-261q0 -97 63 -97q43 0 58 42q5 9 5 26v290h102q55 0 55 41q0 33 -24 70zM321 706h159l-122 -156h-123z" />
    <glyph glyph-name="uni1EEA" unicode="&#x1eea;" horiz-adv-x="750" 
d="M620 784l124 20q24 -48 24 -102q0 -105 -115 -118l-17 -2v-280q0 -155 -75 -234t-218 -79q-282 0 -282 318v367h181v-382q0 -160 106 -160q107 0 107 160v382h132q32 0 43.5 9.5t11.5 29.5q0 33 -22 71zM170 836h184l80 -124h-143z" />
    <glyph glyph-name="uni1EEB" unicode="&#x1eeb;" horiz-adv-x="598" 
d="M494 603l124 21q25 -50 25 -100q0 -46 -26.5 -74.5t-68.5 -34.5l-7 -1v-246q0 -84 4 -168h-155l-8 65h-4q-51 -76 -149 -76q-84 0 -129 54t-45 159v290h180v-261q0 -97 63 -97q43 0 58 42q5 9 5 26v290h102q55 0 55 41q0 33 -24 70zM143 706h160l85 -156h-122z" />
    <glyph glyph-name="uni1EEC" unicode="&#x1eec;" horiz-adv-x="750" 
d="M620 784l124 20q24 -48 24 -102q0 -105 -115 -118l-17 -2v-280q0 -155 -75 -234t-218 -79q-282 0 -282 318v367h181v-382q0 -160 106 -160q107 0 107 160v382h132q32 0 43.5 9.5t11.5 29.5q0 33 -22 71zM416 704l-80 17q7 23 27 46.5t20 39.5q0 13 -8 21.5t-20 8.5
q-24 0 -43 -34l-54 33q43 85 132 85q43 0 73 -27t30 -63q0 -28 -13 -47t-33.5 -39.5t-30.5 -40.5z" />
    <glyph glyph-name="uni1EED" unicode="&#x1eed;" horiz-adv-x="598" 
d="M494 603l124 21q25 -50 25 -100q0 -46 -26.5 -74.5t-68.5 -34.5l-7 -1v-246q0 -84 4 -168h-155l-8 65h-4q-51 -76 -149 -76q-84 0 -129 54t-45 159v290h180v-261q0 -97 63 -97q43 0 58 42q5 9 5 26v290h102q55 0 55 41q0 33 -24 70zM338 526l-84 18q6 24 29.5 52.5
t23.5 47.5q0 14 -8.5 22.5t-20.5 8.5q-21 0 -41 -33l-56 35q42 84 131 84q45 0 75.5 -26t30.5 -66q0 -31 -15 -55t-36.5 -46.5t-28.5 -41.5z" />
    <glyph glyph-name="uni1EEE" unicode="&#x1eee;" horiz-adv-x="750" 
d="M620 784l124 20q24 -48 24 -102q0 -105 -115 -118l-17 -2v-280q0 -155 -75 -234t-218 -79q-282 0 -282 318v367h181v-382q0 -160 106 -160q107 0 107 160v382h132q32 0 43.5 9.5t11.5 29.5q0 33 -22 71zM307 714h-79q-2 69 19.5 104t61.5 35q29 0 65 -19q31 -20 43 -20
q13 0 18.5 9t8.5 35h78q4 -137 -84 -137q-31 0 -67 18q-31 18 -41 18q-20 0 -23 -43z" />
    <glyph glyph-name="uni1EEF" unicode="&#x1eef;" horiz-adv-x="598" 
d="M494 603l124 21q25 -50 25 -100q0 -46 -26.5 -74.5t-68.5 -34.5l-7 -1v-246q0 -84 4 -168h-155l-8 65h-4q-51 -76 -149 -76q-84 0 -129 54t-45 159v290h180v-261q0 -97 63 -97q43 0 58 42q5 9 5 26v290h102q55 0 55 41q0 33 -24 70zM234 554h-83q-2 68 22 105.5t66 37.5
q31 0 67 -20q32 -20 42 -20q13 0 18.5 9t7.5 36h80q4 -140 -88 -140q-31 0 -73 22q-27 16 -36 16q-22 0 -23 -46z" />
    <glyph glyph-name="uni1EF0" unicode="&#x1ef0;" horiz-adv-x="750" 
d="M620 784l124 20q24 -48 24 -102q0 -105 -115 -118l-17 -2v-280q0 -155 -75 -234t-218 -79q-282 0 -282 318v367h181v-382q0 -160 106 -160q107 0 107 160v382h132q32 0 43.5 9.5t11.5 29.5q0 33 -22 71zM377 -80q33 0 54.5 -22.5t21.5 -56.5q0 -33 -22 -56t-55 -23
t-56 23t-23 56q0 34 23 56.5t57 22.5z" />
    <glyph glyph-name="uni1EF1" unicode="&#x1ef1;" horiz-adv-x="598" 
d="M494 603l124 21q25 -50 25 -100q0 -46 -26.5 -74.5t-68.5 -34.5l-7 -1v-246q0 -84 4 -168h-155l-8 65h-4q-51 -76 -149 -76q-84 0 -129 54t-45 159v290h180v-261q0 -97 63 -97q43 0 58 42q5 9 5 26v290h102q55 0 55 41q0 33 -24 70zM300 -80q33 0 54.5 -22.5t21.5 -56.5
q0 -33 -22 -56t-55 -23t-56 23t-23 56q0 34 23 56.5t57 22.5z" />
    <glyph glyph-name="Ygrave" unicode="&#x1ef2;" horiz-adv-x="629" 
d="M400 0h-180v272l-213 402h207l57 -152q20 -50 46 -124h2q1 4 43 124l56 152h203l-221 -395v-279zM143 836h184l80 -124h-143z" />
    <glyph glyph-name="ygrave" unicode="&#x1ef3;" horiz-adv-x="545" 
d="M119 706h160l85 -156h-122zM5 492h200l59 -221q4 -15 11.5 -46.5t9.5 -40.5h4q3 13 9 44t9 43l45 221h192l-105 -312q-53 -147 -92.5 -219t-83.5 -110q-69 -62 -163 -72l-37 152q30 5 61 19q37 14 58 45q10 12 10 22q0 9 -7 27z" />
    <glyph glyph-name="uni1EF4" unicode="&#x1ef4;" horiz-adv-x="629" 
d="M400 0h-180v272l-213 402h207l57 -152q20 -50 46 -124h2q1 4 43 124l56 152h203l-221 -395v-279zM317 -233h-1q-32 0 -55 22.5t-23 53.5q0 33 23 55t56 22q32 0 53.5 -22t21.5 -55q0 -31 -22 -53.5t-53 -22.5z" />
    <glyph glyph-name="uni1EF5" unicode="&#x1ef5;" horiz-adv-x="545" 
d="M5 492h200l59 -221q4 -15 11.5 -46.5t9.5 -40.5h4q3 13 9 44t9 43l45 221h192l-105 -312q-53 -147 -92.5 -219t-83.5 -110q-69 -62 -163 -72l-37 152q30 5 61 19q37 14 58 45q10 12 10 22q0 9 -7 27zM440 -80q33 0 54.5 -22.5t21.5 -56.5q0 -33 -22 -56t-55 -23t-56 23
t-23 56q0 34 23 56.5t57 22.5z" />
    <glyph glyph-name="uni1EF6" unicode="&#x1ef6;" horiz-adv-x="629" 
d="M400 0h-180v272l-213 402h207l57 -152q20 -50 46 -124h2q1 4 43 124l56 152h203l-221 -395v-279zM355 704l-80 17q7 23 27 46.5t20 39.5q0 13 -8 21.5t-20 8.5q-24 0 -43 -34l-54 33q43 85 132 85q43 0 73 -27t30 -63q0 -28 -13 -47t-33.5 -39.5t-30.5 -40.5z" />
    <glyph glyph-name="uni1EF7" unicode="&#x1ef7;" horiz-adv-x="545" 
d="M5 492h200l59 -221q4 -15 11.5 -46.5t9.5 -40.5h4q3 13 9 44t9 43l45 221h192l-105 -312q-53 -147 -92.5 -219t-83.5 -110q-69 -62 -163 -72l-37 152q30 5 61 19q37 14 58 45q10 12 10 22q0 9 -7 27zM317 526l-84 18q6 24 29.5 52.5t23.5 47.5q0 14 -8.5 22.5t-20.5 8.5
q-21 0 -41 -33l-56 35q42 84 131 84q45 0 75.5 -26t30.5 -66q0 -31 -15 -55t-36.5 -46.5t-28.5 -41.5z" />
    <glyph glyph-name="uni1EF8" unicode="&#x1ef8;" horiz-adv-x="629" 
d="M400 0h-180v272l-213 402h207l57 -152q20 -50 46 -124h2q1 4 43 124l56 152h203l-221 -395v-279zM247 714h-79q-2 69 19.5 104t61.5 35q29 0 65 -19q31 -20 43 -20q13 0 18.5 9t8.5 35h78q4 -137 -84 -137q-31 0 -67 18q-31 18 -41 18q-20 0 -23 -43z" />
    <glyph glyph-name="uni1EF9" unicode="&#x1ef9;" horiz-adv-x="545" 
d="M217 554h-83q-2 68 22 105.5t66 37.5q31 0 67 -20q32 -20 42 -20q13 0 18.5 9t7.5 36h80q4 -140 -88 -140q-31 0 -73 22q-27 16 -36 16q-22 0 -23 -46zM5 492h200l59 -221q4 -15 11.5 -46.5t9.5 -40.5h4q3 13 9 44t9 43l45 221h192l-105 -312q-53 -147 -92.5 -219
t-83.5 -110q-69 -62 -163 -72l-37 152q30 5 61 19q37 14 58 45q10 12 10 22q0 9 -7 27z" />
    <glyph glyph-name="endash" unicode="&#x2013;" horiz-adv-x="500" 
d="M30 308h440v-108h-440v108z" />
    <glyph glyph-name="emdash" unicode="&#x2014;" horiz-adv-x="1000" 
d="M30 308h940v-108h-940v108z" />
    <glyph glyph-name="quoteleft" unicode="&#x2018;" horiz-adv-x="284" 
d="M188 407l-165 -9q52 155 132 285l108 9q-53 -148 -75 -285z" />
    <glyph glyph-name="quoteright" unicode="&#x2019;" horiz-adv-x="284" 
d="M97 683l164 9q-49 -149 -131 -285l-108 -9q54 155 75 285z" />
    <glyph glyph-name="quotesinglbase" unicode="&#x201a;" horiz-adv-x="284" 
d="M122 -89l-108 -9q53 148 75 285l165 9q-52 -155 -132 -285z" />
    <glyph glyph-name="quotedblleft" unicode="&#x201c;" horiz-adv-x="497" 
d="M187 407l-165 -9q49 150 132 285l107 9q-53 -151 -74 -285zM403 407l-165 -9q49 150 132 285l107 9q-53 -151 -74 -285z" />
    <glyph glyph-name="quotedblright" unicode="&#x201d;" horiz-adv-x="497" 
d="M95 683l165 9q-50 -151 -132 -285l-107 -9q52 149 74 285zM311 683l165 9q-50 -151 -132 -285l-107 -9q52 149 74 285z" />
    <glyph glyph-name="quotedblbase" unicode="&#x201e;" horiz-adv-x="503" 
d="M121 -89l-108 -9q55 156 75 285l165 9q-52 -155 -132 -285zM337 -89l-108 -9q55 156 75 285l165 9q-52 -155 -132 -285z" />
    <glyph glyph-name="dagger" unicode="&#x2020;" horiz-adv-x="534" 
d="M187 674h161l-15 -196l171 13v-137l-171 14l15 -418h-161l15 418l-171 -14v137l171 -13z" />
    <glyph glyph-name="daggerdbl" unicode="&#x2021;" horiz-adv-x="534" 
d="M187 674h160l-12 -178l169 13v-137l-169 14v-139l169 15v-138l-169 14l12 -188h-160l12 188l-168 -14v138l168 -15v139l-168 -14v137l168 -13z" />
    <glyph glyph-name="bullet" unicode="&#x2022;" horiz-adv-x="362" 
d="M181 119h-1q-58 0 -99 40.5t-41 100.5q-1 60 40.5 101.5t100.5 41.5t100 -41t41 -101t-41 -101t-100 -41z" />
    <glyph glyph-name="ellipsis" unicode="&#x2026;" horiz-adv-x="1000" 
d="M166 -11h-1q-44 0 -73 29.5t-29 75.5t29 75.5t74 29.5q46 0 74 -29t29 -76q0 -46 -28.5 -75.5t-74.5 -29.5zM500 -11h-1q-44 0 -73 29.5t-29 75.5t29 75.5t74 29.5q46 0 74 -29t29 -76q0 -46 -28.5 -75.5t-74.5 -29.5zM834 -11h-1q-44 0 -73 29.5t-29 75.5t29 75.5
t74 29.5q46 0 74 -29t29 -76q0 -46 -28.5 -75.5t-74.5 -29.5z" />
    <glyph glyph-name="perthousand" unicode="&#x2030;" horiz-adv-x="1340" 
d="M218 661h1q87 0 136 -55.5t49 -137.5q0 -97 -56 -152.5t-135 -55.5q-81 0 -134 54.5t-53 142.5q0 85 52 144.5t140 59.5zM216 565h-1q-57 0 -57 -105q0 -48 15 -76t44 -28q55 0 55 104q0 105 -56 105zM320 -11h-93l370 671h92zM706 391h1q87 0 136 -55t49 -138
q0 -97 -56 -152.5t-135 -55.5q-81 0 -134 54.5t-53 142.5q0 86 52 145t140 59zM704 295h-1q-57 0 -57 -105q0 -104 59 -104q55 0 55 104q0 105 -56 105zM1127 391h1q87 0 136 -55t49 -138q0 -96 -56.5 -152t-134.5 -56q-81 0 -134.5 54.5t-53.5 142.5q0 86 52.5 145
t140.5 59zM1125 295h-1q-57 0 -57 -105q-1 -48 14.5 -76t44.5 -28q55 0 55 104q0 105 -56 105z" />
    <glyph glyph-name="guilsinglleft" unicode="&#x2039;" horiz-adv-x="277" 
d="M255 446l-113 -194l113 -193h-121l-108 193l108 194h121z" />
    <glyph glyph-name="guilsinglright" unicode="&#x203a;" horiz-adv-x="277" 
d="M135 252l-113 194h119l110 -194l-109 -193h-120z" />
    <glyph glyph-name="fraction" unicode="&#x2044;" horiz-adv-x="127" 
d="M-72 -11h-94l365 672h94z" />
    <glyph glyph-name="zero.superior" unicode="&#x2070;" horiz-adv-x="396" 
d="M198 438h-1q-89 0 -132.5 57t-43.5 144q0 85 43 142t133 57q88 0 133.5 -57.5t45.5 -144.5q0 -82 -44 -140t-134 -58zM198 528h1q47 0 47 109q0 112 -48 112t-48 -112q0 -109 48 -109z" />
    <glyph glyph-name="four.superior" unicode="&#x2074;" horiz-adv-x="413" 
d="M342 443h-127v85h-193v73l160 236h160v-224h49v-85h-49v-85zM215 613v55q0 14 2.5 41t2.5 38h-3q-17 -36 -37 -70l-38 -63l3 -1h70z" />
    <glyph glyph-name="five.superior" unicode="&#x2075;" horiz-adv-x="365" 
d="M313 833v-98h-164l-5 -33q7 1 25 1q79 0 121 -31q45 -32 45 -95q0 -60 -50.5 -99.5t-137.5 -39.5q-75 0 -125 21l20 90q43 -19 97 -19q27 0 49 9.5t22 32.5q0 48 -113 48q-23 0 -57 -4l27 217h246z" />
    <glyph glyph-name="six.superior" unicode="&#x2076;" horiz-adv-x="376" 
d="M307 836v-91q-16 4 -36 2q-103 -1 -126 -60h2q33 21 81 21q57 0 92.5 -33.5t35.5 -91.5q0 -67 -48.5 -106t-112.5 -39q-87 0 -130.5 51.5t-43.5 121.5q0 106 70 168q64 57 176 58q21 1 40 -1zM192 527h1q17 0 28.5 14.5t11.5 34.5q0 52 -48 52q-15 0 -26.5 -9t-15.5 -20
q-3 -15 -3 -19q0 -20 14.5 -36.5t37.5 -16.5z" />
    <glyph glyph-name="seven.superior" unicode="&#x2077;" horiz-adv-x="350" 
d="M25 833h309v-74l-162 -316h-132l164 291v1h-179v98z" />
    <glyph glyph-name="eight.superior" unicode="&#x2078;" horiz-adv-x="375" 
d="M188 838h1q71 0 108.5 -31t37.5 -72q0 -27 -15.5 -48.5t-40.5 -32.5v-2q28 -9 50.5 -32.5t22.5 -59.5q0 -54 -44.5 -88t-124.5 -34q-81 0 -120.5 34t-39.5 75q0 61 71 91v1q-27 14 -43 36.5t-16 48.5q0 51 43.5 82.5t109.5 31.5zM188 520h1q16 0 27.5 9.5t11.5 25.5
q0 34 -47 46q-36 -13 -36 -42q0 -15 12.5 -27t30.5 -12zM185 758h-1q-17 0 -26.5 -9t-9.5 -22q0 -27 46 -42q29 10 29 36q0 16 -10.5 26.5t-27.5 10.5z" />
    <glyph glyph-name="nine.superior" unicode="&#x2079;" horiz-adv-x="372" 
d="M58 440v91q11 -2 37 -2q53 2 81 14q41 19 51 50l-2 2q-24 -20 -73 -20q-53 0 -92 31.5t-39 90.5q0 60 46.5 100.5t114.5 40.5q85 0 127 -51t42 -119q0 -114 -68 -173q-64 -55 -189 -57q-6 0 -19 1t-17 1zM184 750h-1q-16 0 -28 -13t-12 -34q0 -20 11 -34.5t34 -14.5
q26 0 37 17q4 7 4 24q0 22 -11 38.5t-34 16.5z" />
    <glyph glyph-name="parenleft.superior" unicode="&#x207d;" horiz-adv-x="215" 
d="M107 869h87q-53 -113 -53 -238q0 -127 53 -237h-87q-65 104 -65 237t65 238z" />
    <glyph glyph-name="parenright.superior" unicode="&#x207e;" horiz-adv-x="215" 
d="M107 394h-86q53 119 53 237q0 128 -53 238h86q66 -101 66 -238q0 -131 -66 -237z" />
    <glyph glyph-name="zero.inferior" unicode="&#x2080;" horiz-adv-x="396" 
d="M198 -152h-1q-89 0 -132.5 57t-43.5 144q0 85 43 142t133 57q88 0 133.5 -57.5t45.5 -144.5q0 -82 -44 -140t-134 -58zM198 -62h1q47 0 47 109q0 112 -48 112t-48 -112q0 -109 48 -109z" />
    <glyph glyph-name="one.inferior" unicode="&#x2081;" horiz-adv-x="324" 
d="M260 -147h-138v280h-1l-83 -35l-17 96l120 49h119v-390z" />
    <glyph glyph-name="two.inferior" unicode="&#x2082;" horiz-adv-x="369" 
d="M16 -147v65l61 54q11 10 29 25l26 22t20 18.5t17 18l11 15t8 16.5t2 16q0 18 -14 28.5t-38 10.5q-50 0 -87 -26l-34 89q63 43 156 43q75 0 118 -34t43 -90q0 -20 -7.5 -39.5t-14.5 -31.5t-26.5 -31t-26.5 -25t-32 -26l-21 -15v-3h135v-100h-325z" />
    <glyph glyph-name="three.inferior" unicode="&#x2083;" horiz-adv-x="366" 
d="M48 132l-24 84q55 32 151 32q73 0 113.5 -28t40.5 -72q0 -64 -85 -89v-2q43 -4 71 -28t28 -61q0 -55 -52 -87.5t-138 -32.5q-93 0 -143 29l24 89q54 -26 101 -26q27 0 45.5 9.5t18.5 26.5q0 19 -23 30t-56 11h-31v78h28q72 0 72 32q0 29 -48 29q-49 0 -93 -24z" />
    <glyph glyph-name="four.inferior" unicode="&#x2084;" horiz-adv-x="413" 
d="M342 -147h-127v85h-193v73l160 236h160v-224h49v-85h-49v-85zM215 23v55q0 14 2.5 41t2.5 38h-3q-17 -36 -37 -70l-38 -63l3 -1h70z" />
    <glyph glyph-name="five.inferior" unicode="&#x2085;" horiz-adv-x="365" 
d="M313 243v-98h-164l-5 -33q7 1 25 1q79 0 121 -31q45 -32 45 -95q0 -60 -50.5 -99.5t-137.5 -39.5q-75 0 -125 21l20 90q43 -19 97 -19q27 0 49 9.5t22 32.5q0 48 -113 48q-23 0 -57 -4l27 217h246z" />
    <glyph glyph-name="six.inferior" unicode="&#x2086;" horiz-adv-x="376" 
d="M307 246v-91q-16 4 -36 2q-103 -1 -126 -60h2q33 21 81 21q57 0 92.5 -33.5t35.5 -91.5q0 -67 -48.5 -106t-112.5 -39q-87 0 -130.5 51.5t-43.5 121.5q0 106 70 168q64 57 176 58q21 1 40 -1zM192 -63h1q17 0 28.5 14.5t11.5 34.5q0 52 -48 52q-15 0 -26.5 -9t-15.5 -20
q-3 -15 -3 -19q0 -20 14.5 -36.5t37.5 -16.5z" />
    <glyph glyph-name="seven.inferior" unicode="&#x2087;" horiz-adv-x="350" 
d="M25 243h309v-74l-162 -316h-132l164 291v1h-179v98z" />
    <glyph glyph-name="eight.inferior" unicode="&#x2088;" horiz-adv-x="375" 
d="M188 248h1q71 0 108.5 -31t37.5 -72q0 -27 -15.5 -48.5t-40.5 -32.5v-2q28 -9 50.5 -32.5t22.5 -59.5q0 -54 -44.5 -88t-124.5 -34q-81 0 -120.5 34t-39.5 75q0 61 71 91v1q-27 14 -43 36.5t-16 48.5q0 51 43.5 82.5t109.5 31.5zM188 -70h1q16 0 27.5 9.5t11.5 25.5
q0 34 -47 46q-36 -14 -36 -42q0 -15 12.5 -27t30.5 -12zM185 168h-1q-17 0 -26.5 -9t-9.5 -22q0 -27 46 -42q29 10 29 36q0 16 -10.5 26.5t-27.5 10.5z" />
    <glyph glyph-name="nine.inferior" unicode="&#x2089;" horiz-adv-x="372" 
d="M58 -150v91q11 -2 37 -2q53 2 81 14q41 19 51 50l-2 2q-24 -20 -73 -20q-53 0 -92 31.5t-39 90.5q0 60 46.5 100.5t114.5 40.5q85 0 127 -51t42 -119q0 -114 -68 -173q-64 -55 -189 -57q-6 0 -19 1t-17 1zM184 160h-1q-16 0 -28 -13t-12 -34q0 -20 11 -34.5t34 -14.5
q26 0 37 17q4 7 4 24q0 22 -11 38.5t-34 16.5z" />
    <glyph glyph-name="parenleft.inferior" unicode="&#x208d;" horiz-adv-x="215" 
d="M107 279h87q-53 -113 -53 -238q0 -127 53 -237h-87q-65 104 -65 237t65 238z" />
    <glyph glyph-name="parenright.inferior" unicode="&#x208e;" horiz-adv-x="215" 
d="M107 -196h-86q53 119 53 237q0 128 -53 238h86q66 -101 66 -238q0 -131 -66 -237z" />
    <glyph glyph-name="dong" unicode="&#x20ab;" horiz-adv-x="573" 
d="M86 107h405v-103h-405v103zM337 680h150v-52h65v-83h-65v-279q0 -79 3 -115h-133l-7 49h-2q-36 -57 -119 -57q-71 0 -119.5 51.5t-48.5 135.5q0 89 51.5 141t125.5 52q70 0 97 -35h2v57h-115v83h115v52zM337 318v39q0 11 -1 16q-3 18 -20 31t-38 13q-33 0 -49.5 -23
t-16.5 -60q0 -38 18 -59t47 -21q21 0 38 12t19 29q3 7 3 23z" />
    <glyph glyph-name="Euro" unicode="&#x20ac;" horiz-adv-x="573" 
d="M512 158l27 -132q-68 -37 -159 -37q-81 0 -149.5 32t-112.5 93q-35 49 -49 112h-66v80h54v17q0 4 0.5 12t0.5 12h-55v81h68q17 66 63 122q94 111 246 111q89 0 157 -29l-32 -135q-60 23 -111 23q-77 0 -118 -55q-9 -11 -20 -37h236v-81h-254q-1 -8 -1 -26v-15h255v-80
h-238q8 -25 24 -44q42 -48 124 -48q64 0 110 24z" />
    <glyph glyph-name="afii61289" unicode="&#x2113;" horiz-adv-x="578" 
d="M279 479v-101q70 78 70 155q0 61 -30 61q-40 0 -40 -115zM467 209l80 -79q-84 -142 -242 -142q-151 0 -190 135q-1 2 -1 5l-46 -28l-45 94l87 59v204q0 125 54.5 189t146.5 64q78 0 123.5 -47.5t45.5 -128.5q0 -83 -48 -154t-153 -159v-13q0 -34 19 -53.5t52 -19.5
q56 0 117 74z" />
    <glyph glyph-name="afii61352" unicode="&#x2116;" horiz-adv-x="992" 
d="M788 635h1q81 0 130 -49t49 -125q0 -90 -51 -135.5t-132 -45.5t-131.5 47t-50.5 128q0 82 50 131t135 49zM785 549h-1q-21 0 -32.5 -29.5t-11.5 -64.5q0 -38 12.5 -63.5t33.5 -25.5q45 0 45 92q0 38 -12 64.5t-34 26.5zM940 158h-308v84h308v-84zM216 0h-154v650h195
l79 -204q17 -42 79 -219h2q-12 118 -12 279v144h153v-650h-180l-86 216q-12 29 -25.5 67l-29.5 86t-25 72h-3q7 -142 7 -291v-150z" />
    <glyph glyph-name="trademark" unicode="&#x2122;" horiz-adv-x="663" 
d="M25 674h244v-76h-75v-197h-96v197h-73v76zM653 401h-91l-3 102q0 17 0.5 56t-0.5 63h-5l-24 -117l-19 -99h-89l-14 99q-13 91 -17 117h-5q-3 -114 -3 -119l-4 -102h-89l15 273h148l7 -38q2 -11 6.5 -41l8.5 -55h1q9 46 20 96l8 38h137z" />
    <glyph glyph-name="Omega" unicode="&#x2126;" horiz-adv-x="761" 
d="M598 139v-3h130v-136h-316v104q118 94 118 246q0 83 -41 137.5t-106 54.5q-66 0 -108.5 -54.5t-42.5 -138.5q0 -75 34.5 -145t84.5 -100v-104h-318v136h127v3q-47 37 -81 97t-34 138q0 129 95.5 220t246.5 91q152 0 240.5 -90t88.5 -209q0 -142 -118 -247z" />
    <glyph glyph-name="estimated" unicode="&#x212e;" horiz-adv-x="817" 
d="M782 316h-605q-5 0 -5 -4v-183q0 -10 9 -21q93 -99 229 -99q145 0 240 111h55q-52 -61 -130 -96t-166 -35q-155 0 -264.5 98.5t-109.5 237.5t109.5 237.5t264.5 98.5t264 -98.5t109 -237.5v-9zM646 340v184q0 12 -10 22q-95 95 -226 95q-133 0 -228 -98q-10 -10 -10 -23
v-180q0 -5 5 -5h464q5 0 5 5z" />
    <glyph glyph-name="partialdiff" unicode="&#x2202;" horiz-adv-x="375" 
d="M93 554l-51 121q92 59 208 59q136 0 224 -100.5t88 -261.5q0 -181 -88.5 -282t-222.5 -101q-109 0 -169.5 71.5t-60.5 156.5q0 107 60.5 178.5t162.5 71.5q90 0 139 -70h1v9q0 77 -42 130t-117 53q-68 0 -132 -35zM271 132h1q36 0 63 40.5t32 92.5q-4 22 -25.5 43
t-52.5 21q-39 0 -63 -33t-24 -82q0 -38 19.5 -60t49.5 -22z" />
    <glyph glyph-name="Delta" unicode="&#x2206;" horiz-adv-x="658" 
d="M609 0h-560v88l174 562h218l168 -561v-89zM416 146l-56 201q-12 46 -37 161h-4q-25 -119 -34 -154l-55 -208h186z" />
    <glyph glyph-name="product" unicode="&#x220f;" horiz-adv-x="684" 
d="M671 503h-93v-593h-166v593h-142v-593h-166v593h-93v147h660v-147z" />
    <glyph glyph-name="summation" unicode="&#x2211;" horiz-adv-x="559" 
d="M549 -90h-532v101l203 266l-192 256v117h498v-147h-270v-4l157 -215l-166 -222v-4h302v-148z" />
    <glyph glyph-name="minus" unicode="&#x2212;" horiz-adv-x="596" 
d="M40 321h516v-108h-516v108z" />
    <glyph glyph-name="uni2215" unicode="&#x2215;" horiz-adv-x="127" 
d="M-72 -11h-94l365 672h94z" />
    <glyph glyph-name="uni2219" unicode="&#x2219;" horiz-adv-x="283" 
d="M142 153h-1q-45 0 -73.5 29.5t-28.5 75.5t29 75.5t74 29.5t73.5 -29t29.5 -76q0 -47 -28.5 -76t-74.5 -29z" />
    <glyph glyph-name="radical" unicode="&#x221a;" horiz-adv-x="601" 
d="M627 845l-228 -918h-118l-158 404l-80 -31l-27 78l192 78l100 -276q6 -17 26 -89h1q0 1 7.5 36.5l12.5 57.5l154 660h118z" />
    <glyph glyph-name="infinity" unicode="&#x221e;" horiz-adv-x="763" 
d="M561 89h-1q-49 0 -90.5 26.5t-89.5 73.5q-2 -2 -17 -16t-18 -16.5t-16.5 -14.5t-19.5 -15t-19 -11.5t-22 -11.5l-22 -7.5t-26.5 -6t-27.5 -1.5q-75 0 -122 50t-47 125q0 72 49 124t128 52q50 0 92 -27t90 -74l16.5 16t18 16.5t17 14.5t19 15.5l18.5 12t22 11.5l22 7.5
t26.5 6t27.5 1.5q75 0 122 -50t47 -126q0 -72 -49 -123.5t-128 -51.5zM558 194h1q27 0 46.5 20.5t19.5 49.5q0 30 -18.5 50t-45.5 20q-19 0 -41 -12.5t-33 -22.5t-35 -34l17 -17.5t20.5 -20t20 -16t24.5 -13.5t24 -4zM201 194h1q8 0 16 1.5t17 7t15 8.5t16.5 12l14 12
t15.5 14.5l14 13.5l-17 17t-21 20t-20 16t-24.5 14t-23.5 4q-28 0 -47.5 -20.5t-19.5 -49.5q0 -30 18.5 -50t45.5 -20z" />
    <glyph glyph-name="integral" unicode="&#x222b;" horiz-adv-x="377" 
d="M370 806l-16 -106q-17 5 -37 5q-33 0 -48 -29q-18 -32 -18 -144q0 -75 8 -208.5t8 -224.5q0 -124 -30 -184q-46 -87 -148 -87q-49 0 -78 12l19 109q20 -6 40 -6q25 0 42 23q23 31 23 127q0 92 -8 230.5t-8 219.5q0 151 65 222q42 48 122 48q43 0 64 -7z" />
    <glyph glyph-name="approxequal" unicode="&#x2248;" horiz-adv-x="596" 
d="M514 444l65 -68q-28 -48 -71 -77t-95 -29q-48 0 -122 37q-6 2 -22.5 10t-26 12t-26 8t-32.5 4q-56 0 -109 -66l-58 72q69 101 168 101q15 0 29 -2t28.5 -7t21 -7.5t23 -10.5l18.5 -9l22 -10.5t26 -11.5t26 -8t32 -4q54 0 103 66zM518 225l62 -63q-28 -50 -72.5 -80
t-96.5 -30q-14 0 -27.5 2t-27.5 7l-22.5 8t-23.5 10t-19 9q-5 2 -22 10t-26.5 12t-26.5 8t-34 4q-55 0 -107 -65l-58 73q28 44 72.5 72t94.5 28q13 0 26 -2t22 -4t21 -6.5t17.5 -7l18.5 -8.5t16 -8q6 -2 22.5 -10t26 -12t26 -8t31.5 -4q62 0 107 65z" />
    <glyph glyph-name="notequal" unicode="&#x2260;" horiz-adv-x="596" 
d="M556 104h-309l-56 -92h-111l58 92h-98v108h167l70 111h-237v107h306l56 93h112l-59 -93h101v-107h-170l-70 -111h240v-108z" />
    <glyph glyph-name="lessequal" unicode="&#x2264;" horiz-adv-x="596" 
d="M541 126l-486 169v106l486 169v-117l-336 -104v-2l336 -105v-116zM541 0h-486v100h486v-100z" />
    <glyph glyph-name="greaterequal" unicode="&#x2265;" horiz-adv-x="596" 
d="M541 295l-486 -169v116l337 105v2l-337 104v117l486 -169v-106zM541 0h-486v100h486v-100z" />
    <glyph glyph-name="lozenge" unicode="&#x25ca;" horiz-adv-x="596" 
d="M558 324l-195 -365h-130l-195 365l195 365h130zM416 321l-104 208q-12 24 -15 34h-2q-9 -22 -16 -34l-100 -202l104 -208q11 -19 16 -33h2l7 14.5t8 18.5z" />
    <glyph glyph-name="G_tildecomb" unicode="&#xe000;" horiz-adv-x="697" 
d="M646 400v-368q-115 -39 -232 -39q-188 0 -284 91t-96 244q1 169 111.5 261t282.5 92q127 0 195 -33l-36 -144q-67 28 -160 28q-89 0 -146 -48.5t-57 -146.5q0 -93 53.5 -146t138.5 -53q40 0 56 6v116h-90v140h264zM326 714h-79q-2 69 19.5 104t61.5 35q29 0 65 -19
q31 -20 43 -20q13 0 18.5 9t8.5 35h78q4 -137 -84 -137q-31 0 -67 18q-31 18 -41 18q-20 0 -23 -43z" />
    <glyph glyph-name="M_uni0302" unicode="&#xe001;" horiz-adv-x="865" 
d="M640 0l-8 241q-4 157 -3 272h-3q-29 -122 -71 -264l-67 -235h-141l-57 234q-33 140 -53 265h-2l-11 -272l-10 -241h-166l41 674h243l45 -181q34 -142 52 -247h4q41 177 61 248l50 180h238l34 -674h-176zM365 836h135l99 -126h-121l-45 59h-2l-44 -59h-121z" />
    <glyph glyph-name="N_uni0302" unicode="&#xe002;" horiz-adv-x="705" 
d="M227 0h-165v674h213l107 -207q52 -95 106 -236h3q-14 125 -14 284v159h165v-674h-190l-114 224q-72 137 -114 244h-3q6 -137 6 -302v-166zM285 836h135l99 -126h-121l-45 59h-2l-44 -59h-121z" />
    <glyph glyph-name="g_tildecomb" unicode="&#xe005;" horiz-adv-x="596" 
d="M230 554h-83q-2 68 22 105.5t66 37.5q31 0 67 -20q32 -20 42 -20q13 0 18.5 9t7.5 36h80q4 -140 -88 -140q-31 0 -73 22q-27 16 -36 16q-22 0 -23 -46zM540 340v-268q0 -153 -76 -220q-72 -61 -208 -61q-111 0 -183 36l34 136q66 -35 142 -35q51 0 82.5 28t31.5 83v22h-2
q-43 -55 -123 -55q-91 0 -149 66.5t-58 172.5q0 114 64.5 186t158.5 72q86 0 127 -63h2l6 52h156q-5 -50 -5 -152zM360 223v66q0 9 -2 23q-13 56 -64 56q-34 0 -57 -32t-23 -88q0 -49 21.5 -80t58.5 -31q24 0 41 14t22 35q3 10 3 37z" />
    <glyph glyph-name="m_uni0302" unicode="&#xe006;" horiz-adv-x="871" 
d="M377 706h120l101 -156h-113l-47 84h-2l-47 -84h-114zM56 0v325q0 77 -4 167h151l7 -61h4q54 72 145 72q47 0 82 -20.5t51 -57.5h2q32 40 68 58q38 20 87 20q80 0 123.5 -55.5t43.5 -157.5v-290h-175v263q0 96 -58 96q-40 0 -55 -42q-5 -13 -5 -36v-281h-175v268
q0 91 -57 91q-38 0 -55 -41q-5 -11 -5 -36v-282h-175z" />
    <glyph glyph-name="n_uni0302" unicode="&#xe007;" horiz-adv-x="599" 
d="M240 706h120l101 -156h-113l-47 84h-2l-47 -84h-114zM56 0v325q0 77 -4 167h155l8 -63h4q19 28 56 51t91 23q86 0 131.5 -55.5t45.5 -157.5v-290h-180v268q0 90 -63 90q-41 0 -59 -43q-5 -11 -5 -36v-279h-180z" />
    <glyph glyph-name="zero.slashfitted" unicode="&#xe008;" horiz-adv-x="573" 
d="M203 271l140 217q-15 37 -56 37t-63.5 -51t-22.5 -149q0 -32 2 -54zM371 385l-142 -225q19 -36 57 -36q39 0 62.5 50t23.5 151q0 32 -1 60zM540 637l-55 -79q57 -86 57 -232q0 -151 -65 -244t-190 -93q-87 0 -148 48l-41 -60l-64 49l51 72q-54 88 -54 226q0 70 14.5 129
t44.5 106.5t80.5 74.5t117.5 27q87 0 142 -44l45 66z" />
    <glyph glyph-name="dong.alt" unicode="&#xe184;" horiz-adv-x="573" 
d="M337 680h150v-52h65v-83h-65v-279q0 -79 3 -115h-133l-7 49h-2q-36 -57 -119 -57q-71 0 -119.5 51.5t-48.5 135.5q0 89 51.5 141t125.5 52q70 0 97 -35h2v57h-115v83h115v52zM337 318v39q0 11 -1 16q-3 18 -20 31t-38 13q-33 0 -49.5 -23t-16.5 -60q0 -38 18 -59t47 -21
q21 0 38 12t19 29q3 7 3 23z" />
    <glyph glyph-name="breve_acutecomb" unicode="&#xe300;" 
d="M184 825h132l-129 -154h-91zM-12 678h83q4 -26 25 -41.5t54 -15.5q36 0 57 16t23 41h82q-3 -67 -47 -107.5t-116 -40.5q-71 0 -115 40.5t-46 107.5z" />
    <glyph glyph-name="breve_gravecomb" unicode="&#xe301;" 
d="M-14 825h132l88 -154h-91zM-12 678h83q4 -26 25 -41.5t54 -15.5q36 0 57 16t23 41h82q-3 -67 -47 -107.5t-116 -40.5q-71 0 -115 40.5t-46 107.5z" />
    </font>
</defs>
</svg>
